  0
SECTION
  2
HEADER
  9
$ACADVER
  1
AC1015
  9
$ACADMAINTVER
 70
    20
  9
$DWGCODEPAGE
  3
ANSI_1252
  9
$INSBASE
 10
0.0
 20
0.0
 30
0.0
  9
$EXTMIN
 10
809.2046072940018
 20
586.3044374661485
 30
0.0
  9
$EXTMAX
 10
1092.754449809229
 20
676.3291972777433
 30
0.0
  9
$LIMMIN
 10
0.0
 20
0.0
  9
$LIMMAX
 10
420.0
 20
297.0
  9
$ORTHOMODE
 70
     1
  9
$REGENMODE
 70
     1
  9
$FILLMODE
 70
     1
  9
$QTEXTMODE
 70
     0
  9
$MIRRTEXT
 70
     1
  9
$LTSCALE
 40
1.0
  9
$ATTMODE
 70
     1
  9
$TEXTSIZE
 40
2.0
  9
$TRACEWID
 40
1.0
  9
$TEXTSTYLE
  7
STANDARD
  9
$CLAYER
  8
DIM
  9
$CELTYPE
  6
ByLayer
  9
$CECOLOR
 62
   256
  9
$CELTSCALE
 40
1.0
  9
$DISPSILH
 70
     0
  9
$DIMSCALE
 40
1.0
  9
$DIMASZ
 40
3.0
  9
$DIMEXO
 40
1.0
  9
$DIMDLI
 40
1.0
  9
$DIMRND
 40
0.0
  9
$DIMDLE
 40
0.0
  9
$DIMEXE
 40
1.0
  9
$DIMTP
 40
0.0
  9
$DIMTM
 40
0.000000001
  9
$DIMTXT
 40
3.0
  9
$DIMCEN
 40
-0.05
  9
$DIMTSZ
 40
0.0
  9
$DIMTOL
 70
     0
  9
$DIMLIM
 70
     0
  9
$DIMTIH
 70
     0
  9
$DIMTOH
 70
     0
  9
$DIMSE1
 70
     0
  9
$DIMSE2
 70
     0
  9
$DIMTAD
 70
     1
  9
$DIMZIN
 70
     8
  9
$DIMBLK
  1

  9
$DIMASO
 70
     1
  9
$DIMSHO
 70
     1
  9
$DIMPOST
  1

  9
$DIMAPOST
  1

  9
$DIMALT
 70
     0
  9
$DIMALTD
 70
     2
  9
$DIMALTF
 40
25.4
  9
$DIMLFAC
 40
1.0
  9
$DIMTOFL
 70
     1
  9
$DIMTVP
 40
5.0
  9
$DIMTIX
 70
     0
  9
$DIMSOXD
 70
     0
  9
$DIMSAH
 70
     0
  9
$DIMBLK1
  1

  9
$DIMBLK2
  1

  9
$DIMSTYLE
  2
STANDARD
  9
$DIMCLRD
 70
     3
  9
$DIMCLRE
 70
     3
  9
$DIMCLRT
 70
     6
  9
$DIMTFAC
 40
0.8
  9
$DIMGAP
 40
1.0
  9
$DIMJUST
 70
     0
  9
$DIMSD1
 70
     0
  9
$DIMSD2
 70
     0
  9
$DIMTOLJ
 70
     1
  9
$DIMTZIN
 70
     8
  9
$DIMALTZ
 70
     0
  9
$DIMALTTZ
 70
     0
  9
$DIMUPT
 70
     0
  9
$DIMDEC
 70
     2
  9
$DIMTDEC
 70
     2
  9
$DIMALTU
 70
     2
  9
$DIMALTTD
 70
     2
  9
$DIMTXSTY
  7
STANDARD
  9
$DIMAUNIT
 70
     0
  9
$DIMADEC
 70
     0
  9
$DIMALTRND
 40
0.0
  9
$DIMAZIN
 70
     0
  9
$DIMDSEP
 70
    46
  9
$DIMATFIT
 70
     3
  9
$DIMFRAC
 70
     0
  9
$DIMLDRBLK
  1

  9
$DIMLUNIT
 70
     2
  9
$DIMLWD
 70
    -1
  9
$DIMLWE
 70
    -2
  9
$DIMTMOVE
 70
     0
  9
$LUNITS
 70
     2
  9
$LUPREC
 70
     2
  9
$SKETCHINC
 40
1.0
  9
$FILLETRAD
 40
1.5
  9
$AUNITS
 70
     0
  9
$AUPREC
 70
     0
  9
$MENU
  1
.
  9
$ELEVATION
 40
0.0
  9
$PELEVATION
 40
0.0
  9
$THICKNESS
 40
0.0
  9
$LIMCHECK
 70
     0
  9
$CHAMFERA
 40
3.0
  9
$CHAMFERB
 40
3.0
  9
$CHAMFERC
 40
3.5
  9
$CHAMFERD
 40
0.7853981633974483
  9
$SKPOLY
 70
     0
  9
$TDCREATE
 40
2453787.436149942
  9
$TDUCREATE
 40
2453787.352816609
  9
$TDUPDATE
 40
2453944.468902466
  9
$TDUUPDATE
 40
2453944.385569132
  9
$TDINDWG
 40
1.1734901157
  9
$TDUSRTIMER
 40
1.1726380324
  9
$USRTIMER
 70
     1
  9
$ANGBASE
 50
0.0
  9
$ANGDIR
 70
     0
  9
$PDMODE
 70
     0
  9
$PDSIZE
 40
0.0
  9
$PLINEWID
 40
0.0
  9
$SPLFRAME
 70
     0
  9
$SPLINETYPE
 70
     6
  9
$SPLINESEGS
 70
     8
  9
$HANDSEED
  5
72A6
  9
$SURFTAB1
 70
     6
  9
$SURFTAB2
 70
     6
  9
$SURFTYPE
 70
     6
  9
$SURFU
 70
     6
  9
$SURFV
 70
     6
  9
$UCSBASE
  2

  9
$UCSNAME
  2

  9
$UCSORG
 10
0.0
 20
0.0
 30
0.0
  9
$UCSXDIR
 10
1.0
 20
0.0
 30
0.0
  9
$UCSYDIR
 10
0.0
 20
1.0
 30
0.0
  9
$UCSORTHOREF
  2

  9
$UCSORTHOVIEW
 70
     0
  9
$UCSORGTOP
 10
0.0
 20
0.0
 30
0.0
  9
$UCSORGBOTTOM
 10
0.0
 20
0.0
 30
0.0
  9
$UCSORGLEFT
 10
0.0
 20
0.0
 30
0.0
  9
$UCSORGRIGHT
 10
0.0
 20
0.0
 30
0.0
  9
$UCSORGFRONT
 10
0.0
 20
0.0
 30
0.0
  9
$UCSORGBACK
 10
0.0
 20
0.0
 30
0.0
  9
$PUCSBASE
  2

  9
$PUCSNAME
  2

  9
$PUCSORG
 10
0.0
 20
0.0
 30
0.0
  9
$PUCSXDIR
 10
1.0
 20
0.0
 30
0.0
  9
$PUCSYDIR
 10
0.0
 20
1.0
 30
0.0
  9
$PUCSORTHOREF
  2

  9
$PUCSORTHOVIEW
 70
     0
  9
$PUCSORGTOP
 10
0.0
 20
0.0
 30
0.0
  9
$PUCSORGBOTTOM
 10
0.0
 20
0.0
 30
0.0
  9
$PUCSORGLEFT
 10
0.0
 20
0.0
 30
0.0
  9
$PUCSORGRIGHT
 10
0.0
 20
0.0
 30
0.0
  9
$PUCSORGFRONT
 10
0.0
 20
0.0
 30
0.0
  9
$PUCSORGBACK
 10
0.0
 20
0.0
 30
0.0
  9
$USERI1
 70
     0
  9
$USERI2
 70
     0
  9
$USERI3
 70
     0
  9
$USERI4
 70
     0
  9
$USERI5
 70
     0
  9
$USERR1
 40
0.0
  9
$USERR2
 40
0.0
  9
$USERR3
 40
0.0
  9
$USERR4
 40
0.0
  9
$USERR5
 40
0.0
  9
$WORLDVIEW
 70
     1
  9
$SHADEDGE
 70
     3
  9
$SHADEDIF
 70
    70
  9
$TILEMODE
 70
     0
  9
$MAXACTVP
 70
    64
  9
$PINSBASE
 10
0.0
 20
0.0
 30
0.0
  9
$PLIMCHECK
 70
     0
  9
$PEXTMIN
 10
0.0009154015513104
 20
0.0005791177154606
 30
0.0
  9
$PEXTMAX
 10
282.0457558342515
 20
196.1105791177017
 30
0.0
  9
$PLIMMIN
 10
-7.462201817038192
 20
-6.938993921297765
  9
$PLIMMAX
 10
289.5273001360868
 20
203.0554976558507
  9
$UNITMODE
 70
     0
  9
$VISRETAIN
 70
     1
  9
$PLINEGEN
 70
     0
  9
$PSLTSCALE
 70
     1
  9
$TREEDEPTH
 70
  3020
  9
$CMLSTYLE
  2
Standard
  9
$CMLJUST
 70
     0
  9
$CMLSCALE
 40
1.0
  9
$PROXYGRAPHICS
 70
     1
  9
$MEASUREMENT
 70
     1
  9
$CELWEIGHT
370
    -1
  9
$ENDCAPS
280
     0
  9
$JOINSTYLE
280
     0
  9
$LWDISPLAY
290
     0
  9
$INSUNITS
 70
     4
  9
$HYPERLINKBASE
  1

  9
$STYLESHEET
  1

  9
$XEDIT
290
     1
  9
$CEPSNTYPE
380
     0
  9
$PSTYLEMODE
290
     1
  9
$FINGERPRINTGUID
  2
{65A8C6A1-B973-4B90-93E8-5CEEA7DDEAA7}
  9
$VERSIONGUID
  2
{57475B84-C318-4D5C-8CEE-8DF474D44FEA}
  9
$EXTNAMES
290
     1
  9
$PSVPSCALE
 40
1.0
  9
$OLESTARTUP
290
     0
  0
ENDSEC
  0
SECTION
  2
CLASSES
  0
CLASS
  1
ACDBDICTIONARYWDFLT
  2
AcDbDictionaryWithDefault
  3
ObjectDBX Classes
 90
        0
280
     0
281
     0
  0
CLASS
  1
ACDBPLACEHOLDER
  2
AcDbPlaceHolder
  3
ObjectDBX Classes
 90
        0
280
     0
281
     0
  0
CLASS
  1
LAYOUT
  2
AcDbLayout
  3
ObjectDBX Classes
 90
        0
280
     0
281
     0
  0
CLASS
  1
ACME_DOCUMENT
  2
AcMeDbDoc
  3
AcMeServices
 90
        0
280
     0
281
     0
  0
CLASS
  1
AMGSETTINGSOBJ
  2
AmgSettingsObj
  3
"AcadM|Product Description: AutoCAD Mechanical 2000|Company: Autodesk"
 90
        0
280
     0
281
     0
  0
CLASS
  1
ACMESCOPE
  2
AcMeScope
  3
AcMeServices
 90
        0
280
     0
281
     0
  0
CLASS
  1
ACMECOMMANDHISTORY
  2
AcMeCommandHistory
  3
AcMeServices
 90
        0
280
     0
281
     0
  0
CLASS
  1
ACIMSYSVARMAN
  2
AcImSysVarManager
  3
AcMeServices
 90
        0
280
     0
281
     0
  0
CLASS
  1
ACIMREALSYSVAR
  2
AcImRealSysVar
  3
AcMeServices
 90
        0
280
     0
281
     0
  0
CLASS
  1
ACIMINTSYSVAR
  2
AcImIntSysVar
  3
AcMeServices
 90
        0
280
     0
281
     0
  0
CLASS
  1
ACMEDRAWINGMAN
  2
AcMeDrawingMan
  3
AcMeServices
 90
        0
280
     0
281
     0
  0
CLASS
  1
ACMEVIEW
  2
AcMeView
  3
AcMeServices
 90
        0
280
     0
281
     0
  0
CLASS
  1
ACDBENTITYCACHE
  2
AcMeEntityCache
  3
AcMeServices
 90
        0
280
     0
281
     0
  0
CLASS
  1
GSMANAGER
  2
AcMeGSManager
  3
AcMeServices
 90
        0
280
     0
281
     0
  0
CLASS
  1
AMDTINTERNALREACTOR
  2
AmdtInternalReactor
  3
AcMeServices
 90
        0
280
     0
281
     0
  0
CLASS
  1
ACMESTATEMGR
  2
AcMeStateMgr
  3
AcMeServices
 90
        0
280
     0
281
     0
  0
CLASS
  1
ACGREFMASTER
  2
AcGrefMaster
  3
AcAttribServices
 90
        0
280
     0
281
     0
  0
CLASS
  1
ACME_DATABASE
  2
AcMeDbDatabase
  3
AcMeServices
 90
        0
280
     0
281
     0
  0
CLASS
  1
ACRFINSADJUSTERMGR
  2
AcRfInsAdjusterMgr
  3
AcMeServices
 90
        0
280
     0
281
     0
  0
CLASS
  1
ACGREFACADMASTER
  2
AcGrefacadMaster
  3
AcGrefServices
 90
        0
280
     0
281
     0
  0
CLASS
  1
AMIMASTER
  2
AmiMaster
  3
AmiServices
 90
        0
280
     0
281
     0
  0
CLASS
  1
ACMDATADICTIONARY
  2
AcmDataDictionary
  3
"AcmSymBB|Product Description: AutoCAD Mechanical 2004 DX|Company: Autodesk"
 90
        0
280
     0
281
     0
  0
CLASS
  1
ACMDATAENTRYBLOCK
  2
AcmDataEntryBlock
  3
"AcmSymBB|Product Description: AutoCAD Mechanical 2004 DX|Company: Autodesk"
 90
        0
280
     0
281
     0
  0
CLASS
  1
ACIMSTRSYSVAR
  2
AcImStrSysVar
  3
AcMeServices
 90
        0
280
     0
281
     0
  0
CLASS
  1
ACMSTANDARDISO
  2
AcmStandardISO
  3
"Amdt_StdImp|Product Description: AutoCAD Mechanical 2004 DX|Company: Autodesk"
 90
        0
280
     0
281
     0
  0
CLASS
  1
AMGOBJPROPCFG
  2
AmgObjPropCfg
  3
"AmgLay|Product Description: AutoCAD Mechanical 2000|Company: Autodesk"
 90
        1
280
     0
281
     0
  0
CLASS
  1
AMDTEDGESTANDARDISO
  2
AmdtEdgeStdISO
  3
"Amdt_StdImp|Product Description: AutoCAD Mechanical 2004 DX|Company: Autodesk"
 90
        0
280
     0
281
     0
  0
CLASS
  1
ACMSURFSTANDARDISO
  2
AcmSurfTextStdISO
  3
"Amdt_StdImp|Product Description: AutoCAD Mechanical 2004 DX|Company: Autodesk"
 90
        0
280
     0
281
     0
  0
CLASS
  1
ACMFCFSTANDARDISO
  2
AcmFCFStdISO
  3
"Amdt_StdImp|Product Description: AutoCAD Mechanical 2004 DX|Company: Autodesk"
 90
        0
280
     0
281
     0
  0
CLASS
  1
ACMWELDSTANDARDISO
  2
AcmWeldingStdISO
  3
"Amdt_StdImp|Product Description: AutoCAD Mechanical 2004 DX|Company: Autodesk"
 90
        0
280
     0
281
     0
  0
CLASS
  1
ACMIDSTANDARDISO
  2
AcmIdStdISO
  3
"Amdt_StdImp|Product Description: AutoCAD Mechanical 2004 DX|Company: Autodesk"
 90
        0
280
     0
281
     0
  0
CLASS
  1
ACMDATUMSTANDARDISO
  2
AcmDatumStdISO
  3
"Amdt_StdImp|Product Description: AutoCAD Mechanical 2004 DX|Company: Autodesk"
 90
        0
280
     0
281
     0
  0
CLASS
  1
ACMBOMSTANDARDISO
  2
AcmBOMStdISO
  3
"Amdt_StdImp|Product Description: AutoCAD Mechanical 2004 DX|Company: Autodesk"
 90
        0
280
     0
281
     0
  0
CLASS
  1
ACMDETAILSTANDARDISO
  2
AmdtDetailSymStdISO
  3
"Amdt_StdImp|Product Description: AutoCAD Mechanical 2004 DX|Company: Autodesk"
 90
        0
280
     0
281
     0
  0
CLASS
  1
ACMSECTIONSTANDARDISO
  2
AmdtSectionSymStdISO
  3
"Amdt_StdImp|Product Description: AutoCAD Mechanical 2004 DX|Company: Autodesk"
 90
        0
280
     0
281
     0
  0
CLASS
  1
ACMCENTERLINESTANDARDISO
  2
AmdtCenterLineStdISO
  3
"Amdt_StdImp|Product Description: AutoCAD Mechanical 2004 DX|Company: Autodesk"
 90
        0
280
     0
281
     0
  0
CLASS
  1
ACMNOTESTANDARDISO
  2
AmdtNoteStdISO
  3
"Amdt_StdImp|Product Description: AutoCAD Mechanical 2004 DX|Company: Autodesk"
 90
        0
280
     0
281
     0
  0
CLASS
  1
ACAMGLAYSTD
  2
AcAmgLayStd
  3
"AcAmgLayStd|Product Description: AutoCAD Mechanical 2000|Company: Autodesk"
 90
        0
280
     0
281
     0
  0
CLASS
  1
ACAMGDIMSTD
  2
AcAmgDimStd
  3
"AcAmgDimStd|Product Description: AutoCAD Mechanical 2000|Company: Autodesk"
 90
        0
280
     0
281
     0
  0
CLASS
  1
ACAMGHOLECHARTSTDISO
  2
AcAmgHoleChartStdISO
  3
ACMSYMBB_MODULE_NAME
 90
        0
280
     0
281
     0
  0
CLASS
  1
ACAMGTITLESTD
  2
AcAmgTitleStd
  3
"TITLEAPP"
 90
        0
280
     0
281
     0
  0
CLASS
  1
LAYER_INDEX
  2
AcDbLayerIndex
  3
ObjectDBX Classes
 90
    32768
280
     0
281
     0
  0
CLASS
  1
IDBUFFER
  2
AcDbIdBuffer
  3
ObjectDBX Classes
 90
    32768
280
     0
281
     0
  0
CLASS
  1
DICTIONARYVAR
  2
AcDbDictionaryVar
  3
ObjectDBX Classes
 90
        0
280
     0
281
     0
  0
CLASS
  1
AM_DRAWING_MGR
  2
AcDmDwgMgr
  3
AcMechDwgViewMgmt
 90
        0
280
     0
281
     0
  0
CLASS
  1
AM_DWG_DOCUMENT
  2
AcDmDwgDocument
  3
AcMechDwgViewMgmt
 90
        0
280
     0
281
     0
  0
CLASS
  1
AM_DWG_SHEET
  2
AcDmSheet
  3
AcMechDwgViewMgmt
 90
        0
280
     0
281
     0
  0
CLASS
  1
AM_VIEWDIMPARMAP
  2
AcDmViewDimParMap
  3
AcMechDwgViewMgmt
 90
        0
280
     0
281
     0
  0
CLASS
  1
AM_DWGMGR_NAME
  2
AcDmDwgMgrName
  3
AcMechDwgViewMgmt
 90
        0
280
     0
281
     0
  0
CLASS
  1
AMDTMENUSTATEMGR
  2
AmdtMenuStateMgr
  3
McadcomServices
 90
        0
280
     0
281
     0
  0
CLASS
  1
AMDTMCOMMENUSTATE
  2
AmdtMcomMenuState
  3
McadcomServices
 90
        0
280
     0
281
     0
  0
CLASS
  1
MAPIAMMOUDLE
  2
MApiAmModule
  3
MApiAmServices
 90
        0
280
     0
281
     0
  0
CLASS
  1
AMDTADMENUSTATE
  2
AmdtAdMenuState
  3
DesignerServices
 90
        0
280
     0
281
     0
  0
CLASS
  1
ADAPPL
  2
AcAdAppl
  3
DesignerServices
 90
        0
280
     0
281
     0
  0
CLASS
  1
DEPMGR
  2
AcAdDepMgr
  3
DesignerServices
 90
        0
280
     0
281
     0
  0
CLASS
  1
PARAMMGR
  2
AcAdParamMgr
  3
DesignerServices
 90
        0
280
     0
281
     0
  0
CLASS
  1
PARAMSCOPE
  2
AcAdParamScope
  3
DesignerServices
 90
        0
280
     0
281
     0
  0
CLASS
  1
NAMEDAPPL
  2
AcAdNamedAppl
  3
DesignerServices
 90
        0
280
     0
281
     0
  0
CLASS
  1
AMDTDMMENUSTATE
  2
AmdtDmMenuState
  3
AcMechDwgViewMgmt
 90
        0
280
     0
281
     0
  0
CLASS
  1
AMDTAMMENUSTATE
  2
AmdtAmMenuState
  3
DesignerAssemblies
 90
        0
280
     0
281
     0
  0
CLASS
  1
ACAMPROJECT
  2
AcAmProject
  3
DesignerAssemblies
 90
        0
280
     0
281
     0
  0
CLASS
  1
ACAMGRCOMPDEF
  2
AcAmGrCompDef
  3
DesignerAssemblies
 90
        0
280
     0
281
     0
  0
CLASS
  1
ACCMCONTEXT
  2
AcCmContext
  3
DesignerAssemblies
 90
        0
280
     0
281
     0
  0
CLASS
  1
ACAMCOMPDEF
  2
AcAmCompDef
  3
DesignerAssemblies
 90
        0
280
     0
281
     0
  0
CLASS
  1
ACAMCOMPDEFMGR
  2
AcAmCompDefMgr
  3
DesignerAssemblies
 90
        0
280
     0
281
     0
  0
CLASS
  1
AMCONTEXTMGR
  2
AcAmContextMgr
  3
DesignerAssemblies
 90
        0
280
     0
281
     0
  0
CLASS
  1
ACAMCONTEXTMODELER
  2
AcAmContextModeler
  3
DesignerAssemblies
 90
        0
280
     0
281
     0
  0
CLASS
  1
ACMTHREADLINESTANDARDISO
  2
AmdtThreadLineStdISO
  3
"Amdt_StdImp|Product Description: AutoCAD Mechanical 2004 DX|Company: Autodesk"
 90
        0
280
     0
281
     0
  0
CLASS
  1
CATALOGSTATE
  2
AcAmCatalogState
  3
DesignerAssemblies
 90
        0
280
     0
281
     0
  0
CLASS
  1
ACAMGRCOMPDEFSET
  2
AcAmGrCompDefSet
  3
DesignerAssemblies
 90
        0
280
     0
281
     0
  0
CLASS
  1
AMDTBROWSERDBTAB
  2
AmdtBrowserDbTab
  3
McadcomServices
 90
        0
280
     0
281
     0
  0
CLASS
  1
CBROWSERAPPOBJECT
  2
CBrowserAppObject
  3
McadcomServices
 90
        0
280
     0
281
     0
  0
CLASS
  1
DM_PLACEHOLDER
  2
AcDmSelsetPlaceholder
  3
AcMechDwgViewMgmt
 90
        0
280
     0
281
     0
  0
CLASS
  1
TABLESTYLE
  2
AcDbTableStyle
  3
ObjectDBX Classes
 90
     2047
280
     0
281
     0
  0
CLASS
  1
VAACXREFPANELOBJECT
  2
VaAcXREFPanelObject
  3
VAAC_ADDIN
 90
    32768
280
     0
281
     0
  0
CLASS
  1
VAACIMAGEINVENTORY
  2
VaAcImageInventory
  3
VAAC_ADDIN
 90
    32768
280
     0
281
     0
  0
CLASS
  1
AMDTNOTETEMPLATEDB
  2
AmdtNoteTemplateDB
  3
AMDT_STDIMP_MODULE_NAME
 90
        0
280
     0
281
     0
  0
CLASS
  1
ACAMGFILTERDAT
  2
AcAmgFilterDat
  3
"AcadM|Product Description: AutoCAD Mechanical 2000|Company: Autodesk"
 90
        0
280
     0
281
     0
  0
CLASS
  1
ACMBOM
  2
AcmBom
  3
"AcmSymBB|Product Description: AutoCAD Mechanical 2004 DX|Company: Autodesk"
 90
    32768
280
     0
281
     0
  0
CLASS
  1
AMDTFORMULAUPDATEDISPATCHER
  2
AmdtFormulaUpdateDispatcher
  3
AcMeServices
 90
        0
280
     0
281
     0
  0
CLASS
  1
DIMASSOC
  2
AcDbDimAssoc
  3
"AcDbDimAssoc|Product Desc:     AcDim ARX App For Dimension|Company:          Autodesk, Inc.|WEB Address:      www.autodesk.com"
 90
        0
280
     0
281
     0
  0
CLASS
  1
SORTENTSTABLE
  2
AcDbSortentsTable
  3
ObjectDBX Classes
 90
        0
280
     0
281
     0
  0
CLASS
  1
STDPART2D
  2
AmgStdPart
  3
"AmgStdPart|Product Description: AutoCAD Mechanical 2000|Company: Autodesk"
 90
    33791
280
     0
281
     1
  0
CLASS
  1
ACAMSTDPCOMPDEF
  2
AcAmStdpCompDef
  3
DesignerAssemblies
 90
    32768
280
     0
281
     0
  0
CLASS
  1
ACRFATTGENMGR
  2
AcRfAttGeneralMgr
  3
AcAttribServices
 90
        0
280
     0
281
     0
  0
CLASS
  1
ACRFOBJATTMGR
  2
AcRfObjAttGroupMgr
  3
AcAttribServices
 90
    32768
280
     0
281
     0
  0
CLASS
  1
ACRFMCADAPIATTHOLDER
  2
AcRfMCADAPIAttHolder
  3
AcAttribServices
 90
    32768
280
     0
281
     0
  0
CLASS
  1
AMDTSYSATTR
  2
AmdtSystemAttribute
  3
AcAttribServices
 90
    32768
280
     0
281
     0
  0
CLASS
  1
ACAMCOMP
  2
AcAmComp
  3
DesignerAssemblies
 90
    32768
280
     0
281
     0
  0
CLASS
  1
AC_AM_STDP_VIEW_DEF
  2
AcAmStdpViewDef
  3
DesignerAssemblies
 90
    32768
280
     0
281
     0
  0
CLASS
  1
AC_AM_MVD_DEP_MGR
  2
AcAmMVDdepMgr
  3
DesignerAssemblies
 90
        0
280
     0
281
     0
  0
CLASS
  1
AC_AM_MASTER_VIEW_DEF
  2
AcAmMasterViewDef
  3
DesignerAssemblies
 90
        0
280
     0
281
     0
  0
CLASS
  1
AC_AM_DIRTY_NODES
  2
AcAmDirtyNodes
  3
DesignerAssemblies
 90
        0
280
     0
281
     0
  0
CLASS
  1
AC_AM_MAPPER_CACHE
  2
AcAmMapperCache
  3
DesignerAssemblies
 90
        0
280
     0
281
     0
  0
CLASS
  1
ACAMMVDBACKUPOBJECT
  2
AcAmMVDBackupObject
  3
DesignerAssemblies
 90
        0
280
     0
281
     0
  0
CLASS
  1
AC_AM_COMP_VIEW_INST
  2
AcAmCompView
  3
DesignerAssemblies
 90
    32768
280
     0
281
     0
  0
CLASS
  1
AC_AM_2D_XREF_MGR
  2
AcAmXrefMgr2d
  3
DesignerAssemblies
 90
        0
280
     0
281
     0
  0
CLASS
  1
AC_AM_HIDE_SITUATION
  2
AcAmHideSituation
  3
DesignerAssemblies
 90
    32768
280
     0
281
     0
  0
CLASS
  1
ACAMGHOLECHARTORIGIN
  2
AcAmgHoleChartOrigin
  3
ACMSYMBB_MODULE_NAME
 90
    33663
280
     0
281
     1
  0
CLASS
  1
ACDBCIRCARCRES
  2
AcDbCircArcRes
  3
AcGrefServices
 90
        0
280
     0
281
     0
  0
CLASS
  1
AMDTNOTE
  2
AmdtNote
  3
"AcmSymBB|Product Description: AutoCAD Mechanical 2004 DX|Company: Autodesk"
 90
     1023
280
     0
281
     1
  0
CLASS
  1
ACMDATAENTRYPART
  2
AcmDataEntryPart
  3
"AcmSymBB|Product Description: AutoCAD Mechanical 2004 DX|Company: Autodesk"
 90
    32768
280
     0
281
     0
  0
CLASS
  1
ACMPARTREF
  2
AcmPartRef
  3
"AcmSymBB|Product Description: AutoCAD Mechanical 2004 DX|Company: Autodesk"
 90
    33791
280
     0
281
     1
  0
CLASS
  1
ACMPARTLIST
  2
AcmPartList
  3
"AcmSymBB|Product Description: AutoCAD Mechanical 2004 DX|Company: Autodesk"
 90
    33791
280
     0
281
     1
  0
CLASS
  1
AMDTSECTIONSYM
  2
AmdtSectionSym
  3
"AcmSymBB|Product Description: AutoCAD Mechanical 2004 DX|Company: Autodesk"
 90
    33791
280
     0
281
     1
  0
CLASS
  1
AMDTSECTIONSYMLABEL
  2
AmdtSectionSymLabel
  3
"AcmSymBB|Product Description: AutoCAD Mechanical 2004 DX|Company: Autodesk"
 90
    33791
280
     0
281
     1
  0
ENDSEC
  0
SECTION
  2
TABLES
  0
TABLE
  2
VPORT
  5
8
330
0
100
AcDbSymbolTable
 70
     1
  0
VPORT
  5
720C
330
8
100
AcDbSymbolTableRecord
100
AcDbViewportTableRecord
  2
*Active
 70
     0
 10
0.0
 20
0.0
 11
1.0
 21
1.0
 12
1052.608759328053
 22
642.8669799428002
 13
0.0
 23
0.0
 14
2.5
 24
2.5
 15
10.0
 25
10.0
 16
0.0
 26
0.0
 36
1.0
 17
0.0
 27
0.0
 37
0.0
 40
339.9933761436454
 41
1.577075098814229
 42
50.0
 43
0.0
 44
0.0
 50
0.0
 51
0.0
 71
     0
 72
   100
 73
     1
 74
     3
 75
     0
 76
     1
 77
     0
 78
     0
281
     0
 65
     1
110
0.0
120
0.0
130
0.0
111
1.0
121
0.0
131
0.0
112
0.0
122
1.0
132
0.0
 79
     0
146
0.0
  0
ENDTAB
  0
TABLE
  2
LTYPE
  5
5
330
0
100
AcDbSymbolTable
 70
    15
  0
LTYPE
  5
14
330
5
100
AcDbSymbolTableRecord
100
AcDbLinetypeTableRecord
  2
ByBlock
 70
     0
  3

 72
    65
 73
     0
 40
0.0
  0
LTYPE
  5
15
330
5
100
AcDbSymbolTableRecord
100
AcDbLinetypeTableRecord
  2
ByLayer
 70
     0
  3

 72
    65
 73
     0
 40
0.0
  0
LTYPE
  5
16
330
5
100
AcDbSymbolTableRecord
100
AcDbLinetypeTableRecord
  2
Continuous
 70
     0
  3
Solid line
 72
    65
 73
     0
 40
0.0
  0
LTYPE
  5
64
330
5
100
AcDbSymbolTableRecord
100
AcDbLinetypeTableRecord
  2
AM_ISO02W050
 70
     0
  3
__ __ __ __ __ __ __ __ __ __ __ __ __ __ __
 72
    65
 73
     2
 40
7.5
 49
6.0
 74
     0
 49
-1.5
 74
     0
  0
LTYPE
  5
65
330
5
100
AcDbSymbolTableRecord
100
AcDbLinetypeTableRecord
  2
AM_ISO08W050
 70
     0
  3
____ . ____ . ____ . ____ . ____ . ____ . ____
 72
    65
 73
     4
 40
18.0
 49
12.0
 74
     0
 49
-1.5
 74
     0
 49
3.0
 74
     0
 49
-1.5
 74
     0
  0
LTYPE
  5
66
330
5
100
AcDbSymbolTableRecord
100
AcDbLinetypeTableRecord
  2
AM_ISO09W050
 70
     0
  3
_____ . . _____ . . _____ . . ____ .. ____
 72
    65
 73
     6
 40
22.5
 49
12.0
 74
     0
 49
-1.5
 74
     0
 49
3.0
 74
     0
 49
-1.5
 74
     0
 49
3.0
 74
     0
 49
-1.5
 74
     0
  0
LTYPE
  5
67
330
5
100
AcDbSymbolTableRecord
100
AcDbLinetypeTableRecord
  2
Amconstr
 70
     0
  3
_______________________
 72
    65
 73
     2
 40
9999.0
 49
9999.0
 74
     0
 49
0.0
 74
     0
  0
LTYPE
  5
68
330
5
100
AcDbSymbolTableRecord
100
AcDbLinetypeTableRecord
  2
AM_ISO08W050x2
 70
     0
  3
__ . __ . __ . __ . __ . __
 72
    65
 73
     4
 40
9.0
 49
6.0
 74
     0
 49
-0.75
 74
     0
 49
1.5
 74
     0
 49
-0.75
 74
     0
  0
LTYPE
  5
69
330
5
100
AcDbSymbolTableRecord
100
AcDbLinetypeTableRecord
  2
AM_ISO02W050x2
 70
     0
  3
 _ _ _ _ _ _ _ _ _ _ _ _
 72
    65
 73
     2
 40
3.75
 49
3.0
 74
     0
 49
-0.75
 74
     0
  0
LTYPE
  5
6C
330
5
100
AcDbSymbolTableRecord
100
AcDbLinetypeTableRecord
  2
Amzigzag
 70
     0
  3
/\/-/\/-/\/-/\/-/\/-/\/
 72
    65
 73
     2
 40
11.0001
 49
0.0001
 74
     4
 75
   136
340
22C
 46
0.04
 50
0.0
 44
0.0
 45
0.0
 49
-11.0
 74
     0
  0
LTYPE
  5
7A
330
5
100
AcDbSymbolTableRecord
100
AcDbLinetypeTableRecord
  2
ACISOWELD
 70
     0
  3
_ _ _ _ _
 72
    65
 73
     2
 40
2.0
 49
2.0
 74
     0
 49
-1.0
 74
     0
  0
LTYPE
  5
7B
330
5
100
AcDbSymbolTableRecord
100
AcDbLinetypeTableRecord
  2
ACISOTGB
 70
     0
  3
__ . . __ . .
 72
    65
 73
     6
 40
9.0
 49
4.0
 74
     0
 49
-1.0
 74
     0
 49
1.0
 74
     0
 49
-1.0
 74
     0
 49
1.0
 74
     0
 49
-1.0
 74
     0
  0
LTYPE
  5
7C
330
5
100
AcDbSymbolTableRecord
100
AcDbLinetypeTableRecord
  2
ACISOTGL
 70
     0
  3
_ _ _ _ _
 72
    65
 73
     2
 40
3.0
 49
2.0
 74
     0
 49
-1.0
 74
     0
  0
LTYPE
  5
7E
330
5
100
AcDbSymbolTableRecord
100
AcDbLinetypeTableRecord
  2
CENTER
 70
     0
  3
__ . __
 72
    65
 73
     4
 40
7.0
 49
4.0
 74
     0
 49
-1.0
 74
     0
 49
1.0
 74
     0
 49
-1.0
 74
     0
  0
LTYPE
  5
D8
330
5
100
AcDbSymbolTableRecord
100
AcDbLinetypeTableRecord
  2
HIDDEN
 70
     0
  3
Hidden __ __ __ __ __ __ __ __ __ __ __ __ __ _
 72
    65
 73
     2
 40
9.524999999999998
 49
6.349999999999999
 74
     0
 49
-3.174999999999999
 74
     0
  0
LTYPE
  5
D9
330
5
100
AcDbSymbolTableRecord
100
AcDbLinetypeTableRecord
  2
PHANTOM2
 70
     0
  3
Phantom (.5x) ___ _ _ ___ _ _ ___ _ _ ___ _ _
 72
    65
 73
     6
 40
31.75
 49
15.875
 74
     0
 49
-3.174999999999999
 74
     0
 49
3.174999999999999
 74
     0
 49
-3.174999999999999
 74
     0
 49
3.174999999999999
 74
     0
 49
-3.174999999999999
 74
     0
  0
LTYPE
  5
3BD
330
5
100
AcDbSymbolTableRecord
100
AcDbLinetypeTableRecord
  2
CENTER2
 70
     0
  3
___ _ ___ _ ___ _ ___ _ ___ _ ___ _ ___ _ ___ _
 72
    65
 73
     4
 40
1.125
 49
0.75
 74
     0
 49
-0.125
 74
     0
 49
0.125
 74
     0
 49
-0.125
 74
     0
  0
ENDTAB
  0
TABLE
  2
LAYER
  5
2
102
{ACAD_XDICTIONARY
360
2F5
102
}
330
0
100
AcDbSymbolTable
 70
    18
  0
LAYER
  5
10
330
2
100
AcDbSymbolTableRecord
100
AcDbLayerTableRecord
  2
0
 70
     0
 62
     7
  6
Continuous
370
    -3
390
F
  0
LAYER
  5
3BE
330
2
100
AcDbSymbolTableRecord
100
AcDbLayerTableRecord
  2
SPEC
 70
     0
 62
     1
  6
Continuous
370
    -3
390
F
  0
LAYER
  5
3BF
330
2
100
AcDbSymbolTableRecord
100
AcDbLayerTableRecord
  2
CENTER
 70
     0
 62
   252
  6
CENTER2
370
    -3
390
F
  0
LAYER
  5
3C0
330
2
100
AcDbSymbolTableRecord
100
AcDbLayerTableRecord
  2
DATA
 70
     0
 62
     6
  6
Continuous
370
    -3
390
F
  0
LAYER
  5
3C1
330
2
100
AcDbSymbolTableRecord
100
AcDbLayerTableRecord
  2
DIM
 70
     0
 62
     3
  6
Continuous
370
    -3
390
F
  0
LAYER
  5
3C2
330
2
100
AcDbSymbolTableRecord
100
AcDbLayerTableRecord
  2
Defpoints
 70
     0
 62
     7
  6
Continuous
290
     0
370
    -3
390
F
  0
LAYER
  5
3C3
330
2
100
AcDbSymbolTableRecord
100
AcDbLayerTableRecord
  2
FRAME
 70
     0
 62
     1
  6
Continuous
370
    -3
390
F
  0
LAYER
  5
3C4
330
2
100
AcDbSymbolTableRecord
100
AcDbLayerTableRecord
  2
CONNECTOR
 70
     0
 62
     2
  6
Continuous
370
    -3
390
F
  0
LAYER
  5
3C5
330
2
100
AcDbSymbolTableRecord
100
AcDbLayerTableRecord
  2
SCHRIFT
 70
     0
 62
     1
  6
Continuous
370
    -3
390
F
  0
LAYER
  5
3E62
330
2
100
AcDbSymbolTableRecord
100
AcDbLayerTableRecord
  2
AM_VIEWS
 70
     0
 62
     1
  6
Continuous
370
    25
390
F
1001
AcAecLayerStandard
1000

1000

  0
LAYER
  5
41F0
330
2
100
AcDbSymbolTableRecord
100
AcDbLayerTableRecord
  2
AM_5
 70
     0
 62
     3
  6
Continuous
370
    25
390
F
1001
AcAecLayerStandard
1000

1000

  0
LAYER
  5
5549
330
2
100
AcDbSymbolTableRecord
100
AcDbLayerTableRecord
  2
AM_0
 70
     0
 62
     7
  6
Continuous
370
    50
390
F
1001
AcAecLayerStandard
1000

1000

  0
LAYER
  5
6208
330
2
100
AcDbSymbolTableRecord
100
AcDbLayerTableRecord
  2
AM_0N
 70
     0
 62
     7
  6
Continuous
370
    50
390
F
1001
AcAecLayerStandard
1000

1000

  0
LAYER
  5
6210
330
2
100
AcDbSymbolTableRecord
100
AcDbLayerTableRecord
  2
AM_7N
 70
     0
 62
     4
  6
AM_ISO08W050
370
    25
390
F
1001
AcAecLayerStandard
1000

1000

  0
LAYER
  5
6211
330
2
100
AcDbSymbolTableRecord
100
AcDbLayerTableRecord
  2
AM_3N
 70
     0
 62
     6
  6
AM_ISO02W050
370
    25
390
F
1001
AcAecLayerStandard
1000

1000

  0
LAYER
  5
6832
330
2
100
AcDbSymbolTableRecord
100
AcDbLayerTableRecord
  2
AM_12
 70
     0
 62
     7
  6
Continuous
290
     0
370
    50
390
F
1001
AcAecLayerStandard
1000

1000

  0
LAYER
  5
69A9
330
2
100
AcDbSymbolTableRecord
100
AcDbLayerTableRecord
  2
AM_10
 70
     0
 62
     7
  6
AM_ISO08W050
370
    50
390
F
1001
AcAecLayerStandard
1000

1000

  0
LAYER
  5
6A18
330
2
100
AcDbSymbolTableRecord
100
AcDbLayerTableRecord
  2
AM_7
 70
     0
 62
     4
  6
AM_ISO08W050
370
    25
390
F
1001
AcAecLayerStandard
1000

1000

  0
ENDTAB
  0
TABLE
  2
STYLE
  5
3
330
0
100
AcDbSymbolTable
 70
    10
  0
STYLE
  5
11
330
3
100
AcDbSymbolTableRecord
100
AcDbTextStyleTableRecord
  2
STANDARD
 70
     0
 40
0.0
 41
1.0
 50
0.0
 71
     0
 42
2.0
  3
ARIAL.TTF
  4

1001
ACAD
1000
Arial
1071
       34
  0
STYLE
  5
6B
330
3
100
AcDbSymbolTableRecord
100
AcDbTextStyleTableRecord
  2

 70
     1
 40
0.0
 41
1.0
 50
0.0
 71
     0
 42
2.5
  3
ltypeshp.shx
  4

  0
STYLE
  5
6D
330
3
100
AcDbSymbolTableRecord
100
AcDbTextStyleTableRecord
  2
ACISOTS
 70
     0
 40
1.0
 41
1.0
 50
0.0
 71
     0
 42
2.5
  3
isocp.shx
  4
bigfont.shx
  0
STYLE
  5
79
330
3
100
AcDbSymbolTableRecord
100
AcDbTextStyleTableRecord
  2
ACISOGDT
 70
     0
 40
0.0
 41
1.0
 50
0.0
 71
     0
 42
2.5
  3
AMGDT
  4
bigfont.shx
  0
STYLE
  5
1ED
330
3
100
AcDbSymbolTableRecord
100
AcDbTextStyleTableRecord
  2
USER1
 70
     0
 40
0.0
 41
1.0
 50
0.0
 71
     0
 42
2.5
  3
TXT.SHX
  4
bigfont.shx
  0
STYLE
  5
1EE
330
3
100
AcDbSymbolTableRecord
100
AcDbTextStyleTableRecord
  2
USER2
 70
     0
 40
0.0
 41
1.0
 50
0.0
 71
     0
 42
2.5
  3
SIMPLEX.SHX
  4
bigfont.shx
  0
STYLE
  5
1EF
330
3
100
AcDbSymbolTableRecord
100
AcDbTextStyleTableRecord
  2
USER3
 70
     0
 40
0.0
 41
1.0
 50
0.0
 71
     0
 42
2.5
  3
ITALIC.SHX
  4
bigfont.shx
  0
STYLE
  5
22C
330
3
100
AcDbSymbolTableRecord
100
AcDbTextStyleTableRecord
  2

 70
     1
 40
0.0
 41
1.0
 50
0.0
 71
     0
 42
2.5
  3
genltshp.shx
  4

  0
STYLE
  5
3C6
330
3
100
AcDbSymbolTableRecord
100
AcDbTextStyleTableRecord
  2
ITALICT
 70
     0
 40
2.0
 41
1.0
 50
0.0
 71
     0
 42
2.0
  3
ITALICT.shx
  4

  0
STYLE
  5
3C7
330
3
100
AcDbSymbolTableRecord
100
AcDbTextStyleTableRecord
  2
ROMANS
 70
     0
 40
0.0
 41
0.8
 50
0.0
 71
     0
 42
3.0
  3
romans.shx
  4

  0
ENDTAB
  0
TABLE
  2
VIEW
  5
6
330
0
100
AcDbSymbolTable
 70
     2
  0
ENDTAB
  0
TABLE
  2
UCS
  5
7
330
0
100
AcDbSymbolTable
 70
     0
  0
ENDTAB
  0
TABLE
  2
APPID
  5
9
330
0
100
AcDbSymbolTable
 70
    41
  0
APPID
  5
12
330
9
100
AcDbSymbolTableRecord
100
AcDbRegAppTableRecord
  2
ACAD
 70
     0
  0
APPID
  5
46
330
9
100
AcDbSymbolTableRecord
100
AcDbRegAppTableRecord
  2
MCAD_NO_VIS
 70
     0
  0
APPID
  5
47
330
9
100
AcDbSymbolTableRecord
100
AcDbRegAppTableRecord
  2
ACAD_TEMP_GRAPHIC
 70
     0
  0
APPID
  5
58
330
9
100
AcDbSymbolTableRecord
100
AcDbRegAppTableRecord
  2
ACATTRIBSERVICES
 70
     0
  0
APPID
  5
EE
330
9
100
AcDbSymbolTableRecord
100
AcDbRegAppTableRecord
  2
AD_DRAW
 70
     0
  0
APPID
  5
10C
330
9
100
AcDbSymbolTableRecord
100
AcDbRegAppTableRecord
  2
DESIGNERASSEMBLIES
 70
     0
  0
APPID
  5
111
330
9
100
AcDbSymbolTableRecord
100
AcDbRegAppTableRecord
  2
ACADM_DIM_EDIT
 70
     0
  0
APPID
  5
112
330
9
100
AcDbSymbolTableRecord
100
AcDbRegAppTableRecord
  2
AMDT_DM_ADJ
 70
     0
  0
APPID
  5
1A3
330
9
100
AcDbSymbolTableRecord
100
AcDbRegAppTableRecord
  2
ACAD_DSTYLE_DIMARC_LENGTH_SYMBOL
 70
     0
  0
APPID
  5
1A4
330
9
100
AcDbSymbolTableRecord
100
AcDbRegAppTableRecord
  2
ACAD_DSTYLE_DIMJOGGED_JOGANGLE_SYMBOL
 70
     0
  0
APPID
  5
2D9
330
9
100
AcDbSymbolTableRecord
100
AcDbRegAppTableRecord
  2
ACAD_PSEXT
 70
     0
  0
APPID
  5
9AB
330
9
100
AcDbSymbolTableRecord
100
AcDbRegAppTableRecord
  2
ACAD_EXEMPT_FROM_CAD_STANDARDS
 70
     0
  0
APPID
  5
218E
330
9
100
AcDbSymbolTableRecord
100
AcDbRegAppTableRecord
  2
ACAD_DSTYLE_DIMTEXT_FILL
 70
     0
  0
APPID
  5
218F
330
9
100
AcDbSymbolTableRecord
100
AcDbRegAppTableRecord
  2
ACAD_DSTYLE_DIMEXT_LENGTH
 70
     0
  0
APPID
  5
2190
330
9
100
AcDbSymbolTableRecord
100
AcDbRegAppTableRecord
  2
ACAD_DSTYLE_DIMEXT_ENABLED
 70
     0
  0
APPID
  5
2191
330
9
100
AcDbSymbolTableRecord
100
AcDbRegAppTableRecord
  2
ACAD_DSTYLE_DIM_LINETYPE
 70
     0
  0
APPID
  5
2192
330
9
100
AcDbSymbolTableRecord
100
AcDbRegAppTableRecord
  2
ACAD_DSTYLE_DIM_EXT1_LINETYPE
 70
     0
  0
APPID
  5
2193
330
9
100
AcDbSymbolTableRecord
100
AcDbRegAppTableRecord
  2
ACAD_DSTYLE_DIM_EXT2_LINETYPE
 70
     0
  0
APPID
  5
3E63
330
9
100
AcDbSymbolTableRecord
100
AcDbRegAppTableRecord
  2
AcAecLayerStandard
 70
     0
  0
APPID
  5
3E64
330
9
100
AcDbSymbolTableRecord
100
AcDbRegAppTableRecord
  2
GENIUS_GENSCREG_15
 70
     0
  0
APPID
  5
3E65
330
9
100
AcDbSymbolTableRecord
100
AcDbRegAppTableRecord
  2
GENIUS_GENOBJ-N-SDF_13
 70
     0
  0
APPID
  5
3E66
330
9
100
AcDbSymbolTableRecord
100
AcDbRegAppTableRecord
  2
GENIUS_GENODEF_13
 70
     0
  0
APPID
  5
4E53
330
9
100
AcDbSymbolTableRecord
100
AcDbRegAppTableRecord
  2
GENIUS_GENREC_14
 70
     0
  0
APPID
  5
4E54
330
9
100
AcDbSymbolTableRecord
100
AcDbRegAppTableRecord
  2
GENIUS_GENOBJ-N-REC_13
 70
     0
  0
APPID
  5
4EB8
330
9
100
AcDbSymbolTableRecord
100
AcDbRegAppTableRecord
  2
GENIUS_GENDTOL_13
 70
     0
  0
APPID
  5
53A4
330
9
100
AcDbSymbolTableRecord
100
AcDbRegAppTableRecord
  2
GENIUS_GENFIL_13
 70
     0
  0
APPID
  5
53A5
330
9
100
AcDbSymbolTableRecord
100
AcDbRegAppTableRecord
  2
GENIUS_GENOBJ-N-CHA_13
 70
     0
  0
APPID
  5
5855
330
9
100
AcDbSymbolTableRecord
100
AcDbRegAppTableRecord
  2
DCO15
 70
     0
  0
APPID
  5
58A3
330
9
100
AcDbSymbolTableRecord
100
AcDbRegAppTableRecord
  2
GENIUS_GENOBJ-N-FIL_13
 70
     0
  0
APPID
  5
6203
330
9
100
AcDbSymbolTableRecord
100
AcDbRegAppTableRecord
  2
GEVID1147678155
 70
     0
  0
APPID
  5
6204
330
9
100
AcDbSymbolTableRecord
100
AcDbRegAppTableRecord
  2
GEVDC
 70
     0
  0
APPID
  5
6205
330
9
100
AcDbSymbolTableRecord
100
AcDbRegAppTableRecord
  2
GEVRADREF
 70
     0
  0
APPID
  5
6220
330
9
100
AcDbSymbolTableRecord
100
AcDbRegAppTableRecord
  2
AMG_2DHIDE
 70
     0
  0
APPID
  5
6221
330
9
100
AcDbSymbolTableRecord
100
AcDbRegAppTableRecord
  2
AMG_2DSTRUCT_BTR
 70
     0
  0
APPID
  5
6232
330
9
100
AcDbSymbolTableRecord
100
AcDbRegAppTableRecord
  2
ACADM_2DVIEW_IGN_NOTIFY
 70
     0
  0
APPID
  5
62D7
330
9
100
AcDbSymbolTableRecord
100
AcDbRegAppTableRecord
  2
GEVID1147678156
 70
     0
  0
APPID
  5
6303
330
9
100
AcDbSymbolTableRecord
100
AcDbRegAppTableRecord
  2
GEVID1147678157
 70
     0
  0
APPID
  5
6A1E
330
9
100
AcDbSymbolTableRecord
100
AcDbRegAppTableRecord
  2
GENIUS_GENOLIS_13
 70
     0
  0
APPID
  5
6A1F
330
9
100
AcDbSymbolTableRecord
100
AcDbRegAppTableRecord
  2
GENIUS_GENOENT_13
 70
     0
  0
APPID
  5
6A20
330
9
100
AcDbSymbolTableRecord
100
AcDbRegAppTableRecord
  2
GENIUS_GENOBJ-N-CRS_13
 70
     0
  0
APPID
  5
6A21
330
9
100
AcDbSymbolTableRecord
100
AcDbRegAppTableRecord
  2
GENIUS_GENOREF_13
 70
     0
  0
ENDTAB
  0
TABLE
  2
DIMSTYLE
  5
A
330
0
100
AcDbSymbolTable
 70
    13
100
AcDbDimStyleTable
 71
     4
340
3C8
340
81
340
8B
340
86
  0
DIMSTYLE
105
81
330
A
100
AcDbSymbolTableRecord
100
AcDbDimStyleTableRecord
  2
AM_ISO
 70
     0
  4
"
 41
2.5
 42
1.0
 43
10.0
 44
1.0
 47
0.1
 48
0.1
 73
     0
 74
     0
 77
     1
 78
     8
 79
     2
140
3.5
141
0.0
143
0.0393701
146
0.71
147
1.5
172
     1
176
   256
177
   256
178
     2
271
     2
272
     3
274
     4
283
     0
284
     8
340
11
371
    -1
372
    -1
1001
ACAD_DSTYLE_DIMARC_LENGTH_SYMBOL
1070
   379
1070
     1
1001
ACAD_DSTYLE_DIMJOGGED_JOGANGLE_SYMBOL
1070
   384
1040
0.7853981633974483
  0
DIMSTYLE
105
82
330
A
100
AcDbSymbolTableRecord
100
AcDbDimStyleTableRecord
  2
AM_ISO$3
 70
     0
  4
"
 41
2.5
 42
1.0
 43
10.0
 44
1.0
 47
0.1
 48
0.1
 73
     0
 77
     1
 78
     8
 79
     2
140
3.5
141
0.0
143
0.0393701
146
0.71
147
1.5
176
   256
177
   256
178
     2
271
     2
272
     3
274
     4
283
     0
284
     8
288
     1
289
     0
340
11
371
    -1
372
    -1
1001
ACAD_DSTYLE_DIMARC_LENGTH_SYMBOL
1070
   379
1070
     1
1001
ACAD_DSTYLE_DIMJOGGED_JOGANGLE_SYMBOL
1070
   384
1040
0.7853981633974483
  0
DIMSTYLE
105
83
330
A
100
AcDbSymbolTableRecord
100
AcDbDimStyleTableRecord
  2
AM_ISO$4
 70
     0
  4
"
 41
2.5
 42
1.0
 43
10.0
 44
1.0
 47
0.1
 48
0.1
 73
     0
 77
     1
 78
     8
 79
     2
140
3.5
141
0.0
143
0.0393701
146
0.71
147
1.5
176
   256
177
   256
178
     2
271
     2
272
     3
274
     4
283
     0
284
     8
288
     1
289
     0
340
11
371
    -1
372
    -1
1001
ACAD_DSTYLE_DIMARC_LENGTH_SYMBOL
1070
   379
1070
     1
1001
ACAD_DSTYLE_DIMJOGGED_JOGANGLE_SYMBOL
1070
   384
1040
0.7853981633974483
  0
DIMSTYLE
105
84
330
A
100
AcDbSymbolTableRecord
100
AcDbDimStyleTableRecord
  2
AM_ISO$6
 70
     0
  4
"
 41
2.5
 42
1.0
 43
10.0
 44
1.0
 47
0.1
 48
0.1
 73
     0
 74
     0
 78
     8
 79
     2
140
3.5
141
0.0
143
0.0393701
146
0.71
147
1.5
172
     1
176
   256
177
   256
178
     2
271
     2
272
     3
274
     4
283
     0
284
     8
340
11
371
    -1
372
    -1
1001
ACAD_DSTYLE_DIMARC_LENGTH_SYMBOL
1070
   379
1070
     1
1001
ACAD_DSTYLE_DIMJOGGED_JOGANGLE_SYMBOL
1070
   384
1040
0.7853981633974483
  0
DIMSTYLE
105
85
330
A
100
AcDbSymbolTableRecord
100
AcDbDimStyleTableRecord
  2
AM_ISO$7
 70
     0
  4
"
 41
2.5
 42
1.0
 43
10.0
 44
1.0
 47
0.1
 48
0.1
 73
     0
 74
     0
 77
     1
 78
     8
 79
     2
140
5.0
141
0.0
143
0.0393701
146
0.71
147
1.5
172
     1
176
   256
177
   256
178
     2
271
     2
272
     3
274
     4
283
     0
284
     8
340
11
371
    -1
372
    -1
1001
ACAD_DSTYLE_DIMARC_LENGTH_SYMBOL
1070
   379
1070
     1
1001
ACAD_DSTYLE_DIMJOGGED_JOGANGLE_SYMBOL
1070
   384
1040
0.7853981633974483
  0
DIMSTYLE
105
86
330
A
100
AcDbSymbolTableRecord
100
AcDbDimStyleTableRecord
  2
AM_ISO$SF
 70
     0
  4
"
 41
2.5
 42
1.0
 43
10.0
 44
1.0
 47
0.1
 48
0.1
 73
     0
 74
     0
 75
     1
 76
     1
 77
     1
 78
     8
 79
     2
140
3.5
141
0.0
143
0.0393701
146
0.71
147
1.5
172
     1
176
   256
177
   256
178
     2
271
     2
272
     3
274
     4
283
     0
284
     8
340
11
371
    -1
372
    -1
1001
ACAD_DSTYLE_DIMARC_LENGTH_SYMBOL
1070
   379
1070
     1
1001
ACAD_DSTYLE_DIMJOGGED_JOGANGLE_SYMBOL
1070
   384
1040
0.7853981633974483
  0
DIMSTYLE
105
8B
330
A
100
AcDbSymbolTableRecord
100
AcDbDimStyleTableRecord
  2
AM_ISO$SH
 70
     0
  4
"
 41
2.5
 42
1.0
 43
10.0
 44
1.0
 47
0.1
 48
0.1
 73
     0
 74
     0
 75
     1
 76
     1
 77
     1
 78
     8
 79
     2
140
3.5
141
0.0
143
0.0393701
144
2.0
146
0.71
147
1.5
172
     1
173
     1
176
   256
177
   256
178
     2
271
     2
272
     3
274
     4
283
     0
284
     8
340
11
343
87
371
    -1
372
    -1
1001
ACAD_DSTYLE_DIMARC_LENGTH_SYMBOL
1070
   379
1070
     1
1001
ACAD_DSTYLE_DIMJOGGED_JOGANGLE_SYMBOL
1070
   384
1040
0.7853981633974483
  0
DIMSTYLE
105
3C8
102
{ACAD_REACTORS
330
4034
330
4035
330
4055
330
405A
330
405B
330
4062
330
407B
330
4083
330
40A4
330
40DA
330
19F4
330
2E07
330
2E09
330
2E0A
330
2E5C
330
4017
330
4036
330
4033
330
4075
330
6448
330
669C
102
}
330
A
100
AcDbSymbolTableRecord
100
AcDbDimStyleTableRecord
  2
STANDARD
 70
     0
 41
3.0
 42
1.0
 43
1.0
 44
1.0
 48
0.000000001
 73
     0
 74
     0
 77
     1
 78
     8
140
3.0
141
-0.05
145
5.0
146
0.8
147
1.0
172
     1
176
     3
177
     3
178
     6
271
     2
272
     2
284
     8
340
11
371
    -1
1001
ACAD_DSTYLE_DIMEXT_LENGTH
1070
   378
1040
1.0
1001
ACAD_DSTYLE_DIMEXT_ENABLED
1070
   383
1070
     0
1001
ACAD_DSTYLE_DIMARC_LENGTH_SYMBOL
1070
   379
1070
     0
1001
ACAD_DSTYLE_DIMJOGGED_JOGANGLE_SYMBOL
1070
   384
1040
1.570796326794896
  0
DIMSTYLE
105
4DBB
102
{ACAD_REACTORS
330
19C9
330
4076
330
4034
330
4035
330
4055
330
405A
330
63E8
330
657E
330
65C1
330
6B9B
330
6C4A
330
6E4A
102
}
330
A
100
AcDbSymbolTableRecord
100
AcDbDimStyleTableRecord
  2
STANDARD$0
 70
     0
 41
3.0
 42
1.0
 43
1.0
 44
1.0
 48
0.000000001
 73
     0
 74
     0
 77
     1
 78
     8
140
3.0
141
-0.05
145
5.0
146
0.8
147
1.0
172
     1
176
     3
177
     3
178
     6
271
     2
272
     2
284
     8
340
11
371
    -1
1001
ACAD_DSTYLE_DIMEXT_LENGTH
1070
   378
1040
1.0
1001
ACAD_DSTYLE_DIMEXT_ENABLED
1070
   383
1070
     0
1001
ACAD_DSTYLE_DIMARC_LENGTH_SYMBOL
1070
   379
1070
     0
1001
ACAD_DSTYLE_DIMJOGGED_JOGANGLE_SYMBOL
1070
   384
1040
1.570796326794896
  0
DIMSTYLE
105
66E5
102
{ACAD_REACTORS
330
4034
330
4035
330
4055
330
405A
330
4017
330
4036
330
4033
330
4075
330
70A2
102
}
330
A
100
AcDbSymbolTableRecord
100
AcDbDimStyleTableRecord
  2
STANDARD$2
 70
     0
 41
3.0
 42
1.0
 43
1.0
 44
1.0
 48
0.000000001
 73
     0
 74
     0
 77
     1
 78
     8
140
3.0
141
-0.05
145
5.0
146
0.8
147
1.0
172
     1
176
     3
177
     3
178
     6
271
     2
272
     2
284
     8
340
11
371
    -1
1001
ACAD_DSTYLE_DIMEXT_LENGTH
1070
   378
1040
1.0
1001
ACAD_DSTYLE_DIMEXT_ENABLED
1070
   383
1070
     0
1001
ACAD_DSTYLE_DIMARC_LENGTH_SYMBOL
1070
   379
1070
     0
1001
ACAD_DSTYLE_DIMJOGGED_JOGANGLE_SYMBOL
1070
   384
1040
1.570796326794896
  0
DIMSTYLE
105
6FDA
330
A
100
AcDbSymbolTableRecord
100
AcDbDimStyleTableRecord
  2
AM_ANSI
 70
     0
  4
mm
 41
0.1
 42
0.05
 43
0.5
 44
0.1
 47
0.1
 48
0.1
 78
     7
 79
     2
140
0.12
141
0.0
146
0.71
147
0.06
176
   256
177
   256
178
     2
274
     4
284
     7
340
11
371
    -1
372
    -1
1001
ACAD_DSTYLE_DIMARC_LENGTH_SYMBOL
1070
   379
1070
     1
1001
ACAD_DSTYLE_DIMJOGGED_JOGANGLE_SYMBOL
1070
   384
1040
0.7853981633974483
  0
DIMSTYLE
105
6FDB
330
A
100
AcDbSymbolTableRecord
100
AcDbDimStyleTableRecord
  2
AM_ANSI$SF
 70
     0
  4
mm
 41
0.1
 42
0.05
 43
0.5
 44
0.1
 47
0.1
 48
0.1
 75
     1
 76
     1
 78
     7
 79
     2
140
0.12
141
0.0
146
0.71
147
0.06
176
   256
177
   256
178
     2
274
     4
284
     7
340
11
371
    -1
372
    -1
1001
ACAD_DSTYLE_DIMARC_LENGTH_SYMBOL
1070
   379
1070
     1
1001
ACAD_DSTYLE_DIMJOGGED_JOGANGLE_SYMBOL
1070
   384
1040
0.7853981633974483
  0
DIMSTYLE
105
6FDC
330
A
100
AcDbSymbolTableRecord
100
AcDbDimStyleTableRecord
  2
AM_ANSI$SH
 70
     0
  4
mm
 41
0.1
 42
0.05
 43
0.5
 44
0.1
 47
0.1
 48
0.1
 75
     1
 76
     1
 78
     7
 79
     2
140
0.12
141
0.0
146
0.71
147
0.06
173
     1
176
   256
177
   256
178
     2
274
     4
284
     7
340
11
343
87
371
    -1
372
    -1
1001
ACAD_DSTYLE_DIMARC_LENGTH_SYMBOL
1070
   379
1070
     1
1001
ACAD_DSTYLE_DIMJOGGED_JOGANGLE_SYMBOL
1070
   384
1040
0.7853981633974483
  0
ENDTAB
  0
TABLE
  2
BLOCK_RECORD
  5
1
330
0
100
AcDbSymbolTable
 70
    24
  0
BLOCK_RECORD
  5
1F
102
{ACAD_XDICTIONARY
360
8F
102
}
330
1
100
AcDbSymbolTableRecord
100
AcDbBlockTableRecord
  2
*Model_Space
340
22
  0
BLOCK_RECORD
  5
1B
102
{ACAD_XDICTIONARY
360
2D9F
102
}
330
1
100
AcDbSymbolTableRecord
100
AcDbBlockTableRecord
  2
*Paper_Space
340
1E
  0
BLOCK_RECORD
  5
87
330
1
100
AcDbSymbolTableRecord
100
AcDbBlockTableRecord
  2
GENAXEH
340
0
  0
BLOCK_RECORD
  5
2FB
330
1
100
AcDbSymbolTableRecord
100
AcDbBlockTableRecord
  2
_DatumFilled
340
0
  0
BLOCK_RECORD
  5
2FF
330
1
100
AcDbSymbolTableRecord
100
AcDbBlockTableRecord
  2
_None
340
0
  0
BLOCK_RECORD
  5
125D
102
{ACAD_XDICTIONARY
360
128A
102
}
330
1
100
AcDbSymbolTableRecord
100
AcDbBlockTableRecord
  2
A$C75C560CA
340
0
1001
ACAD
1000
DesignCenter Data
1002
{
1070
     1
1070
     4
1002
}
  0
BLOCK_RECORD
  5
1A4C
330
1
100
AcDbSymbolTableRecord
100
AcDbBlockTableRecord
  2
*D5
340
0
  0
BLOCK_RECORD
  5
2CC0
102
{ACAD_XDICTIONARY
360
2CC2
102
}
330
1
100
AcDbSymbolTableRecord
100
AcDbBlockTableRecord
  2
A$C718C4946
340
0
1001
ACAD
1000
DesignCenter Data
1002
{
1070
     1
1070
     4
1002
}
  0
BLOCK_RECORD
  5
40DE
330
1
100
AcDbSymbolTableRecord
100
AcDbBlockTableRecord
  2
*D7
340
0
  0
BLOCK_RECORD
  5
411A
330
1
100
AcDbSymbolTableRecord
100
AcDbBlockTableRecord
  2
*D8
340
0
  0
BLOCK_RECORD
  5
4128
330
1
100
AcDbSymbolTableRecord
100
AcDbBlockTableRecord
  2
*D9
340
0
  0
BLOCK_RECORD
  5
415B
330
1
100
AcDbSymbolTableRecord
100
AcDbBlockTableRecord
  2
*D10
340
0
  0
BLOCK_RECORD
  5
4167
330
1
100
AcDbSymbolTableRecord
100
AcDbBlockTableRecord
  2
*D11
340
0
  0
BLOCK_RECORD
  5
6235
330
1
100
AcDbSymbolTableRecord
100
AcDbBlockTableRecord
  2
*U13
340
0
  0
BLOCK_RECORD
  5
63E9
330
1
100
AcDbSymbolTableRecord
100
AcDbBlockTableRecord
  2
*D14
340
0
  0
BLOCK_RECORD
  5
6449
330
1
100
AcDbSymbolTableRecord
100
AcDbBlockTableRecord
  2
*D15
340
0
  0
BLOCK_RECORD
  5
657F
330
1
100
AcDbSymbolTableRecord
100
AcDbBlockTableRecord
  2
*D16
340
0
  0
BLOCK_RECORD
  5
65C2
330
1
100
AcDbSymbolTableRecord
100
AcDbBlockTableRecord
  2
*D17
340
0
  0
BLOCK_RECORD
  5
669D
330
1
100
AcDbSymbolTableRecord
100
AcDbBlockTableRecord
  2
*D18
340
0
  0
BLOCK_RECORD
  5
6B9C
330
1
100
AcDbSymbolTableRecord
100
AcDbBlockTableRecord
  2
*D19
340
0
  0
BLOCK_RECORD
  5
6C4B
330
1
100
AcDbSymbolTableRecord
100
AcDbBlockTableRecord
  2
*D20
340
0
  0
BLOCK_RECORD
  5
6E4B
330
1
100
AcDbSymbolTableRecord
100
AcDbBlockTableRecord
  2
*D21
340
0
  0
BLOCK_RECORD
  5
70A3
330
1
100
AcDbSymbolTableRecord
100
AcDbBlockTableRecord
  2
*D22
340
0
  0
BLOCK_RECORD
  5
7293
330
1
100
AcDbSymbolTableRecord
100
AcDbBlockTableRecord
  2
*S23
340
0
  0
ENDTAB
  0
ENDSEC
  0
SECTION
  2
BLOCKS
  0
BLOCK
  5
20
330
1F
100
AcDbEntity
  8
0
100
AcDbBlockBegin
  2
*Model_Space
 70
     0
 10
0.0
 20
0.0
 30
0.0
  3
*Model_Space
  1

  0
ENDBLK
  5
21
330
1F
100
AcDbEntity
  8
0
100
AcDbBlockEnd
  0
BLOCK
  5
1C
330
1B
100
AcDbEntity
 67
     1
  8
0
100
AcDbBlockBegin
  2
*Paper_Space
 70
     0
 10
0.0
 20
0.0
 30
0.0
  3
*Paper_Space
  1

  0
ENDBLK
  5
1D
330
1B
100
AcDbEntity
 67
     1
  8
0
100
AcDbBlockEnd
  0
BLOCK
  5
89
330
87
100
AcDbEntity
  8
0
100
AcDbBlockBegin
  2
GENAXEH
 70
     0
 10
0.0
 20
0.0
 30
0.0
  3
GENAXEH
  1

  0
LINE
  5
88
330
87
100
AcDbEntity
  8
0
100
AcDbLine
 10
-1.0
 20
0.0
 30
0.0
 11
1.0
 21
0.0
 31
0.0
  0
ENDBLK
  5
8A
330
87
100
AcDbEntity
  8
0
100
AcDbBlockEnd
  0
BLOCK
  5
2FC
330
2FB
100
AcDbEntity
  8
0
100
AcDbBlockBegin
  2
_DatumFilled
 70
     0
 10
0.0
 20
0.0
 30
0.0
  3
_DatumFilled
  1

  0
SOLID
  5
2FD
330
2FB
100
AcDbEntity
  8
0
  6
ByBlock
 62
     0
100
AcDbTrace
 10
0.0
 20
0.5773502700000001
 30
0.0
 11
-1.0
 21
0.0
 31
0.0
 12
0.0
 22
-0.5773502700000001
 32
0.0
 13
0.0
 23
-0.5773502700000001
 33
0.0
  0
ENDBLK
  5
2FE
330
2FB
100
AcDbEntity
  8
0
100
AcDbBlockEnd
  0
BLOCK
  5
300
330
2FF
100
AcDbEntity
  8
0
100
AcDbBlockBegin
  2
_None
 70
     0
 10
0.0
 20
0.0
 30
0.0
  3
_None
  1

  0
ENDBLK
  5
301
330
2FF
100
AcDbEntity
  8
0
100
AcDbBlockEnd
  0
BLOCK
  5
128B
330
125D
100
AcDbEntity
  8
0
100
AcDbBlockBegin
  2
A$C75C560CA
 70
     0
 10
0.0
 20
0.0
 30
0.0
  3
A$C75C560CA
  1

  0
TEXT
  5
125E
330
125D
100
AcDbEntity
  8
FRAME
100
AcDbText
 10
198.0618690923416
 20
18.19796331725411
 30
0.0
 40
2.6
  1
M 1:1.5
 41
0.7
  7
ROMANS
100
AcDbText
  0
MTEXT
  5
125F
330
125D
100
AcDbEntity
  8
DIM
100
AcDbMText
 10
147.8052230115329
 20
14.75214036007798
 30
0.0
 40
2.0
 41
25.0
 71
     1
 72
     5
  1
X       %%p0.5\P1PL     %%p0.2\P2PL     %%p0.1\PANGLE   %%p30'
  7
ROMANS
 73
     1
 44
1.0
1001
ACAD
1000
MTEXTBEGIN
1070
    73
1070
     1
1070
    44
1040
1.0
1070
    74
1070
     0
1000
MTEXTEND
  0
LWPOLYLINE
  5
1260
330
125D
100
AcDbEntity
  8
SPEC
100
AcDbPolyline
 90
        2
 70
     0
 43
0.0
 10
46.10857599724545
 20
22.43272629327407
 10
107.7609609669623
 20
22.43272629327407
  0
LINE
  5
1261
330
125D
100
AcDbEntity
  8
SPEC
  6
HIDDEN
100
AcDbLine
 10
95.76650416238317
 20
4.962468073120362
 30
0.0
 11
130.435771777227
 21
4.962468073120362
 31
0.0
  0
TEXT
  5
1262
330
125D
100
AcDbEntity
  8
DATA
 62
     1
100
AcDbText
 10
93.21139064254088
 20
5.812552698566491
 30
0.0
 40
4.0
  1
(ST4018M0406-B)
 41
0.7
  7
ROMANS
100
AcDbText
  0
TEXT
  5
1263
330
125D
100
AcDbEntity
  8
DATA
 62
     1
100
AcDbText
 10
231.317878293991
 20
2.415962237127928
 30
0.0
 40
4.0
  1
ST4018M0406
 41
0.7
  7
ROMANS
100
AcDbText
  0
TEXT
  5
1264
330
125D
100
AcDbEntity
  8
DATA
 62
     1
100
AcDbText
 10
93.38807665210561
 20
11.87217307676974
 30
0.0
 40
4.0
  1
ST4018M0406-A
 41
0.7
  7
ROMANS
100
AcDbText
  0
LWPOLYLINE
  5
1265
330
125D
100
AcDbEntity
  8
SPEC
100
AcDbPolyline
 90
        2
 70
     0
 43
0.0
 10
0.0
 20
22.43272629327407
 10
46.20410858955392
 20
22.43272629327407
  0
LINE
  5
1266
330
125D
100
AcDbEntity
  8
DIM
100
AcDbLine
 10
146.5280168612521
 20
16.58038901312318
 30
0.0
 11
213.8442914438065
 21
16.58038901312318
 31
0.0
  0
LINE
  5
1267
330
125D
100
AcDbEntity
  8
DIM
100
AcDbLine
 10
228.8020370376457
 20
12.55466422304016
 30
0.0
 11
228.8020370376457
 21
0.466065179059342
 31
0.0
  0
LINE
  5
1268
330
125D
100
AcDbEntity
  8
DIM
100
AcDbLine
 10
195.7433482585834
 20
22.43272629327407
 30
0.0
 11
195.7433482585834
 21
0.0
 31
0.0
  0
LINE
  5
1269
330
125D
100
AcDbEntity
  8
DIM
100
AcDbLine
 10
178.9743605596215
 20
22.40187586043203
 30
0.0
 11
178.9743605596215
 21
6.730972725647461
 31
0.0
  0
LINE
  5
126A
330
125D
100
AcDbEntity
  8
DIM
100
AcDbLine
 10
167.6954380838244
 20
0.0
 30
0.0
 11
167.6954380838244
 21
22.32683486367228
 31
0.0
  0
LINE
  5
126B
330
125D
100
AcDbEntity
  8
DIM
100
AcDbLine
 10
167.9351755979376
 20
22.43272629327407
 30
0.0
 11
167.9351755979376
 21
0.0
 31
0.0
  0
LINE
  5
126C
330
125D
100
AcDbEntity
  8
DIM
100
AcDbLine
 10
213.8442921475325
 20
22.43272629327407
 30
0.0
 11
213.8442921475325
 21
0.0
 31
0.0
  0
LINE
  5
126D
330
125D
100
AcDbEntity
  8
DIM
100
AcDbLine
 10
74.01093817688343
 20
22.44942325395482
 30
0.0
 11
74.01093817688343
 21
0.0031114061869175
 31
0.0
  0
LINE
  5
126E
330
125D
100
AcDbEntity
  8
DIM
100
AcDbLine
 10
89.1300425376794
 20
22.44942325395482
 30
0.0
 11
89.1300425376794
 21
-0.0380746962764533
 31
0.0
  0
LINE
  5
126F
330
125D
100
AcDbEntity
  8
DIM
100
AcDbLine
 10
52.48454273927814
 20
22.43272629327407
 30
0.0
 11
52.48454273927814
 21
-0.0273489207340845
 31
0.0
  0
LINE
  5
1270
330
125D
100
AcDbEntity
  8
DIM
100
AcDbLine
 10
0.0
 20
22.43272629327407
 30
0.0
 11
292.2263229886494
 21
22.43272629327407
 31
0.0
  0
LINE
  5
1271
330
125D
100
AcDbEntity
  8
DIM
100
AcDbLine
 10
89.1300425376794
 20
17.17069886361321
 30
0.0
 11
0.1625959174562013
 21
17.17069886361321
 31
0.0
  0
LINE
  5
1272
330
125D
100
AcDbEntity
  8
DIM
100
AcDbLine
 10
0.1625959174562013
 20
11.90867143395235
 30
0.0
 11
89.1300425376794
 21
11.90867143395235
 31
0.0
  0
LINE
  5
1273
330
125D
100
AcDbEntity
  8
DIM
100
AcDbLine
 10
0.3324718815085816
 20
6.646644004291488
 30
0.0
 11
89.1300425376794
 21
6.646644004291488
 31
0.0
  0
LINE
  5
1274
330
125D
100
AcDbEntity
  8
DIM
100
AcDbLine
 10
11.37444121259409
 20
22.43272629327407
 30
0.0
 11
11.37444121259409
 21
0.0
 31
0.0
  0
LINE
  5
1275
330
125D
100
AcDbEntity
  8
DIM
100
AcDbLine
 10
213.8442921475325
 20
6.719875644631542
 30
0.0
 11
167.6954380838244
 21
6.719875644631542
 31
0.0
  0
LINE
  5
1276
330
125D
100
AcDbEntity
  8
DIM
100
AcDbLine
 10
167.6954380838244
 20
11.60070934481985
 30
0.0
 11
213.8442921475325
 21
11.60070934481985
 31
0.0
  0
TEXT
  5
1277
330
125D
100
AcDbEntity
  8
DIM
100
AcDbText
 10
149.3843128235895
 20
18.01141814143534
 30
0.0
 40
2.5
  1
SCALE FREE
 41
0.7
  7
ROMANS
 72
     2
 11
165.3009794902561
 21
18.01141814143534
 31
0.0
100
AcDbText
  0
LINE
  5
1278
330
125D
100
AcDbEntity
  8
DIM
100
AcDbLine
 10
146.5280168612521
 20
22.43272629327407
 30
0.0
 11
146.5280168612521
 21
0.0
 31
0.0
  0
TEXT
  5
1279
330
125D
100
AcDbEntity
  8
DIM
100
AcDbText
 10
75.4322038344294
 20
2.370654514404577
 30
0.0
 40
3.0
  1
APVD
 41
0.7
  7
ROMANS
100
AcDbText
  0
TEXT
  5
127A
330
125D
100
AcDbEntity
  8
DIM
100
AcDbText
 10
55.94274150779165
 20
2.370654514404577
 30
0.0
 40
3.0
  1
DATE
 41
0.7
  7
ROMANS
100
AcDbText
  0
TEXT
  5
127B
330
125D
100
AcDbEntity
  8
DIM
100
AcDbText
 10
14.2016707071748
 20
2.370654514404577
 30
0.0
 40
3.0
  1
DESCRIPTION
 41
0.7
  7
ROMANS
100
AcDbText
  0
TEXT
  5
127C
330
125D
100
AcDbEntity
  8
DIM
100
AcDbText
 10
2.706016815254362
 20
2.370654514404577
 30
0.0
 40
3.0
  1
REV
 41
0.7
  7
ROMANS
 72
     2
 11
8.406016815254361
 21
2.370654514404577
 31
0.0
100
AcDbText
  0
TEXT
  5
127D
330
125D
100
AcDbEntity
  8
DIM
100
AcDbText
 10
169.8977377686171
 20
17.46653611070155
 30
0.0
 40
3.0
  1
APVD
 41
0.7
  7
ROMANS
 72
     2
 11
177.3977377686171
 21
17.46653611070155
 31
0.0
100
AcDbText
  0
TEXT
  5
127E
330
125D
100
AcDbEntity
  8
DIM
100
AcDbText
 10
169.0333720135623
 20
12.69433802244657
 30
0.0
 40
3.0
  1
CHKD
 41
0.7
  7
ROMANS
 72
     2
 11
177.2333720135623
 21
12.69433802244657
 31
0.0
100
AcDbText
  0
TEXT
  5
127F
330
125D
100
AcDbEntity
  8
DIM
100
AcDbText
 10
170.0393831475915
 20
7.524456556443624
 30
0.0
 40
3.0
  1
DRN
 41
0.7
  7
ROMANS
 72
     2
 11
176.0393831475915
 21
7.524456556443624
 31
0.0
100
AcDbText
  0
TEXT
  5
1280
330
125D
100
AcDbEntity
  8
DIM
100
AcDbText
 10
172.2752627425855
 20
2.329814948448756
 30
0.0
 40
3.0
  1
SIGNATURE
 41
0.7
  7
ROMANS
 72
     2
 11
188.7752627425855
 21
2.329814948448756
 31
0.0
100
AcDbText
  0
TEXT
  5
1281
330
125D
100
AcDbEntity
  8
DIM
100
AcDbText
 10
201.0406724436551
 20
2.224204435222077
 30
0.0
 40
3.0
  1
DATE
 41
0.7
  7
ROMANS
 72
     2
 11
208.240672443655
 21
2.224204435222077
 31
0.0
100
AcDbText
  0
TEXT
  5
1282
330
125D
100
AcDbEntity
  8
DIM
100
AcDbText
 10
218.9507052575232
 20
15.70268350642743
 30
0.0
 40
3.799999999999999
  1
STEPPING MOTOR
 41
0.8
  7
ITALICT
 72
     2
 11
263.9716576384756
 21
15.70268350642743
 31
0.0
100
AcDbText
  0
LINE
  5
1283
330
125D
100
AcDbEntity
  8
DIM
100
AcDbLine
 10
213.8442921475325
 20
12.57581317811855
 30
0.0
 11
291.9564623227739
 21
12.57581317811855
 31
0.0
  0
TEXT
  5
1284
330
125D
100
AcDbEntity
  8
DIM
100
AcDbText
 10
229.779050611357
 20
8.525813178118596
 30
0.0
 40
2.5
  1
DWG.NO
 41
0.7
  7
ROMANS
 72
     2
 11
239.529050611357
 21
8.525813178118596
 31
0.0
100
AcDbText
  0
TEXT
  5
1285
330
125D
100
AcDbEntity
  8
DATA
 62
     1
100
AcDbText
 10
92.69009844013249
 20
17.14709370037587
 30
0.0
 40
3.0
  1
NANOTEC:
 41
0.7
  7
ROMANS
100
AcDbText
  0
TEXT
  5
1286
330
125D
100
AcDbEntity
  8
FRAME
100
AcDbText
 10
196.2632570647433
 20
7.811243394680104
 30
0.0
 40
2.6
  1
14.02.06
 41
0.7
  7
ROMANS
100
AcDbText
  0
LINE
  5
1287
330
125D
100
AcDbEntity
  8
SPEC
100
AcDbLine
 10
0.0
 20
22.43272629327407
 30
0.0
 11
0.0
 21
124.0795686925671
 31
0.0
  0
TEXT
  5
1288
330
125D
100
AcDbEntity
  8
DIM
100
AcDbText
 10
1.48247182125101
 20
198.3559972407229
 30
0.0
 40
3.0
  1
DIMENSION (UNIT : mm)
 41
0.7
  7
ROMANS
100
AcDbText
  0
LWPOLYLINE
  5
1289
330
125D
100
AcDbEntity
  8
DIM
 62
     4
100
AcDbPolyline
 90
        4
 70
     1
 43
0.6
 10
0.0
 20
202.9639180777265
 10
0.0
 20
0.0
 10
291.9564623227739
 20
0.0
 10
291.9564623227739
 20
202.9639180777265
  0
ENDBLK
  5
128C
330
125D
100
AcDbEntity
  8
0
100
AcDbBlockEnd
  0
BLOCK
  5
1A56
330
1A4C
100
AcDbEntity
  8
0
100
AcDbBlockBegin
  2
*D5
 70
     1
 10
0.0
 20
0.0
 30
0.0
  3
*D5
  1

  0
LINE
  5
7193
330
1A4C
100
AcDbEntity
  8
DIM
 62
     3
370
    -2
100
AcDbLine
 10
129.9063688288351
 20
73.09868988223387
 30
0.0
 11
129.9063688288351
 21
54.91119174080847
 31
0.0
  0
LINE
  5
7194
330
1A4C
100
AcDbEntity
  8
DIM
 62
     3
370
    -2
100
AcDbLine
 10
139.0972407104071
 20
59.09299455805125
 30
0.0
 11
139.0972407104071
 21
54.91119174080847
 31
0.0
  0
LINE
  5
7195
330
1A4C
100
AcDbEntity
  8
DIM
 62
     3
100
AcDbLine
 10
132.3063688288351
 20
55.91119174080848
 30
0.0
 11
139.0972407104071
 21
55.91119174080848
 31
0.0
  0
SOLID
  5
7196
330
1A4C
100
AcDbEntity
  8
DIM
 62
     3
100
AcDbTrace
 10
132.3063688288351
 20
56.31119174080847
 30
0.0
 11
132.3063688288351
 21
55.51119174080848
 31
0.0
 12
129.9063688288351
 22
55.91119174080848
 32
0.0
 13
129.9063688288351
 23
55.91119174080848
 33
0.0
  0
MTEXT
  5
7197
330
1A4C
100
AcDbEntity
  8
DIM
 62
     6
100
AcDbMText
 10
134.4901433864878
 20
58.11119174080848
 30
0.0
 40
2.399999999999999
 41
0.0
 71
     5
 72
     1
  1
\A1;a
  7
ROMANS
 73
     1
 44
1.0
1001
ACAD
1000
MTEXTBEGIN
1070
    73
1070
     1
1070
    44
1040
1.0
1070
    74
1070
     0
1000
MTEXTEND
  0
POINT
  5
7198
330
1A4C
100
AcDbEntity
  8
Defpoints
 62
     0
100
AcDbPoint
 10
129.9063688288351
 20
74.09868988223387
 30
0.0
  0
POINT
  5
7199
330
1A4C
100
AcDbEntity
  8
Defpoints
 62
     0
100
AcDbPoint
 10
139.0972407104071
 20
60.09299455805124
 30
0.0
  0
POINT
  5
719A
330
1A4C
100
AcDbEntity
  8
Defpoints
 62
     0
100
AcDbPoint
 10
139.0972407104071
 20
55.91119174080848
 30
0.0
  0
ENDBLK
  5
1A57
330
1A4C
100
AcDbEntity
  8
0
100
AcDbBlockEnd
  0
BLOCK
  5
2CC3
330
2CC0
100
AcDbEntity
  8
0
100
AcDbBlockBegin
  2
A$C718C4946
 70
     0
 10
0.0
 20
0.0
 30
0.0
  3
A$C718C4946
  1

  0
TEXT
  5
2CC1
330
2CC0
100
AcDbEntity
  8
DATA
100
AcDbText
 10
-0.3199997827265406
 20
-0.0000001889967507
 30
0.0
 40
2.4
  1
60%%P15%
 41
0.7
  7
ROMANS
100
AcDbText
  0
ENDBLK
  5
2CC4
330
2CC0
100
AcDbEntity
  8
0
100
AcDbBlockEnd
  0
BLOCK
  5
40E8
330
40DE
100
AcDbEntity
  8
0
100
AcDbBlockBegin
  2
*D7
 70
     1
 10
0.0
 20
0.0
 30
0.0
  3
*D7
  1

  0
LINE
  5
7070
330
40DE
100
AcDbEntity
  8
DIM
 62
     3
370
    -2
100
AcDbLine
 10
924.4231469052975
 20
644.2399750133964
 30
0.0
 11
924.4231469052975
 21
654.3879240511261
 31
0.0
  0
LINE
  5
7071
330
40DE
100
AcDbEntity
  8
DIM
 62
     3
370
    -2
100
AcDbLine
 10
972.4231469017901
 20
632.9899749520169
 30
0.0
 11
972.4231469017901
 21
654.3879240511261
 31
0.0
  0
LINE
  5
7072
330
40DE
100
AcDbEntity
  8
DIM
 62
     3
100
AcDbLine
 10
927.4231469052974
 20
653.3879240511261
 30
0.0
 11
969.4231469017902
 21
653.3879240511261
 31
0.0
  0
SOLID
  5
7073
330
40DE
100
AcDbEntity
  8
DIM
 62
     3
100
AcDbTrace
 10
927.4231469052974
 20
653.8879240511261
 30
0.0
 11
927.4231469052974
 21
652.8879240511261
 31
0.0
 12
924.4231469052975
 22
653.3879240511261
 32
0.0
 13
924.4231469052975
 23
653.3879240511261
 33
0.0
  0
SOLID
  5
7074
330
40DE
100
AcDbEntity
  8
DIM
 62
     3
100
AcDbTrace
 10
969.4231469017902
 20
653.8879240511261
 30
0.0
 11
969.4231469017902
 21
652.8879240511261
 31
0.0
 12
972.4231469017901
 22
653.3879240511261
 32
0.0
 13
972.4231469017901
 23
653.3879240511261
 33
0.0
  0
MTEXT
  5
7075
330
40DE
100
AcDbEntity
  8
DIM
 62
     6
100
AcDbMText
 10
941.4718223243832
 20
655.9196430142911
 30
0.0
 40
3.0
 41
0.0
 71
     5
 72
     1
  1
\A1;48{\H2.400000;±1}
 73
     1
 44
1.0
1001
ACAD
1000
MTEXTBEGIN
1070
    73
1070
     1
1070
    44
1040
1.0
1070
    74
1070
     0
1000
MTEXTEND
  0
POINT
  5
7076
330
40DE
100
AcDbEntity
  8
Defpoints
 62
     0
100
AcDbPoint
 10
924.4231469052975
 20
643.2399750133964
 30
0.0
  0
POINT
  5
7077
330
40DE
100
AcDbEntity
  8
Defpoints
 62
     0
100
AcDbPoint
 10
972.4231469017901
 20
631.9899749520169
 30
0.0
  0
POINT
  5
7078
330
40DE
100
AcDbEntity
  8
Defpoints
 62
     0
100
AcDbPoint
 10
972.4231469017901
 20
653.3879240511261
 30
0.0
  0
ENDBLK
  5
40E9
330
40DE
100
AcDbEntity
  8
0
100
AcDbBlockEnd
  0
BLOCK
  5
4126
330
411A
100
AcDbEntity
  8
0
100
AcDbBlockBegin
  2
*D8
 70
     1
 10
0.0
 20
0.0
 30
0.0
  3
*D8
  1

  0
LINE
  5
6A58
330
411A
100
AcDbEntity
  8
DIM
 62
     3
370
    -2
100
AcDbLine
 10
922.9231469052976
 20
630.7399750133967
 30
0.0
 11
922.9231469052976
 21
647.7756303471437
 31
0.0
  0
LINE
  5
6A59
330
411A
100
AcDbEntity
  8
DIM
 62
     3
370
    -2
100
AcDbLine
 10
924.4231469052975
 20
633.2399750133966
 30
0.0
 11
924.4231469052975
 21
647.7756303471437
 31
0.0
  0
LINE
  5
6A5A
330
411A
100
AcDbEntity
  8
DIM
 62
     3
100
AcDbLine
 10
919.9231469052975
 20
646.7756303471437
 30
0.0
 11
916.9231469052975
 21
646.7756303471437
 31
0.0
  0
LINE
  5
6A5B
330
411A
100
AcDbEntity
  8
DIM
 62
     3
100
AcDbLine
 10
927.4231469052976
 20
646.7756303471437
 30
0.0
 11
937.6250568643698
 21
646.7756303471437
 31
0.0
  0
LINE
  5
6A5C
330
411A
100
AcDbEntity
  8
DIM
 62
     3
100
AcDbLine
 10
922.9231469052976
 20
646.7756303471437
 30
0.0
 11
924.4231469052975
 21
646.7756303471437
 31
0.0
  0
SOLID
  5
6A5D
330
411A
100
AcDbEntity
  8
DIM
 62
     3
100
AcDbTrace
 10
919.9231469052975
 20
647.2756303471437
 30
0.0
 11
919.9231469052975
 21
646.2756303471437
 31
0.0
 12
922.9231469052976
 22
646.7756303471437
 32
0.0
 13
922.9231469052976
 23
646.7756303471437
 33
0.0
  0
SOLID
  5
6A5E
330
411A
100
AcDbEntity
  8
DIM
 62
     3
100
AcDbTrace
 10
927.4231469052976
 20
647.2756303471437
 30
0.0
 11
927.4231469052976
 21
646.2756303471437
 31
0.0
 12
924.4231469052975
 22
646.7756303471437
 32
0.0
 13
924.4231469052975
 23
646.7756303471437
 33
0.0
  0
MTEXT
  5
6A5F
330
411A
100
AcDbEntity
  8
DIM
 62
     6
100
AcDbMText
 10
934.0241018848336
 20
649.3073493103088
 30
0.0
 40
3.0
 41
0.0
 71
     5
 72
     1
  1
\A1;1.5
 73
     1
 44
1.0
1001
ACAD
1000
MTEXTBEGIN
1070
    73
1070
     1
1070
    44
1040
1.0
1070
    74
1070
     0
1000
MTEXTEND
  0
POINT
  5
6A60
330
411A
100
AcDbEntity
  8
Defpoints
 62
     0
100
AcDbPoint
 10
922.9231469052976
 20
629.7399750133966
 30
0.0
  0
POINT
  5
6A61
330
411A
100
AcDbEntity
  8
Defpoints
 62
     0
100
AcDbPoint
 10
924.4231469052975
 20
632.2399750133966
 30
0.0
  0
POINT
  5
6A62
330
411A
100
AcDbEntity
  8
Defpoints
 62
     0
100
AcDbPoint
 10
924.4231469052975
 20
646.7756303471437
 30
0.0
  0
ENDBLK
  5
4127
330
411A
100
AcDbEntity
  8
0
100
AcDbBlockEnd
  0
BLOCK
  5
4132
330
4128
100
AcDbEntity
  8
0
100
AcDbBlockBegin
  2
*D9
 70
     1
 10
0.0
 20
0.0
 30
0.0
  3
*D9
  1

  0
LINE
  5
6A4F
330
4128
100
AcDbEntity
  8
DIM
 62
     3
370
    -2
100
AcDbLine
 10
909.4231469052974
 20
625.2399750133966
 30
0.0
 11
909.4231469052974
 21
654.3879240511261
 31
0.0
  0
LINE
  5
6A50
330
4128
100
AcDbEntity
  8
DIM
 62
     3
370
    -2
100
AcDbLine
 10
924.4231469052975
 20
633.2399750133966
 30
0.0
 11
924.4231469052975
 21
654.3879240511261
 31
0.0
  0
LINE
  5
6A51
330
4128
100
AcDbEntity
  8
DIM
 62
     3
100
AcDbLine
 10
912.4231469052974
 20
653.3879240511261
 30
0.0
 11
921.4231469052975
 21
653.3879240511261
 31
0.0
  0
SOLID
  5
6A52
330
4128
100
AcDbEntity
  8
DIM
 62
     3
100
AcDbTrace
 10
912.4231469052974
 20
653.8879240511261
 30
0.0
 11
912.4231469052974
 21
652.8879240511261
 31
0.0
 12
909.4231469052974
 22
653.3879240511261
 32
0.0
 13
909.4231469052974
 23
653.3879240511261
 33
0.0
  0
SOLID
  5
6A53
330
4128
100
AcDbEntity
  8
DIM
 62
     3
100
AcDbTrace
 10
921.4231469052975
 20
653.8879240511261
 30
0.0
 11
921.4231469052975
 21
652.8879240511261
 31
0.0
 12
924.4231469052975
 22
653.3879240511261
 32
0.0
 13
924.4231469052975
 23
653.3879240511261
 33
0.0
  0
MTEXT
  5
6A54
330
4128
100
AcDbEntity
  8
DIM
 62
     6
100
AcDbMText
 10
916.2838493462954
 20
655.9196430142911
 30
0.0
 40
3.0
 41
0.0
 71
     5
 72
     1
  1
\A1;15{\H2.400000;±1}
 73
     1
 44
1.0
1001
ACAD
1000
MTEXTBEGIN
1070
    73
1070
     1
1070
    44
1040
1.0
1070
    74
1070
     0
1000
MTEXTEND
  0
POINT
  5
6A55
330
4128
100
AcDbEntity
  8
Defpoints
 62
     0
100
AcDbPoint
 10
909.4231469052974
 20
624.2399750133967
 30
0.0
  0
POINT
  5
6A56
330
4128
100
AcDbEntity
  8
Defpoints
 62
     0
100
AcDbPoint
 10
924.4231469052975
 20
632.2399750133966
 30
0.0
  0
POINT
  5
6A57
330
4128
100
AcDbEntity
  8
Defpoints
 62
     0
100
AcDbPoint
 10
924.4231469052975
 20
653.3879240511261
 30
0.0
  0
ENDBLK
  5
4133
330
4128
100
AcDbEntity
  8
0
100
AcDbBlockEnd
  0
BLOCK
  5
4165
330
415B
100
AcDbEntity
  8
0
100
AcDbBlockBegin
  2
*D10
 70
     1
 10
0.0
 20
0.0
 30
0.0
  3
*D10
  1

  0
LINE
  5
7097
330
415B
100
AcDbEntity
  8
DIM
  6
ACISOTGL
 62
     3
370
    -2
100
AcDbLine
 10
981.9231469052978
 20
624.7399750133966
 30
0.0
 11
981.9231469052978
 21
654.3756867518626
 31
0.0
  0
LINE
  5
7098
330
415B
100
AcDbEntity
  8
DIM
  6
ACISOTGL
 62
     3
370
    -2
100
AcDbLine
 10
972.4231469017903
 20
632.9899749522056
 30
0.0
 11
972.4231469017903
 21
654.3756867518626
 31
0.0
  0
LINE
  5
7099
330
415B
100
AcDbEntity
  8
DIM
  6
ACISOTGL
 62
     3
100
AcDbLine
 10
975.4231469017902
 20
653.3756867518626
 30
0.0
 11
978.9231469052978
 21
653.3756867518626
 31
0.0
  0
LINE
  5
709A
330
415B
100
AcDbEntity
  8
DIM
  6
ACISOTGL
 62
     3
100
AcDbLine
 10
981.9231469052978
 20
653.3756867518626
 30
0.0
 11
998.9419736447247
 21
653.3756867518626
 31
0.0
  0
SOLID
  5
709B
330
415B
100
AcDbEntity
  8
DIM
  6
ACISOTGL
 62
     3
100
AcDbTrace
 10
975.4231469017902
 20
653.8756867518626
 30
0.0
 11
975.4231469017902
 21
652.8756867518626
 31
0.0
 12
972.4231469017903
 22
653.3756867518626
 32
0.0
 13
972.4231469017903
 23
653.3756867518626
 33
0.0
  0
SOLID
  5
709C
330
415B
100
AcDbEntity
  8
DIM
  6
ACISOTGL
 62
     3
100
AcDbTrace
 10
978.9231469052978
 20
653.8756867518626
 30
0.0
 11
978.9231469052978
 21
652.8756867518626
 31
0.0
 12
981.9231469052978
 22
653.3756867518626
 32
0.0
 13
981.9231469052978
 23
653.3756867518626
 33
0.0
  0
MTEXT
  5
709D
330
415B
100
AcDbEntity
  8
DIM
  6
ACISOTGL
 62
     6
100
AcDbMText
 10
991.9325602750113
 20
655.9074057150277
 30
0.0
 40
3.0
 41
0.0
 71
     5
 72
     1
  1
\A1;9.5{\H2.400000;±0.5}
 73
     1
 44
1.0
1001
ACAD
1000
MTEXTBEGIN
1070
    73
1070
     1
1070
    44
1040
1.0
1070
    74
1070
     0
1000
MTEXTEND
  0
POINT
  5
709E
330
415B
100
AcDbEntity
  8
Defpoints
  6
ACISOTGL
 62
     0
100
AcDbPoint
 10
981.9231469052978
 20
623.7399750133966
 30
0.0
  0
POINT
  5
709F
330
415B
100
AcDbEntity
  8
Defpoints
  6
ACISOTGL
 62
     0
100
AcDbPoint
 10
972.4231469017903
 20
631.9899749522055
 30
0.0
  0
POINT
  5
70A0
330
415B
100
AcDbEntity
  8
Defpoints
  6
ACISOTGL
 62
     0
100
AcDbPoint
 10
972.4231469017903
 20
653.3756867518626
 30
0.0
  0
ENDBLK
  5
4166
330
415B
100
AcDbEntity
  8
0
100
AcDbBlockEnd
  0
BLOCK
  5
4173
330
4167
100
AcDbEntity
  8
0
100
AcDbBlockBegin
  2
*D11
 70
     1
 10
0.0
 20
0.0
 30
0.0
  3
*D11
  1

  0
LINE
  5
7052
330
4167
100
AcDbEntity
  8
DIM
  6
ACISOTGL
 62
     3
370
    -2
100
AcDbLine
 10
982.9231469052977
 20
620.7399750133962
 30
0.0
 11
991.8674730958953
 21
620.7399750133962
 31
0.0
  0
LINE
  5
7053
330
4167
100
AcDbEntity
  8
DIM
  6
ACISOTGL
 62
     3
370
    -2
100
AcDbLine
 10
982.9231469052977
 20
623.7399750133966
 30
0.0
 11
991.8674730958953
 21
623.7399750133966
 31
0.0
  0
LINE
  5
7054
330
4167
100
AcDbEntity
  8
DIM
  6
ACISOTGL
 62
     3
100
AcDbLine
 10
990.8674730958953
 20
617.7399750133962
 30
0.0
 11
990.8674730958953
 21
614.7399750133963
 31
0.0
  0
LINE
  5
7055
330
4167
100
AcDbEntity
  8
DIM
  6
ACISOTGL
 62
     3
100
AcDbLine
 10
990.8674730958953
 20
626.7399750133965
 30
0.0
 11
990.8674730958953
 21
650.411379149789
 31
0.0
  0
LINE
  5
7056
330
4167
100
AcDbEntity
  8
DIM
  6
ACISOTGL
 62
     3
100
AcDbLine
 10
990.8674730958953
 20
620.7399750133962
 30
0.0
 11
990.8674730958953
 21
623.7399750133966
 31
0.0
  0
SOLID
  5
7057
330
4167
100
AcDbEntity
  8
DIM
  6
ACISOTGL
 62
     3
100
AcDbTrace
 10
990.3674730958952
 20
617.7399750133962
 30
0.0
 11
991.3674730958954
 21
617.7399750133962
 31
0.0
 12
990.8674730958953
 22
620.7399750133962
 32
0.0
 13
990.8674730958953
 23
620.7399750133962
 33
0.0
  0
SOLID
  5
7058
330
4167
100
AcDbEntity
  8
DIM
  6
ACISOTGL
 62
     3
100
AcDbTrace
 10
990.3674730958952
 20
626.7399750133965
 30
0.0
 11
991.3674730958954
 21
626.7399750133965
 31
0.0
 12
990.8674730958953
 22
623.7399750133966
 32
0.0
 13
990.8674730958953
 23
623.7399750133966
 33
0.0
  0
MTEXT
  5
7059
330
4167
100
AcDbEntity
  8
DIM
  6
ACISOTGL
 62
     6
100
AcDbMText
 10
986.9555358516933
 20
642.0769316736636
 30
0.0
 40
3.0
 41
0.0
 71
     5
 72
     1
  1
\A1;%%c3{\H2.400000;\S 0^ -0.013;}
 11
0.0000000000000001
 21
1.0
 31
0.0
 73
     1
 44
1.0
1001
ACAD
1000
MTEXTBEGIN
1070
    73
1070
     1
1070
    44
1040
1.0
1070
    74
1070
     0
1000
MTEXTEND
  0
POINT
  5
705A
330
4167
100
AcDbEntity
  8
Defpoints
  6
ACISOTGL
 62
     0
100
AcDbPoint
 10
981.9231469052978
 20
620.7399750133962
 30
0.0
  0
POINT
  5
705B
330
4167
100
AcDbEntity
  8
Defpoints
  6
ACISOTGL
 62
     0
100
AcDbPoint
 10
981.9231469052978
 20
623.7399750133966
 30
0.0
  0
POINT
  5
705C
330
4167
100
AcDbEntity
  8
Defpoints
  6
ACISOTGL
 62
     0
100
AcDbPoint
 10
990.8674730958953
 20
623.7399750133966
 30
0.0
  0
ENDBLK
  5
4174
330
4167
100
AcDbEntity
  8
0
100
AcDbBlockEnd
  0
BLOCK
  5
6236
330
6235
100
AcDbEntity
  8
0
100
AcDbBlockBegin
  2
*U13
 70
     1
 10
0.0
 20
0.0
 30
0.0
  3
*U13
  1

  0
ENDBLK
  5
6237
330
6235
100
AcDbEntity
  8
0
100
AcDbBlockEnd
  0
BLOCK
  5
63F5
330
63E9
100
AcDbEntity
  8
0
 62
     1
100
AcDbBlockBegin
  2
*D14
 70
     1
 10
0.0
 20
0.0
 30
0.0
  3
*D14
  1

  0
LINE
  5
6AE6
330
63E9
100
AcDbEntity
  8
AM_5
 62
     3
370
    -2
100
AcDbLine
 10
908.4231469052975
 20
620.2399750133964
 30
0.0
 11
901.5586698451153
 21
620.2399750133964
 31
0.0
  0
LINE
  5
6AE7
330
63E9
100
AcDbEntity
  8
AM_5
 62
     3
370
    -2
100
AcDbLine
 10
908.4231469052975
 20
624.2399750133967
 30
0.0
 11
901.5586698451153
 21
624.2399750133967
 31
0.0
  0
LINE
  5
6AE8
330
63E9
100
AcDbEntity
  8
AM_5
 62
     3
100
AcDbLine
 10
902.5586698451153
 20
617.2399750133965
 30
0.0
 11
902.5586698451153
 21
614.2399750133964
 31
0.0
  0
LINE
  5
6AE9
330
63E9
100
AcDbEntity
  8
AM_5
 62
     3
100
AcDbLine
 10
902.5586698451153
 20
627.2399750133967
 30
0.0
 11
902.5586698451153
 21
649.0968065187177
 31
0.0
  0
LINE
  5
6AEA
330
63E9
100
AcDbEntity
  8
AM_5
 62
     3
100
AcDbLine
 10
902.5586698451153
 20
620.2399750133964
 30
0.0
 11
902.5586698451153
 21
624.2399750133967
 31
0.0
  0
SOLID
  5
6AEB
330
63E9
100
AcDbEntity
  8
AM_5
 62
     3
100
AcDbTrace
 10
902.0586698451152
 20
617.2399750133965
 30
0.0
 11
903.0586698451154
 21
617.2399750133965
 31
0.0
 12
902.5586698451153
 22
620.2399750133964
 32
0.0
 13
902.5586698451153
 23
620.2399750133964
 33
0.0
  0
SOLID
  5
6AEC
330
63E9
100
AcDbEntity
  8
AM_5
 62
     3
100
AcDbTrace
 10
902.0586698451152
 20
627.2399750133967
 30
0.0
 11
903.0586698451154
 21
627.2399750133967
 31
0.0
 12
902.5586698451153
 22
624.2399750133967
 32
0.0
 13
902.5586698451153
 23
624.2399750133967
 33
0.0
  0
MTEXT
  5
6AED
330
63E9
100
AcDbEntity
  8
AM_5
 62
     6
100
AcDbMText
 10
898.6467326009133
 20
640.7623590425925
 30
0.0
 40
3.0
 41
0.0
 71
     5
 72
     1
  1
\A1;%%c4{\H2.400000;\S 0^ -0.013;}
 11
0.0000000000000001
 21
1.0
 31
0.0
 73
     1
 44
1.0
1001
ACAD
1000
MTEXTBEGIN
1070
    73
1070
     1
1070
    44
1040
1.0
1070
    74
1070
     0
1000
MTEXTEND
  0
POINT
  5
6AEE
330
63E9
100
AcDbEntity
  8
Defpoints
 62
     0
100
AcDbPoint
 10
909.4231469052974
 20
620.2399750133964
 30
0.0
  0
POINT
  5
6AEF
330
63E9
100
AcDbEntity
  8
Defpoints
 62
     0
100
AcDbPoint
 10
909.4231469052974
 20
624.2399750133967
 30
0.0
  0
POINT
  5
6AF0
330
63E9
100
AcDbEntity
  8
Defpoints
 62
     0
100
AcDbPoint
 10
902.5586698451153
 20
624.2399750133967
 30
0.0
  0
ENDBLK
  5
63F6
330
63E9
100
AcDbEntity
  8
0
 62
     1
100
AcDbBlockEnd
  0
BLOCK
  5
6453
330
6449
100
AcDbEntity
  8
0
 62
     1
100
AcDbBlockBegin
  2
*D15
 70
     1
 10
0.0
 20
0.0
 30
0.0
  3
*D15
  1

  0
LINE
  5
6B66
330
6449
100
AcDbEntity
  8
AM_5
 62
     3
370
    -2
100
AcDbLine
 10
921.9231469052976
 20
614.7399750133965
 30
0.0
 11
892.2580284971271
 21
614.7399750133965
 31
0.0
  0
LINE
  5
6B67
330
6449
100
AcDbEntity
  8
AM_5
 62
     3
370
    -2
100
AcDbLine
 10
921.9231469052973
 20
629.7399750133966
 30
0.0
 11
892.2580284971271
 21
629.7399750133966
 31
0.0
  0
LINE
  5
6B68
330
6449
100
AcDbEntity
  8
AM_5
 62
     3
100
AcDbLine
 10
893.2580284971271
 20
617.7399750133965
 30
0.0
 11
893.2580284971271
 21
626.7399750133967
 31
0.0
  0
LINE
  5
6B69
330
6449
100
AcDbEntity
  8
AM_5
 62
     3
100
AcDbLine
 10
893.2580284971271
 20
629.7399750133966
 30
0.0
 11
893.2580284971271
 21
649.8750364049383
 31
0.0
  0
SOLID
  5
6B6A
330
6449
100
AcDbEntity
  8
AM_5
 62
     3
100
AcDbTrace
 10
892.7580284971272
 20
617.7399750133965
 30
0.0
 11
893.7580284971271
 21
617.7399750133965
 31
0.0
 12
893.2580284971271
 22
614.7399750133965
 32
0.0
 13
893.2580284971271
 23
614.7399750133965
 33
0.0
  0
SOLID
  5
6B6B
330
6449
100
AcDbEntity
  8
AM_5
 62
     3
100
AcDbTrace
 10
892.7580284971272
 20
626.7399750133967
 30
0.0
 11
893.7580284971271
 21
626.7399750133967
 31
0.0
 12
893.2580284971271
 22
629.7399750133966
 32
0.0
 13
893.2580284971271
 23
629.7399750133966
 33
0.0
  0
MTEXT
  5
6B6C
330
6449
100
AcDbEntity
  8
AM_5
 62
     6
100
AcDbMText
 10
889.3460912529251
 20
641.3075057091677
 30
0.0
 40
3.0
 41
0.0
 71
     5
 72
     1
  1
\A1;%%c15{\H2.400000;\S 0^ -0.03;}
 11
0.0000000000000001
 21
1.0
 31
0.0
 73
     1
 44
1.0
1001
ACAD
1000
MTEXTBEGIN
1070
    73
1070
     1
1070
    44
1040
1.0
1070
    74
1070
     0
1000
MTEXTEND
  0
POINT
  5
6B6D
330
6449
100
AcDbEntity
  8
Defpoints
 62
     0
100
AcDbPoint
 10
922.9231469052976
 20
614.7399750133965
 30
0.0
  0
POINT
  5
6B6E
330
6449
100
AcDbEntity
  8
Defpoints
 62
     0
100
AcDbPoint
 10
922.9231469052972
 20
629.7399750133966
 30
0.0
  0
POINT
  5
6B6F
330
6449
100
AcDbEntity
  8
Defpoints
 62
     0
100
AcDbPoint
 10
893.2580284971271
 20
629.7399750133966
 30
0.0
  0
ENDBLK
  5
6454
330
6449
100
AcDbEntity
  8
0
 62
     1
100
AcDbBlockEnd
  0
BLOCK
  5
6589
330
657F
100
AcDbEntity
  8
0
100
AcDbBlockBegin
  2
*D16
 70
     1
 10
0.0
 20
0.0
 30
0.0
  3
*D16
  1

  0
LINE
  5
71CE
330
657F
100
AcDbEntity
  8
AM_5
 62
     3
370
    -2
100
AcDbLine
 10
827.2015315091294
 20
631.7399750133965
 30
0.0
 11
827.2015315091294
 21
647.0626089480088
 31
0.0
  0
LINE
  5
71CF
330
657F
100
AcDbEntity
  8
AM_5
 62
     3
370
    -2
100
AcDbLine
 10
847.2015315091297
 20
631.7399750133965
 30
0.0
 11
847.2015315091297
 21
647.0626089480088
 31
0.0
  0
LINE
  5
71D0
330
657F
100
AcDbEntity
  8
AM_5
 62
     3
100
AcDbLine
 10
830.2015315091294
 20
646.0626089480087
 30
0.0
 11
844.2015315091296
 21
646.0626089480087
 31
0.0
  0
SOLID
  5
71D1
330
657F
100
AcDbEntity
  8
AM_5
 62
     3
100
AcDbTrace
 10
830.2015315091294
 20
646.5626089480088
 30
0.0
 11
830.2015315091294
 21
645.5626089480087
 31
0.0
 12
827.2015315091294
 22
646.0626089480087
 32
0.0
 13
827.2015315091294
 23
646.0626089480087
 33
0.0
  0
SOLID
  5
71D2
330
657F
100
AcDbEntity
  8
AM_5
 62
     3
100
AcDbTrace
 10
844.2015315091296
 20
646.5626089480088
 30
0.0
 11
844.2015315091296
 21
645.5626089480087
 31
0.0
 12
847.2015315091297
 22
646.0626089480087
 32
0.0
 13
847.2015315091297
 23
646.0626089480087
 33
0.0
  0
MTEXT
  5
71D3
330
657F
100
AcDbEntity
  8
AM_5
 62
     6
100
AcDbMText
 10
837.3350529661756
 20
648.5943279111738
 30
0.0
 40
3.0
 41
0.0
 71
     5
 72
     1
  1
\A1;{\Famgdt|c0;o} 20
 73
     1
 44
1.0
1001
ACAD
1000
MTEXTBEGIN
1070
    73
1070
     1
1070
    44
1040
1.0
1070
    74
1070
     0
1000
MTEXTEND
  0
POINT
  5
71D4
330
657F
100
AcDbEntity
  8
Defpoints
 62
     0
100
AcDbPoint
 10
827.2015315091294
 20
630.7399750133965
 30
0.0
  0
POINT
  5
71D5
330
657F
100
AcDbEntity
  8
Defpoints
 62
     0
100
AcDbPoint
 10
847.2015315091297
 20
630.7399750133965
 30
0.0
  0
POINT
  5
71D6
330
657F
100
AcDbEntity
  8
Defpoints
 62
     0
100
AcDbPoint
 10
847.2015315091297
 20
646.0626089480087
 30
0.0
  0
ENDBLK
  5
658A
330
657F
100
AcDbEntity
  8
0
100
AcDbBlockEnd
  0
BLOCK
  5
65CC
330
65C2
100
AcDbEntity
  8
0
100
AcDbBlockBegin
  2
*D17
 70
     1
 10
0.0
 20
0.0
 30
0.0
  3
*D17
  1

  0
LINE
  5
71D7
330
65C2
100
AcDbEntity
  8
AM_5
 62
     3
370
    -2
100
AcDbLine
 10
829.2015315091298
 20
633.3399750133966
 30
0.0
 11
829.2015315091298
 21
640.3461349171441
 31
0.0
  0
LINE
  5
71D8
330
65C2
100
AcDbEntity
  8
AM_5
 62
     3
370
    -2
100
AcDbLine
 10
845.2015315091296
 20
633.3399750133967
 30
0.0
 11
845.2015315091296
 21
640.3461349171441
 31
0.0
  0
LINE
  5
71D9
330
65C2
100
AcDbEntity
  8
AM_5
 62
     3
100
AcDbLine
 10
832.2015315091297
 20
639.3461349171441
 30
0.0
 11
842.2015315091297
 21
639.3461349171441
 31
0.0
  0
SOLID
  5
71DA
330
65C2
100
AcDbEntity
  8
AM_5
 62
     3
100
AcDbTrace
 10
832.2015315091297
 20
639.8461349171441
 30
0.0
 11
832.2015315091297
 21
638.8461349171441
 31
0.0
 12
829.2015315091298
 22
639.3461349171441
 32
0.0
 13
829.2015315091298
 23
639.3461349171441
 33
0.0
  0
SOLID
  5
71DB
330
65C2
100
AcDbEntity
  8
AM_5
 62
     3
100
AcDbTrace
 10
842.2015315091297
 20
639.8461349171441
 30
0.0
 11
842.2015315091297
 21
638.8461349171441
 31
0.0
 12
845.2015315091296
 22
639.3461349171441
 32
0.0
 13
845.2015315091296
 23
639.3461349171441
 33
0.0
  0
MTEXT
  5
71DC
330
65C2
100
AcDbEntity
  8
AM_5
 62
     6
100
AcDbMText
 10
837.2015315091296
 20
641.8778538803092
 30
0.0
 40
3.0
 41
0.0
 71
     5
 72
     1
  1
\A1;{\Famgdt|c0;o} 16{\H2.400000;±0.2}
 73
     1
 44
1.0
1001
ACAD
1000
MTEXTBEGIN
1070
    73
1070
     1
1070
    44
1040
1.0
1070
    74
1070
     0
1000
MTEXTEND
  0
POINT
  5
71DD
330
65C2
100
AcDbEntity
  8
Defpoints
 62
     0
100
AcDbPoint
 10
829.2015315091298
 20
632.3399750133965
 30
0.0
  0
POINT
  5
71DE
330
65C2
100
AcDbEntity
  8
Defpoints
 62
     0
100
AcDbPoint
 10
845.2015315091296
 20
632.3399750133967
 30
0.0
  0
POINT
  5
71DF
330
65C2
100
AcDbEntity
  8
Defpoints
 62
     0
100
AcDbPoint
 10
845.2015315091296
 20
639.3461349171441
 30
0.0
  0
ENDBLK
  5
65CD
330
65C2
100
AcDbEntity
  8
0
100
AcDbBlockEnd
  0
BLOCK
  5
66A7
330
669D
100
AcDbEntity
  8
0
100
AcDbBlockBegin
  2
*D18
 70
     1
 10
0.0
 20
0.0
 30
0.0
  3
*D18
  1

  0
LINE
  5
71EB
330
669D
100
AcDbEntity
  8
AM_5
  6
ACISOTGL
 62
     3
370
    -2
100
AcDbLine
 10
1062.143905250315
 20
623.2399750133965
 30
0.0
 11
1062.143905250315
 21
639.0553406847325
 31
0.0
  0
LINE
  5
71EC
330
669D
100
AcDbEntity
  8
AM_5
  6
ACISOTGL
 62
     3
370
    -2
100
AcDbLine
 10
1073.143905250315
 20
623.2399750133965
 30
0.0
 11
1073.143905250315
 21
639.0553406847325
 31
0.0
  0
LINE
  5
71ED
330
669D
100
AcDbEntity
  8
AM_5
  6
ACISOTGL
 62
     3
100
AcDbLine
 10
1070.143905250315
 20
638.0553406847325
 30
0.0
 11
1065.143905250315
 21
638.0553406847325
 31
0.0
  0
LINE
  5
71EE
330
669D
100
AcDbEntity
  8
AM_5
  6
ACISOTGL
 62
     3
100
AcDbLine
 10
1062.143905250315
 20
638.0553406847325
 30
0.0
 11
1043.506797474053
 21
638.0553406847325
 31
0.0
  0
SOLID
  5
71EF
330
669D
100
AcDbEntity
  8
AM_5
  6
ACISOTGL
 62
     3
100
AcDbTrace
 10
1070.143905250315
 20
638.5553406847325
 30
0.0
 11
1070.143905250315
 21
637.5553406847325
 31
0.0
 12
1073.143905250315
 22
638.0553406847325
 32
0.0
 13
1073.143905250315
 23
638.0553406847325
 33
0.0
  0
SOLID
  5
71F0
330
669D
100
AcDbEntity
  8
AM_5
  6
ACISOTGL
 62
     3
100
AcDbTrace
 10
1065.143905250315
 20
638.5553406847325
 30
0.0
 11
1065.143905250315
 21
637.5553406847325
 31
0.0
 12
1062.143905250315
 22
638.0553406847325
 32
0.0
 13
1062.143905250315
 23
638.0553406847325
 33
0.0
  0
MTEXT
  5
71F1
330
669D
100
AcDbEntity
  8
AM_5
  6
ACISOTGL
 62
     6
100
AcDbMText
 10
1051.325351362184
 20
640.6709614214309
 30
0.0
 40
3.0
 41
0.0
 71
     5
 72
     1
  1
\A1;%%c11{\H2.400000;±0.1}
 73
     1
 44
1.0
1001
ACAD
1000
MTEXTBEGIN
1070
    73
1070
     1
1070
    44
1040
1.0
1070
    74
1070
     0
1000
MTEXTEND
  0
POINT
  5
71F2
330
669D
100
AcDbEntity
  8
Defpoints
  6
ACISOTGL
 62
     0
100
AcDbPoint
 10
1062.143905250315
 20
622.2399750133965
 30
0.0
  0
POINT
  5
71F3
330
669D
100
AcDbEntity
  8
Defpoints
  6
ACISOTGL
 62
     0
100
AcDbPoint
 10
1073.143905250315
 20
622.2399750133965
 30
0.0
  0
POINT
  5
71F4
330
669D
100
AcDbEntity
  8
Defpoints
  6
ACISOTGL
 62
     0
100
AcDbPoint
 10
1073.143905250315
 20
638.0553406847325
 30
0.0
  0
ENDBLK
  5
66A8
330
669D
100
AcDbEntity
  8
0
100
AcDbBlockEnd
  0
BLOCK
  5
6BA8
330
6B9C
100
AcDbEntity
  8
0
100
AcDbBlockBegin
  2
*D19
 70
     1
 10
0.0
 20
0.0
 30
0.0
  3
*D19
  1

  0
LINE
  5
71E0
330
6B9C
100
AcDbEntity
  8
AM_5
 62
     3
370
    -2
100
AcDbLine
 10
844.0015315091295
 20
610.4399750133966
 30
0.0
 11
856.5983634791667
 21
610.4399750133966
 31
0.0
  0
LINE
  5
71E1
330
6B9C
100
AcDbEntity
  8
AM_5
 62
     3
370
    -2
100
AcDbLine
 10
846.7015315091295
 20
612.2399750133969
 30
0.0
 11
856.5983634791667
 21
612.2399750133969
 31
0.0
  0
LINE
  5
71E2
330
6B9C
100
AcDbEntity
  8
AM_5
 62
     3
100
AcDbLine
 10
855.5983634791667
 20
607.4399750133966
 30
0.0
 11
855.5983634791667
 21
604.4399750133966
 31
0.0
  0
LINE
  5
71E3
330
6B9C
100
AcDbEntity
  8
AM_5
 62
     3
100
AcDbLine
 10
855.5983634791667
 20
615.2399750133969
 30
0.0
 11
855.5983634791667
 21
625.4255138947065
 31
0.0
  0
LINE
  5
71E4
330
6B9C
100
AcDbEntity
  8
AM_5
 62
     3
100
AcDbLine
 10
855.5983634791667
 20
610.4399750133966
 30
0.0
 11
855.5983634791667
 21
612.2399750133969
 31
0.0
  0
SOLID
  5
71E5
330
6B9C
100
AcDbEntity
  8
AM_5
 62
     3
100
AcDbTrace
 10
855.0983634791668
 20
607.4399750133966
 30
0.0
 11
856.0983634791668
 21
607.4399750133966
 31
0.0
 12
855.5983634791667
 22
610.4399750133966
 32
0.0
 13
855.5983634791667
 23
610.4399750133966
 33
0.0
  0
SOLID
  5
71E6
330
6B9C
100
AcDbEntity
  8
AM_5
 62
     3
100
AcDbTrace
 10
855.0983634791668
 20
615.2399750133969
 30
0.0
 11
856.0983634791668
 21
615.2399750133969
 31
0.0
 12
855.5983634791667
 22
612.2399750133969
 32
0.0
 13
855.5983634791667
 23
612.2399750133969
 33
0.0
  0
MTEXT
  5
71E7
330
6B9C
100
AcDbEntity
  8
AM_5
 62
     6
100
AcDbMText
 10
853.0666445160015
 20
621.832744454052
 30
0.0
 40
3.0
 41
0.0
 71
     5
 72
     1
  1
\A1;1.8
 11
0.0000000000000001
 21
1.0
 31
0.0
 73
     1
 44
1.0
1001
ACAD
1000
MTEXTBEGIN
1070
    73
1070
     1
1070
    44
1040
1.0
1070
    74
1070
     0
1000
MTEXTEND
  0
POINT
  5
71E8
330
6B9C
100
AcDbEntity
  8
Defpoints
 62
     0
100
AcDbPoint
 10
843.0015315091296
 20
610.4399750133966
 30
0.0
  0
POINT
  5
71E9
330
6B9C
100
AcDbEntity
  8
Defpoints
 62
     0
100
AcDbPoint
 10
845.7015315091295
 20
612.2399750133969
 30
0.0
  0
POINT
  5
71EA
330
6B9C
100
AcDbEntity
  8
Defpoints
 62
     0
100
AcDbPoint
 10
855.5983634791667
 20
612.2399750133969
 30
0.0
  0
ENDBLK
  5
6BA9
330
6B9C
100
AcDbEntity
  8
0
100
AcDbBlockEnd
  0
BLOCK
  5
6C55
330
6C4B
100
AcDbEntity
  8
0
100
AcDbBlockBegin
  2
*D20
 70
     1
 10
0.0
 20
0.0
 30
0.0
  3
*D20
  1

  0
LINE
  5
71F5
330
6C4B
100
AcDbEntity
  8
AM_5
 62
     3
370
    -2
100
AcDbLine
 10
1073.643905250315
 20
614.2399750133965
 30
0.0
 11
1086.287609559589
 21
614.2399750133965
 31
0.0
  0
LINE
  5
71F6
330
6C4B
100
AcDbEntity
  8
AM_5
 62
     3
370
    -2
100
AcDbLine
 10
1076.643905250315
 20
632.2399750133966
 30
0.0
 11
1086.287609559589
 21
632.2399750133966
 31
0.0
  0
LINE
  5
71F7
330
6C4B
100
AcDbEntity
  8
AM_5
 62
     3
100
AcDbLine
 10
1085.287609559588
 20
617.2399750133966
 30
0.0
 11
1085.287609559588
 21
629.2399750133966
 31
0.0
  0
SOLID
  5
71F8
330
6C4B
100
AcDbEntity
  8
AM_5
 62
     3
100
AcDbTrace
 10
1084.787609559588
 20
617.2399750133966
 30
0.0
 11
1085.787609559588
 21
617.2399750133966
 31
0.0
 12
1085.287609559588
 22
614.2399750133965
 32
0.0
 13
1085.287609559588
 23
614.2399750133965
 33
0.0
  0
SOLID
  5
71F9
330
6C4B
100
AcDbEntity
  8
AM_5
 62
     3
100
AcDbTrace
 10
1084.787609559588
 20
629.2399750133966
 30
0.0
 11
1085.787609559588
 21
629.2399750133966
 31
0.0
 12
1085.287609559588
 22
632.2399750133966
 32
0.0
 13
1085.287609559588
 23
632.2399750133966
 33
0.0
  0
MTEXT
  5
71FA
330
6C4B
100
AcDbEntity
  8
AM_5
 62
     6
100
AcDbMText
 10
1082.755890596423
 20
623.0996696055329
 30
0.0
 40
3.0
 41
0.0
 71
     5
 72
     1
  1
\A1;18
 11
0.0000000000000001
 21
1.0
 31
0.0
 73
     1
 44
1.0
1001
ACAD
1000
MTEXTBEGIN
1070
    73
1070
     1
1070
    44
1040
1.0
1070
    74
1070
     0
1000
MTEXTEND
  0
POINT
  5
71FB
330
6C4B
100
AcDbEntity
  8
Defpoints
 62
     0
100
AcDbPoint
 10
1072.643905250315
 20
614.2399750133965
 30
0.0
  0
POINT
  5
71FC
330
6C4B
100
AcDbEntity
  8
Defpoints
 62
     0
100
AcDbPoint
 10
1075.643905250315
 20
632.2399750133966
 30
0.0
  0
POINT
  5
71FD
330
6C4B
100
AcDbEntity
  8
Defpoints
 62
     0
100
AcDbPoint
 10
1085.287609559588
 20
632.2399750133966
 30
0.0
  0
ENDBLK
  5
6C56
330
6C4B
100
AcDbEntity
  8
0
100
AcDbBlockEnd
  0
BLOCK
  5
6E52
330
6E4B
100
AcDbEntity
  8
0
100
AcDbBlockBegin
  2
*D21
 70
     1
 10
0.0
 20
0.0
 30
0.0
  3
*D21
  1

  0
LINE
  5
6E54
330
6E4B
100
AcDbEntity
  8
AM_5
 62
     3
100
AcDbLine
 10
121.7745209601079
 20
75.85282590218707
 30
0.0
 11
115.1274407842457
 21
75.85282590218707
 31
0.0
  0
SOLID
  5
6E55
330
6E4B
100
AcDbEntity
  8
AM_5
 62
     3
100
AcDbTrace
 10
121.7745209601079
 20
76.35282590218707
 30
0.0
 11
121.7745209601079
 21
75.35282590218708
 31
0.0
 12
124.7745209601079
 22
75.85282590218707
 32
0.0
 13
124.7745209601079
 23
75.85282590218707
 33
0.0
  0
SOLID
  5
6E56
330
6E4B
100
AcDbEntity
  8
AM_5
 62
     3
100
AcDbTrace
 10
115.1274407842457
 20
76.35282590218707
 30
0.0
 11
115.1274407842457
 21
75.35282590218708
 31
0.0
 12
112.1274407842458
 22
75.85282590218707
 32
0.0
 13
112.1274407842458
 23
75.85282590218707
 33
0.0
  0
POINT
  5
6E57
330
6E4B
100
AcDbEntity
  8
Defpoints
 62
     0
100
AcDbPoint
 10
124.7745209601079
 20
75.8528259021871
 30
0.0
  0
POINT
  5
6E58
330
6E4B
100
AcDbEntity
  8
Defpoints
 62
     0
100
AcDbPoint
 10
112.1274407842458
 20
75.85282590218707
 30
0.0
  0
POINT
  5
6E59
330
6E4B
100
AcDbEntity
  8
Defpoints
 62
     0
100
AcDbPoint
 10
112.1274407842458
 20
75.85282590218707
 30
0.0
  0
ENDBLK
  5
6E53
330
6E4B
100
AcDbEntity
  8
0
100
AcDbBlockEnd
  0
BLOCK
  5
70B1
330
70A3
100
AcDbEntity
  8
0
100
AcDbBlockBegin
  2
*D22
 70
     1
 10
0.0
 20
0.0
 30
0.0
  3
*D22
  1

  0
LINE
  5
71FE
330
70A3
100
AcDbEntity
  8
AM_5
  6
ACISOTGL
 62
     3
370
    -2
100
AcDbLine
 10
1055.594357780031
 20
622.2399750133968
 30
0.0
 11
1041.737343380702
 21
622.2399750133968
 31
0.0
  0
LINE
  5
71FF
330
70A3
100
AcDbEntity
  8
AM_5
  6
ACISOTGL
 62
     3
370
    -2
100
AcDbLine
 10
1055.352748007714
 20
615.704650781471
 30
0.0
 11
1044.76976880829
 21
610.0775809260596
 31
0.0
  0
ARC
  5
7200
330
70A3
100
AcDbEntity
  8
AM_5
  6
ACISOTGL
 62
     3
100
AcDbCircle
 10
1067.643905250315
 20
622.2399750133968
 30
0.0
 40
24.90656186961337
100
AcDbArc
 50
166.1890679998989
 51
173.0945339999493
  0
ARC
  5
7201
330
70A3
100
AcDbEntity
  8
AM_5
  6
ACISOTGL
 62
     3
100
AcDbCircle
 10
1067.643905250315
 20
622.2399750133968
 30
0.0
 40
24.90656186961337
100
AcDbArc
 50
214.9054660000512
 51
221.8109320001017
  0
ARC
  5
7202
330
70A3
100
AcDbEntity
  8
AM_5
  6
ACISOTGL
 62
     3
100
AcDbCircle
 10
1067.643905250315
 20
622.2399750133968
 30
0.0
 40
24.90656186961337
100
AcDbArc
 50
179.9999999999998
 51
208.0000000000007
  0
SOLID
  5
7203
330
70A3
100
AcDbEntity
  8
AM_5
  6
ACISOTGL
 62
     3
100
AcDbTrace
 10
1043.417111069942
 20
625.204416931982
 30
0.0
 11
1042.41892624828
 21
625.2646420247851
 31
0.0
 12
1042.737343380702
 22
622.2399750133968
 32
0.0
 13
1042.737343380702
 23
622.2399750133968
 33
0.0
  0
SOLID
  5
7204
330
70A3
100
AcDbEntity
  8
AM_5
  6
ACISOTGL
 62
     3
100
AcDbTrace
 10
1046.791565909295
 20
607.7269422431645
 30
0.0
 11
1047.644636826372
 21
608.2487372320595
 31
0.0
 12
1045.652716401148
 22
610.5470524888455
 32
0.0
 13
1045.652716401148
 23
610.5470524888455
 33
0.0
  0
MTEXT
  5
7205
330
70A3
100
AcDbEntity
  8
AM_5
  6
ACISOTGL
 62
     6
100
AcDbMText
 10
1045.914813653409
 20
616.9032931359113
 30
0.0
 40
3.0
 41
0.0
 71
     5
 72
     1
  1
\A1;2-28°
 11
0.2385125964816234
 21
-0.9711394036489274
 31
0.0
 73
     1
 44
1.0
1001
ACAD
1000
MTEXTBEGIN
1070
    73
1070
     1
1070
    44
1040
1.0
1070
    74
1070
     0
1000
MTEXTEND
  0
POINT
  5
7206
330
70A3
100
AcDbEntity
  8
Defpoints
  6
ACISOTGL
 62
     0
100
AcDbPoint
 10
1044.047512158468
 20
614.2683342023773
 30
0.0
  0
POINT
  5
7207
330
70A3
100
AcDbEntity
  8
Defpoints
  6
ACISOTGL
 62
     0
100
AcDbPoint
 10
1079.122223957481
 20
628.3431053296133
 30
0.0
  0
POINT
  5
7208
330
70A3
100
AcDbEntity
  8
Defpoints
  6
ACISOTGL
 62
     0
100
AcDbPoint
 10
1079.842141026854
 20
622.2399750133968
 30
0.0
  0
POINT
  5
7209
330
70A3
100
AcDbEntity
  8
Defpoints
  6
ACISOTGL
 62
     0
100
AcDbPoint
 10
1056.594357780031
 20
622.2399750133968
 30
0.0
  0
POINT
  5
720A
330
70A3
100
AcDbEntity
  8
Defpoints
  6
ACISOTGL
 62
     0
100
AcDbPoint
 10
1056.235695600573
 20
616.1741223442569
 30
0.0
  0
ENDBLK
  5
70B2
330
70A3
100
AcDbEntity
  8
0
100
AcDbBlockEnd
  0
BLOCK
  5
7299
330
7293
100
AcDbEntity
  8
0
100
AcDbBlockBegin
  2
*S23
 70
     1
 10
0.0
 20
0.0
 30
0.0
  3
*S23
  1

  0
LINE
  5
7294
330
7293
100
AcDbEntity
  8
AM_5
100
AcDbLine
 10
809.2046072940018
 20
607.6136790928983
 30
0.0
 11
821.9554113970735
 21
607.6136790928983
 31
0.0
  0
LINE
  5
7295
330
7293
100
AcDbEntity
  8
AM_5
100
AcDbLine
 10
821.9554113970735
 20
607.6136790928983
 30
0.0
 11
823.9555577390671
 21
607.6136790928983
 31
0.0
  0
LINE
  5
7296
330
7293
100
AcDbEntity
  8
AM_5
100
AcDbLine
 10
823.9555577390671
 20
607.6136790928983
 30
0.0
 11
826.5945314357241
 21
610.9470203193166
 31
0.0
  0
TRACE
  5
7297
330
7293
100
AcDbEntity
  8
AM_5
100
AcDbTrace
 10
826.9558028590436
 20
610.6610052615307
 30
0.0
 11
826.2332600124045
 21
611.2330353771024
 31
0.0
 12
828.7670314968956
 22
613.6911492310497
 32
0.0
 13
828.7670314968956
 23
613.6911492310497
 33
0.0
  0
MTEXT
  5
7298
330
7293
100
AcDbEntity
  8
AM_5
 62
     2
100
AcDbMText
 10
809.2046072940018
 20
609.3636790928983
 30
0.0
 40
3.5
 41
0.0
 71
     9
 72
     5
  1

  7
ACISOTS
 73
     1
 44
1.0
1001
ACAD
1000
MTEXTBEGIN
1070
    73
1070
     1
1070
    44
1040
1.0
1070
    74
1070
     0
1000
MTEXTEND
  0
ENDBLK
  5
729A
330
7293
100
AcDbEntity
  8
0
100
AcDbBlockEnd
  0
ENDSEC
  0
SECTION
  2
ENTITIES
  0
TEXT
  5
13FA
330
1F
100
AcDbEntity
  8
SPEC
100
AcDbText
 10
1198.0
 20
654.0
 30
0.0
 40
2.4
  1

 41
0.7
  7
ROMANS
100
AcDbText
  0
DIMENSION
  5
4017
330
1F
100
AcDbEntity
  8
DIM
100
AcDbDimension
  2
*D7
 10
972.4231469017901
 20
653.3879240511261
 30
0.0
 11
941.4718223243832
 21
653.3879240511261
 31
0.0
 70
   160
  1
<>
 71
     5
 42
47.99999999649265
  3
STANDARD
100
AcDbAlignedDimension
 13
924.4231469052975
 23
643.2399750133964
 33
0.0
 14
972.4231469017901
 24
631.9899749520169
 34
0.0
100
AcDbRotatedDimension
1001
ACAD
1000
DSTYLE
1002
{
1070
    47
1040
1.0
1070
   147
1040
1.0
1070
    48
1040
1.0
1070
    72
1070
     0
1070
    71
1070
     1
1002
}
  0
LINE
  5
401C
330
1F
100
AcDbEntity
  8
CENTER
  6
CENTER
100
AcDbLine
 10
907.1644890373768
 20
622.2399750133965
 30
0.0
 11
975.2582693930607
 21
622.2399750133965
 31
0.0
  0
LINE
  5
4024
330
1F
100
AcDbEntity
  8
CENTER
  6
CENTER
100
AcDbLine
 10
825.0032957325915
 20
622.2399750133965
 30
0.0
 11
850.2510789794138
 21
622.2399750133965
 31
0.0
  0
TEXT
  5
4025
330
1F
100
AcDbEntity
  8
DIM
100
AcDbText
 10
814.5898619426164
 20
666.0
 30
0.0
 40
3.571428571428572
  1
Front view and mounting
100
AcDbText
  0
DIMENSION
  5
4033
330
1F
100
AcDbEntity
  8
DIM
100
AcDbDimension
  2
*D8
 10
924.4231469052975
 20
646.7756303471437
 30
0.0
 11
934.0241018848336
 21
646.7756303471437
 31
0.0
 70
   160
 71
     5
 42
1.5
  3
STANDARD
100
AcDbAlignedDimension
 13
922.9231469052976
 23
629.7399750133966
 33
0.0
 14
924.4231469052975
 24
632.2399750133966
 34
0.0
100
AcDbRotatedDimension
  0
TOLERANCE
  5
4034
330
1F
100
AcDbEntity
  8
DIM
100
AcDbFcf
  3
STANDARD
 10
890.2584388713979
 20
649.8755819980706
 30
0.0
  1
{\Fgdt;r}%%v0.075%%v%%vA%%v%%v
 11
0.0000000000000001
 21
1.0
 31
0.0
1001
ACAD
1000
DSTYLE
1002
{
1070
   140
1040
3.0
1070
   147
1040
0.9523809523809527
1002
}
  0
TOLERANCE
  5
4035
330
1F
100
AcDbEntity
  8
DIM
100
AcDbFcf
  3
STANDARD
 10
899.5586698451154
 20
658.0497683165272
 30
0.0
  1
{\Fgdt;h}%%v0.05%%v%%v%%v%%v
 11
0.0000000000000001
 21
1.0
 31
0.0
1001
ACAD
1000
DSTYLE
1002
{
1070
   140
1040
3.0
1070
   147
1040
0.9523809523809527
1002
}
  0
DIMENSION
  5
4036
330
1F
100
AcDbEntity
  8
DIM
100
AcDbDimension
  2
*D9
 10
924.4231469052975
 20
653.3879240511261
 30
0.0
 11
916.2838493462954
 21
653.3879240511261
 31
0.0
 70
   160
  1
<>
 71
     5
 42
15.00000000000011
  3
STANDARD
100
AcDbAlignedDimension
 13
909.4231469052974
 23
624.2399750133967
 33
0.0
 14
924.4231469052975
 24
632.2399750133966
 34
0.0
100
AcDbRotatedDimension
1001
ACAD
1000
DSTYLE
1002
{
1070
    47
1040
1.0
1070
   147
1040
1.0
1070
    48
1040
1.0
1070
    72
1070
     0
1070
    71
1070
     1
1002
}
  0
LINE
  5
4040
330
1F
100
AcDbEntity
  8
CENTER
  6
CENTER
100
AcDbLine
 10
837.2015315091298
 20
610.0844767271767
 30
0.0
 11
837.2015315091298
 21
634.2411789587177
 31
0.0
  0
LINE
  5
4054
330
1F
100
AcDbEntity
  8
SPEC
100
AcDbLine
 10
909.4231469052974
 20
620.2399750133964
 30
0.0
 11
922.9231469052976
 21
620.2399750133966
 31
0.0
  0
TOLERANCE
  5
4055
330
1F
100
AcDbEntity
  8
DIM
100
AcDbFcf
  3
STANDARD
 10
895.4837641732732
 20
605.0971178705392
 30
0.0
  1
{\Fgdt;b}%%v0.1%%v%%vA%%v%%v
1001
ACAD
1000
DSTYLE
1002
{
1070
   140
1040
3.0
1070
   147
1040
0.9523809523809527
1002
}
  0
LINE
  5
4056
330
1F
100
AcDbEntity
  8
SPEC
100
AcDbLine
 10
909.4231469052974
 20
624.2399750133967
 30
0.0
 11
922.9231469052976
 21
624.2399750133966
 31
0.0
  0
LINE
  5
4057
102
{ACAD_REACTORS
330
63F8
102
}
330
1F
100
AcDbEntity
  8
SPEC
100
AcDbLine
 10
909.4231469052974
 20
624.2399750133967
 30
0.0
 11
909.4231469052974
 21
620.2399750133964
 31
0.0
  0
LINE
  5
4058
330
1F
100
AcDbEntity
  8
DIM
100
AcDbLine
 10
902.5586698451151
 20
649.0968004150488
 30
0.0
 11
902.5586698451151
 21
659.3780383001033
 31
0.0
  0
TOLERANCE
  5
405A
330
1F
100
AcDbEntity
  8
DIM
100
AcDbFcf
  3
STANDARD
 10
912.2271654286333
 20
637.6515585647751
 30
0.0
  1
%%v%%v%%vA%%v%%v
1001
ACAD
1000
DSTYLE
1002
{
1070
   140
1040
3.0
1070
   147
1040
0.9523809523809527
1002
}
  0
LEADER
  5
405B
330
1F
100
AcDbEntity
  8
DIM
100
AcDbLeader
  3
STANDARD
 76
     2
 10
915.2480572462176
 20
624.2399750133966
 30
0.0
 10
915.2480572462176
 20
634.651558564775
 30
0.0
210
0.0
220
0.0
230
-1.0
1001
ACAD
1000
DSTYLE
1002
{
1070
   341
1005
2FB
1070
    40
1040
1.0
1070
    77
1070
     0
1002
}
  0
LINE
  5
405E
330
1F
100
AcDbEntity
  8
SPEC
100
AcDbLine
 10
924.4231469052975
 20
632.2399750133966
 30
0.0
 11
924.4231469052976
 21
612.2399750133966
 31
0.0
  0
LINE
  5
405F
102
{ACAD_REACTORS
330
6456
102
}
330
1F
100
AcDbEntity
  8
SPEC
100
AcDbLine
 10
922.9231469052974
 20
614.7399750133965
 30
0.0
 11
922.9231469052972
 21
629.7399750133966
 31
0.0
  0
LEADER
  5
4062
330
1F
100
AcDbEntity
  8
DIM
100
AcDbLeader
  3
STANDARD
 76
     2
 10
924.4231469052975
 20
605.0971178705392
 30
0.0
 10
918.1740779522636
 20
605.0971178705392
 30
0.0
1001
ACAD
1000
DSTYLE
1002
{
1070
    40
1040
1.0
1070
    77
1070
     0
1002
}
  0
LINE
  5
4065
102
{ACAD_REACTORS
330
6456
102
}
330
1F
100
AcDbEntity
  8
SPEC
100
AcDbLine
 10
922.9231469052976
 20
614.7399750133965
 30
0.0
 11
924.4231469052975
 21
614.7399750133965
 31
0.0
  0
LINE
  5
406B
330
1F
100
AcDbEntity
  8
SPEC
100
AcDbLine
 10
922.9231469052976
 20
629.7399750133966
 30
0.0
 11
924.4231469052975
 21
629.7399750133966
 31
0.0
  0
TEXT
  5
4071
330
1F
100
AcDbEntity
  8
DIM
100
AcDbText
 10
943.9290705052858
 20
666.0
 30
0.0
 40
3.571428571428572
  1
Side view
100
AcDbText
  0
DIMENSION
  5
4075
330
1F
100
AcDbEntity
  8
DIM
  6
ACISOTGL
100
AcDbDimension
  2
*D10
 10
972.4231469017903
 20
653.3756867518626
 30
0.0
 11
991.9325602750113
 21
653.3756867518626
 31
0.0
 70
   160
  1
<>
 71
     5
 42
9.50000000350758
  3
STANDARD
100
AcDbAlignedDimension
 13
981.9231469052978
 23
623.7399750133966
 33
0.0
 14
972.4231469017903
 24
631.9899749522055
 34
0.0
 50
180.0
100
AcDbRotatedDimension
1001
ACAD
1000
DSTYLE
1002
{
1070
    47
1040
0.5
1070
   147
1040
1.0
1070
    48
1040
0.5
1070
    72
1070
     0
1070
    71
1070
     1
1002
}
  0
DIMENSION
  5
4076
330
1F
100
AcDbEntity
  8
DIM
  6
ACISOTGL
100
AcDbDimension
  2
*D11
 10
990.8674730958953
 20
623.7399750133966
 30
0.0
 11
990.8674730958951
 21
642.0769316736636
 31
0.0
 70
   160
  1
%%c<>
 71
     5
 42
3.000000000000341
  3
STANDARD$0
100
AcDbAlignedDimension
 13
981.9231469052978
 23
620.7399750133962
 33
0.0
 14
981.9231469052978
 24
623.7399750133966
 34
0.0
 50
90.0
100
AcDbRotatedDimension
1001
ACAD
1000
DSTYLE
1002
{
1070
   146
1040
0.8
1070
   284
1070
     8
1070
   272
1070
     3
1070
    48
1040
0.013
1070
   147
1040
1.0
1070
    72
1070
     0
1070
    71
1070
     1
1070
    78
1070
     8
1070
   144
1040
1.0
1070
    40
1040
1.0
1002
}
  0
MTEXT
  5
4077
102
{ACAD_REACTORS
330
4083
102
}
330
1F
100
AcDbEntity
  8
DATA
  6
HIDDEN
 62
     6
100
AcDbMText
 10
998.8289604217607
 20
643.8479012684621
 30
0.0
 40
3.0
 41
44.73909209803113
 71
     1
 72
     1
  1
(only for type ST2018L0804-B\PReady for encoder + driver mount)
 73
     1
 44
1.0
1001
ACAD
1000
ACAD_MTEXT_DEFINED_HEIGHT_BEGIN
1070
    46
1040
0.0
1000
ACAD_MTEXT_DEFINED_HEIGHT_END
1000
MTEXTBEGIN
1070
    73
1070
     1
1070
    44
1040
1.0
1070
    74
1070
     0
1000
MTEXTEND
  0
TEXT
  5
407A
330
1F
100
AcDbEntity
  8
DATA
100
AcDbText
 10
992.0295671321492
 20
591.7638593172391
 30
0.0
 40
3.0
  1
UL1007 AWG26
100
AcDbText
  0
LEADER
  5
407B
330
1F
100
AcDbEntity
  8
DIM
100
AcDbLeader
  3
STANDARD
 76
     3
 10
979.1292008912504
 20
612.6485473222015
 30
0.0
 10
991.7875274690636
 20
586.3044374661485
 30
0.0
 10
1021.835724111892
 20
586.3044374661485
 30
0.0
211
-1.0
221
0.0
231
0.0
210
0.0
220
0.0
230
-1.0
1001
ACAD
1000
DSTYLE
1002
{
1070
    40
1040
1.0
1070
    77
1070
     0
1002
}
  0
TEXT
  5
407C
330
1F
100
AcDbEntity
  8
DATA
100
AcDbText
 10
992.1860178217329
 20
587.814589398291
 30
0.0
 40
3.0
  1
L=300+10mm
100
AcDbText
  0
LINE
  5
4080
330
1F
100
AcDbEntity
  8
SPEC
100
AcDbLine
 10
972.4231469052979
 20
617.1399750133965
 30
0.0
 11
972.4231469052975
 21
627.3399750133966
 31
0.0
  0
LINE
  5
4081
330
1F
100
AcDbEntity
  8
SPEC
  6
ACISOTGL
100
AcDbLine
 10
981.9231469052978
 20
623.7399750133966
 30
0.0
 11
981.9231469052978
 21
620.7399750133962
 31
0.0
  0
LINE
  5
4082
330
1F
100
AcDbEntity
  8
SPEC
  6
ACISOTGL
100
AcDbLine
 10
981.9231469052978
 20
620.7399750133962
 30
0.0
 11
972.4231469052977
 21
620.7399750133966
 31
0.0
  0
LEADER
  5
4083
330
1F
100
AcDbEntity
  8
SPEC
  6
ACISOTGL
100
AcDbLeader
  3
STANDARD
 73
     0
 40
9.356980445657114
 41
37.73124147339699
 76
     3
 10
979.5706776376899
 20
622.1078333607303
 30
0.0
 10
995.4148890887998
 20
638.0965221766984
 30
0.0
 10
997.5237293821713
 20
638.0797027416244
 30
0.0
213
-2.423850538799245
223
-1.208600593008168
233
0.0
1001
ACAD
1000
DSTYLE
1002
{
1070
    40
1040
1.0
1070
    77
1070
     0
1002
}
  0
LINE
  5
408C
330
1F
100
AcDbEntity
  8
SPEC
  6
ACISOTGL
100
AcDbLine
 10
981.9231469052978
 20
623.7399750133966
 30
0.0
 11
972.4231469052977
 21
623.7399750133964
 31
0.0
  0
LEADER
  5
40A4
330
1F
100
AcDbEntity
  8
DIM
  6
ACISOTGL
100
AcDbLeader
  3
STANDARD
 76
     3
 10
1062.754449809229
 20
619.6578814180743
 30
0.0
 10
1052.775819349968
 20
632.0256617251857
 30
0.0
 10
1039.983549821532
 20
632.0256617251857
 30
0.0
1001
ACAD
1000
DSTYLE
1002
{
1070
    40
1040
1.0
1070
    77
1070
     0
1002
}
  0
TEXT
  5
40D9
330
1F
100
AcDbEntity
  8
DIM
100
AcDbText
 10
1051.754449809229
 20
666.0
 30
0.0
 40
3.571428571428572
  1
Rear view
100
AcDbText
  0
LEADER
  5
40DA
330
1F
100
AcDbEntity
  8
DIM
100
AcDbLeader
  3
STANDARD
 76
     3
 10
994.6787742585318
 20
612.0262142851839
 30
0.0
 10
1000.566418666126
 20
597.3686473766012
 30
0.0
 10
1035.0
 20
597.37
 30
0.0
211
-1.0
221
0.0
231
0.0
210
0.0
220
0.0
230
-1.0
1001
ACAD
1000
DSTYLE
1002
{
1070
    40
1040
1.0
1070
    77
1070
     0
1002
}
  0
LINE
  5
586E
330
1F
100
AcDbEntity
  8
SPEC
100
AcDbLine
 10
827.2015315091296
 20
613.7399750133965
 30
0.0
 11
827.2015315091294
 21
630.7399750133965
 31
0.0
  0
LINE
  5
586F
330
1F
100
AcDbEntity
  8
SPEC
100
AcDbLine
 10
845.7015315091297
 20
632.2399750133966
 30
0.0
 11
828.7015315091295
 21
632.2399750133966
 31
0.0
  0
LINE
  5
5870
330
1F
100
AcDbEntity
  8
SPEC
100
AcDbLine
 10
845.7015315091295
 20
612.2399750133969
 30
0.0
 11
828.7015315091295
 21
612.2399750133966
 31
0.0
  0
LINE
  5
5871
102
{ACAD_REACTORS
330
658C
102
}
330
1F
100
AcDbEntity
  8
SPEC
100
AcDbLine
 10
847.2015315091294
 20
613.7399750133969
 30
0.0
 11
847.2015315091297
 21
630.7399750133965
 31
0.0
  0
CIRCLE
  5
598E
330
1F
100
AcDbEntity
  8
SPEC
100
AcDbCircle
 10
837.2015315091298
 20
622.2399750133965
 30
0.0
 40
7.5
  0
CIRCLE
  5
598F
330
1F
100
AcDbEntity
  8
SPEC
100
AcDbCircle
 10
837.2015315091298
 20
622.2399750133965
 30
0.0
 40
2.0
  0
LINE
  5
6048
330
1F
100
AcDbEntity
  8
CENTER
  6
CENTER
100
AcDbLine
 10
829.2015315091298
 20
612.1399750133964
 30
0.0
 11
829.2015315091298
 21
615.770503701233
 31
0.0
  0
LINE
  5
604A
330
1F
100
AcDbEntity
  8
CENTER
  6
AM_ISO08W050
100
AcDbLine
 10
847.3015315091297
 20
614.2399750133964
 30
0.0
 11
843.1512988056011
 21
614.2399750133964
 31
0.0
  0
CIRCLE
  5
604D
330
1F
100
AcDbEntity
  8
SPEC
  6
ACISOTGL
100
AcDbCircle
 10
829.2015315091298
 20
630.2399750133965
 30
0.0
 40
1.0
  0
CIRCLE
  5
604F
330
1F
100
AcDbEntity
  8
SPEC
  6
ACISOTGL
100
AcDbCircle
 10
845.2015315091298
 20
630.2399750133965
 30
0.0
 40
1.0
  0
CIRCLE
  5
6050
330
1F
100
AcDbEntity
  8
SPEC
  6
ACISOTGL
100
AcDbCircle
 10
845.2015315091298
 20
614.2399750133964
 30
0.0
 40
1.0
  0
CIRCLE
  5
6051
330
1F
100
AcDbEntity
  8
SPEC
  6
ACISOTGL
100
AcDbCircle
 10
829.2015315091298
 20
614.2399750133963
 30
0.0
 40
1.0
  0
CIRCLE
  5
6052
330
1F
100
AcDbEntity
  8
SPEC
100
AcDbCircle
 10
829.2015315091298
 20
630.2399750133965
 30
0.0
 40
0.7
  0
CIRCLE
  5
6053
330
1F
100
AcDbEntity
  8
SPEC
100
AcDbCircle
 10
845.2015315091298
 20
630.2399750133965
 30
0.0
 40
0.7
  0
CIRCLE
  5
6054
330
1F
100
AcDbEntity
  8
SPEC
100
AcDbCircle
 10
845.2015315091298
 20
614.2399750133964
 30
0.0
 40
0.7
  0
CIRCLE
  5
6055
330
1F
100
AcDbEntity
  8
SPEC
100
AcDbCircle
 10
829.2015315091298
 20
614.2399750133963
 30
0.0
 40
0.7
  0
LINE
  5
606D
102
{ACAD_REACTORS
330
65CF
102
}
330
1F
100
AcDbEntity
  8
CENTER
  6
CENTER
100
AcDbLine
 10
829.2015315091298
 20
628.4697478112256
 30
0.0
 11
829.2015315091298
 21
632.3399750133965
 31
0.0
  0
LINE
  5
606F
330
1F
100
AcDbEntity
  8
CENTER
  6
AM_ISO08W050
100
AcDbLine
 10
831.1256531442197
 20
614.2399750133964
 30
0.0
 11
827.1015315091299
 21
614.2399750133964
 31
0.0
  0
LINE
  5
6070
330
1F
100
AcDbEntity
  8
CENTER
  6
CENTER
100
AcDbLine
 10
845.2015315091298
 20
612.1399750133965
 30
0.0
 11
845.2015315091298
 21
615.770503701233
 31
0.0
  0
LINE
  5
6071
102
{ACAD_REACTORS
330
65CF
102
}
330
1F
100
AcDbEntity
  8
CENTER
  6
CENTER
100
AcDbLine
 10
845.2015315091296
 20
628.4697478112258
 30
0.0
 11
845.2015315091296
 21
632.3399750133967
 31
0.0
  0
LINE
  5
6072
330
1F
100
AcDbEntity
  8
CENTER
  6
CENTER
100
AcDbLine
 10
847.3015315091297
 20
630.2399750133964
 30
0.0
 11
843.1512988056013
 21
630.2399750133965
 31
0.0
  0
LINE
  5
6073
330
1F
100
AcDbEntity
  8
CENTER
  6
CENTER
100
AcDbLine
 10
831.1256531442197
 20
630.2399750133968
 30
0.0
 11
827.1015315091299
 21
630.2399750133968
 31
0.0
  0
LINE
  5
6190
330
1F
100
AcDbEntity
  8
SPEC
100
AcDbLine
 10
924.4231469052976
 20
612.2399750133966
 30
0.0
 11
970.4231469052977
 21
612.2399750133963
 31
0.0
  0
LINE
  5
61C2
330
1F
100
AcDbEntity
  8
SPEC
100
AcDbLine
 10
930.4231469052975
 20
632.2399750133966
 30
0.0
 11
930.4231469052975
 21
612.2399750133966
 31
0.0
  0
LINE
  5
61C6
330
1F
100
AcDbEntity
  8
SPEC
100
AcDbLine
 10
964.9231469052976
 20
632.2399750133966
 30
0.0
 11
964.9231469052974
 21
610.4399750133966
 31
0.0
  0
LINE
  5
61C7
330
1F
100
AcDbEntity
  8
SPEC
100
AcDbLine
 10
970.4231469017901
 20
632.2399750133967
 30
0.0
 11
970.4231469052977
 21
612.2399750133963
 31
0.0
  0
LINE
  5
61CA
330
1F
100
AcDbEntity
  8
SPEC
100
AcDbLine
 10
970.4231469052977
 20
627.5899750133966
 30
0.0
 11
972.1731469052974
 21
627.5899750133966
 31
0.0
  0
LINE
  5
61CB
330
1F
100
AcDbEntity
  8
SPEC
100
AcDbLine
 10
970.4231469052977
 20
616.8899750133966
 30
0.0
 11
972.1731469052977
 21
616.8899750133966
 31
0.0
  0
ARC
  5
61CE
330
1F
100
AcDbEntity
  8
SPEC
100
AcDbCircle
 10
972.1731469017901
 20
631.9899749520169
 30
0.0
 40
0.25
100
AcDbArc
 50
0.0000000000003053
 51
90.0
1001
GENIUS_GENODEF_13
1002
{
1000
HIER
1070
     0
1002
}
1002
{
1000
MANEDIT
1070
     0
1002
}
1002
{
1000
NOSEL
1070
     0
1002
}
1002
{
1000
BEHIND
1070
     0
1002
}
1002
{
1000
OTHER
1070
     0
1002
}
1002
{
1000
REACTOR
1002
}
1001
GENIUS_GENOBJ-N-FIL_13
1002
{
1000
OWNER
1000
GEN
1002
}
  0
ARC
  5
61D0
330
1F
100
AcDbEntity
  8
SPEC
100
AcDbCircle
 10
972.1731469052977
 20
610.6899750133966
 30
0.0
 40
0.25
100
AcDbArc
 50
270.0
 51
0.0000000000006488
1001
GENIUS_GENODEF_13
1002
{
1000
HIER
1070
     0
1002
}
1002
{
1000
MANEDIT
1070
     0
1002
}
1002
{
1000
NOSEL
1070
     0
1002
}
1002
{
1000
BEHIND
1070
     0
1002
}
1002
{
1000
OTHER
1070
     0
1002
}
1002
{
1000
REACTOR
1002
}
1001
GENIUS_GENOBJ-N-FIL_13
1002
{
1000
OWNER
1000
GEN
1002
}
  0
ARC
  5
61D2
330
1F
100
AcDbEntity
  8
SPEC
100
AcDbCircle
 10
972.1731469052977
 20
617.1399750133965
 30
0.0
 40
0.25
100
AcDbArc
 50
270.0
 51
0.0000000000009923
1001
GENIUS_GENODEF_13
1002
{
1000
HIER
1070
     0
1002
}
1002
{
1000
MANEDIT
1070
     0
1002
}
1002
{
1000
NOSEL
1070
     0
1002
}
1002
{
1000
BEHIND
1070
     0
1002
}
1002
{
1000
OTHER
1070
     0
1002
}
1002
{
1000
REACTOR
1002
}
1001
GENIUS_GENOBJ-N-FIL_13
1002
{
1000
OWNER
1000
GEN
1002
}
  0
ARC
  5
61D4
330
1F
100
AcDbEntity
  8
SPEC
100
AcDbCircle
 10
972.1731469052974
 20
627.3399750133966
 30
0.0
 40
0.25
100
AcDbArc
 50
0.0000000000013231
 51
90.0
1001
GENIUS_GENOBJ-N-FIL_13
1002
{
1000
OWNER
1000
GEN
1002
}
1001
GENIUS_GENODEF_13
1002
{
1000
HIER
1070
     0
1002
}
1002
{
1000
MANEDIT
1070
     0
1002
}
1002
{
1000
NOSEL
1070
     0
1002
}
1002
{
1000
BEHIND
1070
     0
1002
}
1002
{
1000
OTHER
1070
     0
1002
}
1002
{
1000
REACTOR
1002
}
  0
LINE
  5
61D5
330
1F
100
AcDbEntity
  8
SPEC
100
AcDbLine
 10
972.4231469052975
 20
627.3399750133966
 30
0.0
 11
972.4231469017901
 21
631.9899749520169
 31
0.0
  0
LINE
  5
61D6
330
1F
100
AcDbEntity
  8
SPEC
100
AcDbLine
 10
972.4231469052977
 20
617.1399750133965
 30
0.0
 11
972.4231469052977
 21
610.6899750133966
 31
0.0
  0
LINE
  5
61F5
330
1F
100
AcDbEntity
  8
CENTER
  6
AM_ISO08W050
100
AcDbLine
 10
972.5231469052976
 20
614.2399750133964
 30
0.0
 11
968.3729142017693
 21
614.2399750133964
 31
0.0
  0
LINE
  5
61F6
330
1F
100
AcDbEntity
  8
CENTER
  6
AM_ISO08W050
100
AcDbLine
 10
972.5231469052978
 20
630.2399750133964
 30
0.0
 11
968.3729142017694
 21
630.2399750133965
 31
0.0
  0
LINE
  5
6245
330
1F
100
AcDbEntity
  8
SPEC
100
AcDbLine
 10
972.1731469105588
 20
632.2399749520169
 30
0.0
 11
970.4231469052977
 21
632.2399750133968
 31
0.0
  0
LINE
  5
6246
330
1F
100
AcDbEntity
  8
SPEC
100
AcDbLine
 10
971.8567107309899
 20
629.3185329461305
 30
0.0
 11
970.8815147049641
 21
630.0457457718248
 31
0.0
  0
LINE
  5
624A
330
1F
100
AcDbEntity
  8
SPEC
100
AcDbLine
 10
970.8815147049641
 20
630.434204254968
 30
0.0
 11
970.8815147049641
 21
630.0457457718248
 31
0.0
  0
LINE
  5
624C
330
1F
100
AcDbEntity
  8
SPEC
100
AcDbLine
 10
971.8551887014989
 20
613.3192565963587
 30
0.0
 11
970.8815147049641
 21
614.0457457718252
 31
0.0
  0
LINE
  5
624F
330
1F
100
AcDbEntity
  8
SPEC
100
AcDbLine
 10
971.8551877153341
 20
615.1606957531554
 30
0.0
 11
970.8815147049641
 21
614.4342042549683
 31
0.0
  0
LINE
  5
62B0
102
{ACAD_REACTORS
330
66AA
102
}
330
1F
100
AcDbEntity
  8
CENTER
  6
CENTER
100
AcDbLine
 10
1055.445669473777
 20
622.2399750133965
 30
0.0
 11
1078.6934527206
 21
622.2399750133965
 31
0.0
  0
LINE
  5
62B1
330
1F
100
AcDbEntity
  8
CENTER
  6
CENTER
100
AcDbLine
 10
1067.643905250315
 20
610.0844767271767
 30
0.0
 11
1067.643905250315
 21
634.2411789587177
 31
0.0
  0
LINE
  5
62BC
330
1F
100
AcDbEntity
  8
CENTER
  6
CENTER
100
AcDbLine
 10
1059.643905250315
 20
612.1399750133964
 30
0.0
 11
1059.643905250315
 21
616.5606393224159
 31
0.0
  0
LINE
  5
62BD
330
1F
100
AcDbEntity
  8
CENTER
  6
CENTER
100
AcDbLine
 10
1059.643905250315
 20
628.2399750133966
 30
0.0
 11
1059.643905250315
 21
632.3399750133965
 31
0.0
  0
LINE
  5
62BE
330
1F
100
AcDbEntity
  8
CENTER
  6
CENTER
100
AcDbLine
 10
1077.743905250315
 20
614.2399750133964
 30
0.0
 11
1073.593672546787
 21
614.2399750133964
 31
0.0
  0
LINE
  5
62BF
330
1F
100
AcDbEntity
  8
CENTER
  6
CENTER
100
AcDbLine
 10
1061.973741960798
 20
614.2399750133964
 30
0.0
 11
1057.543905250315
 21
614.2399750133964
 31
0.0
  0
LINE
  5
62C8
330
1F
100
AcDbEntity
  8
CENTER
  6
CENTER
100
AcDbLine
 10
1075.643905250315
 20
612.1399750133965
 30
0.0
 11
1075.643905250315
 21
616.2399750133962
 31
0.0
  0
LINE
  5
62C9
330
1F
100
AcDbEntity
  8
CENTER
  6
CENTER
100
AcDbLine
 10
1075.643905250315
 20
628.2399750133966
 30
0.0
 11
1075.643905250315
 21
632.3399750133967
 31
0.0
  0
LINE
  5
62CA
330
1F
100
AcDbEntity
  8
CENTER
  6
CENTER
100
AcDbLine
 10
1077.743905250315
 20
630.2399750133964
 30
0.0
 11
1073.593672546787
 21
630.2399750133965
 31
0.0
  0
LINE
  5
62CB
330
1F
100
AcDbEntity
  8
CENTER
  6
CENTER
100
AcDbLine
 10
1061.857512012859
 20
630.2399750133968
 30
0.0
 11
1057.543905250316
 21
630.2399750133968
 31
0.0
  0
CIRCLE
  5
630C
330
1F
100
AcDbEntity
  8
SPEC
100
AcDbCircle
 10
1059.643905250315
 20
630.2399750133965
 30
0.0
 40
1.8
  0
LWPOLYLINE
  5
631A
330
1F
100
AcDbEntity
  8
SPEC
100
AcDbPolyline
 90
        4
 70
     1
 43
0.0
 10
1059.493905250315
 20
631.1780581653612
 10
1059.793905250316
 20
631.1780581653612
 10
1059.793905250316
 20
629.3018918614319
 10
1059.493905250315
 20
629.3018918614319
1001
GENIUS_GENREC_14
1002
{
1000
PYDIR
1011
1059.493905250315
1021
629.3018918614319
1031
0.0
1002
}
1002
{
1000
PXDIR
1011
1059.793905250316
1021
631.1780581653612
1031
0.0
1002
}
1002
{
1000
PORI
1011
1059.493905250315
1021
631.1780581653612
1031
0.0
1002
}
1002
{
1000
PINS
1011
1059.493905250315
1021
631.1780581653612
1031
0.0
1002
}
1002
{
1000
PINS2
1011
1059.793905250316
1021
629.3018918614319
1031
0.0
1002
}
1002
{
1000
C
1070
     1
1002
}
1001
GENIUS_GENOBJ-N-REC_13
1002
{
1000
OWNER
1000
GEN
1002
}
1001
GENIUS_GENODEF_13
1002
{
1000
HIER
1070
     0
1002
}
1002
{
1000
MANEDIT
1070
     0
1002
}
1002
{
1000
NOSEL
1070
     0
1002
}
1002
{
1000
BEHIND
1070
     0
1002
}
1002
{
1000
OTHER
1070
     0
1002
}
1002
{
1000
REACTOR
1002
}
  0
LWPOLYLINE
  5
6328
330
1F
100
AcDbEntity
  8
SPEC
100
AcDbPolyline
 90
        4
 70
     1
 43
0.0
 10
1060.58198840228
 20
630.0899750133965
 10
1058.70582209835
 20
630.0899750133965
 10
1058.70582209835
 20
630.3899750133965
 10
1060.58198840228
 20
630.3899750133965
1001
GENIUS_GENREC_14
1002
{
1000
PYDIR
1011
1060.58198840228
1021
630.3899750133965
1031
0.0
1002
}
1002
{
1000
PXDIR
1011
1058.70582209835
1021
630.0899750133965
1031
0.0
1002
}
1002
{
1000
PORI
1011
1060.58198840228
1021
630.0899750133965
1031
0.0
1002
}
1002
{
1000
PINS
1011
1060.58198840228
1021
630.0899750133965
1031
0.0
1002
}
1002
{
1000
PINS2
1011
1058.70582209835
1021
630.3899750133965
1031
0.0
1002
}
1002
{
1000
C
1070
     1
1002
}
1001
GENIUS_GENODEF_13
1002
{
1000
HIER
1070
     0
1002
}
1002
{
1000
MANEDIT
1070
     0
1002
}
1002
{
1000
NOSEL
1070
     0
1002
}
1002
{
1000
BEHIND
1070
     0
1002
}
1002
{
1000
OTHER
1070
     0
1002
}
1002
{
1000
REACTOR
1002
}
1001
GENIUS_GENOBJ-N-REC_13
1002
{
1000
OWNER
1000
GEN
1002
}
  0
LWPOLYLINE
  5
6337
330
1F
100
AcDbEntity
  8
SPEC
100
AcDbPolyline
 90
        4
 70
     1
 43
0.0
 10
1075.493905250315
 20
631.1780581653612
 10
1075.793905250315
 20
631.1780581653612
 10
1075.793905250315
 20
629.3018918614319
 10
1075.493905250315
 20
629.3018918614319
1001
GENIUS_GENREC_14
1002
{
1000
PYDIR
1011
1075.493905250315
1021
629.3018918614319
1031
0.0
1002
}
1002
{
1000
PXDIR
1011
1075.793905250315
1021
631.1780581653612
1031
0.0
1002
}
1002
{
1000
PORI
1011
1075.493905250315
1021
631.1780581653612
1031
0.0
1002
}
1002
{
1000
PINS
1011
1075.493905250315
1021
631.1780581653612
1031
0.0
1002
}
1002
{
1000
PINS2
1011
1075.793905250315
1021
629.3018918614319
1031
0.0
1002
}
1002
{
1000
C
1070
     1
1002
}
1001
GENIUS_GENOBJ-N-REC_13
1002
{
1000
OWNER
1000
GEN
1002
}
1001
GENIUS_GENODEF_13
1002
{
1000
HIER
1070
     0
1002
}
1002
{
1000
MANEDIT
1070
     0
1002
}
1002
{
1000
NOSEL
1070
     0
1002
}
1002
{
1000
BEHIND
1070
     0
1002
}
1002
{
1000
OTHER
1070
     0
1002
}
1002
{
1000
REACTOR
1002
}
  0
LWPOLYLINE
  5
6338
330
1F
100
AcDbEntity
  8
SPEC
100
AcDbPolyline
 90
        4
 70
     1
 43
0.0
 10
1076.58198840228
 20
630.0899750133965
 10
1074.70582209835
 20
630.0899750133965
 10
1074.70582209835
 20
630.3899750133965
 10
1076.58198840228
 20
630.3899750133965
1001
GENIUS_GENREC_14
1002
{
1000
PYDIR
1011
1076.58198840228
1021
630.3899750133965
1031
0.0
1002
}
1002
{
1000
PXDIR
1011
1074.70582209835
1021
630.0899750133965
1031
0.0
1002
}
1002
{
1000
PORI
1011
1076.58198840228
1021
630.0899750133965
1031
0.0
1002
}
1002
{
1000
PINS
1011
1076.58198840228
1021
630.0899750133965
1031
0.0
1002
}
1002
{
1000
PINS2
1011
1074.70582209835
1021
630.3899750133965
1031
0.0
1002
}
1002
{
1000
C
1070
     1
1002
}
1001
GENIUS_GENODEF_13
1002
{
1000
HIER
1070
     0
1002
}
1002
{
1000
MANEDIT
1070
     0
1002
}
1002
{
1000
NOSEL
1070
     0
1002
}
1002
{
1000
BEHIND
1070
     0
1002
}
1002
{
1000
OTHER
1070
     0
1002
}
1002
{
1000
REACTOR
1002
}
1001
GENIUS_GENOBJ-N-REC_13
1002
{
1000
OWNER
1000
GEN
1002
}
  0
LWPOLYLINE
  5
6345
330
1F
100
AcDbEntity
  8
SPEC
100
AcDbPolyline
 90
        4
 70
     1
 43
0.0
 10
1075.493905250315
 20
615.1780581653609
 10
1075.793905250315
 20
615.1780581653609
 10
1075.793905250315
 20
613.3018918614316
 10
1075.493905250315
 20
613.3018918614316
1001
GENIUS_GENREC_14
1002
{
1000
PYDIR
1011
1075.493905250315
1021
613.3018918614316
1031
0.0
1002
}
1002
{
1000
PXDIR
1011
1075.793905250315
1021
615.1780581653609
1031
0.0
1002
}
1002
{
1000
PORI
1011
1075.493905250315
1021
615.1780581653609
1031
0.0
1002
}
1002
{
1000
PINS
1011
1075.493905250315
1021
615.1780581653609
1031
0.0
1002
}
1002
{
1000
PINS2
1011
1075.793905250315
1021
613.3018918614316
1031
0.0
1002
}
1002
{
1000
C
1070
     1
1002
}
1001
GENIUS_GENOBJ-N-REC_13
1002
{
1000
OWNER
1000
GEN
1002
}
1001
GENIUS_GENODEF_13
1002
{
1000
HIER
1070
     0
1002
}
1002
{
1000
MANEDIT
1070
     0
1002
}
1002
{
1000
NOSEL
1070
     0
1002
}
1002
{
1000
BEHIND
1070
     0
1002
}
1002
{
1000
OTHER
1070
     0
1002
}
1002
{
1000
REACTOR
1002
}
  0
LWPOLYLINE
  5
6346
330
1F
100
AcDbEntity
  8
SPEC
100
AcDbPolyline
 90
        4
 70
     1
 43
0.0
 10
1076.58198840228
 20
614.0899750133963
 10
1074.70582209835
 20
614.0899750133963
 10
1074.70582209835
 20
614.3899750133962
 10
1076.58198840228
 20
614.3899750133962
1001
GENIUS_GENREC_14
1002
{
1000
PYDIR
1011
1076.58198840228
1021
614.3899750133962
1031
0.0
1002
}
1002
{
1000
PXDIR
1011
1074.70582209835
1021
614.0899750133963
1031
0.0
1002
}
1002
{
1000
PORI
1011
1076.58198840228
1021
614.0899750133963
1031
0.0
1002
}
1002
{
1000
PINS
1011
1076.58198840228
1021
614.0899750133963
1031
0.0
1002
}
1002
{
1000
PINS2
1011
1074.70582209835
1021
614.3899750133962
1031
0.0
1002
}
1002
{
1000
C
1070
     1
1002
}
1001
GENIUS_GENODEF_13
1002
{
1000
HIER
1070
     0
1002
}
1002
{
1000
MANEDIT
1070
     0
1002
}
1002
{
1000
NOSEL
1070
     0
1002
}
1002
{
1000
BEHIND
1070
     0
1002
}
1002
{
1000
OTHER
1070
     0
1002
}
1002
{
1000
REACTOR
1002
}
1001
GENIUS_GENOBJ-N-REC_13
1002
{
1000
OWNER
1000
GEN
1002
}
  0
LWPOLYLINE
  5
6353
330
1F
100
AcDbEntity
  8
SPEC
100
AcDbPolyline
 90
        4
 70
     1
 43
0.0
 10
1059.493905250315
 20
615.1780581653609
 10
1059.793905250316
 20
615.1780581653609
 10
1059.793905250316
 20
613.3018918614316
 10
1059.493905250315
 20
613.3018918614316
1001
GENIUS_GENREC_14
1002
{
1000
PYDIR
1011
1059.493905250315
1021
613.3018918614316
1031
0.0
1002
}
1002
{
1000
PXDIR
1011
1059.793905250316
1021
615.1780581653609
1031
0.0
1002
}
1002
{
1000
PORI
1011
1059.493905250315
1021
615.1780581653609
1031
0.0
1002
}
1002
{
1000
PINS
1011
1059.493905250315
1021
615.1780581653609
1031
0.0
1002
}
1002
{
1000
PINS2
1011
1059.793905250316
1021
613.3018918614316
1031
0.0
1002
}
1002
{
1000
C
1070
     1
1002
}
1001
GENIUS_GENOBJ-N-REC_13
1002
{
1000
OWNER
1000
GEN
1002
}
1001
GENIUS_GENODEF_13
1002
{
1000
HIER
1070
     0
1002
}
1002
{
1000
MANEDIT
1070
     0
1002
}
1002
{
1000
NOSEL
1070
     0
1002
}
1002
{
1000
BEHIND
1070
     0
1002
}
1002
{
1000
OTHER
1070
     0
1002
}
1002
{
1000
REACTOR
1002
}
  0
LWPOLYLINE
  5
6354
330
1F
100
AcDbEntity
  8
SPEC
100
AcDbPolyline
 90
        4
 70
     1
 43
0.0
 10
1060.58198840228
 20
614.0899750133963
 10
1058.70582209835
 20
614.0899750133963
 10
1058.70582209835
 20
614.3899750133962
 10
1060.58198840228
 20
614.3899750133962
1001
GENIUS_GENREC_14
1002
{
1000
PYDIR
1011
1060.58198840228
1021
614.3899750133962
1031
0.0
1002
}
1002
{
1000
PXDIR
1011
1058.70582209835
1021
614.0899750133963
1031
0.0
1002
}
1002
{
1000
PORI
1011
1060.58198840228
1021
614.0899750133963
1031
0.0
1002
}
1002
{
1000
PINS
1011
1060.58198840228
1021
614.0899750133963
1031
0.0
1002
}
1002
{
1000
PINS2
1011
1058.70582209835
1021
614.3899750133962
1031
0.0
1002
}
1002
{
1000
C
1070
     1
1002
}
1001
GENIUS_GENODEF_13
1002
{
1000
HIER
1070
     0
1002
}
1002
{
1000
MANEDIT
1070
     0
1002
}
1002
{
1000
NOSEL
1070
     0
1002
}
1002
{
1000
BEHIND
1070
     0
1002
}
1002
{
1000
OTHER
1070
     0
1002
}
1002
{
1000
REACTOR
1002
}
1001
GENIUS_GENOBJ-N-REC_13
1002
{
1000
OWNER
1000
GEN
1002
}
  0
LINE
  5
6356
330
1F
100
AcDbEntity
  8
SPEC
100
AcDbLine
 10
1062.293905250315
 20
632.3399750133965
 30
0.0
 11
1062.293905250315
 21
630.5899750133966
 31
0.0
  0
LINE
  5
6357
330
1F
100
AcDbEntity
  8
SPEC
100
AcDbLine
 10
1057.643905250315
 20
627.5899750133966
 30
0.0
 11
1059.293905250315
 21
627.5899750133966
 31
0.0
  0
ARC
  5
6360
330
1F
100
AcDbEntity
  8
SPEC
100
AcDbCircle
 10
1059.293905250315
 20
630.5899750133966
 30
0.0
 40
3.0
100
AcDbArc
 50
270.0
 51
0.0
1001
GENIUS_GENOBJ-N-FIL_13
1002
{
1000
OWNER
1000
GEN
1002
}
1001
GENIUS_GENODEF_13
1002
{
1000
HIER
1070
     0
1002
}
1002
{
1000
MANEDIT
1070
     0
1002
}
1002
{
1000
NOSEL
1070
     0
1002
}
1002
{
1000
BEHIND
1070
     0
1002
}
1002
{
1000
OTHER
1070
     0
1002
}
1002
{
1000
REACTOR
1002
}
  0
CIRCLE
  5
636B
330
1F
100
AcDbEntity
  8
SPEC
100
AcDbCircle
 10
1075.643905250315
 20
630.2399750133965
 30
0.0
 40
1.8
  0
CIRCLE
  5
6375
330
1F
100
AcDbEntity
  8
SPEC
100
AcDbCircle
 10
1075.643905250315
 20
614.2399750133962
 30
0.0
 40
1.8
  0
CIRCLE
  5
637F
330
1F
100
AcDbEntity
  8
SPEC
100
AcDbCircle
 10
1059.643905250315
 20
614.2399750133962
 30
0.0
 40
1.8
  0
LINE
  5
6380
330
1F
100
AcDbEntity
  8
SPEC
100
AcDbLine
 10
1072.993905250316
 20
632.3399750133968
 30
0.0
 11
1072.993905250315
 21
630.5899750133968
 31
0.0
  0
ARC
  5
6381
330
1F
100
AcDbEntity
  8
SPEC
100
AcDbCircle
 10
1075.993905250316
 20
630.5899750133969
 30
0.0
 40
3.0
100
AcDbArc
 50
180.0000000000025
 51
270.0
1001
GENIUS_GENOBJ-N-FIL_13
1002
{
1000
OWNER
1000
GEN
1002
}
1001
GENIUS_GENODEF_13
1002
{
1000
HIER
1070
     0
1002
}
1002
{
1000
MANEDIT
1070
     0
1002
}
1002
{
1000
NOSEL
1070
     0
1002
}
1002
{
1000
BEHIND
1070
     0
1002
}
1002
{
1000
OTHER
1070
     0
1002
}
1002
{
1000
REACTOR
1002
}
  0
LINE
  5
6382
330
1F
100
AcDbEntity
  8
SPEC
100
AcDbLine
 10
1077.643905250316
 20
627.589975013397
 30
0.0
 11
1075.993905250316
 21
627.5899750133969
 31
0.0
  0
LINE
  5
6385
330
1F
100
AcDbEntity
  8
SPEC
100
AcDbLine
 10
1057.643905250315
 20
616.8899750133966
 30
0.0
 11
1059.293905250315
 21
616.8899750133966
 31
0.0
  0
ARC
  5
6387
330
1F
100
AcDbEntity
  8
SPEC
100
AcDbCircle
 10
1075.993905250316
 20
613.8899750133962
 30
0.0
 40
3.0
100
AcDbArc
 50
90.0
 51
148.2116693829578
1001
GENIUS_GENOBJ-N-FIL_13
1002
{
1000
OWNER
1000
GEN
1002
}
1001
GENIUS_GENODEF_13
1002
{
1000
HIER
1070
     0
1002
}
1002
{
1000
MANEDIT
1070
     0
1002
}
1002
{
1000
NOSEL
1070
     0
1002
}
1002
{
1000
BEHIND
1070
     0
1002
}
1002
{
1000
OTHER
1070
     0
1002
}
1002
{
1000
REACTOR
1002
}
  0
LINE
  5
6388
330
1F
100
AcDbEntity
  8
SPEC
100
AcDbLine
 10
1077.643905250315
 20
616.889975013396
 30
0.0
 11
1075.993905250316
 21
616.8899750133962
 31
0.0
  0
CIRCLE
  5
6389
330
1F
100
AcDbEntity
  8
SPEC
100
AcDbCircle
 10
1067.643905250315
 20
622.2399750133965
 30
0.0
 40
1.5
  0
LINE
  5
638B
330
1F
100
AcDbEntity
  8
SPEC
100
AcDbLine
 10
1061.843905250315
 20
610.4399750133966
 30
0.0
 11
1061.843905250315
 21
615.4703230763246
 31
0.0
  0
LINE
  5
638C
330
1F
100
AcDbEntity
  8
SPEC
100
AcDbLine
 10
1073.443905250315
 20
610.4399750133966
 30
0.0
 11
1073.443905250315
 21
615.470323076324
 31
0.0
  0
ARC
  5
638D
330
1F
100
AcDbEntity
  8
SPEC
100
AcDbCircle
 10
1059.293905250315
 20
613.8899750133965
 30
0.0
 40
3.0
100
AcDbArc
 50
31.78833061705184
 51
90.0
1001
GENIUS_GENOBJ-N-FIL_13
1002
{
1000
OWNER
1000
GEN
1002
}
1001
GENIUS_GENODEF_13
1002
{
1000
HIER
1070
     0
1002
}
1002
{
1000
MANEDIT
1070
     0
1002
}
1002
{
1000
NOSEL
1070
     0
1002
}
1002
{
1000
BEHIND
1070
     0
1002
}
1002
{
1000
OTHER
1070
     0
1002
}
1002
{
1000
REACTOR
1002
}
  0
CIRCLE
  5
6391
102
{ACAD_REACTORS
330
66AA
102
}
330
1F
100
AcDbEntity
  8
CENTER
  6
CENTER
100
AcDbCircle
 10
1067.643905250315
 20
622.2399750133965
 30
0.0
 40
5.5
  0
CIRCLE
  5
639D
330
1F
100
AcDbEntity
  8
SPEC
  6
ACISOTGL
100
AcDbCircle
 10
1062.787693489592
 20
619.6578814180745
 30
0.0
 40
0.7999999999997272
  0
CIRCLE
  5
63A8
330
1F
100
AcDbEntity
  8
SPEC
  6
ACISOTGL
100
AcDbCircle
 10
1072.50011701104
 20
624.8220686087193
 30
0.0
 40
0.7999999999997272
  0
CIRCLE
  5
63A9
330
1F
100
AcDbEntity
  8
SPEC
  6
ACISOTGL
100
AcDbCircle
 10
1062.787693489591
 20
619.6578814180743
 30
0.0
 40
0.5
  0
CIRCLE
  5
63AA
330
1F
100
AcDbEntity
  8
SPEC
  6
ACISOTGL
100
AcDbCircle
 10
1072.500117011039
 20
624.822068608719
 30
0.0
 40
0.5
  0
LINE
  5
63AD
330
1F
100
AcDbEntity
  8
CENTER
  6
CENTER
100
AcDbLine
 10
1056.16558654315
 20
616.1368446971798
 30
0.0
 11
1079.052114900058
 21
628.3058276825364
 31
0.0
  0
DIMENSION
  5
63E8
102
{ACAD_XDICTIONARY
360
63F7
102
}
102
{ACAD_REACTORS
330
63F8
102
}
330
1F
100
AcDbEntity
  8
AM_5
100
AcDbDimension
  2
*D14
 10
902.5586698451153
 20
624.2399750133967
 30
0.0
 11
902.5586698451151
 21
640.7623590425925
 31
0.0
 70
   160
  1
%%c<>
 71
     5
 42
4.000000000000227
  3
STANDARD$0
100
AcDbAlignedDimension
 13
909.4231469052974
 23
620.2399750133964
 33
0.0
 14
909.4231469052974
 24
624.2399750133967
 34
0.0
 50
90.0
100
AcDbRotatedDimension
1001
ACAD
1000
DSTYLE
1002
{
1070
    48
1040
0.013
1070
    71
1070
     1
1070
    72
1070
     0
1070
    77
1070
     3
1070
   147
1040
1.0
1070
   272
1070
     3
1002
}
  0
DIMENSION
  5
6448
102
{ACAD_XDICTIONARY
360
6455
102
}
102
{ACAD_REACTORS
330
6456
102
}
330
1F
100
AcDbEntity
  8
AM_5
100
AcDbDimension
  2
*D15
 10
893.2580284971271
 20
629.7399750133966
 30
0.0
 11
893.2580284971271
 21
641.3075057091677
 31
0.0
 70
   160
  1
%%c<>
 71
     5
 42
15.00000000000011
  3
STANDARD
100
AcDbAlignedDimension
 13
922.9231469052976
 23
614.7399750133965
 33
0.0
 14
922.9231469052972
 24
629.7399750133966
 34
0.0
 50
90.00000000000003
100
AcDbRotatedDimension
1001
ACAD
1000
DSTYLE
1002
{
1070
    48
1040
0.03
1070
   147
1040
1.0
1070
    72
1070
     0
1070
    71
1070
     1
1002
}
  0
LINE
  5
64C4
330
1F
100
AcDbEntity
  8
DIM
 62
     3
100
AcDbLine
 10
924.4231469052976
 20
612.2399750133966
 30
0.0
 11
924.4231469052975
 21
600.7955261425493
 31
0.0
  0
LINE
  5
64E0
330
1F
100
AcDbEntity
  8
SPEC
100
AcDbLine
 10
1073.443905250315
 20
610.4399750133966
 30
0.0
 11
1061.843905250315
 21
610.4399750133966
 31
0.0
  0
LINE
  5
64E3
330
1F
100
AcDbEntity
  8
SPEC
100
AcDbLine
 10
1072.643905250315
 20
614.2399750133965
 30
0.0
 11
1062.643905250316
 21
614.2399750133967
 31
0.0
  0
LINE
  5
64E5
330
1F
100
AcDbEntity
  8
SPEC
100
AcDbLine
 10
1072.143905250315
 20
613.9399750133966
 30
0.0
 11
1063.143905250315
 21
613.9399750133966
 31
0.0
  0
LINE
  5
64E8
330
1F
100
AcDbEntity
  8
SPEC
100
AcDbLine
 10
1063.143905250315
 20
613.9399750133966
 30
0.0
 11
1063.143905250315
 21
610.4399750133966
 31
0.0
  0
LINE
  5
64E9
330
1F
100
AcDbEntity
  8
SPEC
100
AcDbLine
 10
1072.143905250315
 20
613.9399750133966
 30
0.0
 11
1072.143905250315
 21
610.4399750133966
 31
0.0
  0
LINE
  5
64EB
330
1F
100
AcDbEntity
  8
SPEC
100
AcDbLine
 10
1062.643905250316
 20
610.4399750133966
 30
0.0
 11
1062.643905250316
 21
614.2399750133968
 31
0.0
  0
LINE
  5
64EC
330
1F
100
AcDbEntity
  8
SPEC
100
AcDbLine
 10
1072.643905250315
 20
610.4399750133966
 30
0.0
 11
1072.643905250315
 21
614.2399750133965
 31
0.0
  0
LWPOLYLINE
  5
6512
330
1F
100
AcDbEntity
  8
SPEC
100
AcDbPolyline
 90
        4
 70
     1
 43
0.0
 10
1067.043905250316
 20
611.2399750133966
 10
1068.243905250315
 20
611.2399750133966
 10
1068.243905250315
 20
613.2399750133965
 10
1067.043905250316
 20
613.2399750133965
1001
GENIUS_GENREC_14
1002
{
1000
PYDIR
1011
1067.043905250316
1021
613.2399750133965
1031
0.0
1002
}
1002
{
1000
PXDIR
1011
1068.243905250315
1021
611.2399750133966
1031
0.0
1002
}
1002
{
1000
PORI
1011
1067.043905250316
1021
611.2399750133966
1031
0.0
1002
}
1002
{
1000
PINS
1011
1067.043905250316
1021
611.2399750133966
1031
0.0
1002
}
1002
{
1000
HVAL
1000
2
1002
}
1002
{
1000
H
1070
     2
1002
}
1002
{
1000
WVAL
1000
1.2
1002
}
1002
{
1000
W
1070
     2
1002
}
1002
{
1000
C
1070
     1
1002
}
1001
GENIUS_GENODEF_13
1002
{
1000
HIER
1070
     0
1002
}
1002
{
1000
MANEDIT
1070
     0
1002
}
1002
{
1000
NOSEL
1070
     0
1002
}
1002
{
1000
BEHIND
1070
     0
1002
}
1002
{
1000
OTHER
1070
     0
1002
}
1002
{
1000
REACTOR
1002
}
1001
GENIUS_GENOBJ-N-REC_13
1002
{
1000
OWNER
1000
GEN
1002
}
  0
LWPOLYLINE
  5
651E
330
1F
100
AcDbEntity
  8
SPEC
100
AcDbPolyline
 90
        4
 70
     1
 43
0.0
 10
1068.743905250315
 20
611.2399750133964
 10
1069.943905250315
 20
611.2399750133964
 10
1069.943905250315
 20
613.2399750133965
 10
1068.743905250315
 20
613.2399750133965
1001
GENIUS_GENREC_14
1002
{
1000
PYDIR
1011
1068.743905250315
1021
613.2399750133965
1031
0.0
1002
}
1002
{
1000
PXDIR
1011
1069.943905250315
1021
611.2399750133964
1031
0.0
1002
}
1002
{
1000
PORI
1011
1068.743905250315
1021
611.2399750133964
1031
0.0
1002
}
1002
{
1000
PINS
1011
1068.743905250315
1021
611.2399750133964
1031
0.0
1002
}
1002
{
1000
HVAL
1000
2
1002
}
1002
{
1000
H
1070
     2
1002
}
1002
{
1000
WVAL
1000
1.2
1002
}
1002
{
1000
W
1070
     2
1002
}
1002
{
1000
C
1070
     1
1002
}
1001
GENIUS_GENODEF_13
1002
{
1000
HIER
1070
     0
1002
}
1002
{
1000
MANEDIT
1070
     0
1002
}
1002
{
1000
NOSEL
1070
     0
1002
}
1002
{
1000
BEHIND
1070
     0
1002
}
1002
{
1000
OTHER
1070
     0
1002
}
1002
{
1000
REACTOR
1002
}
1001
GENIUS_GENOBJ-N-REC_13
1002
{
1000
OWNER
1000
GEN
1002
}
  0
LWPOLYLINE
  5
6529
330
1F
100
AcDbEntity
  8
SPEC
100
AcDbPolyline
 90
        4
 70
     1
 43
0.0
 10
1070.443905250315
 20
611.2399750133966
 10
1071.643905250315
 20
611.2399750133966
 10
1071.643905250315
 20
613.2399750133965
 10
1070.443905250315
 20
613.2399750133965
1001
GENIUS_GENREC_14
1002
{
1000
PYDIR
1011
1070.443905250315
1021
613.2399750133965
1031
0.0
1002
}
1002
{
1000
PXDIR
1011
1071.643905250315
1021
611.2399750133966
1031
0.0
1002
}
1002
{
1000
PORI
1011
1070.443905250315
1021
611.2399750133966
1031
0.0
1002
}
1002
{
1000
PINS
1011
1070.443905250315
1021
611.2399750133966
1031
0.0
1002
}
1002
{
1000
HVAL
1000
2
1002
}
1002
{
1000
H
1070
     2
1002
}
1002
{
1000
WVAL
1000
1.2
1002
}
1002
{
1000
W
1070
     2
1002
}
1002
{
1000
C
1070
     1
1002
}
1001
GENIUS_GENODEF_13
1002
{
1000
HIER
1070
     0
1002
}
1002
{
1000
MANEDIT
1070
     0
1002
}
1002
{
1000
NOSEL
1070
     0
1002
}
1002
{
1000
BEHIND
1070
     0
1002
}
1002
{
1000
OTHER
1070
     0
1002
}
1002
{
1000
REACTOR
1002
}
1001
GENIUS_GENOBJ-N-REC_13
1002
{
1000
OWNER
1000
GEN
1002
}
  0
LWPOLYLINE
  5
652B
330
1F
100
AcDbEntity
  8
SPEC
100
AcDbPolyline
 90
        4
 70
     1
 43
0.0
 10
1066.543905250315
 20
611.2399750133964
 10
1065.343905250315
 20
611.2399750133964
 10
1065.343905250315
 20
613.2399750133965
 10
1066.543905250315
 20
613.2399750133965
1001
GENIUS_GENREC_14
1002
{
1000
PYDIR
1011
1066.543905250315
1021
613.2399750133965
1031
0.0
1002
}
1002
{
1000
PXDIR
1011
1065.343905250315
1021
611.2399750133964
1031
0.0
1002
}
1002
{
1000
PORI
1011
1066.543905250315
1021
611.2399750133964
1031
0.0
1002
}
1002
{
1000
PINS
1011
1066.543905250315
1021
611.2399750133964
1031
0.0
1002
}
1002
{
1000
HVAL
1000
2
1002
}
1002
{
1000
H
1070
     2
1002
}
1002
{
1000
WVAL
1000
1.2
1002
}
1002
{
1000
W
1070
     2
1002
}
1002
{
1000
C
1070
     1
1002
}
1001
GENIUS_GENODEF_13
1002
{
1000
HIER
1070
     0
1002
}
1002
{
1000
MANEDIT
1070
     0
1002
}
1002
{
1000
NOSEL
1070
     0
1002
}
1002
{
1000
BEHIND
1070
     0
1002
}
1002
{
1000
OTHER
1070
     0
1002
}
1002
{
1000
REACTOR
1002
}
1001
GENIUS_GENOBJ-N-REC_13
1002
{
1000
OWNER
1000
GEN
1002
}
  0
LWPOLYLINE
  5
652C
330
1F
100
AcDbEntity
  8
SPEC
100
AcDbPolyline
 90
        4
 70
     1
 43
0.0
 10
1064.843905250316
 20
611.2399750133966
 10
1063.643905250316
 20
611.2399750133966
 10
1063.643905250316
 20
613.2399750133965
 10
1064.843905250316
 20
613.2399750133965
1001
GENIUS_GENREC_14
1002
{
1000
PYDIR
1011
1064.843905250316
1021
613.2399750133965
1031
0.0
1002
}
1002
{
1000
PXDIR
1011
1063.643905250316
1021
611.2399750133966
1031
0.0
1002
}
1002
{
1000
PORI
1011
1064.843905250316
1021
611.2399750133966
1031
0.0
1002
}
1002
{
1000
PINS
1011
1064.843905250316
1021
611.2399750133966
1031
0.0
1002
}
1002
{
1000
HVAL
1000
2
1002
}
1002
{
1000
H
1070
     2
1002
}
1002
{
1000
WVAL
1000
1.2
1002
}
1002
{
1000
W
1070
     2
1002
}
1002
{
1000
C
1070
     1
1002
}
1001
GENIUS_GENODEF_13
1002
{
1000
HIER
1070
     0
1002
}
1002
{
1000
MANEDIT
1070
     0
1002
}
1002
{
1000
NOSEL
1070
     0
1002
}
1002
{
1000
BEHIND
1070
     0
1002
}
1002
{
1000
OTHER
1070
     0
1002
}
1002
{
1000
REACTOR
1002
}
1001
GENIUS_GENOBJ-N-REC_13
1002
{
1000
OWNER
1000
GEN
1002
}
  0
LINE
  5
652D
330
1F
100
AcDbEntity
  8
SPEC
100
AcDbLine
 10
974.4231469052976
 20
610.4399750133966
 30
0.0
 11
964.9231469052974
 21
610.4399750133966
 31
0.0
  0
ARC
  5
6533
330
1F
100
AcDbEntity
  8
SPEC
100
AcDbCircle
 10
970.0889081543932
 20
630.2399750138066
 30
0.0
 40
1.96590983508549
100
AcDbArc
 50
293.707979997977
 51
66.2920199924255
  0
LINE
  5
6535
330
1F
100
AcDbEntity
  8
SPEC
100
AcDbLine
 10
970.8815147049641
 20
614.4342042549683
 30
0.0
 11
970.8815147049641
 21
614.0457457718252
 31
0.0
  0
LINE
  5
6537
330
1F
100
AcDbEntity
  8
SPEC
100
AcDbLine
 10
974.4231469052978
 20
614.2399750133964
 30
0.0
 11
974.4231469052976
 21
610.4399750133966
 31
0.0
  0
LINE
  5
6538
330
1F
100
AcDbEntity
  8
SPEC
100
AcDbLine
 10
974.4231469052978
 20
614.2399750133964
 30
0.0
 11
972.4231469052977
 21
614.2399750133964
 31
0.0
  0
LINE
  5
6558
330
1F
100
AcDbEntity
  8
CENTER
  6
CENTER
100
AcDbLine
 10
837.2015315091296
 20
610.0844767271767
 30
0.0
 11
837.2015315091296
 21
634.2411789587177
 31
0.0
  0
LINE
  5
655B
330
1F
100
AcDbEntity
  8
CENTER
  6
CENTER
100
AcDbLine
 10
847.3015315091295
 20
614.2399750133964
 30
0.0
 11
843.151298805601
 21
614.2399750133964
 31
0.0
  0
LINE
  5
655C
330
1F
100
AcDbEntity
  8
CENTER
  6
CENTER
100
AcDbLine
 10
831.5313682196119
 20
614.2399750133964
 30
0.0
 11
827.1015315091297
 21
614.2399750133964
 31
0.0
  0
LINE
  5
6560
330
1F
100
AcDbEntity
  8
SPEC
100
AcDbLine
 10
831.4015315091296
 20
610.4399750133966
 30
0.0
 11
831.4015315091294
 21
612.2399750133965
 31
0.0
  0
LINE
  5
6561
330
1F
100
AcDbEntity
  8
SPEC
100
AcDbLine
 10
843.0015315091296
 20
610.4399750133966
 30
0.0
 11
843.0015315091296
 21
612.2399750133966
 31
0.0
  0
LINE
  5
6562
102
{ACAD_REACTORS
330
6BAB
102
}
330
1F
100
AcDbEntity
  8
SPEC
100
AcDbLine
 10
843.0015315091296
 20
610.4399750133966
 30
0.0
 11
831.4015315091296
 21
610.4399750133966
 31
0.0
  0
LINE
  5
6565
330
1F
100
AcDbEntity
  8
SPEC
100
AcDbLine
 10
832.7015315091296
 20
612.2399750133965
 30
0.0
 11
832.7015315091296
 21
610.4399750133966
 31
0.0
  0
LINE
  5
6566
330
1F
100
AcDbEntity
  8
SPEC
100
AcDbLine
 10
841.7015315091296
 20
612.2399750133966
 30
0.0
 11
841.7015315091296
 21
610.4399750133966
 31
0.0
  0
LINE
  5
6567
330
1F
100
AcDbEntity
  8
SPEC
100
AcDbLine
 10
832.2015315091295
 20
610.4399750133966
 30
0.0
 11
832.2015315091295
 21
612.2399750133965
 31
0.0
  0
LINE
  5
6568
330
1F
100
AcDbEntity
  8
SPEC
100
AcDbLine
 10
842.2015315091297
 20
610.4399750133966
 30
0.0
 11
842.2015315091297
 21
612.2399750133966
 31
0.0
  0
DIMENSION
  5
657E
102
{ACAD_XDICTIONARY
360
658B
102
}
102
{ACAD_REACTORS
330
658C
102
}
330
1F
100
AcDbEntity
  8
AM_5
100
AcDbDimension
  2
*D16
 10
847.2015315091297
 20
646.0626089480087
 30
0.0
 11
837.3350529661756
 21
646.0626089480087
 31
0.0
 70
   160
  1
{\Famgdt;o} <>
 71
     5
 42
20.00000000000023
  3
STANDARD$0
100
AcDbAlignedDimension
 13
827.2015315091294
 23
630.7399750133965
 33
0.0
 14
847.2015315091297
 24
630.7399750133965
 34
0.0
100
AcDbRotatedDimension
  0
DIMENSION
  5
65C1
102
{ACAD_XDICTIONARY
360
65CE
102
}
102
{ACAD_REACTORS
330
65CF
102
}
330
1F
100
AcDbEntity
  8
AM_5
100
AcDbDimension
  2
*D17
 10
845.2015315091296
 20
639.3461349171441
 30
0.0
 11
837.2015315091296
 21
639.3461349171441
 31
0.0
 70
   160
  1
{\Famgdt;o} <>
 71
     5
 42
15.99999999999988
  3
STANDARD$0
100
AcDbAlignedDimension
 13
829.2015315091298
 23
632.3399750133965
 33
0.0
 14
845.2015315091296
 24
632.3399750133967
 34
0.0
100
AcDbRotatedDimension
1001
ACAD
1000
DSTYLE
1002
{
1070
    47
1040
0.2
1070
   147
1040
1.0
1070
    48
1040
0.2
1070
    72
1070
     0
1070
    71
1070
     1
1002
}
1001
GENIUS_GENDTOL_13
1000
TolAcTol
1000

1000

1040
16.0
  0
DIMENSION
  5
669C
102
{ACAD_XDICTIONARY
360
66A9
102
}
102
{ACAD_REACTORS
330
66AA
102
}
330
1F
100
AcDbEntity
  8
AM_5
  6
ACISOTGL
100
AcDbDimension
  2
*D18
 10
1073.143905250315
 20
638.0553406847325
 30
0.0
 11
1051.325351362184
 21
638.0553406847325
 31
0.0
 70
   160
  1
%%c<>
 71
     5
 42
11.0
  3
STANDARD
100
AcDbAlignedDimension
 13
1062.143905250315
 23
622.2399750133965
 33
0.0
 14
1073.143905250315
 24
622.2399750133965
 34
0.0
 50
0.0000000000000114
100
AcDbRotatedDimension
1001
GENIUS_GENDTOL_13
1000
TolAcTol
1000

1000

1040
11.0
1001
ACAD
1000
DSTYLE
1002
{
1070
    47
1040
0.1
1070
   147
1040
1.0
1070
    48
1040
0.1
1070
    72
1070
     0
1070
    71
1070
     1
1002
}
  0
INSERT
  5
6824
330
1F
100
AcDbEntity
  8
AM_5
100
AcDbBlockReference
  2
*S23
 10
0.0
 20
0.0
 30
0.0
  0
MTEXT
  5
6838
330
1F
100
AcDbEntity
  8
DATA
100
AcDbMText
 10
811.300266626254
 20
610.6637982737106
 30
0.0
 40
2.399999999999999
 41
16.76712828649613
 71
     1
 72
     5
  1
4-M2\PDEEP 3.5
 73
     1
 44
1.0
1001
ACAD
1000
MTEXTBEGIN
1070
    73
1070
     1
1070
    44
1040
1.0
1070
    74
1070
     0
1000
MTEXTEND
  0
ARC
  5
693B
102
{ACAD_REACTORS
330
6BAB
102
}
330
1F
100
AcDbEntity
  8
SPEC
100
AcDbCircle
 10
845.7015315091295
 20
613.7399750133969
 30
0.0
 40
1.5
100
AcDbArc
 50
270.0000000000004
 51
359.9999999999992
1001
GENIUS_GENODEF_13
1002
{
1000
HIER
1070
     0
1002
}
1002
{
1000
MANEDIT
1070
     0
1002
}
1002
{
1000
NOSEL
1070
     0
1002
}
1002
{
1000
BEHIND
1070
     0
1002
}
1002
{
1000
OTHER
1070
     0
1002
}
1002
{
1000
REACTOR
1002
}
1001
GENIUS_GENOBJ-N-FIL_13
1002
{
1000
OWNER
1000
GEN
1002
}
  0
ARC
  5
693D
330
1F
100
AcDbEntity
  8
SPEC
100
AcDbCircle
 10
845.7015315091297
 20
630.7399750133965
 30
0.0
 40
1.5
100
AcDbArc
 50
359.9999999999988
 51
90.0
1001
GENIUS_GENOBJ-N-FIL_13
1002
{
1000
OWNER
1000
GEN
1002
}
1001
GENIUS_GENODEF_13
1002
{
1000
HIER
1070
     0
1002
}
1002
{
1000
MANEDIT
1070
     0
1002
}
1002
{
1000
NOSEL
1070
     0
1002
}
1002
{
1000
BEHIND
1070
     0
1002
}
1002
{
1000
OTHER
1070
     0
1002
}
1002
{
1000
REACTOR
1002
}
  0
ARC
  5
6948
330
1F
100
AcDbEntity
  8
SPEC
100
AcDbCircle
 10
828.7015315091295
 20
630.7399750133965
 30
0.0
 40
1.5
100
AcDbArc
 50
90.0
 51
180.0000000000007
1001
GENIUS_GENODEF_13
1002
{
1000
HIER
1070
     0
1002
}
1002
{
1000
MANEDIT
1070
     0
1002
}
1002
{
1000
NOSEL
1070
     0
1002
}
1002
{
1000
BEHIND
1070
     0
1002
}
1002
{
1000
OTHER
1070
     0
1002
}
1002
{
1000
REACTOR
1002
}
1001
GENIUS_GENOBJ-N-FIL_13
1002
{
1000
OWNER
1000
GEN
1002
}
  0
ARC
  5
694A
330
1F
100
AcDbEntity
  8
SPEC
100
AcDbCircle
 10
828.7015315091295
 20
613.7399750133965
 30
0.0
 40
1.5
100
AcDbArc
 50
180.0000000000004
 51
270.0000000000011
1001
GENIUS_GENODEF_13
1002
{
1000
HIER
1070
     0
1002
}
1002
{
1000
MANEDIT
1070
     0
1002
}
1002
{
1000
NOSEL
1070
     0
1002
}
1002
{
1000
BEHIND
1070
     0
1002
}
1002
{
1000
OTHER
1070
     0
1002
}
1002
{
1000
REACTOR
1002
}
1001
GENIUS_GENOBJ-N-FIL_13
1002
{
1000
OWNER
1000
GEN
1002
}
  0
LINE
  5
695D
330
1F
100
AcDbEntity
  8
SPEC
100
AcDbLine
 10
1057.643905250315
 20
613.7399750133965
 30
0.0
 11
1057.643905250315
 21
630.7399750133965
 31
0.0
  0
ARC
  5
695E
330
1F
100
AcDbEntity
  8
SPEC
100
AcDbCircle
 10
1059.143905250315
 20
630.7399750133965
 30
0.0
 40
1.5
100
AcDbArc
 50
90.0
 51
180.0
1001
GENIUS_GENODEF_13
1002
{
1000
HIER
1070
     0
1002
}
1002
{
1000
MANEDIT
1070
     0
1002
}
1002
{
1000
NOSEL
1070
     0
1002
}
1002
{
1000
BEHIND
1070
     0
1002
}
1002
{
1000
OTHER
1070
     0
1002
}
1002
{
1000
REACTOR
1002
}
1001
GENIUS_GENOBJ-N-FIL_13
1002
{
1000
OWNER
1000
GEN
1002
}
  0
LINE
  5
695F
330
1F
100
AcDbEntity
  8
SPEC
100
AcDbLine
 10
1076.143905250316
 20
632.2399750133966
 30
0.0
 11
1059.143905250315
 21
632.2399750133966
 31
0.0
  0
ARC
  5
6960
330
1F
100
AcDbEntity
  8
SPEC
100
AcDbCircle
 10
1076.143905250316
 20
630.7399750133965
 30
0.0
 40
1.5
100
AcDbArc
 50
0.0
 51
90.0
1001
GENIUS_GENOBJ-N-FIL_13
1002
{
1000
OWNER
1000
GEN
1002
}
1001
GENIUS_GENODEF_13
1002
{
1000
HIER
1070
     0
1002
}
1002
{
1000
MANEDIT
1070
     0
1002
}
1002
{
1000
NOSEL
1070
     0
1002
}
1002
{
1000
BEHIND
1070
     0
1002
}
1002
{
1000
OTHER
1070
     0
1002
}
1002
{
1000
REACTOR
1002
}
  0
LINE
  5
6961
330
1F
100
AcDbEntity
  8
SPEC
100
AcDbLine
 10
1076.143905250315
 20
612.2399750133969
 30
0.0
 11
1073.443905250315
 21
612.2399750133966
 31
0.0
  0
ARC
  5
6962
330
1F
100
AcDbEntity
  8
SPEC
100
AcDbCircle
 10
1059.143905250315
 20
613.7399750133965
 30
0.0
 40
1.5
100
AcDbArc
 50
180.0
 51
270.0
1001
GENIUS_GENODEF_13
1002
{
1000
HIER
1070
     0
1002
}
1002
{
1000
MANEDIT
1070
     0
1002
}
1002
{
1000
NOSEL
1070
     0
1002
}
1002
{
1000
BEHIND
1070
     0
1002
}
1002
{
1000
OTHER
1070
     0
1002
}
1002
{
1000
REACTOR
1002
}
1001
GENIUS_GENOBJ-N-FIL_13
1002
{
1000
OWNER
1000
GEN
1002
}
  0
LINE
  5
6963
330
1F
100
AcDbEntity
  8
SPEC
100
AcDbLine
 10
1077.643905250315
 20
613.7399750133969
 30
0.0
 11
1077.643905250316
 21
630.7399750133965
 31
0.0
  0
ARC
  5
6964
330
1F
100
AcDbEntity
  8
SPEC
100
AcDbCircle
 10
1076.143905250315
 20
613.7399750133969
 30
0.0
 40
1.5
100
AcDbArc
 50
270.0
 51
0.0
1001
GENIUS_GENODEF_13
1002
{
1000
HIER
1070
     0
1002
}
1002
{
1000
MANEDIT
1070
     0
1002
}
1002
{
1000
NOSEL
1070
     0
1002
}
1002
{
1000
BEHIND
1070
     0
1002
}
1002
{
1000
OTHER
1070
     0
1002
}
1002
{
1000
REACTOR
1002
}
1001
GENIUS_GENOBJ-N-FIL_13
1002
{
1000
OWNER
1000
GEN
1002
}
  0
LINE
  5
6965
330
1F
100
AcDbEntity
  8
SPEC
100
AcDbLine
 10
1061.843905250315
 20
612.2399750133966
 30
0.0
 11
1059.143905250315
 21
612.2399750133966
 31
0.0
  0
LINE
  5
6A4D
330
1F
100
AcDbEntity
  8
SPEC
100
AcDbLine
 10
924.4231469052975
 20
632.2399750133966
 30
0.0
 11
970.4231469017901
 21
632.2399750160272
 31
0.0
  0
LINE
  5
6A69
330
1F
100
AcDbEntity
  8
SPEC
100
AcDbLine
 10
970.8793519484114
 20
628.439974989311
 30
0.0
 11
970.4231469024566
 21
628.4399749994603
 31
0.0
  0
LINE
  5
6A6A
330
1F
100
AcDbEntity
  8
SPEC
100
AcDbLine
 10
970.8793519487128
 20
632.0399750381698
 30
0.0
 11
970.4231468997413
 21
632.0399750273326
 31
0.0
  0
ARC
  5
6A6B
330
1F
100
AcDbEntity
  8
SPEC
100
AcDbCircle
 10
970.0889081571991
 20
614.2399750147982
 30
0.0
 40
1.96590983508549
100
AcDbArc
 50
293.7079800276709
 51
66.29202002211946
  0
LINE
  5
6A6C
330
1F
100
AcDbEntity
  8
SPEC
100
AcDbLine
 10
970.8793519505858
 20
616.0399750395711
 30
0.0
 11
970.4231469046311
 21
616.0399750292618
 31
0.0
  0
LINE
  5
6A6D
330
1F
100
AcDbEntity
  8
SPEC
100
AcDbLine
 10
970.8793519521501
 20
612.4399749907123
 30
0.0
 11
970.4231469031785
 21
612.4399750013894
 31
0.0
  0
SPLINE
  5
6A7F
330
1F
100
AcDbEntity
  8
SPEC
100
AcDbSpline
210
0.0
220
0.0
230
1.0
 70
     8
 71
     3
 72
    10
 73
     6
 74
     4
 42
0.0000000001
 43
0.0000000001
 44
0.0000000001
 40
0.0
 40
0.0
 40
0.0
 40
0.0
 40
0.9271702899812718
 40
2.893506008123304
 40
3.424547209836247
 40
3.424547209836247
 40
3.424547209836247
 40
3.424547209836247
 10
983.8263157138067
 20
613.6485473222014
 30
0.0
 10
983.7618935997152
 20
613.3249493433673
 30
0.0
 10
983.5608455547184
 20
612.3150672256047
 30
0.0
 10
985.2858459187125
 20
611.6259644711049
 30
0.0
 10
984.8902008096182
 20
610.8199400283906
 30
0.0
 10
984.8060709962469
 20
610.6485473222014
 30
0.0
 11
983.8263157138067
 21
613.6485473222014
 31
0.0
 11
983.803343598878
 21
612.7216616612056
 31
0.0
 11
984.9836912662134
 21
611.149002912253
 31
0.0
 11
984.8060709962469
 21
610.6485473222014
 31
0.0
  0
SPLINE
  5
6A8A
330
1F
100
AcDbEntity
  8
SPEC
100
AcDbSpline
210
0.0
220
0.0
230
1.0
 70
     8
 71
     3
 72
    10
 73
     6
 74
     4
 42
0.0000000001
 43
0.0000000001
 44
0.0000000001
 40
0.0
 40
0.0
 40
0.0
 40
0.0
 40
0.9271702899812718
 40
2.893506008123304
 40
3.424547209836285
 40
3.424547209836285
 40
3.424547209836285
 40
3.424547209836285
 10
984.3654421970164
 20
613.6485473222014
 30
0.0
 10
984.3010200829249
 20
613.3249493433675
 30
0.0
 10
984.0999720379281
 20
612.3150672256048
 30
0.0
 10
985.8249724019227
 20
611.6259644711046
 30
0.0
 10
985.4293272928279
 20
610.8199400283906
 30
0.0
 10
985.3451974794566
 20
610.6485473222014
 30
0.0
 11
984.3654421970164
 21
613.6485473222014
 31
0.0
 11
984.3424700820879
 21
612.7216616612056
 31
0.0
 11
985.5228177494231
 21
611.149002912253
 31
0.0
 11
985.3451974794566
 21
610.6485473222014
 31
0.0
  0
LINE
  5
6A8B
330
1F
100
AcDbEntity
  8
SPEC
100
AcDbLine
 10
974.4231469052976
 20
613.6485473222014
 30
0.0
 11
983.8263157138067
 21
613.6485473222014
 31
0.0
  0
LINE
  5
6A8C
330
1F
100
AcDbEntity
  8
SPEC
100
AcDbLine
 10
984.3654421970164
 20
613.6485473222014
 30
0.0
 11
992.7763266288524
 21
613.6485473222014
 31
0.0
  0
LINE
  5
6A8D
330
1F
100
AcDbEntity
  8
SPEC
100
AcDbLine
 10
992.7763266288524
 20
612.6485473222015
 30
0.0
 11
984.3743813604131
 21
612.6485473222015
 31
0.0
  0
LINE
  5
6A8E
330
1F
100
AcDbEntity
  8
SPEC
100
AcDbLine
 10
983.8352548772034
 20
612.6485473222015
 30
0.0
 11
974.4231469052975
 21
612.6485473222015
 31
0.0
  0
LINE
  5
6A8F
330
1F
100
AcDbEntity
  8
SPEC
100
AcDbLine
 10
974.4231469052976
 20
611.6485473222014
 30
0.0
 11
984.7742931073407
 21
611.6485473222014
 31
0.0
  0
LINE
  5
6A90
330
1F
100
AcDbEntity
  8
SPEC
100
AcDbLine
 10
985.3134195905504
 20
611.6485473222014
 30
0.0
 11
992.7763266288524
 21
611.6485473222014
 31
0.0
  0
LINE
  5
6A91
330
1F
100
AcDbEntity
  8
SPEC
100
AcDbLine
 10
992.7763266288524
 20
610.6485473222014
 30
0.0
 11
985.3451974794566
 21
610.6485473222014
 31
0.0
  0
LINE
  5
6A92
330
1F
100
AcDbEntity
  8
SPEC
100
AcDbLine
 10
984.8060709962471
 20
610.6485473222014
 30
0.0
 11
974.4231469052976
 21
610.6485473222014
 31
0.0
  0
LWPOLYLINE
  5
6ADC
330
1F
100
AcDbEntity
  8
SPEC
100
AcDbPolyline
 90
        4
 70
     1
 43
0.0
 10
992.7763266288524
 20
607.566293810962
 10
997.7763266288524
 20
607.566293810962
 10
997.7763266288524
 20
615.566293810962
 10
992.7763266288524
 20
615.566293810962
1001
GENIUS_GENREC_14
1002
{
1000
PYDIR
1011
992.7763266288524
1021
615.566293810962
1031
0.0
1002
}
1002
{
1000
PXDIR
1011
997.7763266288524
1021
607.566293810962
1031
0.0
1002
}
1002
{
1000
PORI
1011
992.7763266288524
1021
607.566293810962
1031
0.0
1002
}
1002
{
1000
PINS
1011
992.7763266288524
1021
607.566293810962
1031
0.0
1002
}
1002
{
1000
HVAL
1000
8
1002
}
1002
{
1000
H
1070
     2
1002
}
1002
{
1000
WVAL
1000
5
1002
}
1002
{
1000
W
1070
     2
1002
}
1002
{
1000
C
1070
     1
1002
}
1001
GENIUS_GENOBJ-N-REC_13
1002
{
1000
OWNER
1000
GEN
1002
}
1001
GENIUS_GENODEF_13
1002
{
1000
HIER
1070
     0
1002
}
1002
{
1000
MANEDIT
1070
     0
1002
}
1002
{
1000
NOSEL
1070
     0
1002
}
1002
{
1000
BEHIND
1070
     0
1002
}
1002
{
1000
OTHER
1070
     0
1002
}
1002
{
1000
REACTOR
1002
}
  0
DIMENSION
  5
6B9B
102
{ACAD_XDICTIONARY
360
6BAA
102
}
102
{ACAD_REACTORS
330
6BAB
102
}
330
1F
100
AcDbEntity
  8
AM_5
100
AcDbDimension
  2
*D19
 10
855.5983634791667
 20
612.2399750133969
 30
0.0
 11
855.5983634791667
 21
621.832744454052
 31
0.0
 70
   160
 71
     5
 42
1.800000000000295
  3
STANDARD$0
100
AcDbAlignedDimension
 13
843.0015315091296
 23
610.4399750133966
 33
0.0
 14
845.7015315091295
 24
612.2399750133969
 34
0.0
 50
90.0
100
AcDbRotatedDimension
  0
DIMENSION
  5
6C4A
330
1F
100
AcDbEntity
  8
AM_5
100
AcDbDimension
  2
*D20
 10
1085.287609559588
 20
632.2399750133966
 30
0.0
 11
1085.287609559588
 21
623.0996696055329
 31
0.0
 70
   160
  1
<>
 71
     5
 42
18.0
  3
STANDARD$0
100
AcDbAlignedDimension
 13
1072.643905250315
 23
614.2399750133965
 33
0.0
 14
1075.643905250315
 24
632.2399750133966
 34
0.0
 50
90.0
100
AcDbRotatedDimension
  0
LEADER
  5
6CEE
330
1F
100
AcDbEntity
  8
DIM
  6
ACISOTGL
100
AcDbLeader
  3
STANDARD
 76
     3
 10
1072.500117011039
 20
624.822068608719
 30
0.0
 10
1078.61563961894
 20
638.0077989567398
 30
0.0
 10
1092.754449809229
 20
638.0099999999999
 30
0.0
1001
ACAD
1000
DSTYLE
1002
{
1070
    40
1040
1.0
1070
    77
1070
     0
1002
}
  0
TEXT
  5
6CEF
330
1F
100
AcDbEntity
  8
DATA
100
AcDbText
 10
1079.00794188274
 20
638.8536452068535
 30
0.0
 40
3.0
  1
2-M1.6
100
AcDbText
  0
MTEXT
  5
6E24
330
1F
100
AcDbEntity
  8
DATA
100
AcDbMText
 10
1001.793527915967
 20
617.2983828074161
 30
0.0
 40
3.0
 41
43.04623057626701
 71
     1
 72
     5
  1
Connector Type:\PJST XHP-4\PContact:\PSXH-001T-P0.6
 73
     1
 44
1.0
1001
ACAD
1000
MTEXTBEGIN
1070
    73
1070
     1
1070
    44
1040
1.0
1070
    74
1070
     0
1000
MTEXTEND
  0
LINE
  5
6EA7
330
1F
100
AcDbEntity
  8
SPEC
100
AcDbLine
 10
971.8567107309899
 20
631.1614170806621
 30
0.0
 11
970.8815147049641
 21
630.4342042549678
 31
0.0
  0
DIMENSION
  5
70A2
330
1F
100
AcDbEntity
  8
AM_5
  6
ACISOTGL
100
AcDbDimension
  2
*D22
 10
1056.235695600573
 20
616.1741223442568
 30
0.0
 11
1043.456161609314
 21
616.299446272445
 31
0.0
 70
   162
  1
2-<>
 71
     5
 42
0.4886921905584272
  3
STANDARD$2
100
AcDb2LineAngularDimension
 13
1079.842141026854
 23
622.2399750133966
 33
0.0
 14
1056.594357780031
 24
622.2399750133966
 34
0.0
 15
1079.122223957481
 25
628.3431053296133
 35
0.0
 16
1044.047512158468
 26
614.2683342023773
 36
0.0
  0
VIEWPORT
  5
2D8
102
{ACAD_XDICTIONARY
360
72A2
102
}
330
1B
100
AcDbEntity
 67
     1
  8
0
100
AcDbViewport
 10
143.3233510617135
 20
109.6341005249966
 30
0.0
 40
457.7689062740102
 41
290.2644944544476
 68
     1
 69
     1
 12
143.3233510617135
 22
109.6341005249966
 13
0.0
 23
0.0
 14
10.0
 24
10.0
 15
10.0
 25
10.0
 16
0.0
 26
0.0
 36
1.0
 17
0.0
 27
0.0
 37
0.0
 42
50.0
 43
0.0
 44
0.0
 45
290.2644944544476
 50
0.0
 51
0.0
 72
   100
 90
    32768
  1

281
     0
 71
     0
 74
     0
110
0.0
120
0.0
130
0.0
111
1.0
121
0.0
131
0.0
112
0.0
122
1.0
132
0.0
 79
     0
146
0.0
  0
MTEXT
  5
1290
330
1B
100
AcDbEntity
 67
     1
  8
DATA
100
AcDbMText
 10
142.6845396305116
 20
14.24154306217638
 30
0.0
 40
1.930697999999999
 41
24.133725
 71
     1
 72
     5
  1
X       %%p0.5\P1PL     %%p0.2\P2PL     %%p0.1\PANGLE   %%p30'
  7
ROMANS
 73
     1
 44
1.0
1001
ACAD
1000
MTEXTBEGIN
1070
    73
1070
     1
1070
    44
1040
1.0
1070
    74
1070
     0
1000
MTEXTEND
  0
LWPOLYLINE
  5
1291
330
1B
100
AcDbEntity
 67
     1
  8
DATA
100
AcDbPolyline
 90
        2
 70
     0
 43
0.0
 10
44.51178313191621
 20
21.65598901220129
 10
104.0278513100474
 20
21.65598901220129
  0
TEXT
  5
1294
330
1B
100
AcDbEntity
 67
     1
  8
DATA
100
AcDbText
 10
223.3033978947773
 20
2.332825847364669
 30
0.0
 40
3.861395999999999
  1
ST2018L0804
 41
0.7
  7
ROMANS
100
AcDbText
  0
LWPOLYLINE
  5
1296
330
1B
100
AcDbEntity
 67
     1
  8
DATA
100
AcDbPolyline
 90
        2
 70
     0
 43
0.0
 10
0.0009154015513104
 20
21.65598901220129
 10
44.6040054243686
 20
21.65598901220129
  0
LINE
  5
1297
330
1B
100
AcDbEntity
 67
     1
  8
DATA
100
AcDbLine
 10
141.4515899505442
 20
16.0064410711449
 30
0.0
 11
206.4352883025385
 21
16.0064410711449
 31
0.0
  0
LINE
  5
1299
330
1B
100
AcDbEntity
 67
     1
  8
DATA
100
AcDbLine
 10
188.9615608996265
 20
21.65598901220129
 30
0.0
 11
188.9615608996265
 21
0.0005791177154606
 31
0.0
  0
LINE
  5
129A
330
1B
100
AcDbEntity
 67
     1
  8
DATA
100
AcDbLine
 10
172.7736353934133
 20
21.65598905905817
 30
0.0
 11
172.7736353934214
 21
6.498316907446511
 31
0.0
  0
LINE
  5
129B
330
1B
100
AcDbEntity
 67
     1
  8
DATA
100
AcDbLine
 10
161.8855388603332
 20
0.0005791177154606
 30
0.0
 11
161.8855388603055
 21
21.65598905610526
 31
0.0
  0
LINE
  5
129D
330
1B
100
AcDbEntity
 67
     1
  8
DATA
100
AcDbLine
 10
206.4352889818797
 20
21.65598901220129
 30
0.0
 11
206.4352889818797
 21
0.0005791177154606
 31
0.0
  0
LINE
  5
129E
330
1B
100
AcDbEntity
 67
     1
  8
DATA
100
AcDbLine
 10
71.44730055966757
 20
21.65598901220129
 30
0.0
 11
71.44730055966755
 21
0.0005791177154606
 31
0.0
  0
LINE
  5
129F
330
1B
100
AcDbEntity
 67
     1
  8
DATA
100
AcDbLine
 10
86.04251283526197
 20
21.65598903553624
 30
0.0
 11
86.0425128352576
 21
0.0005791177154606
 31
0.0
  0
LINE
  5
12A0
330
1B
100
AcDbEntity
 67
     1
  8
DATA
100
AcDbLine
 10
50.66681625037072
 20
21.65598901220129
 30
0.0
 11
50.66681625037072
 21
0.0005791177154606
 31
0.0
  0
LINE
  5
12A2
330
1B
100
AcDbEntity
 67
     1
  8
DATA
100
AcDbLine
 10
86.0425128352576
 20
16.5762960950056
 30
0.0
 11
0.1578772078717369
 21
16.5762960950056
 31
0.0
  0
LINE
  5
12A3
330
1B
100
AcDbEntity
 67
     1
  8
DATA
100
AcDbLine
 10
0.1578772078717369
 20
11.49660317780992
 30
0.0
 11
86.0425128352576
 21
11.49660317780992
 31
0.0
  0
LINE
  5
12A4
330
1B
100
AcDbEntity
 67
     1
  8
DATA
100
AcDbLine
 10
0.3218667998937382
 20
6.416910260614244
 30
0.0
 11
86.0425128352576
 21
6.416910260614244
 31
0.0
  0
LINE
  5
12A5
330
1B
100
AcDbEntity
 67
     1
  8
DATA
100
AcDbLine
 10
10.9812208516878
 20
21.65598901220129
 30
0.0
 11
10.9812208516878
 21
0.0005791177154606
 31
0.0
  0
LINE
  5
12A6
330
1B
100
AcDbEntity
 67
     1
  8
DATA
100
AcDbLine
 10
206.4352889818797
 20
6.487604351384876
 30
0.0
 11
161.8855388603332
 21
6.487604351384876
 31
0.0
  0
LINE
  5
12A7
330
1B
100
AcDbEntity
 67
     1
  8
DATA
100
AcDbLine
 10
161.8855388603332
 20
11.19931228302795
 30
0.0
 11
206.4352889818797
 21
11.19931228302795
 31
0.0
  0
TEXT
  5
12A8
330
1B
100
AcDbEntity
 67
     1
  8
DATA
100
AcDbText
 10
144.2089124014906
 20
17.38788360913192
 30
0.0
 40
2.413372499999999
  1
SCALE FREE
 41
0.7
  7
ROMANS
 72
     2
 11
159.5740506514906
 21
17.38788360913192
 31
0.0
100
AcDbText
  0
LINE
  5
12A9
330
1B
100
AcDbEntity
 67
     1
  8
DATA
100
AcDbLine
 10
141.4515899505442
 20
21.65598901220129
 30
0.0
 11
141.4515899505442
 21
0.0005791177154606
 31
0.0
  0
TEXT
  5
12AA
330
1B
100
AcDbEntity
 67
     1
  8
DATA
100
AcDbText
 10
72.81931794091391
 20
2.289088082541405
 30
0.0
 40
2.896047
  1
APVD
 41
0.7
  7
ROMANS
100
AcDbText
  0
TEXT
  5
12AB
330
1B
100
AcDbEntity
 67
     1
  8
DATA
100
AcDbText
 10
54.00518497335647
 20
2.289088082541405
 30
0.0
 40
2.896047
  1
DATE
 41
0.7
  7
ROMANS
100
AcDbText
  0
TEXT
  5
12AC
330
1B
100
AcDbEntity
 67
     1
  8
DATA
100
AcDbText
 10
13.71048401705179
 20
2.289088082541405
 30
0.0
 40
2.896047
  1
DESCRIPTION
 41
0.7
  7
ROMANS
100
AcDbText
  0
TEXT
  5
12AD
330
1B
100
AcDbEntity
 67
     1
  8
DATA
100
AcDbText
 10
2.61316602814029
 20
2.289088082541405
 30
0.0
 40
2.896047
  1
REV
 41
0.7
  7
ROMANS
 72
     2
 11
8.11565532814029
 21
2.289088082541405
 31
0.0
100
AcDbText
  0
TEXT
  5
12AE
330
1B
100
AcDbEntity
 67
     1
  8
DATA
100
AcDbText
 10
164.0115266587481
 20
16.86188228564509
 30
0.0
 40
2.896047
  1
APVD
 41
0.7
  7
ROMANS
 72
     2
 11
171.2516441587481
 21
16.86188228564509
 31
0.0
100
AcDbText
  0
TEXT
  5
12AF
330
1B
100
AcDbEntity
 67
     1
  8
DATA
100
AcDbText
 10
163.1771120414716
 20
12.25504563334623
 30
0.0
 40
2.896047
  1
CHKD
 41
0.7
  7
ROMANS
 72
     2
 11
171.0929738414716
 21
12.25504563334623
 31
0.0
100
AcDbText
  0
TEXT
  5
12B0
330
1B
100
AcDbEntity
 67
     1
  8
DATA
100
AcDbText
 10
164.1482638836956
 20
7.264305730021757
 30
0.0
 40
2.896047
  1
DRN
 41
0.7
  7
ROMANS
 72
     2
 11
169.9403578836956
 21
7.264305730021757
 31
0.0
100
AcDbText
  0
TEXT
  5
12B1
330
1B
100
AcDbEntity
 67
     1
  8
DATA
100
AcDbText
 10
166.3066680148434
 20
2.249663648385519
 30
0.0
 40
2.896047
  1
SIGNATURE
 41
0.7
  7
ROMANS
 72
     2
 11
182.2349265148434
 21
2.249663648385519
 31
0.0
100
AcDbText
  0
TEXT
  5
12B2
330
1B
100
AcDbEntity
 67
     1
  8
DATA
100
AcDbText
 10
194.0753275043612
 20
2.147712645052658
 30
0.0
 40
2.896047
  1
DATE
 41
0.7
  7
ROMANS
 72
     2
 11
201.0258403043613
 21
2.147712645052658
 31
0.0
100
AcDbText
  0
TEXT
  5
12B3
330
1B
100
AcDbEntity
 67
     1
  8
DATA
100
AcDbText
 10
211.3647597711961
 20
15.15914893796167
 30
0.0
 40
3.668326199999999
  1
STEPPING MOTOR
 41
0.8
  7
ITALICT
 72
     2
 11
254.825691131196
 21
15.15914893796167
 31
0.0
100
AcDbText
  0
LINE
  5
12B4
330
1B
100
AcDbEntity
 67
     1
  8
DATA
100
AcDbLine
 10
206.4352889818797
 20
12.14062779339902
 30
0.0
 11
282.0457513033824
 21
12.14062786989238
 31
0.0
  0
TEXT
  5
12B5
330
1B
100
AcDbEntity
 67
     1
  8
DATA
100
AcDbText
 10
208.2206521091139
 20
8.230964343399071
 30
0.0
 40
2.413372499999999
  1
DWG.NO
 41
0.7
  7
ROMANS
 72
     2
 11
217.6328048591138
 21
8.230964343399071
 31
0.0
100
AcDbText
  0
TEXT
  5
12B6
330
1B
100
AcDbEntity
 67
     1
  8
DATA
100
AcDbText
 10
89.47920924063479
 20
16.55350887427961
 30
0.0
 40
2.896047
  1
NANOTEC:
 41
0.7
  7
ROMANS
100
AcDbText
  0
TEXT
  5
12B7
330
1B
100
AcDbEntity
 67
     1
  8
DATA
100
AcDbText
 10
189.4634543457442
 20
7.541155117526503
 30
0.0
 40
2.509907399999999
  1
02.06.06
 41
0.7
  7
ROMANS
100
AcDbText
  0
LINE
  5
12B8
330
1B
100
AcDbEntity
 67
     1
  8
SPEC
100
AcDbLine
 10
0.0009154015513104
 20
21.65598901220129
 30
0.0
 11
0.0009154015513104
 21
119.7806666755164
 31
0.0
  0
LWPOLYLINE
  5
12BA
330
1B
100
AcDbEntity
 67
     1
  8
SPEC
100
AcDbPolyline
 90
        4
 70
     1
 43
0.0
 10
0.0009154015513104
 20
196.1105791177017
 10
0.0009154015513104
 20
0.0005791177154606
 10
282.0457558342515
 20
0.0005791177154606
 10
282.0456818962882
 20
196.1105791177017
  0
LWPOLYLINE
  5
1708
330
1B
100
AcDbEntity
 67
     1
  8
DATA
100
AcDbPolyline
 90
        2
 70
     0
 43
0.0
 10
46.10949139879676
 20
21.6559890122013
 10
107.7618763685136
 20
21.6559890122013
  0
LINE
  5
192D
102
{ACAD_REACTORS
330
1931
102
}
330
1B
100
AcDbEntity
 67
     1
  8
CONNECTOR
100
AcDbLine
 10
262.1955768234855
 20
76.63083266744377
 30
0.0
 11
260.2755768234856
 21
76.63083266744377
 31
0.0
  0
LINE
  5
192E
102
{ACAD_REACTORS
330
1931
102
}
330
1B
100
AcDbEntity
 67
     1
  8
CONNECTOR
100
AcDbLine
 10
260.2755768234856
 20
72.15083266744375
 30
0.0
 11
262.1955768234855
 21
72.15083266744375
 31
0.0
  0
LINE
  5
192F
102
{ACAD_REACTORS
330
1931
102
}
330
1B
100
AcDbEntity
 67
     1
  8
CONNECTOR
100
AcDbLine
 10
262.1955768234855
 20
72.15083266744375
 30
0.0
 11
262.1955768234855
 21
76.63083266744377
 31
0.0
  0
LINE
  5
1930
102
{ACAD_REACTORS
330
1931
102
}
330
1B
100
AcDbEntity
 67
     1
  8
CONNECTOR
100
AcDbLine
 10
260.2755768234856
 20
76.63083266744377
 30
0.0
 11
260.2755768234856
 21
72.15083266744375
 31
0.0
  0
HATCH
  5
1931
330
1B
100
AcDbEntity
 67
     1
  8
CONNECTOR
100
AcDbHatch
 10
0.0
 20
0.0
 30
0.0
210
0.0
220
0.0
230
1.0
  2
SOLID
 70
     1
 71
     1
 91
        1
 92
        1
 93
        4
 72
     1
 10
262.1955768234855
 20
76.63083266744377
 11
260.2755768234856
 21
76.63083266744377
 72
     1
 10
260.2755768234856
 20
76.63083266744377
 11
260.2755768234856
 21
72.15083266744375
 72
     1
 10
260.2755768234856
 20
72.15083266744375
 11
262.1955768234855
 21
72.15083266744375
 72
     1
 10
262.1955768234855
 20
72.15083266744375
 11
262.1955768234855
 21
76.63083266744377
 97
        4
330
192D
330
1930
330
192E
330
192F
 75
     0
 76
     1
 98
        1
 10
113.0755768234855
 20
-36.32916733255627
  0
LWPOLYLINE
  5
1932
330
1B
100
AcDbEntity
 67
     1
  8
CONNECTOR
100
AcDbPolyline
 90
        3
 70
     0
 43
0.0
 10
204.8457223209458
 20
77.09200028582007
 10
204.8457223209458
 20
77.09200028582007
 10
208.9195997915068
 20
77.09200028092357
  0
LWPOLYLINE
  5
1933
330
1B
100
AcDbEntity
 67
     1
  8
CONNECTOR
100
AcDbPolyline
 90
        3
 70
     0
 43
0.0
 10
204.8457223562037
 20
89.04067650044112
 10
204.8457223562037
 20
89.04067650044112
 10
208.9195997915068
 20
89.04067649497688
  0
MTEXT
  5
1936
330
1B
100
AcDbEntity
 67
     1
  8
CONNECTOR
100
AcDbMText
 10
250.7620760140915
 20
72.86791880996872
 30
0.0
 40
2.4
 41
5.0
 71
     1
 72
     1
  1
B\\
  7
ROMANS
 73
     1
 44
1.0
1001
ACAD
1000
MTEXTBEGIN
1070
    73
1070
     1
1070
    44
1040
1.0
1070
    74
1070
     0
1000
MTEXTEND
  0
MTEXT
  5
1938
330
1B
100
AcDbEntity
 67
     1
  8
CONNECTOR
100
AcDbMText
 10
250.7252268651416
 20
79.02214302199661
 30
0.0
 40
2.4
 41
4.0
 71
     1
 72
     1
  1
B
  7
ROMANS
 73
     1
 44
1.0
1001
ACAD
1000
MTEXTBEGIN
1070
    73
1070
     1
1070
    44
1040
1.0
1070
    74
1070
     0
1000
MTEXTEND
  0
MTEXT
  5
1939
330
1B
100
AcDbEntity
 67
     1
  8
CONNECTOR
100
AcDbMText
 10
250.3733800753225
 20
84.02530767368523
 30
0.0
 40
2.4
 41
5.0
 71
     1
 72
     1
  1
A\\
  7
ROMANS
 73
     1
 44
1.0
1001
ACAD
1000
MTEXTBEGIN
1070
    73
1070
     1
1070
    44
1040
1.0
1070
    74
1070
     0
1000
MTEXTEND
  0
MTEXT
  5
193B
330
1B
100
AcDbEntity
 67
     1
  8
CONNECTOR
100
AcDbMText
 10
250.5994860663796
 20
90.46556349097079
 30
0.0
 40
2.4
 41
4.0
 71
     1
 72
     1
  1
A
  7
ROMANS
 73
     1
 44
1.0
1001
ACAD
1000
MTEXTBEGIN
1070
    73
1070
     1
1070
    44
1040
1.0
1070
    74
1070
     0
1000
MTEXTEND
  0
TEXT
  5
193E
330
1B
100
AcDbEntity
 67
     1
  8
CONNECTOR
100
AcDbText
 10
198.0
 20
100.6064744390815
 30
0.0
 40
2.4
  1
(EXTERN)
 41
0.65
  7
ROMANS
100
AcDbText
  0
TEXT
  5
193F
330
1B
100
AcDbEntity
 67
     1
  8
CONNECTOR
100
AcDbText
 10
236.378232251077
 20
102.1502571750892
 30
0.0
 40
2.4
  1
MOTOR
 41
0.65
  7
ROMANS
100
AcDbText
  0
TEXT
  5
1940
330
1B
100
AcDbEntity
 67
     1
  8
CONNECTOR
100
AcDbText
 10
192.0
 20
103.968660409642
 30
0.0
 40
2.4
  1
TYPE OF CONNECTION
 41
0.65
  7
ROMANS
100
AcDbText
  0
LWPOLYLINE
  5
1941
330
1B
100
AcDbEntity
 67
     1
  8
CONNECTOR
100
AcDbPolyline
 90
        4
 70
     1
 43
0.0
 10
190.0
 20
99.48463138333604
 10
266.3787615203653
 20
99.48463076220958
 10
266.3787615203653
 20
107.6531444291646
 10
190.0
 20
107.6531444291646
  0
MLINE
  5
1943
330
1B
100
AcDbEntity
 67
     1
  8
CONNECTOR
100
AcDbMline
  2
STANDARD
340
18
 40
0.3
 70
     0
 71
     1
 72
     2
 73
     2
 10
218.9648026587829
 20
107.6531444291646
 30
0.0
210
0.0
220
0.0
230
1.0
 11
218.9648026587829
 21
107.6531444291646
 31
0.0
 12
-1.135098967989524E-08
 22
-1.0
 32
0.0
 13
1.0
 23
-1.135098972660561E-08
 33
0.0
 74
     2
 41
0.0
 41
0.0
 75
     0
 74
     2
 41
-0.3
 41
0.0
 75
     0
 11
218.9648022129054
 21
68.37220050739495
 31
0.0
 12
-1.135098967989524E-08
 22
-1.0
 32
0.0
 13
1.0
 23
-1.135098972660561E-08
 33
0.0
 74
     2
 41
0.0
 41
0.0
 75
     0
 74
     2
 41
-0.3
 41
0.0
 75
     0
  0
TEXT
  5
1945
330
1B
100
AcDbEntity
 67
     1
  8
CONNECTOR
100
AcDbText
 10
220.4652463428363
 20
92.58703464596612
 30
0.0
 40
2.4
  1
PIN NO.
 41
0.7
  7
ROMANS
100
AcDbText
  0
TEXT
  5
1947
330
1B
100
AcDbEntity
 67
     1
  8
CONNECTOR
100
AcDbText
 10
236.507182076476
 20
94.34912226683456
 30
0.0
 40
2.4
  1
LEADS
 41
0.7
  7
ROMANS
100
AcDbText
  0
TEXT
  5
1948
330
1B
100
AcDbEntity
 67
     1
  8
DATA
100
AcDbText
 10
222.0559120269539
 20
45.3814127047898
 30
0.0
 40
2.4
  1
CCW
 41
0.7
  7
ROMANS
 72
     1
 11
224.7359120269539
 21
45.3814127047898
 31
0.0
100
AcDbText
  0
SOLID
  5
1949
330
1B
100
AcDbEntity
 67
     1
  8
DATA
100
AcDbTrace
 10
224.3297618573704
 20
40.43820172486755
 30
0.0
 11
225.1297618573706
 21
40.43820172486755
 31
0.0
 12
224.7297618573705
 22
42.83820172486741
 32
0.0
 13
224.7297618573705
 23
42.83820172486741
 33
0.0
  0
TEXT
  5
194A
330
1B
100
AcDbEntity
 67
     1
  8
DATA
100
AcDbText
 10
209.8202700920619
 20
45.3814127047898
 30
0.0
 40
2.4
  1
B\
 41
0.7
  7
ROMANS
 72
     1
 11
211.6202700920619
 21
45.3814127047898
 31
0.0
100
AcDbText
  0
TEXT
  5
194B
330
1B
100
AcDbEntity
 67
     1
  8
DATA
100
AcDbText
 10
202.0602700920619
 20
45.3814127047898
 30
0.0
 40
2.4
  1
A\
 41
0.7
  7
ROMANS
 72
     1
 11
203.6202700920619
 21
45.3814127047898
 31
0.0
100
AcDbText
  0
TEXT
  5
194C
330
1B
100
AcDbEntity
 67
     1
  8
DATA
100
AcDbText
 10
210.7228682165457
 20
40.58141270478984
 30
0.0
 40
2.4
  1
-
 41
0.7
  7
ROMANS
 72
     1
 11
211.7628682165457
 21
40.58141270478984
 31
0.0
100
AcDbText
  0
TEXT
  5
194D
330
1B
100
AcDbEntity
 67
     1
  8
DATA
100
AcDbText
 10
210.7228682165457
 20
36.00504105520997
 30
0.0
 40
2.4
  1
-
 41
0.7
  7
ROMANS
 72
     1
 11
211.7628682165457
 21
36.00504105520997
 31
0.0
100
AcDbText
  0
LINE
  5
194E
330
1B
100
AcDbEntity
 67
     1
  8
DATA
100
AcDbLine
 10
218.6387615475084
 20
33.05614067461068
 30
0.0
 11
218.6387615475084
 21
43.50753322399839
 31
0.0
  0
TEXT
  5
194F
330
1B
100
AcDbEntity
 67
     1
  8
DATA
100
AcDbText
 10
202.7228682165457
 20
40.58141270478984
 30
0.0
 40
2.4
  1
-
 41
0.7
  7
ROMANS
 72
     1
 11
203.7628682165457
 21
40.58141270478984
 31
0.0
100
AcDbText
  0
TEXT
  5
1950
330
1B
100
AcDbEntity
 67
     1
  8
DATA
100
AcDbText
 10
202.5802700920619
 20
35.78141270478989
 30
0.0
 40
2.4
  1
+
 41
0.7
  7
ROMANS
 72
     1
 11
203.6202700920619
 21
35.78141270478989
 31
0.0
100
AcDbText
  0
TEXT
  5
1951
330
1B
100
AcDbEntity
 67
     1
  8
DATA
100
AcDbText
 10
194.7402700920619
 20
45.3814127047898
 30
0.0
 40
2.4
  1
B
 41
0.7
  7
ROMANS
 72
     1
 11
195.6202700920619
 21
45.3814127047898
 31
0.0
100
AcDbText
  0
TEXT
  5
1952
330
1B
100
AcDbEntity
 67
     1
  8
DATA
100
AcDbText
 10
186.9002700920619
 20
45.3814127047898
 30
0.0
 40
2.4
  1
A
 41
0.7
  7
ROMANS
 72
     1
 11
187.6202700920619
 21
45.3814127047898
 31
0.0
100
AcDbText
  0
TEXT
  5
1953
330
1B
100
AcDbEntity
 67
     1
  8
DATA
100
AcDbText
 10
194.3512967575834
 20
30.97103195662715
 30
0.0
 40
2.4
  1
-
 41
0.7
  7
ROMANS
 72
     1
 11
195.3912967575834
 21
30.97103195662715
 31
0.0
100
AcDbText
  0
TEXT
  5
1954
330
1B
100
AcDbEntity
 67
     1
  8
DATA
100
AcDbText
 10
186.3512967575834
 20
30.97103195662715
 30
0.0
 40
2.4
  1
-
 41
0.7
  7
ROMANS
 72
     1
 11
187.3912967575834
 21
30.97103195662715
 31
0.0
100
AcDbText
  0
TEXT
  5
1955
330
1B
100
AcDbEntity
 67
     1
  8
DATA
100
AcDbText
 10
210.5802700920619
 20
26.18141270478975
 30
0.0
 40
2.4
  1
+
 41
0.7
  7
ROMANS
 72
     1
 11
211.6202700920619
 21
26.18141270478975
 31
0.0
100
AcDbText
  0
TEXT
  5
1956
330
1B
100
AcDbEntity
 67
     1
  8
DATA
100
AcDbText
 10
202.5943255391937
 20
26.05143211885059
 30
0.0
 40
2.4
  1
-
 41
0.7
  7
ROMANS
 72
     1
 11
203.6343255391937
 21
26.05143211885059
 31
0.0
100
AcDbText
  0
TEXT
  5
1957
330
1B
100
AcDbEntity
 67
     1
  8
DATA
100
AcDbText
 10
194.5943255391937
 20
26.05143211885059
 30
0.0
 40
2.4
  1
-
 41
0.7
  7
ROMANS
 72
     1
 11
195.6343255391937
 21
26.05143211885059
 31
0.0
100
AcDbText
  0
TEXT
  5
1958
330
1B
100
AcDbEntity
 67
     1
  8
DATA
100
AcDbText
 10
186.5802700920619
 20
26.18141270478975
 30
0.0
 40
2.4
  1
+
 41
0.7
  7
ROMANS
 72
     1
 11
187.6202700920619
 21
26.18141270478975
 31
0.0
100
AcDbText
  0
TEXT
  5
1959
330
1B
100
AcDbEntity
 67
     1
  8
DATA
100
AcDbText
 10
217.0288461595641
 20
26.48678758595418
 30
0.0
 40
2.4
  1
CW
 41
0.7
  7
ROMANS
 72
     1
 11
218.8688461595641
 21
26.48678758595418
 31
0.0
100
AcDbText
  0
LINE
  5
195A
330
1B
100
AcDbEntity
 67
     1
  8
DATA
100
AcDbLine
 10
183.6202700920619
 20
48.9814127047897
 30
0.0
 11
183.6202700920619
 21
24.98141270478971
 31
0.0
  0
LINE
  5
195B
330
1B
100
AcDbEntity
 67
     1
  8
DATA
100
AcDbLine
 10
227.8307527739102
 20
48.9814127047897
 30
0.0
 11
227.8307527739102
 21
24.98141270478971
 31
0.0
  0
LINE
  5
195C
330
1B
100
AcDbEntity
 67
     1
  8
DATA
100
AcDbLine
 10
224.7297618573705
 20
40.43820172486755
 30
0.0
 11
224.7297618573705
 21
30.67805494059928
 31
0.0
  0
SOLID
  5
195D
330
1B
100
AcDbEntity
 67
     1
  8
DATA
100
AcDbTrace
 10
219.0387615475085
 20
33.05614067461068
 30
0.0
 11
218.2387615475084
 21
33.05614067461068
 31
0.0
 12
218.6387615475084
 22
30.65614067461059
 32
0.0
 13
218.6387615475084
 23
30.65614067461059
 33
0.0
  0
LINE
  5
195E
330
1B
100
AcDbEntity
 67
     1
  8
DATA
100
AcDbLine
 10
221.4805168944572
 20
48.9814127047897
 30
0.0
 11
221.4805168944572
 21
24.98141270478971
 31
0.0
  0
TEXT
  5
195F
330
1B
100
AcDbEntity
 67
     1
  8
DATA
100
AcDbText
 10
210.5802700920619
 20
30.98141270478971
 30
0.0
 40
2.4
  1
+
 41
0.7
  7
ROMANS
 72
     1
 11
211.6202700920619
 21
30.98141270478971
 31
0.0
100
AcDbText
  0
TEXT
  5
1960
330
1B
100
AcDbEntity
 67
     1
  8
DATA
100
AcDbText
 10
202.5802700920619
 20
30.98141270478971
 30
0.0
 40
2.4
  1
+
 41
0.7
  7
ROMANS
 72
     1
 11
203.6202700920619
 21
30.98141270478971
 31
0.0
100
AcDbText
  0
LINE
  5
1961
330
1B
100
AcDbEntity
 67
     1
  8
DATA
100
AcDbLine
 10
215.6202700920619
 20
48.9814127047897
 30
0.0
 11
215.6202700920619
 21
24.98141270478971
 31
0.0
  0
LINE
  5
1962
330
1B
100
AcDbEntity
 67
     1
  8
DATA
100
AcDbLine
 10
207.6202700920619
 20
48.9814127047897
 30
0.0
 11
207.6202700920619
 21
24.98141270478971
 31
0.0
  0
LINE
  5
1963
330
1B
100
AcDbEntity
 67
     1
  8
DATA
100
AcDbLine
 10
199.6202700920619
 20
48.9814127047897
 30
0.0
 11
199.6202700920619
 21
24.98141270478971
 31
0.0
  0
TEXT
  5
1964
330
1B
100
AcDbEntity
 67
     1
  8
DATA
100
AcDbText
 10
178.9402700920619
 20
40.58141270478984
 30
0.0
 40
2.4
  1
1
 41
0.7
  7
ROMANS
 72
     1
 11
179.6202700920619
 21
40.58141270478984
 31
0.0
100
AcDbText
  0
TEXT
  5
1965
330
1B
100
AcDbEntity
 67
     1
  8
DATA
100
AcDbText
 10
178.8202700920619
 20
35.78141270478989
 30
0.0
 40
2.4
  1
2
 41
0.7
  7
ROMANS
 72
     1
 11
179.6202700920619
 21
35.78141270478989
 31
0.0
100
AcDbText
  0
TEXT
  5
1966
330
1B
100
AcDbEntity
 67
     1
  8
DATA
100
AcDbText
 10
178.7802700920619
 20
26.18141270478975
 30
0.0
 40
2.4
  1
4
 41
0.7
  7
ROMANS
 72
     1
 11
179.6202700920619
 21
26.18141270478975
 31
0.0
100
AcDbText
  0
TEXT
  5
1967
330
1B
100
AcDbEntity
 67
     1
  8
DATA
100
AcDbText
 10
178.8202700920619
 20
30.98141270478971
 30
0.0
 40
2.4
  1
3
 41
0.7
  7
ROMANS
 72
     1
 11
179.6202700920619
 21
30.98141270478971
 31
0.0
100
AcDbText
  0
LINE
  5
1968
330
1B
100
AcDbEntity
 67
     1
  8
DATA
100
AcDbLine
 10
175.6202700920619
 20
48.9814127047897
 30
0.0
 11
175.6202700920619
 21
24.98141270478971
 31
0.0
  0
TEXT
  5
1969
330
1B
100
AcDbEntity
 67
     1
  8
DATA
100
AcDbText
 10
175.6202700920619
 20
50.39093651431369
 30
0.0
 40
2.8
  1
WHEN FACING MOUNTING END (X)
 41
0.7
  7
ROMANS
100
AcDbText
  0
TEXT
  5
196A
330
1B
100
AcDbEntity
 67
     1
  8
DATA
100
AcDbText
 10
175.4533880495009
 20
54.98141270478971
 30
0.0
 40
2.8
  1
FULL STEP 2 PHASE-Ex.,
 41
0.7
  7
ROMANS
100
AcDbText
  0
LINE
  5
196B
330
1B
100
AcDbEntity
 67
     1
  8
DATA
100
AcDbLine
 10
175.6202700920619
 20
44.18141270478975
 30
0.0
 11
215.6202700920619
 21
44.18141270478975
 31
0.0
  0
LINE
  5
196C
330
1B
100
AcDbEntity
 67
     1
  8
DATA
100
AcDbLine
 10
175.6202700920619
 20
29.78141270478989
 30
0.0
 11
215.6202700920619
 21
29.78141270478989
 31
0.0
  0
LINE
  5
196D
330
1B
100
AcDbEntity
 67
     1
  8
DATA
100
AcDbLine
 10
227.8307527739102
 20
48.9814127047897
 30
0.0
 11
175.6202700920619
 21
48.9814127047897
 31
0.0
  0
LINE
  5
196E
330
1B
100
AcDbEntity
 67
     1
  8
DATA
100
AcDbLine
 10
175.6202700920619
 20
24.98141270478971
 30
0.0
 11
227.8307527739102
 21
24.98141270478971
 31
0.0
  0
TEXT
  5
196F
330
1B
100
AcDbEntity
 67
     1
  8
DATA
100
AcDbText
 10
176.5802700920619
 20
45.3814127047898
 30
0.0
 40
2.4
  1
STEP
 41
0.7
  7
ROMANS
 72
     1
 11
179.6202700920619
 21
45.3814127047898
 31
0.0
100
AcDbText
  0
TEXT
  5
1970
330
1B
100
AcDbEntity
 67
     1
  8
DATA
100
AcDbText
 10
194.5802700920619
 20
40.58141270478984
 30
0.0
 40
2.4
  1
+
 41
0.7
  7
ROMANS
 72
     1
 11
195.6202700920619
 21
40.58141270478984
 31
0.0
100
AcDbText
  0
TEXT
  5
1971
330
1B
100
AcDbEntity
 67
     1
  8
DATA
100
AcDbText
 10
194.5802700920619
 20
35.78141270478989
 30
0.0
 40
2.4
  1
+
 41
0.7
  7
ROMANS
 72
     1
 11
195.6202700920619
 21
35.78141270478989
 31
0.0
100
AcDbText
  0
TEXT
  5
1972
330
1B
100
AcDbEntity
 67
     1
  8
DATA
100
AcDbText
 10
186.5802700920619
 20
40.58141270478984
 30
0.0
 40
2.4
  1
+
 41
0.7
  7
ROMANS
 72
     1
 11
187.6202700920619
 21
40.58141270478984
 31
0.0
100
AcDbText
  0
TEXT
  5
1973
330
1B
100
AcDbEntity
 67
     1
  8
DATA
100
AcDbText
 10
186.3512967575834
 20
35.77622212781932
 30
0.0
 40
2.4
  1
-
 41
0.7
  7
ROMANS
 72
     1
 11
187.3912967575834
 21
35.77622212781932
 31
0.0
100
AcDbText
  0
LINE
  5
1974
330
1B
100
AcDbEntity
 67
     1
  8
DATA
100
AcDbLine
 10
191.6202700920619
 20
48.9814127047897
 30
0.0
 11
191.6202700920619
 21
24.98141270478971
 31
0.0
  0
LINE
  5
1975
330
1B
100
AcDbEntity
 67
     1
  8
DATA
100
AcDbLine
 10
175.6202700920619
 20
39.38141270478979
 30
0.0
 11
215.6202700920619
 21
39.38141270478979
 31
0.0
  0
LINE
  5
1976
330
1B
100
AcDbEntity
 67
     1
  8
DATA
100
AcDbLine
 10
175.6202700920619
 20
34.58141270478984
 30
0.0
 11
215.6202700920619
 21
34.58141270478984
 31
0.0
  0
LINE
  5
197C
330
1B
100
AcDbEntity
 67
     1
  8
CONNECTOR
100
AcDbLine
 10
190.0
 20
99.48463137847099
 30
0.0
 11
190.0
 21
68.37220061722515
 31
0.0
  0
LINE
  5
197D
330
1B
100
AcDbEntity
 67
     1
  8
CONNECTOR
100
AcDbLine
 10
266.3787615203653
 20
91.67164437848795
 30
0.0
 11
190.0
 21
91.67164440466223
 31
0.0
  0
TEXT
  5
1985
330
1B
100
AcDbEntity
 67
     1
  8
CONNECTOR
100
AcDbText
 10
252.2559538015914
 20
94.43058202521081
 30
0.0
 40
2.4
  1
WINDING
 41
0.7
  7
ROMANS
100
AcDbText
  0
LWPOLYLINE
  5
1986
330
1B
100
AcDbEntity
 67
     1
  8
CONNECTOR
100
AcDbPolyline
 90
        4
 70
     1
 43
0.0
 10
249.4884340105266
 20
99.48463076220958
 10
266.3787615203653
 20
99.48463076220958
 10
266.3787615203653
 20
68.37220049893142
 10
249.4884340126544
 20
68.37220049893142
  0
LWPOLYLINE
  5
1989
330
1B
100
AcDbEntity
 67
     1
  8
CONNECTOR
100
AcDbPolyline
 90
        2
 70
     0
 43
0.0
 10
208.9195997915068
 20
83.14187857768866
 10
204.8457223339543
 20
83.14187858315291
  0
MTEXT
  5
198A
330
1B
100
AcDbEntity
 67
     1
  8
CONNECTOR
100
AcDbMText
 10
201.3505348207647
 20
75.02416432762164
 30
0.0
 40
2.4
 41
4.0
 71
     9
 72
     1
  1
B
  7
ROMANS
 73
     1
 44
1.0
1001
ACAD
1000
MTEXTBEGIN
1070
    73
1070
     1
1070
    44
1040
1.0
1070
    74
1070
     0
1000
MTEXTEND
  0
LWPOLYLINE
  5
198B
330
1B
100
AcDbEntity
 67
     1
  8
CONNECTOR
100
AcDbPolyline
 90
        2
 70
     0
 43
0.0
 10
208.9195998344527
 20
71.40070753081284
 10
204.8457222986461
 20
71.4007075636531
  0
MTEXT
  5
198C
330
1B
100
AcDbEntity
 67
     1
  8
CONNECTOR
100
AcDbMText
 10
203.2938185995132
 20
80.91911836896498
 30
0.0
 40
2.4
 41
4.0
 71
     9
 72
     1
  1
A\\
  7
ROMANS
 73
     1
 44
1.0
1001
ACAD
1000
MTEXTBEGIN
1070
    73
1070
     1
1070
    44
1040
1.0
1070
    74
1070
     0
1000
MTEXTEND
  0
MTEXT
  5
198D
330
1B
100
AcDbEntity
 67
     1
  8
CONNECTOR
100
AcDbMText
 10
201.3280488599199
 20
87.84067649497684
 30
0.0
 40
2.4
 41
4.0
 71
     9
 72
     1
  1
\A1;A
  7
ROMANS
 73
     1
 44
1.0
1001
ACAD
1000
MTEXTBEGIN
1070
    73
1070
     1
1070
    44
1040
1.0
1070
    74
1070
     0
1000
MTEXTEND
  0
MTEXT
  5
198E
330
1B
100
AcDbEntity
 67
     1
  8
CONNECTOR
100
AcDbMText
 10
203.3192764043964
 20
69.6924250178721
 30
0.0
 40
2.4
 41
4.0
 71
     9
 72
     1
  1
B\\
  7
ROMANS
 73
     1
 44
1.0
1001
ACAD
1000
MTEXTBEGIN
1070
    73
1070
     1
1070
    44
1040
1.0
1070
    74
1070
     0
1000
MTEXTEND
  0
LINE
  5
1991
330
1B
100
AcDbEntity
 67
     1
  8
CONNECTOR
100
AcDbLine
 10
261.2355768234857
 20
76.63083266744377
 30
0.0
 11
261.2355768234854
 21
78.29291909311348
 31
0.0
  0
LINE
  5
1992
330
1B
100
AcDbEntity
 67
     1
  8
CONNECTOR
100
AcDbLine
 10
261.2355768234857
 20
72.15083266744375
 30
0.0
 11
261.2355768234854
 21
70.29291909311348
 31
0.0
  0
LINE
  5
1993
330
1B
100
AcDbEntity
 67
     1
  8
CONNECTOR
100
AcDbLine
 10
261.2355768234854
 20
78.29291909311348
 30
0.0
 11
255.9657690918568
 21
78.29291909311348
 31
0.0
  0
LINE
  5
1994
330
1B
100
AcDbEntity
 67
     1
  8
CONNECTOR
100
AcDbLine
 10
261.2355768234854
 20
70.29291909311348
 30
0.0
 11
255.9657690918568
 21
70.29291909311348
 31
0.0
  0
LINE
  5
1995
330
1B
100
AcDbEntity
 67
     1
  8
CONNECTOR
100
AcDbLine
 10
261.2355768234857
 20
87.97839148508581
 30
0.0
 11
261.2355768234857
 21
89.67557812765916
 31
0.0
  0
LINE
  5
1996
330
1B
100
AcDbEntity
 67
     1
  8
CONNECTOR
100
AcDbLine
 10
261.2355768234857
 20
89.67557812765916
 30
0.0
 11
255.9657690918568
 21
89.67557812765916
 31
0.0
  0
LINE
  5
1997
102
{ACAD_REACTORS
330
199B
102
}
330
1B
100
AcDbEntity
 67
     1
  8
CONNECTOR
100
AcDbLine
 10
262.1955768234855
 20
87.97839148508581
 30
0.0
 11
260.2755768234856
 21
87.97839148508581
 31
0.0
  0
LINE
  5
1998
330
1B
100
AcDbEntity
 67
     1
  8
CONNECTOR
100
AcDbLine
 10
261.2355768234857
 20
83.49839148508579
 30
0.0
 11
261.2355768234857
 21
81.67557812765915
 31
0.0
  0
LINE
  5
1999
330
1B
100
AcDbEntity
 67
     1
  8
CONNECTOR
100
AcDbLine
 10
261.2355768234857
 20
81.67557812765915
 30
0.0
 11
255.9657690918568
 21
81.67557812765915
 31
0.0
  0
LINE
  5
199A
102
{ACAD_REACTORS
330
199B
102
}
330
1B
100
AcDbEntity
 67
     1
  8
CONNECTOR
100
AcDbLine
 10
260.2755768234856
 20
83.49839148508579
 30
0.0
 11
262.1955768234855
 21
83.49839148508579
 31
0.0
  0
HATCH
  5
199B
330
1B
100
AcDbEntity
 67
     1
  8
CONNECTOR
100
AcDbHatch
 10
0.0
 20
0.0
 30
0.0
210
0.0
220
0.0
230
1.0
  2
SOLID
 70
     1
 71
     1
 91
        1
 92
        1
 93
        4
 72
     1
 10
262.1955768234855
 20
87.97839148508581
 11
260.2755768234856
 21
87.97839148508581
 72
     1
 10
260.2755768234856
 20
87.97839148508581
 11
260.2755768234856
 21
83.49839148508579
 72
     1
 10
260.2755768234856
 20
83.49839148508579
 11
262.1955768234855
 21
83.49839148508579
 72
     1
 10
262.1955768234855
 20
83.49839148508579
 11
262.1955768234855
 21
87.97839148508581
 97
        4
330
1997
330
199D
330
199A
330
199C
 75
     0
 76
     1
 98
        1
 10
113.0755768234855
 20
-24.98160851491411
  0
LINE
  5
199C
102
{ACAD_REACTORS
330
199B
102
}
330
1B
100
AcDbEntity
 67
     1
  8
CONNECTOR
100
AcDbLine
 10
262.1955768234855
 20
83.49839148508579
 30
0.0
 11
262.1955768234855
 21
87.97839148508581
 31
0.0
  0
LINE
  5
199D
102
{ACAD_REACTORS
330
199B
102
}
330
1B
100
AcDbEntity
 67
     1
  8
CONNECTOR
100
AcDbLine
 10
260.2755768234856
 20
87.97839148508581
 30
0.0
 11
260.2755768234856
 21
83.49839148508579
 31
0.0
  0
TEXT
  5
199E
330
1B
100
AcDbEntity
 67
     1
  8
CONNECTOR
100
AcDbText
 10
201.0
 20
94.35
 30
0.0
 40
2.4
  1
BIPOLAR
 41
0.65
  7
ROMANS
100
AcDbText
  0
LWPOLYLINE
  5
199F
330
1B
100
AcDbEntity
 67
     1
  8
CONNECTOR
100
AcDbPolyline
 90
        4
 70
     1
 43
0.0
 10
233.5172647388883
 20
99.48463098076638
 10
249.4884340105266
 20
99.48463076220958
 10
249.4884340105266
 20
68.37220049893142
 10
233.5172647006595
 20
68.37220050022313
  0
TEXT
  5
19A2
330
1B
100
AcDbEntity
 67
     1
  8
CONNECTOR
100
AcDbText
 10
236.0276589524442
 20
81.65780504491726
 30
0.0
 40
2.4
  1
GRN
 41
0.7
  7
ROMANS
100
AcDbText
  0
TEXT
  5
19A3
330
1B
100
AcDbEntity
 67
     1
  8
CONNECTOR
100
AcDbText
 10
223.9830878677842
 20
81.77138634366952
 30
0.0
 40
2.4
  1
 2
 41
0.7
  7
ROMANS
100
AcDbText
  0
TEXT
  5
19A5
330
1B
100
AcDbEntity
 67
     1
  8
CONNECTOR
100
AcDbText
 10
219.4284771906512
 20
95.93703464596627
 30
0.0
 40
2.4
  1
CONNECTOR
 41
0.65
  7
ROMANS
100
AcDbText
  0
TEXT
  5
19A6
330
1B
100
AcDbEntity
 67
     1
  8
CONNECTOR
100
AcDbText
 10
223.9830878677842
 20
87.97222761644457
 30
0.0
 40
2.4
  1
 1
 41
0.7
  7
ROMANS
100
AcDbText
  0
LINE
  5
19A8
330
1B
100
AcDbEntity
 67
     1
  8
CONNECTOR
100
AcDbLine
 10
218.9648026395998
 20
80.02192233476183
 30
0.0
 11
249.4884340105266
 21
80.02192232759
 31
0.0
  0
LINE
  5
19A9
330
1B
100
AcDbEntity
 67
     1
  8
CONNECTOR
100
AcDbLine
 10
218.9648026477296
 20
85.84678336458098
 30
0.0
 11
249.4884339994733
 21
85.84678335611746
 31
0.0
  0
TEXT
  5
19AB
330
1B
100
AcDbEntity
 67
     1
  8
CONNECTOR
100
AcDbText
 10
236.0276589524442
 20
87.85864631769232
 30
0.0
 40
2.4
  1
BLK
 41
0.7
  7
ROMANS
100
AcDbText
  0
TEXT
  5
19AD
330
1B
100
AcDbEntity
 67
     1
  8
CONNECTOR
100
AcDbText
 10
223.9830878677842
 20
76.20290005108143
 30
0.0
 40
2.4
  1
 3
 41
0.7
  7
ROMANS
100
AcDbText
  0
TEXT
  5
19AE
330
1B
100
AcDbEntity
 67
     1
  8
CONNECTOR
100
AcDbText
 10
223.9830878677842
 20
70.22642888653206
 30
0.0
 40
2.4
  1
 4
 41
0.7
  7
ROMANS
100
AcDbText
  0
LINE
  5
19AF
330
1B
100
AcDbEntity
 67
     1
  8
CONNECTOR
100
AcDbLine
 10
218.9648026299511
 20
74.19706130555849
 30
0.0
 11
249.4884339816948
 21
74.19706129838667
 31
0.0
  0
TEXT
  5
19B1
330
1B
100
AcDbEntity
 67
     1
  8
CONNECTOR
100
AcDbText
 10
236.0276589524442
 20
70.11284758777981
 30
0.0
 40
2.4
  1
BLU
 41
0.7
  7
ROMANS
100
AcDbText
  0
TEXT
  5
19B3
330
1B
100
AcDbEntity
 67
     1
  8
CONNECTOR
100
AcDbText
 10
236.0276589524442
 20
76.08931875232918
 30
0.0
 40
2.4
  1
RED
 41
0.7
  7
ROMANS
100
AcDbText
  0
LINE
  5
19B4
330
1B
100
AcDbEntity
 67
     1
  8
CONNECTOR
100
AcDbLine
 10
233.5172647388883
 20
99.48463090567623
 30
0.0
 11
233.5172647006595
 21
68.37220050022313
 31
0.0
  0
LINE
  5
19BB
330
1B
100
AcDbEntity
 67
     1
  8
SPEC
100
AcDbLine
 10
170.0009154015513
 20
21.6559890122013
 30
0.0
 11
170.0009154015513
 21
111.6559890122013
 31
0.0
  0
TEXT
  5
19BD
330
1B
100
AcDbEntity
 67
     1
  8
DATA
100
AcDbText
 10
1.828349188375568
 20
73.0
 30
0.0
 40
2.4
  1
DETENT TORQUE (Nm) [lb-in]
 41
0.7
  7
ROMANS
100
AcDbText
  0
TEXT
  5
19BF
330
1B
100
AcDbEntity
 67
     1
  8
SPEC
100
AcDbText
 10
153.8283491883755
 20
48.0
 30
0.0
 40
2.4
  1

 41
0.7
  7
ROMANS
100
AcDbText
  0
TEXT
  5
19C0
330
1B
100
AcDbEntity
 67
     1
  8
SCHRIFT
  6
HIDDEN
100
AcDbText
 10
111.8283491883755
 20
105.2917072386782
 30
0.0
 40
3.0
  1
PERMISSIBLE RADIAL+AXIAL FORCE
 41
0.7
  7
ROMANS
100
AcDbText
  0
TEXT
  5
19C1
330
1B
100
AcDbEntity
 67
     1
  8
DATA
100
AcDbText
 10
1.828349188375568
 20
43.0
 30
0.0
 40
2.4
  1
AMBIENT TEMPERATURE -10°~ 50°C [14°F ~ 122°F]
 41
0.7
  7
ROMANS
100
AcDbText
  0
TEXT
  5
19C2
330
1B
100
AcDbEntity
 67
     1
  8
DATA
100
AcDbText
 10
110.8283491883755
 20
48.0
 30
0.0
 40
2.4
  1
AXIAL-FORCE Fa (N)
 41
0.7
  7
ROMANS
100
AcDbText
  0
TEXT
  5
19C4
330
1B
100
AcDbEntity
 67
     1
  8
DATA
100
AcDbText
 10
1.828349188375568
 20
28.0
 30
0.0
 40
2.4
  1
DIELECTRIC STRENGTH 500VAC FOR 1 MIN. (BETWEEN THE MOTOR COILS AND THE MOTOR CASE)
 41
0.59
  7
ROMANS
100
AcDbText
  0
TEXT
  5
19C5
330
1B
100
AcDbEntity
 67
     1
  8
DATA
100
AcDbText
 10
1.828349188375568
 20
33.0
 30
0.0
 40
2.4
  1
INSULATION CLASS B 130° [266°F]
 41
0.7
  7
ROMANS
100
AcDbText
  0
TEXT
  5
19C6
330
1B
100
AcDbEntity
 67
     1
  8
DATA
100
AcDbText
 10
1.828349188375568
 20
38.0
 30
0.0
 40
2.4
  1
INSULATION RESISTANCE 100 MOhm (UNDER NORMAL TEMPERATURE AND HUMIDITY)
 41
0.69
  7
ROMANS
100
AcDbText
  0
TEXT
  5
19C7
330
1B
100
AcDbEntity
 67
     1
  8
DATA
100
AcDbText
 10
1.828349188375568
 20
48.0
 30
0.0
 40
2.4
  1
TEMPERATURE RISE: MAX.80°C (MOTOR STANDSTILL; FOR 2 PHASE ENERGIZED)
 41
0.7
  7
ROMANS
100
AcDbText
  0
MTEXT
  5
19C8
330
1B
100
AcDbEntity
 67
     1
  8
DATA
100
AcDbMText
 10
131.290926933951
 20
85.84775216573845
 30
0.0
 40
2.399999999999999
 41
6.509999999999999
 71
     1
 72
     5
  1
F{\H0.8333x;r}
  7
ROMANS
 73
     1
 44
1.0
1001
ACAD
1000
MTEXTBEGIN
1070
    73
1070
     1
1070
    44
1040
1.0
1070
    74
1070
     0
1000
MTEXTEND
  0
DIMENSION
  5
19C9
330
1B
100
AcDbEntity
 67
     1
  8
DIM
100
AcDbDimension
  2
*D5
 10
139.0972407104071
 20
55.91119174080848
 30
0.0
 11
134.4901433864878
 21
55.91119174080848
 31
0.0
 70
   160
  1
a
 71
     5
 42
9.190871881572007
  3
STANDARD$0
100
AcDbAlignedDimension
 13
129.9063688288351
 23
74.09868988223387
 33
0.0
 14
139.0972407104071
 24
60.09299455805124
 34
0.0
100
AcDbRotatedDimension
1001
ACAD
1000
DSTYLE
1002
{
1070
   344
1005
2FF
1070
   173
1070
     1
1070
   343
1005
0
1070
    41
1040
2.399999999999999
1070
   340
1005
3C7
1070
   140
1040
2.399999999999999
1070
    40
1040
1.0
1002
}
  0
LINE
  5
19D1
330
1B
100
AcDbEntity
 67
     1
  8
CENTER
  6
AM_ISO08W050x2
100
AcDbLine
 10
126.6677412239616
 20
75.98428938777749
 30
0.0
 11
169.0047821176252
 21
75.98428938777749
 31
0.0
  0
TEXT
  5
19D2
330
1B
100
AcDbEntity
 67
     1
  8
DATA
100
AcDbText
 10
164.5
 20
43.0
 30
0.0
 40
2.4
  1
20
 41
0.7
  7
ROMANS
100
AcDbText
  0
TEXT
  5
19D3
330
1B
100
AcDbEntity
 67
     1
  8
DATA
100
AcDbText
 10
164.5
 20
38.0
 30
0.0
 40
2.4
  1
8
 41
0.7
  7
ROMANS
100
AcDbText
  0
TEXT
  5
19D4
330
1B
100
AcDbEntity
 67
     1
  8
DATA
100
AcDbText
 10
157.0
 20
38.0
 30
0.0
 40
2.4
  1
14
 41
0.7
  7
ROMANS
100
AcDbText
  0
TEXT
  5
19D5
330
1B
100
AcDbEntity
 67
     1
  8
DATA
100
AcDbText
 10
157.0
 20
43.0
 30
0.0
 40
2.4
  1
15
 41
0.7
  7
ROMANS
100
AcDbText
  0
TEXT
  5
19D6
330
1B
100
AcDbEntity
 67
     1
  8
DATA
100
AcDbText
 10
149.5
 20
43.0
 30
0.0
 40
2.4
  1
10
 41
0.7
  7
ROMANS
100
AcDbText
  0
TEXT
  5
19D7
330
1B
100
AcDbEntity
 67
     1
  8
DATA
100
AcDbText
 10
149.5
 20
38.0
 30
0.0
 40
2.4
  1
18
 41
0.7
  7
ROMANS
100
AcDbText
  0
TEXT
  5
19D8
330
1B
100
AcDbEntity
 67
     1
  8
DATA
100
AcDbText
 10
143.3283491883756
 20
43.0
 30
0.0
 40
2.4
  1
5
 41
0.7
  7
ROMANS
100
AcDbText
  0
TEXT
  5
19D9
330
1B
100
AcDbEntity
 67
     1
  8
DATA
100
AcDbText
 10
142.0
 20
38.0
 30
0.0
 40
2.4
  1
30
 41
0.7
  7
ROMANS
100
AcDbText
  0
TEXT
  5
19DC
330
1B
100
AcDbEntity
 67
     1
  8
DATA
100
AcDbText
 10
110.8283491883755
 20
38.0
 30
0.0
 40
2.4
  1
RADIAL-FORCE Fr (N)
 41
0.7
  7
ROMANS
100
AcDbText
  0
TEXT
  5
19DD
330
1B
100
AcDbEntity
 67
     1
  8
DATA
100
AcDbText
 10
110.8283491883755
 20
43.0
 30
0.0
 40
2.4
  1
DISTANCE a  (mm)
 41
0.7
  7
ROMANS
100
AcDbText
  0
TEXT
  5
19DE
330
1B
100
AcDbEntity
 67
     1
  8
DATA
100
AcDbText
 10
78.82834918837557
 20
63.0
 30
0.0
 40
2.4
  1
%%P5%
 41
0.7
  7
ROMANS
100
AcDbText
  0
TEXT
  5
19DF
330
1B
100
AcDbEntity
 67
     1
  8
DATA
100
AcDbText
 10
78.82834918837557
 20
68.0
 30
0.0
 40
2.4
  1
1.8
 41
0.7
  7
ROMANS
100
AcDbText
  0
TEXT
  5
19E0
330
1B
100
AcDbEntity
 67
     1
  8
DATA
100
AcDbText
 10
75.0
 20
88.0
 30
0.0
 40
2.4
  1
6.0%%P15%%%
 41
0.7
  7
ROMANS
100
AcDbText
  0
TEXT
  5
19E1
330
1B
100
AcDbEntity
 67
     1
  8
DATA
100
AcDbText
 10
75.0
 20
93.0
 30
0.0
 40
2.4
  1
0.8
 41
0.7
  7
ROMANS
100
AcDbText
  0
TEXT
  5
19E4
330
1B
100
AcDbEntity
 67
     1
  8
DATA
100
AcDbText
 10
31.82834918837557
 20
107.617252115867
 30
0.0
 40
2.4
  1
CONNECTION
 41
0.7
  7
ROMANS
100
AcDbText
  0
TEXT
  5
19E9
330
1B
100
AcDbEntity
 67
     1
  8
DATA
100
AcDbText
 10
1.828349188375568
 20
98.0
 30
0.0
 40
2.4
  1
VOLTAGE (VDC)
 41
0.7
  7
ROMANS
100
AcDbText
  0
TEXT
  5
19EA
330
1B
100
AcDbEntity
 67
     1
  8
DATA
100
AcDbText
 10
1.828349188375568
 20
93.0
 30
0.0
 40
2.4
  1
AMPS/PHASE
 41
0.7
  7
ROMANS
100
AcDbText
  0
TEXT
  5
19EB
330
1B
100
AcDbEntity
 67
     1
  8
DATA
100
AcDbText
 10
1.828349188375568
 20
103.617252115867
 30
0.0
 40
2.4
  1
SPECIFICATION
 41
0.7
  7
ROMANS
100
AcDbText
  0
TEXT
  5
19EC
330
1B
100
AcDbEntity
 67
     1
  8
DATA
100
AcDbText
 10
1.828349188375568
 20
88.0
 30
0.0
 40
2.4
  1
RESISTANCE/PHASE  (Ohms)@25%%DC
 41
0.7
  7
ROMANS
100
AcDbText
  0
TEXT
  5
19ED
330
1B
100
AcDbEntity
 67
     1
  8
DATA
100
AcDbText
 10
1.828349188375568
 20
83.0
 30
0.0
 40
2.4
  1
INDUCTANCE/PHASE (mH) @1KHz
 41
0.7
  7
ROMANS
100
AcDbText
  0
TEXT
  5
19EF
330
1B
100
AcDbEntity
 67
     1
  8
DATA
100
AcDbText
 10
1.828349188375568
 20
78.0
 30
0.0
 40
2.4
  1
HOLDING TORQUE (Nm) [lb-in]
 41
0.7
  7
ROMANS
100
AcDbText
  0
TEXT
  5
19F0
330
1B
100
AcDbEntity
 67
     1
  8
DATA
100
AcDbText
 10
1.828349188375568
 20
53.0
 30
0.0
 40
2.4
  1
WEIGHT (Kg) [lb]
 41
0.7
  7
ROMANS
100
AcDbText
  0
TEXT
  5
19F1
330
1B
100
AcDbEntity
 67
     1
  8
DATA
100
AcDbText
 10
1.828349188375568
 20
68.0
 30
0.0
 40
2.4
  1
STEP ANGLE (°)
 41
0.7
  7
ROMANS
100
AcDbText
  0
TEXT
  5
19F2
330
1B
100
AcDbEntity
 67
     1
  8
DATA
100
AcDbText
 10
1.828349188375568
 20
63.0
 30
0.0
 40
2.4
  1
STEP ACCURACY (NON-ACCUM)
 41
0.7
  7
ROMANS
100
AcDbText
  0
LEADER
  5
19F4
330
1B
100
AcDbEntity
 67
     1
  8
DIM
100
AcDbLeader
  3
STANDARD
 76
     2
 10
130.0606073289473
 20
78.69222240356484
 30
0.0
 10
130.0606073289473
 20
86.51626982104639
 30
0.0
1001
ACAD
1000
DSTYLE
1002
{
1070
    41
1040
2.399999999999999
1070
   341
1005
0
1070
    40
1040
1.0
1070
    77
1070
     0
1002
}
  0
TEXT
  5
19F5
330
1B
100
AcDbEntity
 67
     1
  8
DATA
100
AcDbText
 10
75.0
 20
98.0
 30
0.0
 40
2.4
  1
4.8
 41
0.7
  7
ROMANS
100
AcDbText
  0
TEXT
  5
19F7
330
1B
100
AcDbEntity
 67
     1
  8
DATA
100
AcDbText
 10
75.0
 20
107.617252115867
 30
0.0
 40
2.399999999999999
  1
BIPOLAR
 41
0.7
  7
ROMANS
100
AcDbText
  0
LINE
  5
19F9
330
1B
100
AcDbEntity
 67
     1
  8
SPEC
100
AcDbLine
 10
0.0009154015513104
 20
111.6559890122013
 30
0.0
 11
281.8407943483788
 21
111.6559890122013
 31
0.0
  0
LINE
  5
19FA
330
1B
100
AcDbEntity
 67
     1
  8
SPEC
100
AcDbLine
 10
282.0457477520906
 20
21.65598908869334
 30
0.0
 11
0.0009154015513104
 21
21.6559890122013
 31
0.0
  0
LINE
  5
19FB
330
1B
100
AcDbEntity
 67
     1
  8
SPEC
100
AcDbLine
 10
0.0009154015513104
 20
111.6559890122013
 30
0.0
 11
110.0009154015513
 21
111.6559890122013
 31
0.0
  0
LINE
  5
19FD
330
1B
100
AcDbEntity
 67
     1
  8
SPEC
100
AcDbLine
 10
0.0009154015513104
 20
26.65598901220131
 30
0.0
 11
170.0009154015513
 21
26.65598901220131
 31
0.0
  0
LINE
  5
19FF
330
1B
100
AcDbEntity
 67
     1
  8
SPEC
100
AcDbLine
 10
0.0009154015513104
 20
31.65598901220131
 30
0.0
 11
170.0009154015513
 21
31.65598901220131
 31
0.0
  0
LINE
  5
1A00
330
1B
100
AcDbEntity
 67
     1
  8
SPEC
100
AcDbLine
 10
0.0009154015513104
 20
36.65598901220142
 30
0.0
 11
170.0009154015513
 21
36.65598901220142
 31
0.0
  0
LINE
  5
1A01
330
1B
100
AcDbEntity
 67
     1
  8
SPEC
100
AcDbLine
 10
0.0009154015513104
 20
46.65598901220142
 30
0.0
 11
170.0009154015513
 21
46.65598901220142
 31
0.0
  0
LINE
  5
1A02
330
1B
100
AcDbEntity
 67
     1
  8
SPEC
100
AcDbLine
 10
0.0009154015513104
 20
41.65598901220142
 30
0.0
 11
170.0009154015513
 21
41.65598901220142
 31
0.0
  0
LINE
  5
1A03
330
1B
100
AcDbEntity
 67
     1
  8
SPEC
100
AcDbLine
 10
0.0009154015513104
 20
66.65598901220142
 30
0.0
 11
110.0009154015513
 21
66.65598901220142
 31
0.0
  0
LINE
  5
1A04
330
1B
100
AcDbEntity
 67
     1
  8
SPEC
100
AcDbLine
 10
0.0009154015513104
 20
61.65598901220142
 30
0.0
 11
110.0009154015513
 21
61.65598901220142
 31
0.0
  0
LINE
  5
1A05
330
1B
100
AcDbEntity
 67
     1
  8
SPEC
100
AcDbLine
 10
0.0009154015513104
 20
56.6559890122013
 30
0.0
 11
110.0009154015513
 21
56.6559890122013
 31
0.0
  0
LINE
  5
1A06
330
1B
100
AcDbEntity
 67
     1
  8
SPEC
100
AcDbLine
 10
0.0009154015513104
 20
51.6559890122013
 30
0.0
 11
170.0009154015513
 21
51.6559890122013
 31
0.0
  0
LINE
  5
1A07
330
1B
100
AcDbEntity
 67
     1
  8
SPEC
100
AcDbLine
 10
0.0009154015513104
 20
101.6559890122014
 30
0.0
 11
110.0009154015513
 21
101.6559890122014
 31
0.0
  0
LINE
  5
1A08
330
1B
100
AcDbEntity
 67
     1
  8
SPEC
100
AcDbLine
 10
0.0009154015513104
 20
96.6559890122013
 30
0.0
 11
110.0009154015513
 21
96.6559890122013
 31
0.0
  0
LINE
  5
1A09
330
1B
100
AcDbEntity
 67
     1
  8
SPEC
100
AcDbLine
 10
0.0009154015513104
 20
86.6559890122013
 30
0.0
 11
110.0009154015513
 21
86.6559890122013
 31
0.0
  0
LINE
  5
1A0A
330
1B
100
AcDbEntity
 67
     1
  8
SPEC
100
AcDbLine
 10
0.0009154015513104
 20
91.6559890122013
 30
0.0
 11
110.0009154015513
 21
91.6559890122013
 31
0.0
  0
LINE
  5
1A0B
330
1B
100
AcDbEntity
 67
     1
  8
SPEC
100
AcDbLine
 10
0.0009154015513104
 20
71.6559890122013
 30
0.0
 11
110.0009154015513
 21
71.6559890122013
 31
0.0
  0
LINE
  5
1A0C
330
1B
100
AcDbEntity
 67
     1
  8
SPEC
100
AcDbLine
 10
0.0009154015513104
 20
76.65598901220142
 30
0.0
 11
110.0009154015513
 21
76.65598901220142
 31
0.0
  0
LINE
  5
1A0D
330
1B
100
AcDbEntity
 67
     1
  8
SPEC
100
AcDbLine
 10
0.0009154015513104
 20
81.65598901220141
 30
0.0
 11
110.0009154015513
 21
81.65598901220141
 31
0.0
  0
MTEXT
  5
1A0E
330
1B
100
AcDbEntity
 67
     1
  8
DATA
100
AcDbMText
 10
2.328349188375568
 20
61.11725211586701
 30
0.0
 40
2.399999999999999
 41
110.0
 71
     1
 72
     5
  1
{\W0.7;ROTOR INERTIA (Kg-m²) [lb-in²]}
  7
ROMANS
 73
     1
 44
1.0
1001
ACAD
1000
ACAD_MTEXT_DEFINED_HEIGHT_BEGIN
1070
    46
1040
0.0
1000
ACAD_MTEXT_DEFINED_HEIGHT_END
1000
MTEXTBEGIN
1070
    73
1070
     1
1070
    44
1040
1.0
1070
    74
1070
     0
1000
MTEXTEND
  0
LINE
  5
1A0F
330
1B
100
AcDbEntity
 67
     1
  8
SPEC
100
AcDbLine
 10
0.0009154015513104
 20
91.6559890122013
 30
0.0
 11
50.00091540155131
 21
91.6559890122013
 31
0.0
  0
LINE
  5
1A10
330
1B
100
AcDbEntity
 67
     1
  8
SPEC
100
AcDbLine
 10
50.00091540155131
 20
111.6559890122013
 30
0.0
 11
50.00091540155131
 21
51.6559890122013
 31
0.0
  0
LINE
  5
1A11
330
1B
100
AcDbEntity
 67
     1
  8
SPEC
100
AcDbLine
 10
50.00091540155131
 20
101.6559890122014
 30
0.0
 11
0.0009154015513104
 21
111.6559890122013
 31
0.0
  0
LINE
  5
1A13
330
1B
100
AcDbEntity
 67
     1
  8
SPEC
100
AcDbLine
 10
50.00091540155131
 20
111.6559890122013
 30
0.0
 11
80.0009154015513
 21
111.6559890122013
 31
0.0
  0
LINE
  5
1A15
330
1B
100
AcDbEntity
 67
     1
  8
SPEC
100
AcDbLine
 10
110.0009154015513
 20
111.6559890122013
 30
0.0
 11
170.0009154015513
 21
111.6559890122013
 31
0.0
  0
TEXT
  5
1A16
330
1B
100
AcDbEntity
 67
     1
  8
DATA
100
AcDbText
 10
111.8283491883755
 20
28.0
 30
0.0
 40
2.4
  1
SHAFT PLAY (mm)
 41
0.7
  7
ROMANS
100
AcDbText
  0
LINE
  5
1A17
330
1B
100
AcDbEntity
 67
     1
  8
SPEC
100
AcDbLine
 10
110.0009154015513
 20
31.65598901220131
 30
0.0
 11
140.0009154015513
 21
31.65598901220131
 31
0.0
  0
TEXT
  5
1A18
330
1B
100
AcDbEntity
 67
     1
  8
DATA
100
AcDbText
 10
143.8283491883755
 20
32.61725211586702
 30
0.0
 40
2.5
  1
AXIAL
 41
0.7
  7
ROMANS
100
AcDbText
  0
TEXT
  5
1A19
330
1B
100
AcDbEntity
 67
     1
  8
DATA
100
AcDbText
 10
157.8283491883756
 20
32.61725211586702
 30
0.0
 40
2.5
  1
RADIAL
 41
0.7
  7
ROMANS
100
AcDbText
  0
TEXT
  5
1A1A
330
1B
100
AcDbEntity
 67
     1
  8
DATA
100
AcDbText
 10
142.8283491883755
 20
27.61725211586702
 30
0.0
 40
2.5
  1
0.075
 41
0.7
  7
ROMANS
100
AcDbText
  0
TEXT
  5
1A1B
330
1B
100
AcDbEntity
 67
     1
  8
DATA
100
AcDbText
 10
157.8283491883756
 20
27.61725211586702
 30
0.0
 40
2.5
  1
0.025
 41
0.7
  7
ROMANS
100
AcDbText
  0
TEXT
  5
1A1C
330
1B
100
AcDbEntity
 67
     1
  8
DATA
100
AcDbText
 10
143.8283491883755
 20
22.61725211586702
 30
0.0
 40
2.5
  1
10
 41
0.7
  7
ROMANS
100
AcDbText
  0
TEXT
  5
1A1D
330
1B
100
AcDbEntity
 67
     1
  8
DATA
100
AcDbText
 10
157.8283491883756
 20
22.61725211586702
 30
0.0
 40
2.5
  1
5.0
 41
0.7
  7
ROMANS
100
AcDbText
  0
LINE
  5
1A1E
330
1B
100
AcDbEntity
 67
     1
  8
SPEC
100
AcDbLine
 10
110.0009154015513
 20
36.65598901220142
 30
0.0
 11
140.0009154015513
 21
31.65598901220131
 31
0.0
  0
LINE
  5
1A1F
330
1B
100
AcDbEntity
 67
     1
  8
SPEC
100
AcDbLine
 10
140.0009154015513
 20
46.65598901220142
 30
0.0
 11
146.0009154015513
 21
46.65598901220142
 31
0.0
  0
LINE
  5
1A21
330
1B
100
AcDbEntity
 67
     1
  8
SPEC
100
AcDbLine
 10
147.5009154015513
 20
46.65598901220142
 30
0.0
 11
147.5009154015513
 21
36.65598901220142
 31
0.0
  0
LINE
  5
1A22
330
1B
100
AcDbEntity
 67
     1
  8
SPEC
100
AcDbLine
 10
155.0009154015513
 20
46.65598901220142
 30
0.0
 11
155.0009154015513
 21
36.65598901220142
 31
0.0
  0
LINE
  5
1A23
330
1B
100
AcDbEntity
 67
     1
  8
SPEC
100
AcDbLine
 10
162.5009154015513
 20
46.65598901220142
 30
0.0
 11
162.5009154015513
 21
36.65598901220142
 31
0.0
  0
LINE
  5
1A6A
330
1B
100
AcDbEntity
 67
     1
  8
SPEC
100
AcDbLine
 10
110.0009154015513
 20
111.6559890122013
 30
0.0
 11
110.0009154015513
 21
21.6559890122013
 31
0.0
  0
VIEWPORT
  5
1E55
102
{ACAD_XDICTIONARY
360
72A4
102
}
330
1B
100
AcDbEntity
 67
     1
  8
AM_VIEWS
100
AcDbViewport
 10
141.0232986489197
 20
153.8832840649515
 30
0.0
 40
282.0447664947369
 41
84.45459010550038
 68
     2
 69
     2
 12
17.82507187457504
 22
4.400193394149511
 13
0.0
 23
0.0
 14
2.5
 24
2.5
 15
10.0
 25
10.0
 16
0.0
 26
0.0
 36
503.017576584829
 17
937.8833387861368
 27
626.5091020841953
 37
0.0
 42
50.0
 43
0.0
 44
0.0
 45
108.4864629046836
 50
0.0
 51
0.0
 72
   100
 90
    32864
  1

281
     0
 71
     1
 74
     0
110
0.0
120
0.0
130
0.0
111
1.0
121
0.0
131
0.0
112
0.0
122
1.0
132
0.0
 79
     0
146
0.0
1001
GENIUS_GENOBJ-N-SDF_13
1002
{
1000
OWNER
1000
GEN
1002
}
1001
GENIUS_GENODEF_13
1002
{
1000
HIER
1070
     0
1002
}
1002
{
1000
MANEDIT
1070
     0
1002
}
1002
{
1000
NOSEL
1070
     0
1002
}
1002
{
1000
BEHIND
1070
     0
1002
}
1002
{
1000
OTHER
1070
     0
1002
}
1002
{
1000
REACTOR
1002
}
1001
GENIUS_GENSCREG_15
1000
PF
1040
0.0
1000
DF
1040
0.0
1000
MIN
1011
0.0009154015513104
1021
111.6559890122013
1031
0.0
1000
MAX
1011
282.0456818962882
1021
196.1105791177017
1031
0.0
1000
FLAGS
1070
     2
  0
TEXT
  5
2CB7
330
1B
100
AcDbEntity
 67
     1
  8
DATA
100
AcDbText
 10
73.82834918837557
 20
53.0
 30
0.0
 40
2.4
  1
0.09 [0.198]
 41
0.7
  7
ROMANS
100
AcDbText
  0
TEXT
  5
2CBF
330
1B
100
AcDbEntity
 67
     1
  8
DATA
100
AcDbText
 10
75.0
 20
83.0
 30
0.0
 40
2.4
  1
2.2%%P20%%%
 41
0.7
  7
ROMANS
100
AcDbText
  0
TEXT
  5
2CCB
330
1B
100
AcDbEntity
 67
     1
  8
DATA
100
AcDbText
 10
75.0
 20
78.0
 30
0.0
 40
2.4
  1
0.036 [0.319]
 41
0.7
  7
ROMANS
100
AcDbText
  0
LWPOLYLINE
  5
2CEB
330
1B
100
AcDbEntity
 67
     1
  8
SPEC
100
AcDbPolyline
 90
        4
 70
     1
 43
0.0
 10
139.0972407104071
 20
91.87558421750372
 10
159.2275531197891
 20
91.87558421750374
 10
159.2275531197891
 20
60.09299455805124
 10
139.0972407104071
 20
60.09299455805124
  0
LWPOLYLINE
  5
2D6D
330
1B
100
AcDbEntity
 67
     1
  8
SPEC
100
AcDbPolyline
 90
        4
 70
     1
 43
0.0
 10
139.0972407104071
 20
87.09730240531003
 10
137.6137908953366
 20
87.09730240531003
 10
137.6137908953366
 20
64.87127637024494
 10
139.0972407104071
 20
64.87127637024494
  0
LINE
  5
2D70
330
1B
100
AcDbEntity
 67
     1
  8
SPEC
100
AcDbLine
 10
168.9451046743791
 20
74.09868988223387
 30
0.0
 11
159.2275531197891
 21
74.09868988223387
 31
0.0
  0
LINE
  5
2D71
330
1B
100
AcDbEntity
 67
     1
  8
SPEC
100
AcDbLine
 10
168.9451046743791
 20
77.86988889332109
 30
0.0
 11
159.2275531197891
 21
77.86988889332109
 31
0.0
  0
LINE
  5
2D72
330
1B
100
AcDbEntity
 67
     1
  8
SPEC
100
AcDbLine
 10
168.9451046743791
 20
74.09868988223387
 30
0.0
 11
168.9451046743791
 21
77.86988889332109
 31
0.0
  0
LWPOLYLINE
  5
2D94
330
1B
100
AcDbEntity
 67
     1
  8
SPEC
100
AcDbPolyline
 90
        4
 70
     1
 43
0.0
 10
157.9302096399492
 20
81.38735029589254
 10
154.6305199228664
 20
81.38735029589254
 10
154.6305199228664
 20
70.58122847966247
 10
157.9302096399492
 20
70.58122847966247
  0
CIRCLE
  5
2D95
330
1B
100
AcDbEntity
 67
     1
  8
SPEC
100
AcDbCircle
 10
156.2803647814078
 20
79.73750543735114
 30
0.0
 40
1.649844858541398
  0
CIRCLE
  5
2D96
330
1B
100
AcDbEntity
 67
     1
  8
SPEC
100
AcDbCircle
 10
156.2803647814078
 20
72.23107333820388
 30
0.0
 40
1.649844858541398
  0
LINE
  5
2D97
330
1B
100
AcDbEntity
 67
     1
  8
SPEC
100
AcDbLine
 10
157.9302096399492
 20
81.38735029589254
 30
0.0
 11
158.5734045934214
 21
80.74081741993238
 31
0.0
  0
LINE
  5
2D98
330
1B
100
AcDbEntity
 67
     1
  8
SPEC
100
AcDbLine
 10
158.6531348075577
 20
77.651473709366
 30
0.0
 11
158.5053768956558
 21
77.48676576983574
 31
0.0
  0
LINE
  5
2D99
330
1B
100
AcDbEntity
 67
     1
  8
SPEC
100
AcDbLine
 10
158.5053768956559
 20
74.48181300571924
 30
0.0
 11
158.6531348075576
 21
74.31710506618914
 31
0.0
  0
LINE
  5
2D9A
330
1B
100
AcDbEntity
 67
     1
  8
SPEC
100
AcDbLine
 10
158.5734045934215
 20
71.2277613556228
 30
0.0
 11
157.9302096399492
 21
70.58122847966247
 31
0.0
  0
ARC
  5
2D9E
330
1B
100
AcDbEntity
 67
     1
  8
SPEC
100
AcDbCircle
 10
156.9783020632643
 20
79.15395009142419
 30
0.0
 40
2.25
100
AcDbArc
 50
318.1050245216237
 51
44.85171410623406
  0
ARC
  5
2DA1
330
1B
100
AcDbEntity
 67
     1
  8
SPEC
100
AcDbCircle
 10
156.9783020632643
 20
72.81462868413088
 30
0.0
 40
2.25
100
AcDbArc
 50
315.1482858937687
 51
41.8949754783788
  0
ARC
  5
2DA2
330
1B
100
AcDbEntity
 67
     1
  8
SPEC
100
AcDbCircle
 10
160.1802096399492
 20
75.98428938777752
 30
0.0
 40
2.25
100
AcDbArc
 50
138.1050245216231
 51
221.8949754783793
  0
LWPOLYLINE
  5
2DA3
330
1B
100
AcDbEntity
 67
     1
  8
SPEC
100
AcDbPolyline
 90
        4
 70
     1
 43
0.0
 10
139.0972407104071
 20
81.38735029589254
 10
142.3969304274899
 20
81.38735029589254
 10
142.3969304274899
 20
70.58122847966247
 10
139.0972407104071
 20
70.58122847966247
  0
CIRCLE
  5
2DA4
330
1B
100
AcDbEntity
 67
     1
  8
SPEC
100
AcDbCircle
 10
140.7470855689485
 20
79.73750543735114
 30
0.0
 40
1.649844858541398
  0
CIRCLE
  5
2DA5
330
1B
100
AcDbEntity
 67
     1
  8
SPEC
100
AcDbCircle
 10
140.7470855689485
 20
72.23107333820388
 30
0.0
 40
1.649844858541398
  0
TEXT
  5
2DC8
330
1B
100
AcDbEntity
 67
     1
  8
DATA
100
AcDbText
 10
1.828349188375568
 20
23.0
 30
0.0
 40
2.4
  1
AMBIENT HUMIDITY MAX. 85% (NO CONDENSATION)
 41
0.7
  7
ROMANS
100
AcDbText
  0
TEXT
  5
2DC9
330
1B
100
AcDbEntity
 67
     1
  8
DATA
100
AcDbText
 10
77.65596520192571
 20
59.66450186175158
 30
0.0
 40
1.399999999999999
  1
-7
 41
0.7
  7
ROMANS
100
AcDbText
  0
TEXT
  5
2DCB
330
1B
100
AcDbEntity
 67
     1
  8
DATA
100
AcDbText
 10
68.95092837047787
 20
58.0
 30
0.0
 40
2.4
  1
2.3x10  [7.861X10 ]
 41
0.7
  7
ROMANS
100
AcDbText
  0
LINE
  5
2DD6
330
1B
100
AcDbEntity
 67
     1
  8
SPEC
100
AcDbLine
 10
146.0009154015513
 20
46.65598901220142
 30
0.0
 11
151.0009154015513
 21
46.65598901220142
 31
0.0
  0
LINE
  5
2DD7
330
1B
100
AcDbEntity
 67
     1
  8
SPEC
100
AcDbLine
 10
140.0009154015513
 20
51.6559890122013
 30
0.0
 11
140.0009154015513
 21
21.6559890122013
 31
0.0
  0
LINE
  5
2DD8
330
1B
100
AcDbEntity
 67
     1
  8
SPEC
100
AcDbLine
 10
140.0009154015513
 20
36.65598901220131
 30
0.0
 11
155.0009154015513
 21
36.65598901220136
 31
0.0
  0
LINE
  5
2DD9
330
1B
100
AcDbEntity
 67
     1
  8
SPEC
100
AcDbLine
 10
155.0009154015513
 20
36.65598901220136
 30
0.0
 11
155.0009154015513
 21
21.6559890122013
 31
0.0
  0
TEXT
  5
2DE0
330
1B
100
AcDbEntity
 67
     1
  8
DATA
100
AcDbText
 10
111.8283491883755
 20
23.0
 30
0.0
 40
2.4
  1
AT LOAD MAX: (N)
 41
0.7
  7
ROMANS
100
AcDbText
  0
LINE
  5
2DE5
330
1B
100
AcDbEntity
 67
     1
  8
SPEC
100
AcDbLine
 10
127.8962393407466
 20
74.09868988223387
 30
0.0
 11
137.6137908953366
 21
74.09868988223387
 31
0.0
  0
LINE
  5
2DE6
330
1B
100
AcDbEntity
 67
     1
  8
SPEC
100
AcDbLine
 10
127.8962393407466
 20
77.86988889332109
 30
0.0
 11
137.6137908953366
 21
77.86988889332109
 31
0.0
  0
LINE
  5
2DE7
330
1B
100
AcDbEntity
 67
     1
  8
SPEC
100
AcDbLine
 10
127.8962393407466
 20
74.09868988223387
 30
0.0
 11
127.8962393407466
 21
77.86988889332109
 31
0.0
  0
MTEXT
  5
2E04
330
1B
100
AcDbEntity
 67
     1
  8
SPEC
 62
     6
100
AcDbMText
 10
145.5187721793249
 20
89.62880385942026
 30
0.0
 40
2.0
 41
0.0
 71
     1
 72
     1
  1
BEARING
  7
ROMANS
 73
     1
 44
1.0
1001
ACAD
1000
ACAD_MTEXT_DEFINED_HEIGHT_BEGIN
1070
    46
1040
0.0
1000
ACAD_MTEXT_DEFINED_HEIGHT_END
1000
MTEXTBEGIN
1070
    73
1070
     1
1070
    44
1040
1.0
1070
    74
1070
     0
1000
MTEXTEND
  0
LEADER
  5
2E07
330
1B
100
AcDbEntity
 67
     1
  8
SPEC
100
AcDbLeader
  3
STANDARD
 76
     2
 10
156.2803647814078
 20
79.73750543735114
 30
0.0
 10
150.8271563148611
 20
87.12304269521258
 30
0.0
1001
ACAD
1000
DSTYLE
1002
{
1070
   147
1040
1.0
1070
    77
1070
     0
1002
}
  0
LEADER
  5
2E09
330
1B
100
AcDbEntity
 67
     1
  8
SPEC
100
AcDbLeader
  3
STANDARD
 76
     2
 10
140.7470855689485
 20
79.73750543735114
 30
0.0
 10
146.7956208247884
 20
86.83653569069861
 30
0.0
1001
ACAD
1000
DSTYLE
1002
{
1070
   147
1040
1.0
1070
    77
1070
     0
1002
}
  0
LEADER
  5
2E0A
330
1B
100
AcDbEntity
 67
     1
  8
SPEC
100
AcDbLeader
  3
STANDARD
 73
     0
 75
     1
 40
5.333333333333333
 41
9.066666666666666
 76
     3
 10
158.5734045934214
 20
80.74081741993238
 30
0.0
 10
167.5136123890166
 20
94.46023307290511
 30
0.0
 10
164.5136123890166
 20
94.46023307290511
 30
0.0
340
2E0B
213
1.589802987236566
223
-4.427990251304436
233
0.0
1001
ACAD
1000
DSTYLE
1002
{
1070
   147
1040
1.0
1070
    77
1070
     0
1002
}
  0
MTEXT
  5
2E0B
102
{ACAD_REACTORS
330
2E0A
102
}
330
1B
100
AcDbEntity
 67
     1
  8
SPEC
 62
     6
100
AcDbMText
 10
161.9238094017801
 20
98.88822332420955
 30
0.0
 40
2.0
 41
0.0
 71
     3
 72
     1
  1
SPRING\PWASHER
  7
ROMANS
 73
     1
 44
1.0
1001
ACAD
1000
ACAD_MTEXT_DEFINED_HEIGHT_BEGIN
1070
    46
1040
0.0
1000
ACAD_MTEXT_DEFINED_HEIGHT_END
1000
MTEXTBEGIN
1070
    73
1070
     1
1070
    44
1040
1.0
1070
    74
1070
     0
1000
MTEXTEND
  0
MTEXT
  5
2E19
330
1B
100
AcDbEntity
 67
     1
  8
DATA
100
AcDbMText
 10
148.4983559025127
 20
50.13711884239956
 30
0.0
 40
2.399999999999999
 41
110.0
 71
     1
 72
     5
  1
{\W0.7;F\H0.8333x;a\H1.2x;=4}
  7
ROMANS
 73
     1
 44
1.0
1001
ACAD
1000
ACAD_MTEXT_DEFINED_HEIGHT_BEGIN
1070
    46
1040
0.0
1000
ACAD_MTEXT_DEFINED_HEIGHT_END
1000
MTEXTBEGIN
1070
    73
1070
     1
1070
    44
1040
1.0
1070
    74
1070
     0
1000
MTEXTEND
  0
MTEXT
  5
2E48
330
1B
100
AcDbEntity
 67
     1
  8
SPEC
 62
     6
100
AcDbMText
 10
111.8786983663672
 20
99.27994356100203
 30
0.0
 40
2.0
 41
0.0
 71
     1
 72
     1
  1
ROTOR SPRING-\PMOUNTED IN\PAXIAL DIRECTION
  7
ROMANS
 73
     1
 44
1.0
1001
ACAD
1000
ACAD_MTEXT_DEFINED_HEIGHT_BEGIN
1070
    46
1040
0.0
1000
ACAD_MTEXT_DEFINED_HEIGHT_END
1000
MTEXTBEGIN
1070
    73
1070
     1
1070
    44
1040
1.0
1070
    74
1070
     0
1000
MTEXTEND
  0
LEADER
  5
2E5C
330
1B
100
AcDbEntity
 67
     1
  8
DIM
100
AcDbLeader
  3
STANDARD
 76
     2
 10
131.5179864032658
 20
89.06775256840445
 30
0.0
 10
112.2566843209139
 20
89.06775256840445
 30
0.0
1001
ACAD
1000
DSTYLE
1002
{
1070
   147
1040
1.0
1070
    77
1070
     0
1002
}
  0
TEXT
  5
557C
330
1B
100
AcDbEntity
 67
     1
  8
DATA
100
AcDbText
 10
102.9106217481551
 20
2.296070477388891
 30
0.0
 40
3.861395999999999
  1
ST2018L0804
 41
0.7
  7
ROMANS
100
AcDbText
  0
LINE
  5
55D9
330
1B
100
AcDbEntity
 67
     1
  8
CONNECTOR
100
AcDbLine
 10
233.5172647006595
 20
68.37220050022313
 30
0.0
 11
190.0
 21
68.37220050022313
 31
0.0
  0
TEXT
  5
5688
330
1B
100
AcDbEntity
 67
     1
  8
DATA
100
AcDbText
 10
93.63516274489233
 20
59.65678292658179
 30
0.0
 40
1.399999999999999
  1
-4
 41
0.7
  7
ROMANS
100
AcDbText
  0
LINE
  5
57BA
330
1B
100
AcDbEntity
 67
     1
  8
DATA
100
AcDbLine
 10
250.0496750135958
 20
58.19407841709472
 30
0.0
 11
255.4402250126973
 21
58.19407841709472
 31
0.0
  0
LINE
  5
57BB
330
1B
100
AcDbEntity
 67
     1
  8
DATA
100
AcDbLine
 10
255.4402250126973
 20
44.28174984798458
 30
0.0
 11
250.0496750135958
 21
44.28174984798458
 31
0.0
  0
TEXT
  5
57BC
330
1B
100
AcDbEntity
 67
     1
  8
DATA
100
AcDbText
 10
236.7600000017067
 20
43.00000007649203
 30
0.0
 40
2.399999999599999
  1
(A\)GRN
 41
0.7
  7
ROMANS
 72
     2
 11
247.0
 21
43.00000007649203
 31
0.0
100
AcDbText
  0
CIRCLE
  5
57BD
330
1B
100
AcDbEntity
 67
     1
  8
DATA
100
AcDbCircle
 10
249.5787178708172
 20
44.28174984798458
 30
0.0
 40
0.4709571427786491
  0
TEXT
  5
57BE
330
1B
100
AcDbEntity
 67
     1
  8
DATA
100
AcDbText
 10
238.84000000136
 20
57.00000007649204
 30
0.0
 40
2.399999999599999
  1
(A)BLK
 41
0.7
  7
ROMANS
 72
     2
 11
247.0
 21
57.00000007649204
 31
0.0
100
AcDbText
  0
CIRCLE
  5
57BF
330
1B
100
AcDbEntity
 67
     1
  8
DATA
100
AcDbCircle
 10
249.5787178708172
 20
58.19407841709472
 30
0.0
 40
0.4709571427786491
  0
TEXT
  5
57C0
330
1B
100
AcDbEntity
 67
     1
  8
DATA
100
AcDbText
 10
259.3999999996
 20
25.44000007791871
 30
0.0
 40
2.399999999599999
  1
(B)RED
 50
90.0
 41
0.7
  7
ROMANS
 72
     2
 11
257.0
 21
34.00000007649204
 31
0.0
100
AcDbText
 73
     3
  0
TEXT
  5
57C1
330
1B
100
AcDbEntity
 67
     1
  8
DATA
100
AcDbText
 10
272.3999999996
 20
23.84000007818537
 30
0.0
 40
2.399999999599999
  1
(B\)BLU
 50
90.0
 41
0.7
  7
ROMANS
 72
     2
 11
270.0
 21
34.00000007649204
 31
0.0
100
AcDbText
 73
     3
  0
LINE
  5
57C2
330
1B
100
AcDbEntity
 67
     1
  8
DATA
100
AcDbLine
 10
255.4402250126973
 20
45.67552841918078
 30
0.0
 11
255.4402250126973
 21
44.28174984798458
 31
0.0
  0
ARC
  5
57C3
330
1B
100
AcDbEntity
 67
     1
  8
DATA
100
AcDbCircle
 10
263.9282750112825
 20
42.03833913407289
 30
0.0
 40
0.7032535713113561
100
AcDbArc
 50
180.0
 51
0.0
  0
LINE
  5
57C4
330
1B
100
AcDbEntity
 67
     1
  8
DATA
100
AcDbLine
 10
257.6985285837495
 20
36.6477891349714
 30
0.0
 11
257.6985285837495
 21
42.03833913407289
 31
0.0
  0
CIRCLE
  5
57C5
330
1B
100
AcDbEntity
 67
     1
  8
DATA
100
AcDbCircle
 10
257.6985285837495
 20
36.17683199219278
 30
0.0
 40
0.4709571427786491
  0
LINE
  5
57C6
330
1B
100
AcDbEntity
 67
     1
  8
DATA
100
AcDbLine
 10
257.6985285837495
 20
42.03833913407289
 30
0.0
 11
258.9650214406816
 21
42.03833913407289
 31
0.0
  0
ARC
  5
57C7
330
1B
100
AcDbEntity
 67
     1
  8
DATA
100
AcDbCircle
 10
261.0747821546154
 20
42.03833913407289
 30
0.0
 40
0.7032535713113561
100
AcDbArc
 50
180.0
 51
0.0
  0
ARC
  5
57C8
330
1B
100
AcDbEntity
 67
     1
  8
DATA
100
AcDbCircle
 10
259.6682750119928
 20
42.03833913407289
 30
0.0
 40
0.7032535713113561
100
AcDbArc
 50
180.0
 51
0.0
  0
ARC
  5
57C9
330
1B
100
AcDbEntity
 67
     1
  8
DATA
100
AcDbCircle
 10
262.4812892972379
 20
42.03833913407289
 30
0.0
 40
0.7032535713113561
100
AcDbArc
 50
180.0
 51
0.0
  0
LINE
  5
57CA
330
1B
100
AcDbEntity
 67
     1
  8
DATA
100
AcDbLine
 10
271.6532428671383
 20
42.03833913407289
 30
0.0
 11
271.6532428671383
 21
36.6477891349714
 31
0.0
  0
CIRCLE
  5
57CB
330
1B
100
AcDbEntity
 67
     1
  8
DATA
100
AcDbCircle
 10
271.6532428671383
 20
36.17683199219278
 30
0.0
 40
0.4709571427786491
  0
ARC
  5
57CC
330
1B
100
AcDbEntity
 67
     1
  8
DATA
100
AcDbCircle
 10
269.5562107246303
 20
42.03833913407289
 30
0.0
 40
0.7032535713113561
100
AcDbArc
 50
180.0
 51
0.0
  0
ARC
  5
57CD
330
1B
100
AcDbEntity
 67
     1
  8
DATA
100
AcDbCircle
 10
266.743196439385
 20
42.03833913407289
 30
0.0
 40
0.7032535713113561
100
AcDbArc
 50
180.0
 51
0.0
  0
ARC
  5
57CE
330
1B
100
AcDbEntity
 67
     1
  8
DATA
100
AcDbCircle
 10
265.3347821539053
 20
42.03833913407289
 30
0.0
 40
0.7032535713113561
100
AcDbArc
 50
180.0
 51
0.0
  0
ARC
  5
57CF
330
1B
100
AcDbEntity
 67
     1
  8
DATA
100
AcDbCircle
 10
268.1497035820078
 20
42.03833913407289
 30
0.0
 40
0.7032535713113561
100
AcDbArc
 50
180.0
 51
0.0
  0
LINE
  5
57D0
330
1B
100
AcDbEntity
 67
     1
  8
DATA
100
AcDbLine
 10
270.2594642959423
 20
42.03833913407289
 30
0.0
 11
271.6532428671383
 21
42.03833913407289
 31
0.0
  0
CIRCLE
  5
57D1
330
1B
100
AcDbEntity
 67
     1
  8
DATA
100
AcDbCircle
 10
264.4502150111957
 20
51.02372056114678
 30
0.0
 40
6.338828570372099
  0
ARC
  5
57D2
330
1B
100
AcDbEntity
 67
     1
  8
DATA
100
AcDbCircle
 10
255.4402250126973
 20
52.00481056098336
 30
0.0
 40
0.7032535713113561
100
AcDbArc
 50
90.0
 51
270.0
  0
ARC
  5
57D3
330
1B
100
AcDbEntity
 67
     1
  8
DATA
100
AcDbCircle
 10
255.4402250126973
 20
49.19179627573786
 30
0.0
 40
0.7032535713113561
100
AcDbArc
 50
90.0
 51
270.0
  0
ARC
  5
57D4
330
1B
100
AcDbEntity
 67
     1
  8
DATA
100
AcDbCircle
 10
255.4402250126973
 20
46.37878199049229
 30
0.0
 40
0.7032535713113561
100
AcDbArc
 50
90.0
 51
270.0
  0
ARC
  5
57D5
330
1B
100
AcDbEntity
 67
     1
  8
DATA
100
AcDbCircle
 10
255.4402250126973
 20
47.78528913311507
 30
0.0
 40
0.7032535713113561
100
AcDbArc
 50
90.0
 51
270.0
  0
ARC
  5
57D6
330
1B
100
AcDbEntity
 67
     1
  8
DATA
100
AcDbCircle
 10
255.4402250126973
 20
50.59830341836057
 30
0.0
 40
0.7032535713113561
100
AcDbArc
 50
90.0
 51
270.0
  0
ARC
  5
57D7
330
1B
100
AcDbEntity
 67
     1
  8
DATA
100
AcDbCircle
 10
255.4402250126973
 20
56.22433198885143
 30
0.0
 40
0.7032535713113561
100
AcDbArc
 50
90.0
 51
270.0
  0
ARC
  5
57D8
330
1B
100
AcDbEntity
 67
     1
  8
DATA
100
AcDbCircle
 10
255.4402250126973
 20
53.41131770360608
 30
0.0
 40
0.7032535713113561
100
AcDbArc
 50
90.0
 51
270.0
  0
ARC
  5
57D9
330
1B
100
AcDbEntity
 67
     1
  8
DATA
100
AcDbCircle
 10
255.4402250126973
 20
54.81782484622886
 30
0.0
 40
0.7032535713113561
100
AcDbArc
 50
90.0
 51
270.0
  0
LINE
  5
57DA
330
1B
100
AcDbEntity
 67
     1
  8
DATA
100
AcDbLine
 10
255.4402250126973
 20
58.19407841709472
 30
0.0
 11
255.4402250126973
 21
56.92758556016293
 31
0.0
  0
TEXT
  5
57DB
330
1B
100
AcDbEntity
 67
     1
  8
DATA
100
AcDbText
 10
251.7194819043975
 20
61.34556070180179
 30
0.0
 40
2.5
  1
WIRING DIAGRAM
 41
0.7
  7
ROMANS
100
AcDbText
  0
MTEXT
  5
6E49
330
1B
100
AcDbEntity
 67
     1
  8
DATA
100
AcDbMText
 10
118.2344638844852
 20
79.4204407347795
 30
0.0
 40
2.399999999999999
 41
6.509999999999999
 71
     1
 72
     5
  1
F{\H0.8333x;a}
  7
ROMANS
 73
     1
 44
1.0
1001
ACAD
1000
ACAD_MTEXT_DEFINED_HEIGHT_BEGIN
1070
    46
1040
0.0
1000
ACAD_MTEXT_DEFINED_HEIGHT_END
1000
MTEXTBEGIN
1070
    73
1070
     1
1070
    44
1040
1.0
1070
    74
1070
     0
1000
MTEXTEND
  0
DIMENSION
  5
6E4A
330
1B
100
AcDbEntity
 67
     1
  8
AM_5
100
AcDbDimension
  2
*D21
 10
112.1274407842458
 20
75.85282590218707
 30
0.0
 11
118.4509808721768
 21
75.85282590218707
 31
0.0
 70
    32
  1
 
 71
     5
 42
12.64708017586213
  3
STANDARD$0
100
AcDbAlignedDimension
 13
124.7745209601079
 23
75.8528259021871
 33
0.0
 14
112.1274407842458
 24
75.85282590218707
 34
0.0
100
AcDbRotatedDimension
1001
ACAD
1000
DSTYLE
1002
{
1070
   281
1070
     0
1070
    76
1070
     1
1070
    75
1070
     1
1070
    47
1040
0.2
1070
    48
1040
-0.2
1070
   272
1070
     1
1002
}
  0
TEXT
  5
6EB2
330
1B
100
AcDbEntity
 67
     1
  8
DATA
100
AcDbText
 10
75.0
 20
72.99999999999989
 30
0.0
 40
2.4
  1
1.08x10  [9.57x10  ]
 41
0.7
  7
ROMANS
100
AcDbText
  0
TEXT
  5
6EB3
330
1B
100
AcDbEntity
 67
     1
  8
DATA
100
AcDbText
 10
84.89071290937046
 20
74.39711687611435
 30
0.0
 40
2.0
  1
-3
 41
0.7
  7
ROMANS
100
AcDbText
  0
TEXT
  5
6EBD
330
1B
100
AcDbEntity
 67
     1
  8
DATA
100
AcDbText
 10
100.2909607818636
 20
74.48779160422503
 30
0.0
 40
2.0
  1
-3
 41
0.7
  7
ROMANS
100
AcDbText
  0
TEXT
  5
6FE5
330
1B
100
AcDbEntity
 67
     1
  8
DATA
100
AcDbText
 10
175.6829051118027
 20
7.348353290222588
 30
0.0
 40
3.0
  1
J.W.
  7
ITALICT
100
AcDbText
  0
TEXT
  5
71A5
330
1B
100
AcDbEntity
 67
     1
  8
DATA
100
AcDbText
 10
189.4634543457442
 20
17.05999183728653
 30
0.0
 40
2.509907399999999
  1
02.06.06
 41
0.7
  7
ROMANS
100
AcDbText
  0
TEXT
  5
71A6
330
1B
100
AcDbEntity
 67
     1
  8
DATA
100
AcDbText
 10
175.6829051118027
 20
16.86719000998262
 30
0.0
 40
3.0
  1
S.K.
  7
ITALICT
100
AcDbText
  0
ENDSEC
  0
SECTION
  2
OBJECTS
  0
DICTIONARY
  5
C
330
0
100
AcDbDictionary
281
     1
  3
ACAD_COLOR
350
BE
  3
ACAD_GROUP
350
D
  3
ACAD_LAYOUT
350
1A
  3
ACAD_MATERIAL
350
BD
  3
ACAD_MLINESTYLE
350
17
  3
ACAD_PLOTSETTINGS
350
19
  3
ACAD_PLOTSTYLENAME
350
E
  3
ACAD_TABLESTYLE
350
11A
  3
AcadDim
350
2E5B
  3
ACDBHEADERROUNDTRIPXREC
350
729E
  3
AcDbVariableDictionary
350
94
  3
AcmDictionary
350
5B
  3
AMG
350
41
  3
AMGSNAPSETTINGS
350
26B
  3
ASE_INDEX_DICTIONARY
350
5854
  3
DWGPROPS
350
729D
  0
DICTIONARY
  5
2F5
330
2
100
AcDbDictionary
280
     1
281
     1
  3
ACAD_LAYERSTATES
360
2F6
  3
AMLAYER_GROUPCOLORS
360
554A
  0
DICTIONARY
  5
8F
330
1F
100
AcDbDictionary
280
     1
281
     1
  3
ACAD_SORTENTS
360
53A3
  0
DICTIONARY
  5
2D9F
330
1B
100
AcDbDictionary
280
     1
281
     1
  3
ACAD_SORTENTS
360
2DA0
  0
DICTIONARY
  5
128A
330
125D
100
AcDbDictionary
280
     1
281
     1
  0
DICTIONARY
  5
2CC2
330
2CC0
100
AcDbDictionary
280
     1
281
     1
  0
DICTIONARY
  5
63F7
330
63E8
100
AcDbDictionary
280
     1
281
     1
  3
ACAD_DIMASSOC
360
63F8
  0
DICTIONARY
  5
6455
330
6448
100
AcDbDictionary
280
     1
281
     1
  3
ACAD_DIMASSOC
360
6456
  0
DICTIONARY
  5
658B
330
657E
100
AcDbDictionary
280
     1
281
     1
  3
ACAD_DIMASSOC
360
658C
  0
DICTIONARY
  5
65CE
330
65C1
100
AcDbDictionary
280
     1
281
     1
  3
ACAD_DIMASSOC
360
65CF
  0
DICTIONARY
  5
66A9
330
669C
100
AcDbDictionary
280
     1
281
     1
  3
ACAD_DIMASSOC
360
66AA
  0
DICTIONARY
  5
6BAA
330
6B9B
100
AcDbDictionary
280
     1
281
     1
  3
ACAD_DIMASSOC
360
6BAB
  0
DICTIONARY
  5
72A2
330
2D8
100
AcDbDictionary
280
     1
281
     1
  3
ACAD_XREC_ROUNDTRIP
360
72A3
  0
DICTIONARY
  5
72A4
330
1E55
100
AcDbDictionary
280
     1
281
     1
  3
ACAD_XREC_ROUNDTRIP
360
72A5
  0
DICTIONARY
  5
BE
102
{ACAD_REACTORS
330
C
102
}
330
C
100
AcDbDictionary
281
     1
  0
DICTIONARY
  5
D
102
{ACAD_REACTORS
330
C
102
}
330
C
100
AcDbDictionary
281
     1
  0
DICTIONARY
  5
1A
102
{ACAD_REACTORS
330
C
102
}
330
C
100
AcDbDictionary
281
     1
  3
Layout1
350
1E
  3
Model
350
22
  0
DICTIONARY
  5
BD
102
{ACAD_REACTORS
330
C
102
}
330
C
100
AcDbDictionary
281
     1
  0
DICTIONARY
  5
17
102
{ACAD_REACTORS
330
C
102
}
330
C
100
AcDbDictionary
281
     1
  3
Standard
350
18
  0
DICTIONARY
  5
19
102
{ACAD_REACTORS
330
C
102
}
330
C
100
AcDbDictionary
281
     1
  0
ACDBDICTIONARYWDFLT
  5
E
102
{ACAD_REACTORS
330
C
102
}
330
C
100
AcDbDictionary
281
     1
  3
Normal
350
F
100
AcDbDictionaryWithDefault
340
F
  0
DICTIONARY
  5
11A
102
{ACAD_REACTORS
330
C
102
}
330
C
100
AcDbDictionary
281
     1
  3
Standard
350
11B
  0
XRECORD
  5
2E5B
102
{ACAD_REACTORS
330
C
102
}
330
C
100
AcDbXrecord
280
     1
 90
   990106
  3

 60
     0
 61
     0
 62
     1
 63
     3
 64
     0
 65
     0
 66
     0
 67
     3
 68
     1
 69
     0
 70
     0
 71
     0
 72
     0
 40
0.0
170
     0
340
2E0B
  0
DICTIONARY
  5
729E
102
{ACAD_REACTORS
330
C
102
}
330
C
100
AcDbDictionary
281
     1
  0
DICTIONARY
  5
94
102
{ACAD_REACTORS
330
C
102
}
330
C
100
AcDbDictionary
281
     1
  3
CTABLESTYLE
350
138
  3
DIMASSOC
350
96
  3
INDEXCTL
350
95
  3
PROJECTNAME
350
1B03
  0
DICTIONARY
  5
5B
102
{ACAD_REACTORS
330
C
102
}
330
C
100
AcDbDictionary
281
     1
  3
AcmBOM
350
272
  3
AcmStdDictionary
350
61
  3
AMDTSECTSYM_ARROWCOLOR
350
123
  0
DICTIONARY
  5
41
102
{ACAD_REACTORS
330
C
102
}
330
C
100
AcDbDictionary
281
     1
  0
DICTIONARY
  5
26B
102
{ACAD_REACTORS
330
C
102
}
330
C
100
AcDbDictionary
281
     1
  0
DICTIONARY
  5
5854
102
{ACAD_REACTORS
330
C
102
}
330
C
100
AcDbDictionary
281
     1
  3
ASEBlockHierarchyIndexRecord
350
5856
1001
DCO15
1040
1560843681.358
  0
XRECORD
  5
729D
102
{ACAD_REACTORS
330
C
102
}
330
C
100
AcDbXrecord
280
     1
  1
DWGPROPS COOKIE
  2

  3

  4

  6

  7

  8

  9

300
AmdtFileType=84
301
=
302
=
303
=
304
=
305
=
306
=
307
=
308
=
309
=
 40
1.173489652777777
 41
2453787.436149942
 42
2453944.468902466
  1

 90
        1
  0
DICTIONARY
  5
2F6
102
{ACAD_REACTORS
330
2F5
102
}
330
2F5
100
AcDbDictionary
281
     1
  0
DICTIONARY
  5
554A
102
{ACAD_REACTORS
330
2F5
102
}
330
2F5
100
AcDbDictionary
280
     1
281
     1
  0
SORTENTSTABLE
  5
53A3
102
{ACAD_REACTORS
330
8F
102
}
330
8F
100
AcDbSortentsTable
330
1F
331
4017
  5
4017
331
4076
  5
407F
331
6381
  5
638B
331
6448
  5
64E5
331
6071
  5
61C7
331
6389
  5
63A8
331
62BF
  5
630C
331
6391
  5
63AD
331
6537
  5
655C
331
6346
  5
6360
331
6356
  5
637F
331
4057
  5
4060
331
405F
  5
4068
331
64E0
  5
64E9
331
693D
  5
598F
331
63A9
  5
6448
331
64E8
  5
6512
331
604A
  5
6056
331
6567
  5
669C
331
6052
  5
6073
331
695D
  5
695D
331
6965
  5
6962
331
4077
  5
4080
331
62B0
  5
62B4
331
6382
  5
638C
331
6072
  5
61CA
331
6337
  5
6354
331
62C8
  5
631A
331
6538
  5
6560
331
61C2
  5
61D4
331
6357
  5
6381
331
4040
  5
4047
331
4058
  5
4061
331
6558
  5
6561
331
61CA
  5
61F5
331
64E9
  5
651E
331
63AA
  5
64C2
331
6560
  5
6566
331
61D2
  5
408B
331
6568
  5
66E6
331
6053
  5
618F
331
695E
  5
695E
331
6328
  5
6353
331
62B1
  5
62B5
331
6529
  5
6533
331
6073
  5
61CB
331
6338
  5
6356
331
638B
  5
63A9
331
62C9
  5
6328
331
4080
  5
4089
331
61CB
  5
61F6
331
6360
  5
6380
331
6561
  5
6567
331
6512
  5
652C
331
6054
  5
6190
331
624A
  5
6251
331
695F
  5
695F
331
4071
  5
407A
331
65C1
  5
680B
331
638C
  5
63AA
331
62CA
  5
6337
331
6838
  5
694A
331
4081
  5
4095
331
405A
  5
4063
331
64E3
  5
64EB
331
6948
  5
58A5
331
6562
  5
6568
331
64EB
  5
6529
331
61D4
  5
408A
331
604D
  5
606D
331
631A
  5
6346
331
6055
  5
61C2
331
6960
  5
6960
331
4062
  5
406C
331
407A
  5
4083
331
40D9
  5
550A
331
6385
  5
638E
331
652B
  5
6534
331
606D
  5
6055
331
638D
  5
638D
331
6533
  5
6538
331
586E
  5
5871
331
64C4
  5
64E8
331
62CB
  5
6338
331
4082
  5
409D
331
4033
  5
403A
331
405B
  5
4064
331
639D
  5
63AE
331
655B
  5
6562
331
63AD
  5
64C4
331
64EC
  5
652B
331
598E
  5
6052
331
61D5
  5
623D
331
6961
  5
6961
331
61F5
  5
6245
331
624C
  5
62B0
331
406B
  5
4075
331
401C
  5
401C
331
407B
  5
4084
331
4024
  5
402A
331
40DA
  5
5516
331
652C
  5
6535
331
586F
  5
58A9
331
62BC
  5
62C9
331
61C6
  5
61D5
331
6353
  5
636B
331
4083
  5
409E
331
4034
  5
403B
331
4054
  5
405D
331
655C
  5
6565
331
64E5
  5
64EC
331
694A
  5
604C
331
598F
  5
6053
331
61CE
  5
408C
331
636B
  5
6382
331
6245
  5
624C
331
604F
  5
6070
331
61D6
  5
623E
331
630C
  5
6345
331
6962
  5
6963
331
61F6
  5
6246
331
407C
  5
4085
331
4025
  5
402B
331
637F
  5
6386
331
6387
  5
6391
331
652D
  5
6537
331
606F
  5
6069
331
6535
  5
655B
331
5870
  5
604A
331
62BD
  5
62CA
331
669C
  5
6824
331
61C7
  5
61D6
331
6354
  5
6375
331
4035
  5
403C
331
408C
  5
409F
331
40A4
  5
40BF
331
4055
  5
405E
331
693B
  5
6051
331
6565
  5
657E
331
6048
  5
6054
331
6050
  5
6071
331
6246
  5
624E
331
6963
  5
6964
331
4065
  5
406F
331
4075
  5
407E
331
6380
  5
6388
331
651E
  5
652D
331
6824
  5
6948
331
6388
  5
639D
331
6070
  5
61C6
331
62BE
  5
62CB
331
5871
  5
604D
331
6190
  5
61D0
331
6345
  5
6357
331
13FA
  5
13FA
331
4036
  5
403D
331
4056
  5
405F
331
405E
  5
4067
331
63A8
  5
63E8
331
6566
  5
65C1
331
63E8
  5
64E3
331
61D0
  5
61D2
331
6051
  5
6072
331
6964
  5
6965
331
657E
  5
67FE
331
624F
  5
62B2
331
6375
  5
6385
  0
SORTENTSTABLE
  5
2DA0
102
{ACAD_REACTORS
330
2D9F
102
}
330
2D9F
100
AcDbSortentsTable
330
1B
331
19D4
  5
19D4
331
1995
  5
1995
331
1A0B
  5
1A0B
331
1A13
  5
1A13
331
199D
  5
199D
331
19DC
  5
19DC
331
2D71
  5
2D71
331
1A1B
  5
1A1B
331
19A5
  5
19A5
331
19E4
  5
19E4
331
19EC
  5
19EC
331
19AD
  5
19AD
331
1A23
  5
1A23
331
195A
  5
195A
331
1962
  5
1962
331
1294
  5
1294
331
196A
  5
196A
331
1972
  5
1972
331
1933
  5
1933
331
12A4
  5
12A4
331
2D99
  5
2D9A
331
19F4
  5
19F4
331
2DA1
  5
2DA2
331
19BD
  5
19BD
331
1A04
  5
1A04
331
19C5
  5
19C5
331
193B
  5
193B
331
12AC
  5
12AC
331
1943
  5
1943
331
12B4
  5
12B4
331
198A
  5
198A
331
194B
  5
194B
331
1953
  5
1953
331
19D5
  5
19D5
331
1996
  5
1996
331
1A0C
  5
1A0C
331
19DD
  5
19DD
331
199E
  5
199E
331
2D72
  5
2D72
331
1A1C
  5
1A1C
331
19A6
  5
19A6
331
19ED
  5
19ED
331
19AE
  5
19AE
331
195B
  5
195B
331
1963
  5
1963
331
196B
  5
196B
331
129D
  5
129D
331
1973
  5
1973
331
12A5
  5
12A5
331
2D9A
  5
2DA1
331
19F5
  5
19F5
331
2DA2
  5
2D9E
331
19FD
  5
19FD
331
2CCB
  5
2CCB
331
1A05
  5
1A05
331
19C6
  5
19C6
331
12AD
  5
12AD
331
12B5
  5
12B5
331
198B
  5
198B
331
194C
  5
194C
331
1954
  5
1954
331
2CEB
  5
2CEB
331
19D6
  5
19D6
331
1997
  5
1997
331
1A0D
  5
1A0D
331
1A15
  5
1A15
331
199F
  5
199F
331
19DE
  5
19DE
331
1A1D
  5
1A1D
331
19AF
  5
19AF
331
2D8
  5
2D8
331
195C
  5
195C
331
1296
  5
1296
331
1964
  5
1964
331
196C
  5
196C
331
129E
  5
129E
331
192D
  5
192D
331
1974
  5
1974
331
12A6
  5
12A6
331
19BF
  5
19BF
331
1A06
  5
1A06
331
19C7
  5
19C7
331
197C
  5
197C
331
12AE
  5
12AE
331
12B6
  5
12B6
331
1945
  5
1945
331
198C
  5
198C
331
194D
  5
194D
331
1955
  5
1955
331
1E55
  5
1E55
331
1998
  5
1998
331
19D7
  5
19D7
331
1A0E
  5
1A0E
331
19DF
  5
19DF
331
1A16
  5
1A16
331
1A1E
  5
1A1E
331
19A8
  5
19A8
331
2D94
  5
2D94
331
19EF
  5
19EF
331
195D
  5
195D
331
1297
  5
1297
331
1965
  5
1965
331
129F
  5
129F
331
192E
  5
192E
331
196D
  5
196D
331
12A7
  5
12A7
331
1936
  5
1936
331
1975
  5
1975
331
19F7
  5
19F7
331
19FF
  5
19FF
331
19C0
  5
19C0
331
1A07
  5
1A07
331
19C8
  5
19C8
331
197D
  5
197D
331
193E
  5
193E
331
12AF
  5
12AF
331
1985
  5
1985
331
12B7
  5
12B7
331
198D
  5
198D
331
194E
  5
194E
331
1956
  5
1956
331
1991
  5
1991
331
1999
  5
1999
331
19D8
  5
19D8
331
1A0F
  5
1A0F
331
2D6D
  5
2D6D
331
1A17
  5
1A17
331
19E0
  5
19E0
331
19A9
  5
19A9
331
1A1F
  5
1A1F
331
2D95
  5
2D95
331
195E
  5
195E
331
1290
  5
1290
331
1966
  5
1966
331
196E
  5
196E
331
192F
  5
192F
331
12A0
  5
12A0
331
1976
  5
1976
331
19F0
  5
19F0
331
19B1
  5
19B1
331
1A00
  5
1A00
331
19C1
  5
19C1
331
19C9
  5
19C9
331
12A8
  5
12A8
331
193F
  5
193F
331
12B0
  5
12B0
331
1986
  5
1986
331
1947
  5
1947
331
12B8
  5
12B8
331
198E
  5
198E
331
194F
  5
194F
331
1957
  5
1957
331
19D1
  5
19D1
331
1992
  5
1992
331
1A08
  5
1A08
331
1A10
  5
1A10
331
19D9
  5
19D9
331
199A
  5
199A
331
19E1
  5
19E1
331
19A2
  5
19A2
331
1A18
  5
1A18
331
19E9
  5
19E9
331
2D96
  5
2D96
331
2CB7
  5
2CB7
331
1708
  5
1708
331
1291
  5
1291
331
195F
  5
195F
331
1967
  5
1967
331
1299
  5
1299
331
1930
  5
1930
331
196F
  5
196F
331
19F1
  5
19F1
331
19F9
  5
19F9
331
2CBF
  5
2CBF
331
2D9E
  5
2D99
331
1A01
  5
1A01
331
19C2
  5
19C2
331
1938
  5
1938
331
12A9
  5
12A9
331
1940
  5
1940
331
12B1
  5
12B1
331
1948
  5
1948
331
1950
  5
1950
331
19D2
  5
19D2
331
1993
  5
1993
331
1A09
  5
1A09
331
1A11
  5
1A11
331
199B
  5
199B
331
1A19
  5
1A19
331
19A3
  5
19A3
331
19EA
  5
19EA
331
19AB
  5
19AB
331
1A21
  5
1A21
331
2D97
  5
2D97
331
1958
  5
1958
331
1960
  5
1960
331
1968
  5
1968
331
129A
  5
129A
331
1970
  5
1970
331
1931
  5
1931
331
12A2
  5
12A2
331
19F2
  5
19F2
331
19B3
  5
19B3
331
19FA
  5
19FA
331
19BB
  5
19BB
331
1A02
  5
1A02
331
1939
  5
1939
331
12AA
  5
12AA
331
1941
  5
1941
331
12B2
  5
12B2
331
1949
  5
1949
331
12BA
  5
12BA
331
1951
  5
1951
331
19D3
  5
19D3
331
1994
  5
1994
331
1A0A
  5
1A0A
331
199C
  5
199C
331
2D70
  5
2D70
331
1A1A
  5
1A1A
331
1A22
  5
1A22
331
19EB
  5
19EB
331
1959
  5
1959
331
1961
  5
1961
331
1969
  5
1969
331
129B
  5
129B
331
1971
  5
1971
331
1932
  5
1932
331
12A3
  5
12A3
331
2D98
  5
2D98
331
19B4
  5
19B4
331
19FB
  5
19FB
331
1A6A
  5
1A6A
331
1A03
  5
1A03
331
19C4
  5
19C4
331
12AB
  5
12AB
331
12B3
  5
12B3
331
1989
  5
1989
331
194A
  5
194A
331
1952
  5
1952
  0
DIMASSOC
  5
63F8
102
{ACAD_REACTORS
330
63F7
102
}
330
63F7
100
AcDbDimAssoc
330
63E8
 90
        3
 70
     0
 71
     0
  1
AcDbOsnapPointRef
 72
     1
331
4057
 73
     0
 91
        0
 40
0.0
 10
0.0
 20
0.0
 30
2.000000000000000E+50
 75
     0
  1
AcDbOsnapPointRef
 72
    13
331
4057
 73
     0
 91
        0
 40
0.0
 10
0.0
 20
0.0
 30
2.000000000000000E+50
 75
     0
  0
DIMASSOC
  5
6456
102
{ACAD_REACTORS
330
6455
102
}
330
6455
100
AcDbDimAssoc
330
6448
 90
        3
 70
     0
 71
     0
  1
AcDbOsnapPointRef
 72
    13
331
4065
 73
     0
 91
        0
 40
0.0
 10
0.0
 20
0.0
 30
2.000000000000000E+50
 75
     0
  1
AcDbOsnapPointRef
 72
     1
331
405F
 73
     0
 91
        0
 40
0.0
 10
0.0
 20
0.0
 30
2.000000000000000E+50
 75
     0
  0
DIMASSOC
  5
658C
102
{ACAD_REACTORS
330
658B
102
}
330
658B
100
AcDbDimAssoc
330
657E
 90
        2
 70
     0
 71
     0
  1
AcDbOsnapPointRef
 72
     1
331
5871
 73
     0
 91
        0
 40
0.0
 10
0.0
 20
0.0
 30
2.000000000000000E+50
 75
     0
  0
DIMASSOC
  5
65CF
102
{ACAD_REACTORS
330
65CE
102
}
330
65CE
100
AcDbDimAssoc
330
65C1
 90
        3
 70
     0
 71
     0
  1
AcDbOsnapPointRef
 72
     1
331
606D
 73
     0
 91
        0
 40
0.0
 10
0.0
 20
0.0
 30
2.000000000000000E+50
 75
     0
  1
AcDbOsnapPointRef
 72
     1
331
6071
 73
     0
 91
        0
 40
0.0
 10
0.0
 20
0.0
 30
2.000000000000000E+50
 75
     0
  0
DIMASSOC
  5
66AA
102
{ACAD_REACTORS
330
66A9
102
}
330
66A9
100
AcDbDimAssoc
330
669C
 90
        3
 70
     0
 71
     0
  1
AcDbOsnapPointRef
 72
     6
331
62B0
 73
     0
 91
        0
 40
0.2652999556854669
 10
0.0
 20
0.0
 30
0.0
332
6391
 74
     0
 92
        0
 75
     0
  1
AcDbOsnapPointRef
 72
     8
331
6391
 73
     0
 91
        0
 40
0.0
 10
0.0
 20
0.0
 30
0.0
 75
     1
  1
AcDbOsnapPointRef
 72
     6
331
62B0
 73
     0
 91
        0
 40
0.2652999556854669
 10
0.0
 20
0.0
 30
0.0
332
6391
 74
     0
 92
        0
 75
     0
  0
DIMASSOC
  5
6BAB
102
{ACAD_REACTORS
330
6BAA
102
}
330
6BAA
100
AcDbDimAssoc
330
6B9B
 90
        3
 70
     0
 71
     0
  1
AcDbOsnapPointRef
 72
    13
331
6562
 73
     0
 91
        0
 40
0.0
 10
0.0
 20
0.0
 30
2.000000000000000E+50
 75
     0
  1
AcDbOsnapPointRef
 72
    13
331
693B
 73
     0
 91
        0
 40
0.0
 10
0.0
 20
0.0
 30
2.000000000000000E+50
 75
     0
  0
XRECORD
  5
72A3
102
{ACAD_REACTORS
330
72A2
102
}
330
72A2
100
AcDbXrecord
280
     1
102
SHADEPLOT
 70
     0
  0
XRECORD
  5
72A5
102
{ACAD_REACTORS
330
72A4
102
}
330
72A4
100
AcDbXrecord
280
     1
102
SHADEPLOT
 70
     0
  0
LAYOUT
  5
1E
102
{ACAD_XDICTIONARY
360
2F8
102
}
102
{ACAD_REACTORS
330
1A
102
}
330
1A
100
AcDbPlotSettings
  1

  2
Win2PDF
  4
A4
  6

 40
3.174999952316284
 41
3.174999952316284
 42
3.175003051757812
 43
3.17498779296875
 44
209.9944915771484
 45
296.989501953125
 46
3.757201179488674
 47
4.285754792267141
 48
0.0
 49
0.0
140
0.0
141
0.0
142
1.0
143
1.0
 70
   692
 72
     1
 73
     1
 74
     1
  7
monochrome.ctb
 75
    16
147
1.0
148
0.0014592318023006
149
0.0067927894928062
100
AcDbLayout
  1
Layout1
 70
     1
 71
     1
 10
-7.462201817038192
 20
-6.938993921297765
 11
289.5273001360868
 21
203.0554976558507
 12
0.0
 22
0.0
 32
0.0
 14
0.0009154015513104
 24
0.0005791177154606
 34
0.0
 15
282.0457558342515
 25
196.1105791177017
 35
0.0
146
0.0
 13
0.0
 23
0.0
 33
0.0
 16
1.0
 26
0.0
 36
0.0
 17
0.0
 27
1.0
 37
0.0
 76
     0
330
1B
331
2D8
1001
ACAD_PSEXT
1000
Win2PDF
1000
Win2PDF
1000
PDFFILE:
1000

1070
     0
  0
LAYOUT
  5
22
102
{ACAD_XDICTIONARY
360
72A0
102
}
102
{ACAD_REACTORS
330
1A
102
}
330
1A
100
AcDbPlotSettings
  1

  2
\\pallas\ColorLaserJet Büro
  4
A4
  6

 40
6.805083274841308
 41
5.027085304260253
 42
6.805084228515625
 43
5.027069091796875
 44
209.9733276367187
 45
296.9683227539062
 46
0.0
 47
0.0
 48
0.0
 49
0.0
140
0.0
141
0.0
142
1.0
143
1.82975238375777
 70
 11952
 72
     1
 73
     1
 74
     0
  7
monochrome.ctb
 75
     0
147
0.5465220370126233
148
-1003.732693658126
149
-531.8054935907698
100
AcDbLayout
  1
Model
 70
     1
 71
     0
 10
0.0
 20
0.0
 11
12.0
 21
9.0
 12
0.0
 22
0.0
 32
0.0
 14
0.0
 24
0.0
 34
0.0
 15
0.0
 25
0.0
 35
0.0
146
0.0
 13
0.0
 23
0.0
 33
0.0
 16
1.0
 26
0.0
 36
0.0
 17
0.0
 27
1.0
 37
0.0
 76
     0
330
1F
1001
ACAD_PSEXT
1000
\\pallas\ColorLaserJet Büro
1000
HP Color LaserJet 4550 PCL
1000
Serverraum
1000
HP ColorLaserJet 4550N
1070
     0
  0
MLINESTYLE
  5
18
102
{ACAD_REACTORS
330
17
102
}
330
17
100
AcDbMlineStyle
  2
STANDARD
 70
     0
  3

 62
   256
 51
90.0
 52
90.0
 71
     2
 49
0.5
 62
   256
  6
BYLAYER
 49
-0.5
 62
   256
  6
BYLAYER
  0
ACDBPLACEHOLDER
  5
F
102
{ACAD_REACTORS
330
E
102
}
330
E
  0
TABLESTYLE
  5
11B
102
{ACAD_REACTORS
330
11A
102
}
330
11A
100
AcDbTableStyle
  3
Standard
 70
     0
 71
     0
 40
1.5
 41
1.5
280
     0
281
     0
  7
STANDARD
140
4.5
170
     2
 62
     0
 63
     7
283
     0
274
    -2
284
     1
 64
     0
275
    -2
285
     1
 65
     0
276
    -2
286
     1
 66
     0
277
    -2
287
     1
 67
     0
278
    -2
288
     1
 68
     0
279
    -2
289
     1
 69
     0
  7
STANDARD
140
6.0
170
     5
 62
     0
 63
     7
283
     0
274
    -2
284
     1
 64
     0
275
    -2
285
     1
 65
     0
276
    -2
286
     1
 66
     0
277
    -2
287
     1
 67
     0
278
    -2
288
     1
 68
     0
279
    -2
289
     1
 69
     0
  7
STANDARD
140
4.5
170
     5
 62
     0
 63
     7
283
     0
274
    -2
284
     1
 64
     0
275
    -2
285
     1
 65
     0
276
    -2
286
     1
 66
     0
277
    -2
287
     1
 67
     0
278
    -2
288
     1
 68
     0
279
    -2
289
     1
 69
     0
  0
DICTIONARYVAR
  5
138
102
{ACAD_REACTORS
330
94
102
}
330
94
100
DictionaryVariables
280
     0
  1
STANDARD
  0
DICTIONARYVAR
  5
96
102
{ACAD_REACTORS
330
94
102
}
330
94
100
DictionaryVariables
280
     0
  1
2
  0
DICTIONARYVAR
  5
95
102
{ACAD_REACTORS
330
94
102
}
330
94
100
DictionaryVariables
280
     0
  1
0
  0
DICTIONARYVAR
  5
1B03
102
{ACAD_REACTORS
330
94
102
}
330
94
100
DictionaryVariables
280
     0
  1

  0
DICTIONARY
  5
272
102
{ACAD_REACTORS
330
5B
102
}
330
5B
100
AcDbDictionary
281
     1
  0
DICTIONARY
  5
61
102
{ACAD_REACTORS
330
5B
102
}
330
5B
100
AcDbDictionary
281
     1
  0
XRECORD
  5
123
102
{ACAD_REACTORS
330
5B
102
}
330
5B
100
AcDbXrecord
280
     1
 90
-1023410169
  0
XRECORD
  5
5856
102
{ACAD_REACTORS
330
5854
102
}
330
5854
100
AcDbXrecord
280
     1
  0
DICTIONARY
  5
2F8
330
1E
100
AcDbDictionary
280
     1
281
     1
  3
ACAD_XREC_ROUNDTRIP
360
729F
  3
ADSK_XREC_LAYOUTTHUMBNAIL
360
2F9
  0
DICTIONARY
  5
72A0
330
22
100
AcDbDictionary
280
     1
281
     1
  3
ACAD_XREC_ROUNDTRIP
360
72A1
  0
XRECORD
  5
729F
102
{ACAD_REACTORS
330
2F8
102
}
330
2F8
100
AcDbXrecord
280
     1
102
SHADEPLOT
 70
     0
102
SHADEPLOTRESLEVEL
 70
     2
102
SHADEPLOTCUSTOMDPI
 70
   300
  0
XRECORD
  5
2F9
102
{ACAD_REACTORS
330
2F8
102
}
330
2F8
100
AcDbXrecord
280
     1
310
28000000B40000007F00000001000800000000004C590000000000000000000000010000000000000000000000000000FFFFFF000000000000000000000000000000000000000000000000000000000000000000330000006600000099000000CC000000FF00000000330000333300006633000099330000CC330000FF3300
310
0000660000336600006666000099660000CC660000FF66000000990000339900006699000099990000CC990000FF99000000CC000033CC000066CC000099CC0000CCCC0000FFCC000000FF000033FF000066FF000099FF0000CCFF0000FFFF000000003300330033006600330099003300CC003300FF003300003333003333
310
33006633330099333300CC333300FF33330000663300336633006666330099663300CC663300FF66330000993300339933006699330099993300CC993300FF99330000CC330033CC330066CC330099CC3300CCCC3300FFCC330000FF330033FF330066FF330099FF3300CCFF3300FFFF330000006600330066006600660099
310
006600CC006600FF00660000336600333366006633660099336600CC336600FF33660000666600336666006666660099666600CC666600FF66660000996600339966006699660099996600CC996600FF99660000CC660033CC660066CC660099CC6600CCCC6600FFCC660000FF660033FF660066FF660099FF6600CCFF6600
310
FFFF660000009900330099006600990099009900CC009900FF00990000339900333399006633990099339900CC339900FF33990000669900336699006666990099669900CC669900FF66990000999900339999006699990099999900CC999900FF99990000CC990033CC990066CC990099CC9900CCCC9900FFCC990000FF99
310
0033FF990066FF990099FF9900CCFF9900FFFF99000000CC003300CC006600CC009900CC00CC00CC00FF00CC000033CC003333CC006633CC009933CC00CC33CC00FF33CC000066CC003366CC006666CC009966CC00CC66CC00FF66CC000099CC003399CC006699CC009999CC00CC99CC00FF99CC0000CCCC0033CCCC0066CC
310
CC0099CCCC00CCCCCC00FFCCCC0000FFCC0033FFCC0066FFCC0099FFCC00CCFFCC00FFFFCC000000FF003300FF006600FF009900FF00CC00FF00FF00FF000033FF003333FF006633FF009933FF00CC33FF00FF33FF000066FF003366FF006666FF009966FF00CC66FF00FF66FF000099FF003399FF006699FF009999FF00CC
310
99FF00FF99FF0000CCFF0033CCFF0066CCFF0099CCFF00CCCCFF00FFCCFF0000FFFF0033FFFF0066FFFF0099FFFF00CCFFFF00FFFFFF00000000000D0D0D001A1A1A00282828003535350043434300505050005D5D5D006B6B6B00787878008686860093939300A1A1A100AEAEAE00BBBBBB00C9C9C900D6D6D600E4E4E400
310
F1F1F100FFFFFF0000000000000000000000000000000000000000000000000000000000000000000000000000000000F5F5F5F5F5F5F5F5F5F5F5F5F5F5F5F5F5F5F5F5F5F5F5F5F5F5F5F5F5F5F5F5F5F5F5F5F5F5F5F5F5F5F5F5F5F5F5F5F5F5F5F5F5F5F5F5F5F5F5F5F5F5F5F5F5F5F5F5F5F5F5F5F5F5F5F5F5F5F5
310
F5F5F5F5F5F5F5F5F5F5F5F5F5F5F5F5F5F5F5F5F5F5F5F5F5F5F5F5F5F5F5F5F5F5F5F5F5F5F5F5F5F5F5F5F5F5F5F5F5F5F5F5F5F5F5F5F5F5F5F5F5F5F5F5F5F5F5F5F5F5F5F5F5F5F5F5F5F5F5F5F5F5F5F5F5F5F5F5F5F5F5F5F5F5F5F5F5F5F5F5F5F5E2E2E2E2E2E2E2E2E2E2E2E2E2E2E2E2E2E2E2E2E2E2E2E2E2
310
E2E2E2E2E2E2E2E2E2E2E2E2E2E2E2E2E2E2E2E2E2E2E2E2E2E2E2E2E2E2E2E2E2E2E2E2E2E2E2E2E2E2E2E2E2E2E2E2E2E2E2E2E2E2E2E2E2E2E2E2E2E2E2E2E2E2E2E2E2E2E2E2E2E2E2E2E2E2E2E2E2E2E2E2E2E2E2E2E2E2E2E2E2E2E2E2E2E2E2E2E2E2E2E2E2E2E2E2E2E2E2E2E2E2E2E2E2E2E2E2E2E2E2E2E2E2E2
310
E2E2E2E2E2E2E2E2E2E2E2E2E2E2E2E2E2E2E2E2E2E2E2E2E2F5F5F5E2F5F5F5F5F5F5F5F5E2E2E2E2E2E2E2E2E2F5F5F5F5F5F5F5F5F5F5F5F5F5F5F5F5E2E2E2E2E2E2E2E2E2F5F5F5F5F5F5F5F5F5F5F5F5F5F5F5F5E2E2E2E2E2E2E2E2E2F5F5F5F5F5F5F5F5F5F5F5F5F5F5F5F5E2E2E2E2E2E2E2E2E2F5F5F5F5F5F5
310
F5F5F5F5F5F5F5F5F5F5E2E2E2E2E2E2E2E2E2F5F5F5F5F5F5F5F5F5F5F5F5F5F5F5F5E2E2E2E2E2E2E2E2E2F5F5F5F5F5F5F5F5F5F5F5F5F5F5F5F5E2E2E2E2E2E2E2E2E2F5F5F5F5F5F5F5F5E2F5F5F5E2F5E2E2E2E2E2E2E2E2E2E2E2E2E2E2E2E2E2E2E2E2E2E2E2E2E2E2E2E2E2E2E2E2E2E2E2E2E2E2E2E2E2E2E2E2
310
E2E2E2E2E2E2E2E2E2E2E2E2E2E2E2E2E2E2E2E2E2E2E2E2E2E2E2E2E2E2E2E2E2E2E2E2E2E2E2E2E2E2E2E2E2E2E2E2E2E2E2E2E2E2E2E2E2E2E2E2E2E2E2E2E2E2E2E2E2E2E2E2E2E2E2E2E2E2E2E2E2E2E2E2E2E2E2E2E2E2E2E2E2E2E2E2E2E2E2E2E2E2E2E2E2E2E2E2E2E2E2E2E2E2E2E2E2E2E2E2E2E2E2E2E2E2E2
310
E2E2F5E2F5F5F5E2F5E2E2BEBEBEBEBEBEBEBEBEBEBEBEBEBEBEBEBEBEBEBEBEBEBEBEBEBEBEBEBEBEBEBEBEBEBEBEBEBEBEBEBEBEBEBEBEBEBEBEBEBEBEBEBEBEBEBEBEBEBEBEBEBEBEBEBEBEBEBEBEBEBEBEBEBEBEBEBEBEBEBEBEBEBEBEBEBEBEBEBEBEBEBEBEBEBEBEBEBEBEBEBEBEBEBEBEBEBEBEBEBEBEBEBEBEBEBE
310
BEBEBEBEBEBEBEBEBEBEBEBEBEBEBEBEBEBEBEBEBEBEBEBEBEBEBEBEBEBEBEBEBEBEBEBEBEBEBEBEBEBEBEBEBEBEBEBEBEBEBEBEBEE2E2F5E2F5F5F5E2F5E2E2BEE2E2E2E2E2C3E2E2E2E2E2E2E2E2E2E2E2E2E2E2E2E2E2E2E2E2E2E2E2C3E2E2E2E2E2E2E2E2E2E2E2C3E2E2E2E2E2E2E2E2C3E2E2E2E2E2E2E2E2E2E2E2
310
E2E2E2E2E2E2E2E2E2E2E2E2E2E2E2E2E2E2E2E2E2C3E2E2E2E2E2E2E2E2E2E2E2C3E2E2E2E2E2E2E2E2E2E2E2E2E2E2E2E2C3E2E2E2E2E2E2E2E2E2C3E2E2E2E2E2E2E2E2E2E2E2E2E2E2E2E2E2E2E2E2E2E2E2E2E2E2E2E2E2E2E2E2E2E2E2E2E2E2E2E2E2E2E2E2BEE2E2F5E2F5F5F5E2F5E2E2BEC3C3C3C3E2C3E2C3C3
310
C3C3C3C3C3C3C3C3C3C3E2E2E2E2E2E2E2E2E2E2C3E2C3C3C3C3C3E2E2E2E2E2C3C3C3C3C3C3C3E2E2C3E2E2E2E2E2E2E2E2E2C3C3C3C3C3C3C3C3C3C3C3C3C3C3C3C3C3E2E2E2E2E2E2C3C3C3C3C3C3E2E2C3C3C3C3C3E2E2C3C3C3C3C3C3C3C3C3C3C3E2E2E2C3E2E2C3C3C3C3C3E2E2C3E2E2E2E2E2E2E2E2E2C3C3C3C3
310
C3C3C3C3C3C3C3C3C3C3C3C3C3E2E2E2E2E2E2E2E2E2E2E2E2E2E2E2E2E2E2BEE2E2F5E2F5F5F5E2F5E2E2BEC3C3C3C3E2C3E2C3C3C3C3C3C3C3C3C3C3C3C3E2E2E2E2E2E2E2E2E2E2C3E2C3C3C3C3C3E2E2E2E2E2C3E2C3C3C3C3C3E2E2C3E2E2E2E2E2E2E2E2E2C3C3C3C3C3C3C3C3C3C3E2C3C3C3C3C3C3E2E2E2E2E2E2
310
C3C3C3C3C3C3E2E2E2C3C3C3C3E2E2C3C3C3C3C3C3C3C3C3C3C3E2E2E2C3E2E2C3C3C3C3C3E2E2C3E2E2E2E2E2E2E2E2E2C3C3C3C3C3C3C3C3C3C3E2C3C3C3C3C3C3E2E2E2E2E2E2E2E2E2E2E2E2E2E2E2E2E2E2BEE2E2F5E2F5F5F5E2F5E2E2BEC3C3C3C3C3C3C3C3C3C3C3C3C3C3C3C3C3C3C3C3C3C3C3C3C3C3C3C3C3C3
310
C3C3C3C3C3C3C3C3C3C3C3C3C3C3C3C3C3C3C3C3C3E2E2E2E2E2E2E2E2E2C3C3C3C3C3C3C3C3C3C3E2C3C3C3C3C3C3E2E2E2E2E2E2C3C3C3C3E2E2E2E2C3C3C3C3C3C3C3C3C3C3C3C3C3C3C3C3C3C3C3C3C3C3C3C3C3C3C3C3C3C3C3C3E2E2E2E2E2E2E2E2E2C3C3C3C3C3C3C3C3C3C3E2C3C3C3C3C3C3E2E2E2E2E2E2E2E2
310
E2E2E2E2E2E2E2E2E2E2BEE2E2F5E2F5F5F5E2F5E2E2BEE2E2E2E2E2C3E2E2E2E2E2E2E2E2E2E2E2E2E2E2E2E2E2E2E2E2E2E2E2C3E2E2E2E2E2E2E2E2E2E2E2C3E2E2E2E2E2E2E2E2C3E2E2E2E2E2E2E2E2E2E2E2E2E2E2E2E2E2E2E2E2E2E2E2E2E2E2E2E2E2E2E2E2C3C3C3C3E2E2E2E2E2C3C3C3C3E2C3C3C3C3E2C3E2
310
C3C3C3C3C3C3E2E2C3C3C3C3C3C3C3C3E2E2C3C3C3C3C3C3C3C3E2E2E2E2E2E2E2E2E2E2E2E2E2E2E2E2E2E2E2E2E2E2E2E2E2E2E2E2E2E2E2E2E2E2E2E2E2BEE2E2F5E2F5F5F5E2E2E2E2BEE2E2E2E2E2C3E2E2E2E2E2E2E2E2E2E2E2E2E2E2E2E2E2E2E2E2E2E2E2C3E2E2E2E2E2E2E2E2E2E2E2C3E2E2E2E2E2E2E2E2C3
310
E2E2E2E2E2E2E2E2E2E2E2E2E2E2E2E2E2E2E2E2E2E2E2E2E2E2E2E2E2E2E2E2C3C3C3C3E2E2E2E2C3C3C3C3C3E2C3C3C3C3E2C3E2E2C3E2C3C3C3E2E2C3C3C3C3C3C3C3C3E2E2C3C3C3C3C3C3C3C3E2E2E2E2E2E2E2E2E2E2E2E2E2E2E2E2E2E2E2E2E2E2E2E2E2E2E2E2E2E2E2E2E2E2E2E2E2BEE2E2E2E2F5F5F5E2E2E2
310
E2BEC3C3C3C3C3C3C3C3C3C3C3C3C3C3C3C3C3C3C3C3C3C3C3C3C3C3C3C3C3C3C3C3C3C3C3C3C3C3C3C3C3C3C3C3C3C3C3C3C3C3C3E2E2E2E2E2E2E2E2E2E2E2E2E2E2E2E2E2E2E2E2E2E2E2E2E2E2E2E2E2E2E2E2C3C3C3C3E2E2E2E2C3C3C3C3C3C3C3C3C3C3C3C3C3C3C3C3C3C3C3C3C3C3C3C3C3C3C3C3C3C3C3C3C3C3
310
C3C3C3C3C3E2E2E2E2E2E2E2E2E2E2E2E2E2E2E2E2E2E2E2E2E2E2E2E2E2E2E2E2E2E2E2E2E2E2E2E2E2BEE2E2E2E2F5F5F5E2E2E2E2BEE2E2E2E2E2C3E2E2E2E2E2E2E2E2E2E2E2E2E2E2E2E2E2E2E2E2E2E2E2C3E2E2E2E2E2E2E2E2E2E2E2C3E2E2E2E2E2E2E2E2C3E2E2E2E2E2E2E2E2E2E2E2E2E2E2E2E2E2E2E2E2E2
310
E2E2E2E2E2E2E2E2E2E2E2C3C3C3E2E2E2E2E2C3C3C3C3C3C3C3C3C3C3C3C3E2E2E2E2E2E2E2E2E2C3E2E2E2E2E2E2E2E2E2C3C3C3C3C3C3C3C3C3C3C3C3C3C3C3C3C3C3C3C3C3C3C3C3C3C3C3C3C3C3C3C3C3C3C3C3C3C3C3C3C3C3C3C3C3BEE2E2E2E2F5F5F5E2E2E2E2BEE2E2E2E2E2C3E2E2E2E2E2E2E2E2E2E2E2E2E2
310
E2E2E2E2E2E2E2E2E2E2C3E2E2E2E2E2E2E2E2E2E2E2C3E2E2E2E2E2E2E2E2C3E2E2E2E2E2E2E2E2E2E2E2E2E2E2E2E2E2E2E2E2E2E2E2E2E2E2E2E2E2E2E2E2C3C3C3E2E2E2E2E2E2C3C3C3C3C3C3C3C3C3C3C3E2E2E2E2E2E2E2E2E2C3E2E2E2E2E2E2E2E2E2C3E2E2C3C3C3C3C3C3C3E2C3E2C3C3C3C3C3E2C3C3C3C3C3
310
C3C3C3C3C3C3E2E2E2E2E2E2E2E2E2E2E2E2E2E2E2BEE2E2E2E2F5F5F5E2E2E2E2BEC3C3C3C3C3C3C3C3C3C3C3C3C3C3C3C3C3C3C3C3C3C3C3C3C3C3C3C3C3C3C3C3C3C3C3C3C3C3C3C3C3C3C3C3C3C3C3C3C3C3C3E2C3C3C3C3C3C3C3C3C3C3E2E2E2E2E2E2E2E2E2E2E2E2E2E2E2E2E2E2E2E2E2C3C3C3C3C3C3C3C3C3C3
310
C3C3C3C3C3C3C3C3C3C3C3C3C3C3C3C3C3C3C3C3C3C3C3C3C3C3C3C3C3C3E2E2C3C3E2C3C3C3C3C3C3C3C3C3C3C3C3C3E2C3C3C3C3C3E2C3C3C3C3E2E2E2E2E2E2E2E2E2E2E2E2E2E2E2BEE2E2E2E2F5F5F5E2E2E2E2BEE2E2E2E2E2C3E2E2E2E2E2E2E2E2E2E2E2E2E2E2E2E2E2E2E2E2E2E2E2C3E2E2E2E2E2E2E2E2E2E2
310
E2C3E2E2E2E2E2E2E2E2C3E2C3C3C3C3C3C3C3C3C3C3E2E2E2E2E2E2E2E2E2E2E2E2E2E2E2E2E2E2E2E2E2C3E2C3C3C3C3C3E2C3C3C3C3C3E2C3C3C3C3C3C3E2C3C3C3C3C3C3E2E2C3C3C3C3C3C3C3C3E2E2C3E2E2E2C3C3C3C3C3C3C3C3C3C3C3C3C3C3E2E2C3C3C3C3C3C3C3C3C3C3E2E2E2E2E2E2E2E2E2E2E2E2E2E2E2
310
BEE2E2E2E2F5F5F5E2E2E2E2BEE2E2E2E2E2C3E2E2E2E2E2E2E2E2E2E2E2E2E2E2E2E2E2E2E2E2E2E2E2C3E2E2E2E2E2E2E2E2E2E2E2C3E2E2E2E2E2E2E2E2C3E2C3C3C3C3C3C3C3C3C3E2E2E2E2E2E2E2E2E2E2E2E2E2E2E2E2E2E2E2E2E2E2C3E2C3C3C3C3C3E2C3C3C3C3C3E2C3C3C3C3C3C3E2C3C3C3C3C3C3E2E2C3C3
310
C3C3C3C3C3C3E2E2C3E2E2E2C3C3C3C3C3C3C3C3C3C3C3C3C3C3C3E2C3C3C3C3C3C3C3C3C3C3E2E2E2E2E2E2E2E2E2E2E2E2E2E2E2BEE2E2E2E2F5F5F5E2E2E2E2BEBEBEBEBEBEBEBEBEBEBEBEBEBEBEBEBEBEBEBEBEBEBEBEBEBEBEBEBEBEBEBEBEBEBEBEBEBEBEBEBEBEBEBEBEBEBEBEBEBEBEBEBEBEBEBEBEBEBEBEBEBE
310
BEBEBEBEBEBEBEBEBEBEBEBEBEBEBEBEBEBEBEBEBEBEBEBEBEBEBEBEBEBEBEBEBEBEBEBEBEBEBEBEBEBEBEBEBEBEBEBEBEBEBEBEBEBEBEBEBEBEBEBEBEBEBEBEBEBEBEBEBEBEBEBEBEBEBEBEBEBEBEBEBEBEBEBEBEBEBEBEBEBEBEBEBEBEBEBEBEBEBEBEBEBEBEBEBEBEBEE2E2E2E2F5F5F5E2E2E2E2BEC3C3C3C3C3C3E2C3
310
C3C3C3C3C3C3E2C3C3C3C3C3C3C3C3C3C3C3C3C3C3C3C3C3C3C3C3C3C3C3C3E2E2E2E2E2E2E2E2E2E2E2E2E2E2E2E2E2E2E2E2E2E2E2E2E2BEE2C3C3C3C3C3C3C3C3C3C3C3E2C3C3C3E2BEE2E2C3C3C3E2E2E2BEE2C3C3C3E2E2E2E2BEE2E2E2E2E2E2E2E2E2E2E2E2E2E2E2E2E2E2E2E2E2E2E2E2E2E2E2E2E2E2E2E2E2E2
310
E2E2E2E2E2E2E2E2E2E2E2E2E2E2E2E2E2E2E2E2E2E2E2E2E2E2E2E2E2E2E2E2BEE2E2E2E2F5F5F5E2F5E2E2BEC3C3C3C3C3C3E2C3C3C3C3C3C3C3E2C3C3C3E2C3C3C3C3C3C3C3C3C3C3C3C3C3C3C3C3C3C3C3C3E2E2E2E2E2E2E2E2E2E2E2E2E2E2E2E2E2E2E2E2E2E2E2E2E2BEE2C3C3C3C3C3C3C3C3C3C3C3E2C3C3C3E2
310
BEE2E2C3C3C3E2E2E2BEE2C3C3C3E2E2E2E2BEE2E2E2C3C3C3C3C3C3C3C3C3C3C3C3C3C3C3C3C3C3C3C3C3C3C3C3C3C3C3C3C3C3C3C3E2E2E2E2E2E2E2E2E2E2E2E2E2E2E2E2E2E2E2E2E2E2E2E2C3C3C3E2E2E2E2BEE2E2F5E2F5F5F5E2F5E2E2BEC3C3C3C3C3C3C3C3C3C3C3C3C3C3BEC3C3C3BEC3C3C3C3C3C3C3BEC3C3
310
C3C3C3C3C3C3C3C3C3C3BEBEBEBEBEBEBEBEBEBEBEBEBEBEBEBEBEBEBEBEBEBEBEBEBEBEBEC3C3C3C3C3C3BEC3C3C3C3BEC3C3BEBEBEBEBEBEBEBEBEBEBEBEBEBEBEBEBEBEBEBEBEE2E2E2C3E2C3E2C3E2E2C3E2C3E2E2E2E2C3E2E2E2E2C3E2C3E2E2C3C3C3C3E2E2E2C3E2E2E2E2E2E2E2E2E2E2E2E2E2E2E2E2C3C3C3E2
310
E2E2E2E2C3C3C3E2E2E2E2BEE2E2F5E2F5F5F5E2F5E2E2BEC3C3C3C3C3C3C3C3C3C3C3C3C3C3C3C3C3C3C3C3C3C3C3C3C3C3C3C3C3C3C3C3C3C3C3C3C3C3C3C3C3C3C3C3C3C3C3C3C3C3C3C3C3C3C3C3C3C3C3C3C3C3C3C3BEE2C3C3C3C3C3C3C3C3C3E2C3C3C3C3C3E2BEE2C3C3C3C3C3E2E2BEE2C3C3C3C3C3E2E2BEE2E2
310
E2C3E2C3E2C3E2C3C3E2C3E2C3C3E2C3E2C3C3E2C3E2C3C3E2C3C3C3C3E2E2E2C3E2E2E2E2E2E2E2E2E2E2E2E2E2E2E2E2C3C3C3E2E2E2E2E2C3C3C3E2E2E2E2BEE2E2F5E2F5F5F5E2F5E2E2BEC3C3C3C3C3C3C3C3C3C3C3C3C3C3C3C3C3C3C3C3C3C3C3C3C3C3C3C3E2C3C3C3C3C3C3C3C3C3C3C3C3C3C3C3C3C3C3C3C3C3
310
C3C3C3C3C3C3C3C3C3C3C3C3C3C3BEE2C3C3C3C3C3C3C3C3C3C3C3C3C3C3C3E2BEE2C3C3C3C3C3E2E2BEE2C3C3C3C3C3E2E2BEE2E2E2C3C3C3C3C3C3C3C3C3C3C3C3C3C3C3C3C3C3C3C3C3C3C3C3C3C3C3C3E2E2E2C3E2E2E2E2E2E2E2E2E2E2E2E2E2E2E2E2C3C3C3E2E2E2E2E2C3C3C3E2E2E2E2BEE2E2F5E2F5F5F5E2F5
310
E2E2BEBEBEBEBEBEBEBEBEBEBEBEBEBEBEBEBEBEBEBEBEBEBEBEBEBEBEBEBEBEBEBEBEBEBEBEBEBEBEBEBEBEBEBEBEBEBEBEBEBEBEBEBEBEBEBEBEBEBEBEBEBEBEBEBEBEBEBEBEBEBEBEBEBEBEBEBEBEBEBEBEBEBEBEBEBEBEBEBEBEBEBEBEBEBEBEBEBEBEBEBEBEE2E2E2C3E2C3E2C3E2C3C3E2C3E2C3C3E2C3E2C3C3E2C3
310
E2C3C3E2C3C3E2C3E2C3E2C3E2E2E2E2E2E2E2E2E2E2E2E2E2E2E2E2C3C3C3E2E2E2E2E2C3C3C3E2E2E2E2BEE2E2F5E2F5F5F5E2F5E2E2BEC3C3C3C3C3C3C3C3C3C3C3C3C3C3C3C3C3C3C3C3E2C3C3C3C3C3C3E2E2E2E2E2E2E2E2E2E2E2E2E2E2E2E2E2E2E2E2E2E2E2E2E2E2E2E2E2E2E2E2E2E2E2E2E2BEE2E2E2E2E2E2
310
E2E2E2BEBEBEBEBEBEE2E2BEE2E2C3C3C3C3C3E2BEE2C3C3C3C3C3C3E2BEE2E2E2C3E2C3E2C3E2E2E2E2C3E2E2E2E2C3E2C3E2E2C3E2C3E2E2C3C3C3C3E2C3E2C3E2E2E2E2E2E2E2E2E2E2E2E2E2E2E2E2C3C3C3E2E2E2E2E2C3C3C3E2E2E2E2BEE2E2F5E2F5F5F5E2F5E2E2BEC3C3C3C3C3C3C3C3C3C3C3C3C3C3C3C3C3C3
310
C3C3C3C3C3C3C3C3C3E2E2E2E2E2E2E2E2E2E2E2E2E2E2E2E2E2E2E2E2E2E2E2E2E2E2E2E2E2E2E2E2E2E2E2E2E2BEE2E2E2BEBEBEBEBEBEE2E2E2E2E2E2E2E2BEE2E2C3C3C3C3E2E2BEE2C3C3C3C3C3C3E2BEE2E2E2C3C3C3C3C3C3C3C3C3C3C3C3C3C3C3C3C3C3C3C3C3C3C3C3C3C3E2C3E2C3E2C3E2E2E2E2E2E2E2E2E2
310
E2E2E2E2E2E2E2E2C3C3E2E2E2E2E2C3C3C3E2E2E2E2BEE2E2F5E2F5F5F5E2F5E2E2BEBEBEBEBEBEBEBEBEBEBEBEBEBEBEBEBEBEBEBEBEBEBEBEBEBEBEBEBEBEBEBEBEBEBEBEBEBEBEBEBEBEBEBEBEBEBEBEBEBEBEBEBEBEBEBEBEBEBEBEBEBEBEBEBEBEBEBEBEBEBEBEBEBEBEBEBEBEBEBEBEBEBEBEBEBEBEBEBEBEBEBEBE
310
BEBEBEBEBEBEBEBEBEE2E2E2C3E2C3E2C3E2C3C3E2C3E2C3C3E2C3E2C3C3E2C3E2C3C3E2C3C3E2C3E2C3E2C3E2E2E2E2E2E2E2E2E2E2E2E2E2E2E2E2E2C3E2E2E2E2E2E2E2C3E2E2E2E2E2BEE2E2F5E2F5F5F5E2F5E2E2BEC3C3C3C3C3C3C3C3C3C3C3C3C3C3C3C3C3C3C3C3C3C3E2C3C3C3C3C3C3C3C3C3C3C3E2C3C3C3C3
310
C3C3E2C3C3C3C3C3C3C3C3C3C3E2C3C3C3E2C3C3C3C3C3C3C3BEC3C3C3C3C3C3C3C3C3C3C3C3C3C3E2C3C3BEE2C3C3E2BEE2C3C3BEE2C3C3E2BEC3C3E2BEE2E2E2C3E2C3E2C3E2E2E2E2C3E2E2C3E2C3E2C3E2E2C3E2E2E2E2C3C3E2C3E2C3E2C3E2E2E2E2E2E2E2E2E2E2E2E2E2E2E2E2E2C3E2E2E2E2E2E2E2C3E2E2E2E2
310
E2BEE2E2F5E2F5F5F5E2F5E2E2BEC3C3C3C3C3C3C3C3C3C3C3C3C3C3C3C3C3C3C3C3C3C3E2C3C3C3C3C3C3C3C3C3C3C3E2C3C3C3C3C3C3C3C3C3C3C3C3C3C3C3C3C3E2C3C3C3E2C3C3C3C3C3C3C3BEC3C3C3C3C3C3C3C3C3C3C3C3C3C3E2C3C3BEE2C3C3E2BEC3C3C3BEE2C3C3E2BEC3C3E2BEE2E2E2C3C3C3C3C3C3C3C3C3
310
C3C3C3C3C3C3C3C3C3C3C3C3C3C3C3C3C3E2C3E2C3E2C3E2E2E2E2E2E2E2E2E2E2E2E2E2E2E2E2E2C3E2E2E2E2E2E2E2C3E2E2E2E2E2BEE2E2F5E2F5F5F5E2F5E2E2BEBEBEBEBEBEBEBEBEBEBEBEBEBEBEBEBEBEBEBEBEBEBEBEBEBEBEBEBEBEBEBEBEBEBEBEBEBEBEBEBEBEBEBEBEBEBEBEBEBEBEBEBEBEBEBEBEBEBEBEBE
310
BEBEBEBEBEBEBEBEBEBEBEBEBEBEBEBEBEBEBEBEBEBEBEBEBEBEBEBEBEBEBEBEBEBEBEBEBEBEBEBEBEE2E2E2C3E2C3E2C3E2C3C3E2C3E2C3C3E2C3E2C3C3E2C3E2C3C3E2C3C3E2C3E2C3E2C3E2E2E2E2E2E2E2E2E2E2E2E2E2E2E2E2E2C3C3C3C3C3C3C3C3C3E2E2E2E2E2BEE2E2F5E2F5F5F5E2F5E2E2BEC3C3C3C3C3C3E2
310
C3C3C3C3C3C3C3C3C3C3C3E2E2C3C3C3E2C3C3C3C3E2C3C3C3C3C3E2E2C3C3C3C3C3E2E2E2E2E2E2E2E2E2E2E2E2E2E2E2E2E2E2E2E2E2E2E2BEC3C3C3C3C3C3C3C3C3C3E2C3C3C3C3C3E2BEE2E2C3E2BEE2C3C3BEE2C3C3E2BEC3C3C3BEE2E2E2C3E2C3E2C3E2E2C3E2C3E2E2C3E2C3E2E2E2E2C3E2E2E2E2C3C3E2C3E2C3
310
E2C3E2E2E2E2C3C3C3C3C3C3C3E2E2E2E2E2E2E2E2E2E2E2E2E2E2E2E2E2E2E2E2BEE2E2F5E2F5F5F5E2F5E2E2BEC3C3C3C3C3C3C3C3C3C3C3C3C3C3C3C3C3C3C3C3C3C3C3C3C3C3C3C3E2C3C3C3C3C3C3E2C3C3C3C3C3E2E2E2E2E2E2E2E2E2E2E2E2E2E2E2E2E2E2E2E2E2E2E2BEC3C3C3C3C3C3C3C3C3C3E2C3C3C3C3C3
310
E2BEE2E2C3E2BEC3C3C3BEE2C3C3E2BEC3C3C3BEE2E2E2C3C3C3C3C3C3C3C3C3C3C3C3C3C3C3C3C3C3C3C3C3C3C3C3C3E2E2C3C3C3C3C3E2E2E2E2C3C3C3C3C3C3C3E2C3C3C3C3E2E2E2E2E2C3E2E2E2E2E2E2E2E2E2BEE2E2F5E2F5F5F5E2F5E2E2BEBEBEBEBEBEBEBEBEBEBEBEBEBEBEBEBEBEBEBEBEBEBEBEBEBEBEBEBE
310
BEBEBEBEBEBEBEBEBEBEBEBEBEBEBEBEBEBEBEBEBEBEBEBEBEBEBEBEBEBEBEBEBEBEBEBEBEBEBEBEBEBEBEBEBEBEBEBEBEBEBEBEBEBEBEBEBEBEBEBEBEBEBEBEBEBEBEBEBEBEBEBEBEE2E2E2C3C3C3C3C3E2E2C3E2C3E2C3C3E2C3E2C3C3E2C3C3C3C3E2C3E2E2C3C3C3C3C3E2E2E2E2E2C3C3C3E2E2E2E2E2E2E2C3E2E2E2
310
C3C3E2C3C3E2E2E2E2E2E2E2BEE2E2F5E2F5F5F5E2F5E2E2BEC3C3C3C3C3C3C3C3C3C3C3C3C3C3C3C3C3C3C3C3C3C3C3E2C3C3C3C3C3C3C3C3C3C3C3C3C3C3C3C3C3C3C3C3C3C3C3C3C3C3C3C3C3C3C3C3C3C3C3C3C3E2E2E2BEC3C3C3C3C3C3C3C3C3C3C3C3C3E2C3C3C3BEE2E2E2E2C3C3C3C3C3E2E2E2E2E2E2E2E2BEE2
310
E2E2C3C3C3C3C3E2E2C3E2C3E2C3C3E2C3E2C3E2E2C3C3C3E2E2C3E2E2C3C3C3C3C3E2E2E2E2E2E2E2E2E2E2E2E2E2E2E2C3E2E2C3E2E2E2E2E2C3E2E2E2E2E2E2BEE2E2F5E2F5F5F5E2F5E2E2BEC3C3C3C3C3C3C3C3C3C3C3C3C3C3C3C3C3C3C3C3C3C3C3E2C3C3C3C3C3C3C3C3C3C3C3C3C3C3C3C3C3C3C3C3C3C3C3C3C3
310
C3C3C3C3C3C3C3C3C3C3C3C3E2E2E2BEC3C3C3C3C3C3C3C3C3C3C3C3C3E2C3C3C3BEE2E2E2E2C3C3C3C3C3E2E2E2E2E2E2E2E2BEE2E2E2C3C3C3C3C3C3C3C3C3C3C3C3C3C3C3C3C3C3C3C3C3C3C3C3C3C3C3C3C3C3C3C3E2E2E2E2E2E2E2E2E2E2E2E2E2E2E2C3E2E2C3E2E2E2E2E2E2C3E2E2E2E2E2BEE2E2F5E2F5F5F5E2
310
E2E2E2BEBEBEBEBEBEBEBEBEBEBEBEBEBEBEBEBEBEBEBEBEBEBEBEBEBEBEBEBEBEBEBEBEBEBEBEBEBEBEBEBEBEBEBEBEBEBEBEBEBEBEBEBEBEBEBEBEBEBEBEBEBEBEBEBEBEBEBEBEBEBEBEBEBEBEBEBEBEBEBEBEBEBEBEBEBEBEBEBEBEBEBEBEBEBEBEBEBEBEBEBEBEE2E2E2C3C3C3C3C3E2C3C3C3C3C3C3C3C3C3C3C3C3C3
310
C3C3C3C3C3C3C3C3E2C3C3C3E2E2E2E2E2E2E2E2E2E2E2E2E2E2E2E2C3E2C3E2E2E2E2E2E2E2C3E2E2E2E2E2BEE2E2E2E2F5F5F5E2E2E2E2BEC3C3C3C3C3C3C3C3C3C3C3C3C3C3E2E2E2E2E2E2E2E2E2E2E2E2E2E2E2BEE2E2E2E2E2E2E2E2E2E2E2E2E2C3C3C3C3C3C3C3C3C3C3C3E2E2E2E2E2E2E2E2E2E2BEE2E2E2E2E2
310
E2E2E2E2E2E2E2E2E2E2E2E2E2E2E2E2E2E2E2E2E2E2E2E2E2E2E2E2E2E2BEE2E2E2C3C3C3C3C3E2C3C3C3C3C3C3C3C3C3C3C3C3C3C3C3C3C3C3C3C3C3E2C3C3C3E2E2E2E2E2E2E2E2E2E2E2E2E2E2E2E2C3E2E2C3E2E2E2E2E2E2C3E2E2E2E2E2BEE2E2E2E2F5F5F5E2E2E2E2BEC3C3C3C3C3C3C3C3C3C3C3C3C3C3E2E2E2
310
E2E2E2E2E2E2E2E2E2E2E2E2BEE2E2E2E2E2E2E2E2E2E2E2E2E2C3C3C3C3C3C3C3C3C3C3C3E2E2E2E2E2E2E2E2E2E2BEE2E2E2E2E2E2E2E2E2E2E228E2E2E2E2E228E2E2E2E2E2E2E2E2E2E2E2E2E2E2E2E2E2BEE2E2E2C3C3C3C3C3C3C3C3C3E2C3C3E2C3C3C3C3C3C3E2C3C3C3C3E2E2E2E2E2E2E2E2E2E2E2E2E2E2E2E2
310
E2E2E2E2E2E2E2C3E2E2C3E2E2E2E2E2C3E2E2E2E2E2E2BEE2E2E2E2F5F5F5E2E2E2E2BEBEBEBEBEBEBEBEBEBEBEBEBEBEBEBEBEBEBEBEBEBEBEBEBEBEBEBEBEBEBEBEBEBEBEBEBEBEBEBEBEBEBEBEBEBEBEBEC3C3BEBEBEC3C3BEBEBEBEBEBEBEBEBEBEBEE2E2E2E2E2E2E2E2E2E2E2282828C3282828E2E2E2E2E2E2E2E2
310
E2E2E2E2E2E2E2E2E2BEE2E2E2C3C3C3C3E2C3C3C3C3C3E2C3E2C3C3C3C3C3C3C3C3C3E2E2E2E2E2E2E2E2E2E2E2E2E2E2E2E2C3C3C3C3C3E2E2E2E2C3E2E2E2C3E2E2E2C3E2E2E2E2E2E2E2BEE2E2E2E2F5F5F5E2E2E2E2BEC3C3C3C3C3C3C3C3C3C3C3C3C3C3C3E2C3C3C3E2C3C3E2C3C3C3E2E2E2BEE2E2E2E2E2E2E2E2
310
E2E2C3C3C3C3C3C3E2C3C3C3C3C3C3C3C3C3C3E2E2E2E2E2E2E2BEE2E2E2E2E2E2E2E2E2E2E228E2E2C3E2E228E2E2E2E2E2E2E2E2E2E2E2E2E2E2E2E2E2BEE2E2E2C3C3C3C3E2C3C3C3C3C3E2C3E2C3C3C3C3C3C3E2C3C3E2E2E2E2E2E2E2E2E2E2E2E2E2E2E2E2C3C3C3C3C3E2C3C3C3C3E2E2E2E2C3C3C3E2E2E2E2E2E2
310
E2E2BEE2E2E2E2F5F5F5E2E2E2E2BEC3C3C3C3C3C3C3C3C3C3C3C3C3C3C3C3C3C3C3E2C3C3C3C3C3C3E2E2E2BEE2E2E2E2E2E2E2E2E2E2C3C3C3C3C3C3C3C3C3C3C3C3C3C3C3C3C3E2E2E2E2E2E2E2BEE2E2E2E2E2E2E2E2E2E2E228E2E2E2E2E2BEBEBEBEBEBEBEBEBEBEBEBEBEE2E2E2E2E2BEE2E2E2E2E2E2E2E2E2E2E2
310
E2E2E2E2E2E2E2E2E2E2E2E2E2E2E2E2E2E2E2E2E2E2E2E2E2E2E2E2E2E2C3C3C3C3C3E2E2E2E2E2E2E2E2E2E2E2E2E2E2E2E2E2E2E2E2BEE2E2E2E2F5F5F5E2E2E2E2BEC3C3C3C3C3BEC3C3C3C3C3C3BEC3C3BEBEC3C3BEC3C3BEC3C3C3BEBEBEBEBEBEBEBEBEBEBEBEBEBEBEBEBEBEBEBEC3C3C3BEBEBEBEBEBEBEC3BEBE
310
BEBEBEBEBEBEE2E2E2E2E2E2E2E2E2E2E228E2E2E2E2E2BEE2E2E2E2E2E2E2E2E2E2E2BEE2E2E2E2E2BEE2E2E2E2E2E2E2E2E2E2E2E2E2E2E2E2E2E2E2E2E2E2E2E2E2E2E2E2E2E2E2E2E2E2E2E2E2E2E2E2E2E2E2E2E2E2E2E2E2C3C3C3C3C3E2C3C3C3C3C3C3C3E2E2E2E2BEE2E2E2E2F5F5F5E2E2E2E2BEC3C3C3C3C3C3
310
C3C3C3C3C3C3C3C3C3C3C3C3C3C3C3C3C3C3C3E2E2E2E2BEE2E2E2E2E2E2E2E2E2E2E2E2E2E2E2E2C3C3C3C3E2E2E2E2E2E2E2E2E2E2E2E2E2E2BEE2E2E2E2E2E2E2E2E2E2E228E2E2E2E2E2BEE2E2E2E2E2E2E2E2E2E2E2BEE2E2E2E2E2BEE2E2E2E2E2E2E2E2E2E2E2E2E2E2E2E2E2E2E2E2E2E2E2E2E2E2E2E2E2E2E2E2
310
E2E2E2E2E2E2E2E2E2E2E2E2E2E2E2E2E2C3C3C3C3C3E2C3C3C3C3C3C3C3E2E2E2E2BEE2E2E2E2F5F5F5E2F5E2E2BEC3C3C3C3E2C3C3C3C3C3C3C3C3C3C3C3C3C3C3C3C3C3C3C3C3E2E2E2E2BEE2E2E2E2E2E2E2E2E2E2E2E2E2E2E2E2C3C3C3C3E2E2E2E2E2E2E2E2E2E2E2E2E2E2BEE2E2E2E2E2E2E2E2E2E2E228E2E2E2
310
E2BEBEE2E2E2E2E2E2E2E2E2E2E2BEE2E2E2E2E2BEE2E2E2E2E2E2E2E2E2E2E2E2E2E2E2E2E2E2E2E2E2E2E2E2E2E2E2E2E2E2E2E2E2E2E2E2E2E2E2E2E2E2E2E2E2E2E2E2C3C3C3C3C3C3E2C3C3C3C3C3C3C3E2E2E2E2BEE2E2F5E2F5F5F5E2F5E2E2BEBEBEBEBEBEBEBEBEBEBEBEBEBEBEBEBEBEBEBEBEBEBEBEBEBEBEBE
310
BEBEBEBEBEBEBEBEBEBEBEBEBEBEBEBEBEBEBEBEBEBEBEBEBEBEBEBEBEBEBEBEBEBEBEBEBEBEE2E2E2E2E2E2E2E2E2E2E228E2E2E2E2BEBEE2E2E2E2E2E2E2E2E2E2E2BEE2E2E2E2E2BEE2E2E2E2E2E2E2E2E2E2E2E2E2E2E2E2E2E2E2E2E2E2E2E2E2E2E2E2E2E2E2E2E2E2E2E2E2E2E2E2E2E2E2E2E2E2E2E2E2E2E2E2E2
310
E2E2E2E2E2E2E2E2E2E2E2E2E2BEE2E2F5E2F5F5F5E2F5E2E2BEC3C3C3C3C3C3C3C3C3C3C3C3C3E2E2E2E2E2E2E2E2E2E2E2E2E2E2E2E2BEE2E2E2E2E2E2E2E2E2E2E2E2E2E2E2E2C3C3C3E2E2E2E2E2E2E2E2E2E2E2E2E2E2E2BEE2E2E2E2E2E2E2E2E2E2E228E2E2E2E2BEBEE2E2E2E2E2E2E2E2E2E2E2BEE2E2E2E2E2BE
310
E2E2E2E2E2E2E2E2E2E2E2DCDCDCDCDCDCDCDCDCDCDCDCDCDCDCDCDCDCDCDCDCDCDCDCDCDCDCDCDCDCDCDCDCDCDCDCDCDCDCDCDCDCDCDCDCDCDCE2E2E2E2E2E2E2E2BEE2E2F5E2F5F5F5E2F5E2E2BEC3C3C3C3E2C3C3C3C3C3C3C3C3E2E2E2E2E2E2E2E2E2E2E2E2E2E2E2E2BEE2E2E2E2E2E2E2E2E2E2E2E2E2E2E2E2C3C3
310
C3E2E2E2E2E2E2E2E2E2E2E2E2E2E2E2BEE2E2E2E2E2E2E2E2E2E2E228E2E2E2E2BEBEE2E2E2E2E2E2E2E2E2E2E2BEE2E2E2E2E2BEE2E2E2E2E2E2E2E2E2E2E2DCE2E2E2E2E2DCDCDCE2E2E2E2E2E2E2E2DCDCE2E2E2DCE2E2E2DCE2DCDCDCE2E2E2E2E2DCDCE2DCDCDCDCDCE2E2DCE2E2E2E2E2E2E2E2BEE2E2F5E2F5F5F5
310
E2F5E2E2BEBEBEBEBEBEBEBEBEBEBEBEBEBEBEBEBEBEBEBEBEBEBEBEBEBEBEBEBEBEBEBEBEBEBEBEBEBEBEBEBEBEBEBEBEBEBEBEBEBEBEBEBEBEBEBEBEBEBEBEBEBEBEBEBEBEE2E2E2E2E2E2E2E2E2E2E228E2E2E2E2BEBEBEBEE2E2E2E2E2E2BEBEBEBEE2E2E2E2E2BEE2E2E2E2E2E2E2E2E2E2E2DCE2E2E2E2E2DCDCDCDC
310
DCDCDCE2E2E2E2DCDCE2E2E2DCE2E2E2DCE2DCDCDCDCE2E2E2E2DCDCE2DCE2E2DCDCE2E2DCE2E2E2E2E2E2E2E2BEE2E2F5E2F5F5F5E2F5E2E2BEC3C3C3C3C3C3E2C3C3C3C3C3C3C3C3C3C3C3C3C3C3C3C3C3E2E2E2E2E2BEE2E2E2E2E2E2E2E2E2E2E2E2E2E2C3C3C3C3C3C3E2E2C3C3C3C3C3C3C3E2C3C3E2E2BEE2E2E2E2
310
E2E2E2E2E2E2E228E2E2E2E2BEBEE2BEE2E2E2E2E2E2BEE2BEBEE2E2E2E2E2BEE2E2E2E2E2E2E2E2E2E2E2DCE2E2E2E2E2DCDCE2E2E2E2E2E2E2E2E2DCDCE2E2E2DCE2E2E2DCE2DCDCDCDCE2E2E2E2DCDCDCE2E2E2DCDCE2E2DCE2E2E2E2E2E2E2E2BEE2E2F5E2F5F5F5E2F5E2E2BEC3C3C3C3C3C3C3C3C3C3C3C3C3C3C3C3
310
C3C3C3C3C3C3C3C3E2E2E2E2E2BEE2E2E2E2E2E2E2E2E2E2E2E2E2E2C3C3C3C3C3C3C3C3C3C3C3C3C3C3C3C3C3C3E2E2BEE2E2E228E2E228E2E2E2BEBEBEBEBEBEBEBEBEBEE2E2E2E2E2E2BEBEBEBEBEBEBEBEBEBEE2E2E2E2E2E2E2E2E2E2E2DCE2E2E2E2E2DCDCE2E2E2E2E2E2E2E2E2DCDCDCDCDCDCDCDCDCDCDCDCDCDC
310
DCDCDCDCDCDCE2E2E2E2E2DCDCE2E2DCE2E2E2E2E2E2E2E2BEE2E2F5E2F5F5F5E2F5E2E2BEBEBEBEBEBEBEBEBEBEBEBEBEBEBEBEBEBEBEBEBEBEBEBEBEBEBEBEBEBEBEBEBEBEBEBEBEBEBEBEBEBEBEBEBEBEBEBEBEBEBEBEC3C3BEBEBEBEBEBEBEC3C3BEBEBEE22828282828282828ECBEECECECECECBEBEECBEECECECECEC
310
ECBEECBEBEECECECECECBEE2E2E2E2E2E2E2E2E2E2E2DCE2E2E2E2E2DCDCE2DCDCDCDCE2E2E2E2DCDCE2E2E2DCE2E2E2DCE2DCDCDCDCE2E2E2E2DCDCE2E2E2E2DCDCE2E2DCE2E2E2E2E2E2E2E2BEE2E2F5E2F5F5F5E2F5E2E2BEC3C3C3C3C3C3C3C3C3C3C3C3C3C3C3C3C3C3C3C3C3C3C3C3C3E2E2E2E2BEE2E2E2E2E2E2E2
310
E2E2E2E2E2E2E2C3C3C3C3C3C3C3C3C3C3C3E2E2E2E2E2E2E2E2E2BEE2E2E2E2C3C3C3E2E2E2BEBEBEBEBEBEBEBEBEBEE2E2E2E2E2E2BEBEBEBEBEBEBEBEBEBEE2E2E2E2E2E2E2E2E2E2E2DCE2E2E2E2E2DCDCE2E2E2E2E2E2E2E2E2DCDCE2E2E2DCE2E2E2DCE2DCDCDCDCE2E2E2E2DCDCE2E2DCDCDCDCE2E2DCE2E2E2E2E2
310
E2E2E2BEE2E2F5E2F5F5F5E2F5E2E2BEC3C3C3C3C3C3C3C3C3C3C3C3C3C3C3C3C3C3C3C3C3C3C3C3C3E2E2E2E2BEE2E2E2E2E2E2E2E2E2E2E2E2E2E2C3C3C3C3C3C3C3C3C3C3C3E2E2E2E2E2E2E2E2E2BEE2E2E2E2C3C3E2E2E2E2E22828E2E2E2BEBE28BEE2E2E2E2E2E2BE28BEBEE2E2E2E2E2BEE2E2E2E2E2E2E2E2E2E2
310
E2DCE2E2E2E2E2E2E2E2E2E2E2E2E2E2E2E2DCDCDCDCDCDCDCDCDCDCDCDCDCDCDCDCDCDCDCDCDCDCE2E2E2E2E2E2E2DCE2E2E2E2E2E2E2E2BEE2E2F5E2F5F5F5E2F5E2E2BEBEBEBEBEBEBEBEBEBEBEBEBEBEBEBEBEBEBEBEBEBEBEBEBEBEBEBEBEBEBEBEBEBEBEBEBEBEBEBEBEBEBEBEBEBEBEBEBEBEC3BEBEBEBEC3BEBEBE
310
BEBEBEBEBEBEBEE2E2E2E2E2E2E2E2E2E2E22828E2E2E2BEBEBE28E2E2E2E2E2E2282828BEE2E2E2E2E2BEE2E2E2E2E2E2E2E2E2E2E2DCE2E2E2E2E2DCDCDCE2E2E2E2E2E2E2E2DCDCE2E2E2DCE2E2E2DCE2DCDCDCDCE2E2E2E2DCDCDCE2DCDCDCDCE2E2DCE2E2E2E2E2E2E2E2BEE2E2F5E2F5F5F5E2F5E2E2BEC3C3C3C3C3
310
C3C3C3C3C3C3C3C3C3C3C3C3C3C3C3E2C3C3C3C3C3E2E2E2BEE2E2E2E2E2E2E2E2E2E2E2E2E2E2C3C3C3C3C3C3C3E2E2E2E2E2E2E2E2E2E2E2E2E2BEE2E2E2E2E2E2E2E2E2E2E228C3C3E2E2BEBEE22828E2E2E2E22828E2E22828E2E2E2E2BEE2E2E2E2E2E2E2E2E2E2E2DCE2E2E2E2E2DCDCDCDCDCDCDCE2E2E2E2DCDCE2
310
E2E2DCE2E2E2DCE2DCDCDCDCE2E2E2E2DCDCE2E2E2E2DCDCE2E2DCE2E2E2E2E2E2E2E2BEE2E2F5E2F5F5F5E2F5E2E2BEC3C3C3C3C3C3C3C3C3C3C3C3C3C3C3C3C3C3C3C3E2C3C3C3C3C3E2E2E2BEE2E2E2E2E2E2E2E2E2E2E2E2E2E2C3C3C3C3C3C3C3E2E2E2E2E2E2E2E2E2E2E2E2E2BEE2E2E2E2E2E2E2E2E2E2E228C3C3
310
E2E2BEBEE2E228E2E2E2E228E2E2E2BE28E2E2E2E2BEE2E2E2E2E2E2E2E2E2E2E2DCE2E2E2E2E2E2DCE2E2E2E2E2E2E2E2E2DCDCE2E2E2DCE2E2E2DCE2DCDCDCDCE2E2E2E2DCDCE2E2E2E2DCDCE2E2DCE2E2E2E2E2E2E2E2BEE2E2F5E2F5F5F5E2F5E2E2BEBEBEBEBEBEBEBEBEBEBEBEBEBEBEBEBEBEBEBEBEBEBEBEBEBEBE
310
BEBEBEBEBEBEBEBEBEBEBEBEBEBEBEBEBEBEBEBEBEBEBEBEBEBEBEBEBEBEBEBEBEBEBEBEBEBEBEE2E2E2E2E2E2E2E2E2E2E228C3C3E2E2BEBEE2E2E228E2E228E2E2E2E2BE28E2E2E2E2BEE2E2E2E2E2E2E2E2E2E2E2DCE2E2E2E2E2E2E2E2E2E2E2E2E2E2E2E2DCDCDCDCDCDCDCDCDCDCDCDCDCDCDCDCDCDCDCDCE2E2E2E2
310
E2DCDCE2E2DCE2E2E2E2E2E2E2E2BEE2E2F5E2F5F5F5E2F5E2E2BEC3C3C3C3C3C3C3C3C3C3C3C3C3C3C3E2E2C3C3C3C3C3C3C3C3C3C3E2E2BEE2E2E2E2E2E2E2E2E2E2E2E2E2E2C3C3C3C3C3C3C3E2E2E2E2E2E2E2E2E2E2E2E2E2BEE2E2E2E2E2E2E2E2E2E2E228E2E2E2E2E2BEE2E2E2C3C3C3C3C3C3E2E2BEE228E2E2E2
310
BEE2E2E2E2E2E2E2E2E2E2E2DCE2E2E2E2E2DCDCE2E2E2E2E2E2E2E2E2DCDCE2E2E2DCE2E2E2DCE2DCDCDCDCE2E2E2E2DCDCE2E2E2E2DCDCE2E2DCE2E2E2E2E2E2E2E2BEE2E2F5E2F5F5F5E2F5E2E2BEC3C3C3C3C3C3C3C3C3C3C3C3C3C3C3E2E2C3C3C3C3C3C3C3C3C3C3E2E2BEE2E2E2E2E2E2E2E2E2E2E2E2E2E2C3C3C3
310
C3C3C3C3E2E2E2E2E2E2E2E2E2E2E2E2E2BEE2282828282828282828282828E2E2E2E2BEE2E2E2C3C3C3C3C3C3E2E2BEE2E228E2E2BEE2E2E2E2E2E2E2E2E2E2E2DCE2E2E2E2E2E2DCE2DCDCDCDCE2E2E2E2DCDCE2E2E2DCE2E2E2DCE2DCDCDCDCE2E2E2E2DCDCE2E2DCDCDCDCE2E2DCE2E2E2E2E2E2E2E2BEE2E2F5E2F5F5
310
F5E2E2E2E2BEBEBEBEBEBEBEBEBEBEBEBEBEBEBEBEBEBEBEBEBEBEBEBEBEBEBEBEBEBEBEBEBEBEBEBEBEBEBEBEBEBEBEBEBEBEBEBEBEBEBEBEBEBEBEBEBEBEBEBEBEBEBEBEBEBEE2C3C3C3C3C3C3C3C3C3C3C3C3E2E2E2E2BEBEBEBEBEBEBEBEBEBEBEBEBEE2E2E228E2BEE2E2E2E2E2E2E2E2E2E2E2DCDCDCDCDCDCDCDCDC
310
DCDCDCDCDCDCDCDCDCDCDCDCDCDCDCDCDCDCDCDCDCDCDCDCDCDCDCDCDCDCDCDCDCDCDCDCDCDCE2E2E2E2E2E2E2E2BEE2E2E2E2F5F5F5E2E2E2E2BEC3C3C3C3C3C3C3C3C3C3E2E2E2E2E2E2E2E2E2E2E2E2E2E2E2E2E2E2E2BEE2E2E2E2E2E2E2E2E2E2E2E2E2E2C3C3C3E2E2E2E2E2E2E2E2E2E2E2E2E2E2E2E2E2BEE2C3C3
310
C3C3C3C3C3C3C3C3C3C3E2E2E2E2E2E2E2E2E2E2E2E2C3C3C3C3C3C3E2E228E2BEE2E2E2E2E2E2E2E2E2E2E2DCE2E2E2E2E2E2E2E2E2E2E2E2E2E2E2E2DCDCDCDCDCDCDCDCE2DCE2E2E2E2E2E2E2E2E2DCE2E2E2E2E2E2E2E2E2DCE2E2E2E2E2E2E2E2BEE2E2E2E2F5F5F5E2E2E2E2BEC3C3C3C3C3C3C3C3C3C3E2E2E2E2E2
310
E2E2E2E2E2E2E2E2E2E2E2E2E2E2BEE2E2E2E2E2E2E2E2E2E2E2E2E2E2C3C3C3E2E2E2E2E2E2E2E2E2E2E2E2E2E2E2E2E2BEE2C3C3C3C3C3C3C3C3C3E2E2E2E2E2E2E2E2E2E2E2E2E2E2E2C3C3C3C3C3C3E2282828BEE2E2E2E2E2E2E2E2E2E2E2DCE2E2E2E2E2E2DCDCDCDCDCDCE2E2E2E2DCDCDCDCDCDCDCDCE2DCE2DCDC
310
DCDCDCDCE2E2DCE2DCDCDCDCDCDCE2E2DCE2E2E2E2E2E2E2E2BEE2E2E2E2F5F5F5E2E2E2E2BEBEBEBEBEBEBEBEBEBEBEBEBEBEBEBEBEBEBEBEBEBEBEBEBEBEBEBEBEBEBEBEBEBEBEBEBEBEBEBEBEBEBEBEBEBEBEBEBEBEBEBEBEBEBEBEBEBEBEBEBEBEBEBEBEBEE2C3C3C3C3C3C3C3C3C3E2E2E2E2E2E2E2E2E2E2E2E2E2E2
310
E2C3C3C3C3C3C3E2E2E2E2BEE2E2E2E2E2E2E2E2E2E2E2DCE2E2E2E2E2E2DCDCDCDCDCDCE2E2E2E2DCDCDCDCDCDCDCDCDCDCE2DCDCDCDCDCDCE2E2DCE2DCDCDCDCDCDCE2E2DCE2E2E2E2E2E2E2E2BEE2E2E2E2F5F5F5E2E2E2E2BEC3C3C3C3C3C3C3C3C3C3C3C3E2E2E2E2E2E2E2E2E2E2E2E2E2E2E2E2E2BEE2E2E2E2E2E2
310
E2E2E2E2E2E2E2E2C3C3C3E2E2E2E2E2E2E2E2E2E2E2E2E2E2E2E2E2BEE2C3C3C3C3C3C3C3C3C3C3C3C3E2E2E2E2E2E2E2E2E2E2E2E2E2C3C3C3C3C3E2E2E2E2BEE2E2E2E2E2E2E2E2E2E2E2DCE2E2E2E2E2E2E2E2E2E2E2E2E2E2E2E2DCDCDCDCDCDCDCDCDCDCE2E2E2E2E2E2E2E2E2DCE2E2E2E2E2E2E2E2E2DCE2E2E2E2
310
E2E2E2E2BEE2E2E2E2F5F5F5E2E2E2E2BEC3C3C3C3C3C3C3C3C3C3C3C3E2E2E2E2E2E2E2E2E2E2E2E2E2E2E2E2E2BEE2E2E2E2E2E2E2E2E2E2E2E2E2E2C3C3C3E2E2E2E2E2E2E2E2E2E2E2E2E2E2E2E2E2BEE2C3C3C3C3C3C3C3C3C3C3C3E2E2E2E2E2E2E2E2E2E2E2E2E2E2E2E2E2E2E2E2E2E2E2BEE2E2E2E2E2E2E2E2E2
310
E2E2DCDCDCDCDCDCDCDCDCDCDCDCDCDCDCDCDCDCDCDCDCDCDCDCDCDCDCDCDCDCDCDCDCDCDCDCDCDCDCDCDCDCDCDCDCDCDCE2E2E2E2E2E2E2E2BEE2E2E2E2F5F5F5E2E2E2E2BEBEBEBEBEBEBEBEBEBEBEBEBEBEBEBEBEBEBEBEBEBEBEBEBEBEBEBEBEBEBEBEBEBEBEBEBEBEBEBEBEBEBEBEBEBEBEBEBEBEBEBEBEBEBEBEBEBE
310
BEBEBEBEBEBEBEBEE2E2E2E2E2E2E2E2E2E2E2E2E2E2E2E2E2E2E2E2E2E2E2E2E2E2E2E2E2E2E2E2E2E2E2BEE2E2E2E2E2E2E2E2E2E2E2DCE2E2E2E2DCDCDCDCDCDCDCE2E2E2E2E2DCDCE2E2E2E2E2E2E2E2E2DCDCDCDCDCDCE2E2E2E2E2E2E2E2E2E2E2E2DCE2E2E2E2E2E2E2E2BEE2E2E2E2F5F5F5E2E2E2E2BEC3C3C3C3
310
C3C3C3C3C3C3C3E2E2E2E2E2E2E2E2E2E2E2BEBEBEBEBEE2E2BEE2E2E2E2E2E2E2E2E2E2E2E2E2E2E2E2E2E2E2E2E2E2E2E2E2E2E2E2E2E2E2E2E2E2BEE2E2E2E2E2E2E2E2E2E2E2E2E2E2E2E2E2E2E2E2E2E2E2E2E2E2E2E2E2E2E2E2E2E2E2BEE2E2E2E2E2E2E2E2E2E2E2DCE2E2E2E2DCDCDCDCDCDCDCE2E2E2E2E2DCDC
310
E2E2E2E2E2E2E2E2E2DCDCDCDCDCDCE2E2E2E2E2E2E2E2E2E2E2E2DCE2E2E2E2E2E2E2E2BEE2E2E2E2F5F5F5E2E2E2E2BEC3C3C3C3C3C3C3C3C3C3C3E2E2E2E2E2E2BEBEBEBEBEE2E2E2E2E2E2E2BEE2E2E2E2E2E2E2E2E2E2E2E2E2E2E2E2E2E2E2E2E2E2E2E2E2E2E2E2E2E2E2E2E2E2BEE2BEBEBEBEBEBEBEBEBEBEBEBE
310
E2BEBEBEBEBEBEBEBEBEBEBEBEBEE2BEBEBEBEBEBEE2BEE2E2E2E2E2E2E2E2E2E2E2DCE2DCDCDCDCDCDCE2DCDCDCDCDCDCDCDCDCDCE2E2E2E2E2E2E2E2E2DCDCDCDCDCDCE2E2E2E2E2E2E2E2E2E2E2E2DCE2E2E2E2E2E2E2E2BEE2E2E2E2F5F5F5E2F5E2E2BEC3C3C3C3C3C3C3C3C3C3C3E2BEBEBEBEBEE2E2E2E2E2E2E2E2
310
E2E2E2E2BEE2E2E2E2E2E2E2E2E2E2E2E2E2E2E2E2E2E2E2E2E2E2E2E2E2E2E2E2E2E2E2E2E2E2BEE2BEBEBEBEBEBEBEBEBEBEBEBEE2BEBEBEBEBEBEBEBEBEBEBEBEE2E2BEBEBEBEBEBEE2BEE2E2E2E2E2E2E2E2E2E2E2DCE2DCDCDCDCDCDCE2DCDCDCDCDCDCDCDCDCDCE2E2E2E2E2E2E2E2E2E2E2E2E2E2E2E2E2E2E2E2E2
310
E2E2E2E2E2E2DCE2E2E2E2E2E2E2E2BEE2E2F5E2F5F5F5E2F5E2E2BEE2E2E2E2E2E2E2BEBEBEBEBEE2E2E2E2E2E2C3C3C3C3C3C3C3C3C3C3E2BEE2E2E2E2E2E2E2E2E2E2E2E2E2E2C3C3C3C3C3C3E2E2E2E2E2E2E2E2E2E2E2E2E2E2BEE2BEBEBEBEBEBEBEBEBEBEBEBEE2BEBEBEBEBEBEE2BEBEBEBEBEE2E2BEBEBEBEBEBE
310
E2BEE2E2E2E2E2E2E2E2E2E2E2DCDCDCDCDCDCDCDCDCDCDCDCDCDCDCDCDCDCDCDCDCDCDCDCDCDCDCDCDCDCDCDCDCDCDCDCDCDCDCDCDCDCDCDCDCDCDCE2E2E2E2E2E2E2E2BEE2E2F5E2F5F5F5E2F5E2E2BEE2E2BEBEBEBEBEE2E2E2E2E2E2E2E2E2E2E2C3C3C3C3C3C3C3C3C3C3E2BEE2E2E2E2E2E2E2E2E2E2E2E2E2E2C3C3
310
C3C3C3C3E2E2E2E2E2E2E2E2E2E2E2E2E2E2BEE2E2E2E2E2E2E2E2E2E2E2E2E2E2E2E2E2E2E2E2E2E2E2E2E2E2E2E2E2E2E2E2E2E2E2BEE2E2E2E2E2E2E2E2E2E2E2E2E2E2E2E2E2E2E2E2E2E2E2E2E2E2E2E2E2E2E2E2E2E2E2E2E2E2E2E2E2E2E2E2E2E2E2E2E2E2E2E2E2E2E2E2E2E2E2E2E2E2E2E2E2E2BEE2E2F5E2F5
310
F5F5E2F5E2E2BEBEBEBEBEBEBEBEBEBEBEBEBEBEBEBEBEBEBEBEBEBEBEBEBEBEBEBEBEBEBEBEBEBEBEBEBEBEBEBEBEBEBEBEBEBEBEBEBEBEBEBEBEBEBEBEBEBEBEBEBEBEBEBEBEBEBEBEBEBEBEBEBEBEBEBEBEBEBEBEBEBEBEBEBEBEBEBEBEBEBEBEBEBEBEBEBEBEBEBEBEBEBEBEBEBEBEBEBEBEBEBEBEBEBEBEBEBEBEBEBE
310
BEBEBEBEBEBEBEBEBEBEBEBEBEBEBEBEBEBEBEBEBEBEBEBEBEBEBEBEBEBEBEBEBEBEBEBEBEBEBEBEBEBEBEBEBEBEBEBEE2E2F5E2F5F5F5E2F5E2E2BEE2E2E2E2E2E2E2E2E2E2E2E2E2E2E2E2E2E2E2E2E2E2E2E2E2E2E2E2E2E2E2E2E2E2E2E2E2E2E2E2E2E2E2E2E2E2E2E2E2E2E2E2E2E2E2E2E2E2E2E2E2E2E2E2E2E2E2
310
E2E2E2E2E2E2E2E2E2E2E2E2E2E2E2E2E2E2E2E2E2E2E2E2E2E2E2E2E2E2E2E2E2E2E2E2E2E2E2E2E2E2E2E2E2E2E2E2E2E2E2E2E2E2E2E2E2E2E2E2E2E2E2E2E2E2E2E2E2E2E2E2E2E2E2E2E2E2E2E2E2E2E2E2E2E2E2E2E2E2E2E2E2E2E2E2E2E2E2E2BEE2E2F5E2F5F5F5E2F5E2E2BEE2E2E2E2E2E2E2E2E2E2E2E2E2E2
310
E2E2E2E2E2E2E2E2E2E2E2E2E2E2E2E2E2E2E2E2E2E2E2E2E2E2E2E2E2E2E2E2E2E2E2E2E2E2E2E2E2E2E2E2E2E2E2E2E2E2E2E2E2E2E2E2E2E2E2E2E2E2E2E2E2E2E2E2E2E2E2E2E2E2E2E2E2E2E2E2E2E2E2E2E2E2E2E2E2E2E2E2E2E2E2E2E2E2E2E2E2E2E2E2E2E2E2E2E2E2E2E2E2E2E2E2E2E2E2E2E2E2E2E2E2E2E2
310
E2E2E2E2E2E2E2E2E2E2E2E2E2E2E2E2E2E2E2E2E2E2E2E2E2E2BEE2E2F5E2F5F5F5E2F5E2E2BEE2E2E2E2E2E2E2E2E2E2E2E2E2E2E2E2E2E2E2E2E2E2E2E2E2E2E2E2E2E2E2E2E2E2E2E2E2E2E2E2E2E2E2E2E2E2E2E2E2E2E2E2E2E2E2E2E2E2E2E2E2E2E2E2E2E2E2E2E2E2E2E2E2E2E2E2E2E2E2E2E2E2E2E2E2E2E2E2
310
E2E2E2E2E2E2E2E2E2E2E2E2E2E2E2E2E2E2E2E2E2E2E2E2E2E2E2E2E2E2E2E2E2E2E2E2E2E2E2E2E2E2E2E2E2E2E2E2E2E2E2E2E2E2E2E2E2E2E2E2E2E2E2E2E2E2E2E2E2E2E2E2E2E2E2E2E2E2E2BEE2E2F5E2F5F5F5E2F5E2E2BEE2E2E2E2E2E2E2E2E2E2E2E2E2E2E2E2E2E2E2E2E2E2E2E2E2E2E2E2E2E2E2E2E2E2E2
310
E2E2E2E2E2E2E2E2E2E2E2E2E2E2E2E2E2E2E2E2E2E2E2E2E2E2E2E2E2E2E2E2E2E2E2E2E2E2E2E2E2E2E2E2E2E2E2E2E2E2E2E2E2E2E2E2E2E2E2E2E2E2E2E2E2282828282828282828282828282828E2E2E2E2E2E2E2E2E2E2E2E2E2E2E2E2E2E2E2E2E2E2E2E2E2E2E2E2E2E2E2E2E2E2E2E2E2E2E2E2E2E2E2E2E2E2E2
310
E2E2E2E2E2BEE2E2F5E2F5F5F5E2F5E2E2BEE2E2E2E2E2E2E2E2E2E2E2E2E2E2E2E2E2E2E2E2E2E2E2E2E2E2E2E2E2E2E2E2E2E2E2E2E2E2E2E2E2E2E2E2E2E2E2E2E2E2E2E2E2E2E2E2E2E2E2E2E2E2E2E2E2E2E2E2E2E2E2E2E2E2E2E2E2E2E2E2E2E2E2E2E2E2E2E2E2E2E2E2E2E2E2E2E2E2E228C3C3C3C3C3C3C3C3C3
310
C3C3C3E2E2E2E2E2E2E2E2E2E2E2E2E2E2E2E2E2E2E2E2E2E2E2E2E2E2E2E2E2E2E2E2E2E2E2E2E2E2E2E2E2E2E2E2E2E2E2E2E2E2E2E2E2E2E2BEE2E2F5E2F5F5F5E2F5E2E2BEE2E2E2E2E2E2E2E2E2E2E2E2E2E2E2E2E2E2E2E2E2E2E2E2E2E2E2E2E2E2E2E2E2E2E2E2E2E2E2E2E2E2E2E2E2E2E2E2E2E2E2E2E2E2E2E2
310
E2E2E2E2E2E2E2E2E2E2E2E2E2E2E2E2E2E2E2E2E2E2E2E2E2E2E2E2E2E2E2E2E2E2E2E2E2E2E2E2E2E2E228C3C3C3C3C3C3C3C3C3C3C3C3C3C3E2E2E2E2E2E2E2E2E2E2E2E2E2E2E2E2E2E2E2E2E2E2E2E2E2E2E2E2E2E2E2E2E2E2E2E2E2E2E2E2E2E2E2E2E2E2E2E2E2E2E2E2E2BEE2E2F5E2F5F5F5E2F5E2E2BEE2E2E2
310
E2E2E2E2E2E2E2E2E2E2E2E2E2E2E2E2E2E2E2E2E2E2E2E2E2E2E2E2E2E2E2E2E2E2E2E2E2E2E2E2E2E2E2E2E2E2E2E2E2E2E2E2E2E2E2E2E2E2E2E2E2E2E2E2E2E2E2E2E2E2E2E2E2E2E2E2E2E2E2E2E2E2E2E2E2E2E2E2E2E2E2E2E2E2E228E2C3C3C3C3C3C3C3C3C3C3C3C3C3C3E2E2E2E2E2E2E2E2E2E2E2E2E2E2E2E2
310
E2E2E2E2E2E2E2E2E2E2E2E2E2E2E2E2E2E2E2E2E2E2E2E2E2E2E2E2E2E2E2E2E2E2E2E2E2BEE2E2F5E2F5F5F5E2F5E2E2BEE2E2E2E2E2E2E2E2E2E2E2E2E2E2E2E2E2E2E2E2E2E2E2E2E2E2E2E2E2E2E2E2E2E2E2E2E2E2E2E2E2E2E2E2E2E2E2E2E2E2E2E2E2E2E2E2E2E2E2E2E2E2E2E2E2E2E2E2E2E2E2E2E2E2E2E2E2
310
E2E2E2E2E2E2E2E2E2E2E2E2E2E2E2E2E2E2E2E2E228E2C3C3C3C3C3C3C3C3C3C3C3C3C3C3E2E2E2E2E2E2E2E2E2E2E2E2E2E2E2E2E2E2E2E2E2E2E2E2E2E2E2E2E2E2E2E2E2E2E2E2E2E2E2E2E2E2E2E2E2E2E2E2E2E2E2E2E2BEE2E2F5E2F5F5F5E2F5E2E2BEE2E2E2E2E2E2E2E2E2E2E2E2E2E2E2E2E2E2E2E2E2E2E2E2
310
E2E2E2E2E2E2E2E2E2E2E2E2E2E2E2E2E2E2E2E2E2E2E2E2E2E2E2E2E2E2E2E2E2E2E2E2E2E2E2E2E2E2E2E2E2E2E2E2E2E2E2E2E2E2E2E2E2E2E2E2E2E2E2E2E2E2E2E2E2E2E2E2E228E2E2E2E2E2E22828282828282828282828282828282828E2E2E2E2E2E2E2E2E2E2E2E2E2E2E2E2E2E2E2E2E2E2E2E2E2E2E2E2E2E2
310
E2E2E2E2E2E2E2E2E2E2E2E2E2E2E2E2BEE2E2F5E2F5F5F5E2F5E2E2BEE2E2E2E2E2E2E2E2E2E2E2E2E2E2E2E2E2E2E2E2E2E2E2E2E2E2E2E2E2E2E2E2E2E2E2E2E2E2E2E2E2E2E2E2E2E2E2E2E2E2E2E2E2E2E2E2E2E2E2E2E2E2E2E2E2E2E2E2E2E2E2E2E2E2E2E2E2E2E2E2E2E2E2E2E2E2E2E2E2E2E2E2E2E2E2E2E228
310
E2E2E2E2E2E2C3C3C3C3C3C3C3C3C3C3C3C3C3C3E2E2E2E2E2E2E2E2E2E2E2E2E2E2E2E2E2E2E2E2E2E2E2E2E2E2E2E2E2E2E2E2E2E2E2E2E2E2E2E2E2E2E2E2E2E2E2E2E2BEE2E2F5E2F5F5F5E2F5E2E2BEE2E2E2E2E2E2E2E2E2E2E2E2E2E2E2E2E2E2E2E2E2E2E2E2E2E2E2E2E2E2E2E2E2E2E2E2E2E2E2E2E2E2E2E2E2
310
E2E2E2E2E2E2E2E2E2E2E2E2E2E2E2E2E2E2E2C3C3E2E228E2E2E2E2E2E2E2E2E2E2E2E2E2E2E2E2E2E2E2E2E2E2E2E2E2E2E228E2E2E2E2E2E228C3C3C3C3C3C3C3C3C3C3C3C3C3C3E2E2E2E2E2E2E2E2E2E2E2E2E2E2E2E2E2E2E2E2E2E2E2E2E2E2E2E2E2E2E2E2E2E2E2E2E2E2E2E2E2E2E2E2E2E2E2E2E2BEE2E2F5E2
310
F5F5F5E2F5E2E2BEE2E2E2E2E2E2E2E2E2E2E2E2E2E2E2E2C3C3C3C3C3C3C3E2E2E2E2E2E2E2E2E2E2E2E2E2E2E2E2E2E2E2E2E2E2E2E2E2E2E2E2E2E2E2E2282828282828282828282828E228E2E2E2E2E2E2E2E2E2E2E2E2E2E2E2E2E2E2E2E2E2E2E2E2E2E2E228E2E2E2E2E2E228C3C3C3C3C3C3C3C3E2E2E2E2E2E2E2
310
E2E2E2E2E2E2E2E2E2E2E2E2E2E2E2E2E2E2E2E2E2E2E2E2E2E2E2E2E2E2E2E2E2E2E2E2E2E2E2E2E2E2E2E2E2E2E2E2BEE2E2F5E2F5F5F5E2E2E2E2BEE2E2E2E2E2E2E2E2E2E2E2E2E2E2E2E2C3C3C3C3C3C3C3E2E2E2E2E2E2E2E2E2E2E2E2E228E2E2E2E2E2E2E2E2E2E2E2E2E2E2E2E2E2E228E2C3E228C3C3C328C3C3
310
282828E2E2E2E2E2E2E2E2E2E2E2E2E2E2E2E2E2E2E2E2E2E2E2E2E2E228E2E2E2E2E2E2E228C3C3C3C3C3C3C3C3E2E2E2E2E2E2E2E2E2E2E2E2E2E228E2E2E2E2E2E2E2E2E2E2E2E2E2E2E2E2E2E2E2E2E2E2E2E2E2E2E2E2E2E2E2E2E2E2E2E2E2E2E2E2BEE2E2E2E2F5F5F5E2E2E2E2BEE2E2E2E2E2E2E2E2E2E2E2E2E2
310
E2E228C3C3C328282828E2E2E2E2E2E2E2E2E2E2E2E2E22828E2E2E2E2E2E2E2E2E2E2E2E2E2E2E2E2E2282828282828282828282828E228E2E2E2E2E2E2E2E2E2E2E2E2E2E2E2E2E2E2E2E2E2E2E2E2E2E228E2E2E2E2BEBEBEBEC3C3C3C3C3C3C3C3C3C3E2E2E2E2E2E2E2E2E2E2E22828E2E2E2E2E2E2E2E2E2E2E2E2E2
310
E2E2E2E2E2E2E2E2E2E2E2E2E2E2E2E2E2E2E2E2E2E2E2E2E2E2E2BEE2E2E2E2F5F5F5E2E2E2E2BEE2E2E2E2E2E2E2E2E2E2E2E2E2E2E2E2C3C3C3E2E2E2E228E2BEBEBEBEBEBE28282828282828E2E2E2E2E2E2E2E2E2E2E2E2E2E2E2E2E2E2E2E2E2E2E2E2E2E2E2E2E2E228E2E2E2E2E2E2E2E2E2E2E2E2E2E2E2E2E2E2
310
BEBEBEBEBEBEE22828E2E2E2E2BE2828BEC3C3C3C3C3C3C3C3C3C3E2E2E2E2E2E2E2E2E2E2282828E2E2E2E2E2BEBEBEBEBEBEBEE2E2E2E2E2E2E2E2E2E2E2E2E2E2E2E2E2E2E2E2E2E2E2E2E2E2E2E2BEE2E2E2E2F5F5F5E2E2E2E2BEE2E2E2E2E2E2E2E2E2E2E2E2E2E2E2E2E2E2E2E2E2E2E228ECBEBEBEECBEBEBE2828
310
28282828E2E2E2E2E2E2E2E2E2E2E2E2E2E2E2E2E2E2E2E2E2E2E2E2E2E2E2E2E2E228BEBEBEBEBEBEBEBEBEBEBEBEBEBEBEBEBEBEBEBEBEBEBEBEBEBEBEBEBEBEBEBE28E2BEC3C3C3C3C3C3C3C3C3C3E2E2E2E2E2E2E2E2E2E2C3C3C328E2E2E2BEBEBEBEBEBEBEBEBEE2E2E2E2E2E2E2E2E2E2E2E2E2E2E2E2E2E2E2E2E2
310
E2E2E2E2E2E2BEE2E2E2E2F5F5F5E2E2E2E2BEE2E2E2E2E2E2E2E2E2E2E2E2E2E2E2E2E2E2E2E2E2E2E2EC28ECE2E2ECE2E2ECECECE2E22828E2E2E2E2E2E2E2E2E2E2E2E2E2E2E228282828282828282828282828282828E2E2BEE2E2E2E2E2E2E2E2E2E2E2E2E2E2E2BEE2ECBEBEBEBEBEBEBEBEBEBEBEE2E2BEC3C3C3C3
310
C3C3C3C3C3C3C3C3C3C3C3E2E2E2E2E228C3C32828E2BEBEBEBEBEBEBE2828282828282828E2E2E2E2E2E2E2E2E2E2E2E2E2E2E2E2E2E2E2E2E2E2BEE2E2E2E2F5F5F5E2E2E2E2BEE2E2E2E2E2E2E2E2E2E2E2E2E2E2E2E2E2E2E2E2E2E2E2BEBEE2BEBEECBEBEBEECBEE2E22828E2E2E2E2E2E2E2E2E2E2E2E2E2E2E2E228
310
E2E2E228E2E2E2E2E2E2E2E2E2BEE2E2BEE2E2E2E2E2E2E2E2E2E2E2E2E2E2E2BEE2E2BEBEE2E2E2E2E2E2E228BEBEBEBEC3C3C3C3C3C3C3C3C3C3C3C3C3C3C3E2E2E2E2E2C3C3E2E2E22828BEBEE2E2ECE2E2BEBEBEE2E22828E2E2E2E2E2E2E2E2E2E2E2E2E2E2E2E2E2E2E2E2E2E2BEE2E2E2E2F5F5F5E2E2E2E2BEE2E2
310
E2E2E2E2E2E2E2E2E2E2E2E2E2E2E2E2E2E2E2E2E2BEE2BEE2E2ECE2E2BEE2BEC3C328E2E2E2E2E2E2E2E2E2E2E2E2E2E2E2E2E228E2E2E22828E2E2E2E2E2E2E2E2BEE2E2BEE2E2E2E2E2E2E2E2E2E2E2E2E2E2E2BEE2E2BEBEE2E2E2E2E2E2E22828E2E2E2E2E2E2E2E2E2E2E2E2E2E2E2E2E2E2E2E2E2E2C3C3C3E2E2E2
310
E2BEECE2BEECECECECE2E2BEE2E22828E2E2E2E2E2E2E2E2E2E2E2E2E2E2E2E2E2E2E2E2E2E2BEE2E2E2E2F5F5F5E2E2E2E2BEE2E2E2E2E2E2E2E2E2E2E2E2E2E2E2E2E2E2E2E2E2E2E2BEE2BEE2BEECBEE2BEE2BEC3C328E2E2E2E2E2E2E2E2E2E2E2E2E2E2E2E2E228E2E2E228282828BEBEBEBEBEBEBEE2E2BEE2E2E2E2
310
E2E2E2E2E2E2E2E2E2E2E2BEE2E2BEBEBEBEBEBE2828282828E2E2E2E2E2E2E2E2E2E2E2E2E2E2E2E2E2E2E2E2E2E2C3C3E2E2E2E2E2BEE2ECECECBEBEECE2E2BEC3C328E2E2E2E2E2E2E2E2E2E2E2E2E2E2E2E2E2E2E2E2E2E2E2BEE2E2E2E2F5F5F5E2F5E2E2BEE2E2E2E2E2E2E2E2E2E2E2E2E2E2E2E2E2E2E2E2E2E2EC
310
BEBEECECBEECBEECBEECBEC3C328E2E2E2E2E2E2E2E2E2E2E2E2E2E2E2E2E228E2E2E228E2ECBEECECECECECECBEECECBEECECECECECECECECECECECECECECECBEECECBEBEECE228BEE2E2E228E2E2E2E2E2E2E2E2E2E2E2E2E2E2E2E2E2E2E2E2E2E2E22828282828282828ECEC28BEECBEEC28ECBE28C328E2E2E2E2E2E2
310
E2E2E2E2E2E2E2E2E2E2E2E2E2E2E2E2E2BEE2E2F5E2F5F5F5E2F5E2E2BEE2E2E2E2E2E2E2E2E2E2E2E2E2E2E2E2E2E2E2E2E2E2E2BEE2BEE2BEECBEE2BEE2BEE2E228E2E2E2E2E2E2E2E2E2E2E2E2E2E2E2E2E228E2E2E228282828BE282828BEBEBEE2E2BEE2E2E2E2E2E2E2E2E2E2E2E2E2E2E2BEE2E2BEBEBEBEBEBE28
310
28282828E2E2C3C3C3C3C3C3C3C3C3C3C3E2E2E2E2E2E2E2E2E22828E2E2E2E2E2BE28E228E2BEEC2828E2BEE2E228E2E2E2E2E2E2E2E2E2E2E2E2E2E2E2E2E2E2E2E2E2E2E2BEE2E2F5E2F5F5F5E2F5E2E2BEE2E2E2E2E2E2E2E2E2E2E2E2E2E2E2E2E2E2E2E2E2E2E2BEE2BEE2E2ECE2E2BEE2BEE2E2E2E2E2E2E2E2E2E2
310
E2E2E2E2E2E2E2E2E2E228E2E2E22828E228E2E228E2E2E2BEE2E2BEE2E2E2E2E2E2E2E2E2E2E2E2E2E2E2BEE2E2BEBEE2E2E22828E2E22828E2E2C3C3C3C3C3C3C3C3C3C3C3E2E2E2E2E2E2E2E2E2E228E2E2E2E2E2BEBEE228ECECECBE28ECBEE2E228E2E2E2E2E2E2E2E2E2E2E2E2E2E2E2E2E2E2E2E2E2E2E2BEE2E2F5
310
E2F5F5F5E2F5E2E2BEE2E2E2E2E2E2E2E2E2E2E2E2E2E2E2E2E2E2E2E2E2E2E2BEBEE2BEBEECBEBEBEECBEE2E2E2E2E2E2E2E2E2E2E2E2E2E2E2E2E2E2E228282828282828282828282828282828E2E2BEE2E2E2E2E2E2E2E2E2E2E2E2E2E2E2BEE2E2BEBEE2E2E228E228E228E2E2E2C3C3C3C3C3C3C3C3C3C3C3C3C3C3C3
310
C3C3C3E2E2E228E2E2E2E228BEBEBE28E2ECE2E2282828E2E22828E2E2E2E2E2E2E2E2E2E2E2E2E2E2E2E2E2E2E2E2E2E2BEE2E2F5E2F5F5F5E2F5E2E2BEE2E2E2E2E2E2E2E2E2E2E2E2E2E2E2E2E2E2E2E2E2E2E228ECECE2E2ECE2E2ECEC28E2E2E2E2E2E2E2E2E2E2E2E2E2E2E2E2E2E2E2E228E2E2E228E2E228E2E228
310
E2E2E2BEE2E2BEE2E2E2E2E2E2E2E2E2E2E2E2E2E2E2BEE2ECBEBEE2E2E228E2E22828E2E2E2C3C3C3C3C3C3C3C3C3C3C3C3C3C3C3C3C3C3E2E2E2E2E2E2E2E228BEBEBE28E2ECE2E22828BEE2E22828E2E2E2E2E2E2E2E2E2E2E2E2E2E2E2E2E2E2E2E2E2E2BEE2E2F5E2F5F5F5E2F5E2E2BEE2E2E2E2E2E2E2E2E2E2E2E2
310
E2E2E2E2E2E2E2E2E2E2E22828BEBEBEECBEBEBE2828E2E2E2E2E2E2E2E2E2E2E2E2E2E2E2E2E2C3C3E228C3C3C328E2E228E2C328C3E2E2BEBEBEBEBEBEBEBEBEBEBEBEBEBEBEBEBEBEBEBEBEBEBEBEE2E2E228E2E2E228E2E2E2C3C3C3C3C3C3C3C3C3C3C3C3C3C3C3C3C3C3E228282828282828E2E2BEBEBEBEBEBEBEBE
310
282828282828E2E2E2E2E2E2E2E2E2E2E2E2E2E2E2E2E2E2E2E2E2E2BEE2E2F5E2F5F5F5E2F5E2E2BEE2E2E2E2E2E2E2E2E2E2E2E2E2E2E2E2E2E2E2E2E2E2E22828E2E2E2ECE2E2E22828E2E2E2E2E2E2E2E2E2E2E2E2E2E2E2E2E2C3C3E228C3C3C328E2E228E2282828E2E228E2E2E2E2E2E2E2E2E2E2E2E2E2E2E2E2E2
310
E2E2E2E2E228E2E2E228C3C3C3282828E2C3C3C3C3C3C3C3C3C3C3C3C3C3C3E2E2E2E2E2E2E2E2E2E2E2E2E2E2E2E228E2ECE2E228E228E2E2E2E2E2E2E2E2E2E2E2E2E2E2E2E2E2E2E2E2E2E2E2E2E2E2BEE2E2F5E2F5F5F5E2F5E2E2BEE2E2E2E2E2E2E2E2E2E2E2E2E2E2E2E2E2E2E2E2E2E2E22828E2E2E2E2E2E2E228
310
28E2E2E2E2E2E2E2E2E2E2E2E2E2E2E2E2E2C3C3E228C3C3C328E2E228E228C328E2E228E2E2E2E2E2E2E2E2E2E2E2E2E2E2E2E2E2E2E2E2E2E228E2E2E228C3C3C328E22828C3C3C3C3C3C3C3C3C3C3C3C3C3C3E2E2E2E2E2E2E2C3C3C3C32828282828282828282828E2C3C3C3C3C3C32828E2E2E2E2E2E2E2E2E2E2E2E2
310
E2E2E2E2E2E2E2BEE2E2F5E2F5F5F5E2F5E2E2BEE2E2E2E2E2E2E2E2E2E2E2E2E2E2E2E2E2E2E2E2E2E2E228C3C3C3C3C3C3C3C32828E2E2E2E2E2E2E2E2E2E2E2E2E2E2E2E2E2C3C3E228C3C3C328E2E228E228E228E2E228E2E2E2E2E2E2E2E2E2E2E2E2E2E2E2E2E2E2E2E2E2E228E2E2E228C3C3C328E2E2E2C3C3C3C3
310
C3C3C3C3C3C3C3C3E2E2E2E2E2E2E2E2E2C3C3C3C3C3C3C3E2E22828E2282828E2C3C3C3C3C3C3E2E2E2E2E2E2E2E2E2E2E2E2E2E2E2E2E2E2E2E2E2BEE2E2F5E2F5F5F5E2F5E2E2BEE2E2E2E2E2E2E2E2E2E2E2E2E2E2E2E2E2E2E2E2E2E2E228C3E2C3C3C3C3C3C3E228E2E2E2E2E2E2E2E2E2E2E2E2E2E2E2E2E2C3C3C3
310
28E2C3C328E2E228E2282828E2E228E2E2E2E2E2E2E2E2E2E2E2E2E2E2E2E2E2E2E2E2E2E228E2E2E228C3C3C328E2E2E2C3C3C3C3C3C3C3C3C3C3C3C3E2E2E2E2E2E2E2E2E2C3C3C3C3E2E2E2E2E2E2E2E2E2E2E2E2E2E2E2E2E2E2E2E2E2E2E2E2E2E2E2E2E2E2E2E2E2E2E2E2E2E2E2BEE2E2F5E2F5F5F5E2F5E2E2BEE2
310
E2E2E2E2E2E2E2E2E2E2E2E2E2E2E2E2E2E2E2E2E2E228C3C3C3E2E2E2E2E2E228E2E2E2E2E2E2E2E2E2E2E2E2E2E2E2E2E2E2C3C328E2C3C328E2E228E2E2E2E2E2E228E2E2E2E2E2E2E2E2E2E2E2E2E2E2E2E2E2E2E2E2E2E228E2E2E228E2C3C328E2E2E2E2E2E2E2E2E2E2E2E2E2E2E2E2E2E2E2E2E2E2E2E2E2E2E2E2
310
E2E2E2E2E2E2E2E2E2E2E2E2E2E2E2E2E2E2E2E2E2E2E2E2E2E2E2E2E2E2E2E2E2E2E2E2E2E2E2BEE2E2F5E2F5F5F5E2F5E2E2BEE2E2E2E2E2E2E2E2E2E2E2E2E2E2E2E2E2E2E2E2E2E2E228282828C3C3C328282828E2E2E2E2E2E2E2E2E2E2E2E2E2E2E2E2E2E2C3C328E2C3C328E2E228E2E2E2282828282828C3C3C328
310
28E2E2E2E2E2E2E2E2E2E2E2E2E2E2E228E2E2E228E2C3C328E2E2E2E2E2E2E2E2E2E2E2E2E2E2E2E2E2E2E2E2E2E2E2E2E2E2E2E2E2E2E2E2E2E2E2E2E2E2E2E2E2E2E2E2E2E2E2E2E2E2E2E2E2E2E2E2E2E2E2E2E2E2E2E2E2E2E2BEE2E2F5E2F5F5F5E2F5E2E2BEE2E2E2E2E2E2E2E2E2E2E2E2E2E2E2E2E2E2E2E2E2E2
310
E228E2E2C3C3C3C3E2E2E228E2E2E2E2E2E2E2E2E2E2E2E2E2E2E2E2E2E2C3C328E2E2E228E2E228E2E2E2E22828282828C3C3C3E2E2E2E2E2E2E2E2E2E2E2E2E2E2E2E2E228E2E2E228E2C3C328E2E2E2E2E2E2E2E2E2E2E2E2E2E2E2E2E2E2E2E2E2E2E2E2E2E2E2E2E2E2E2E2E2E2E2E2E2E2E2E2E2E2E2E2E2E2E2E2E2
310
E2E2E2E2E2E2E2E2E2E2E2E2E2E2E2E2E2E2BEE2E2F5E2F5F5F5E2F5E2E2BEE2E2E2E2E2E2E2E2E2E2E2E2E2E2E2E2E2E2E2E2E2E2E2E2E2E2C3C3E2E2E2E2E2E2E2E2E2E2E2E2E2E2E2E2E2E2E2E2E2E2E228282828E2E2E228E2E228E2E2E2E2E2E228E2E2C3C3C3E2E2E2E2E2E2E2E2E2E2E2E2E2E2E2E2E228E2E2E228
310
E2E2E228E2E2E2E2E2E2E2E2E2E2E2E2E2E2E2E2E2E2E2E2E2E2E2E2E2E2E2E2E2E2E2E2E2E2E2E2E2E2E2E2E2E2E2E2E2E2E2E2E2E2E2E2E2E2E2E2E2E2E2E2E2E2E2E2E2E2E2BEE2E2F5E2F5F5F5E2F5E2E2BEE2E2E2E2E2E2E2E2E2E2E2E2E2E2E2E2E2E2E2E2E2E2E2E2E2E2E2E2E2E2E2E2E2E2E2E2E2E2E2E2E2E2E2
310
E2E2E2E2E2E2E2E228C3C328E2E2E228E2E228282828282828282828282828282828282828282828282828282828282828282828282828282828282828E2E2E2E2E2E2E2E2E2E2E2E2E2E2E2E2E2E2E2E2E2E2E2E2E2E2E2E2E2E2E2E2E2E2E2E2E2E2E2E2E2E2E2E2E2E2E2E2E2E2E2E2E2E2E2E2E2E2E2E2E2E2E2BEE2E2
310
F5E2F5F5F5E2F5E2E2BEE2E2E2E2E2E2E2E2E2E2E2E2E2E2E2E2E2E2E2E2E2E2E2E2E2E2E2E2E2E2E2E2E2E2E2E2E2E2E2E2E2E2E2E2E2E2E2E2E2E2E228C3C328E2E2E228E2E22828C3C3C3C328282828E2E2E2E2C3C3C3E2E2E2E2E2E2E2E2E2E2E228282828E22828E2C3C3C3C3C3C3E2E2E2E2E2E2E2E2E2E2E2E2E2E2
310
E2E2E2E2E2E2E2E2E2E2E2E2E2E2E2E2E2E2E2E2E2E2E2E2E2E2E2E2E2E2E2E2E2E2E2E2E2E2E2E2E2E2E2E2E2E2E2E2E2E2BEE2E2F5E2F5F5F5E2E2E2E2BEE2E2E2E2E2E2E2E2E2E2E2E2E2E2E2E2E2E2E2E2E2E2E2E2E2E2E2E2E2E2E2E2E2E2E2E2E2E2E2E2E2E2E2E2E2E2E2E2E2E2E228282828E2E2E228E2E2E2E2C3
310
C3C3C3E2E2E2E2E2E2E2E2C3C3C3E2E2E2E2E2E2E2E2E2E2E2E2E2E2E2E2E2E2E2C3C3C3C3C3C3E2E2E2E2E2E2E2E2E2E2E2E2E2E2E2E2E2E2E2E2E2E2E2E2E2E2E2E2E2E2E2E2E2E2E2E2E2E2E2E2E2E2E2E2E2E2E2E2E2E2E2E2E2E2E2E2E2E2E2E2E2E2E2E2BEE2E2E2E2F5F5F5E2E2E2E2BEE2E2E2E2E2E2E2E2E2E2E2
310
E2E2E2E2E2E2E2E2E2E2E2E2E2E2E2E2E2E2E2E2E2E2E2E2E2E2E2E2E2E2E2E2E2E2E2E2E2E2E2E228C3C32828282828E2E2E2E2E2E2E2E2E2E2E2E2E2E2E2E2E2E2E2E2E2E2E2E2E2E2E2E2E2E2E2E2E2E2E2E2E2E2E2E2E2E2E2E2E2E2E2E2E2E2E2E2E2E2E2E2E2E2E2E2E2E2E2E2E2E2E2E2E2E2E2E2E2E2E2E2E2E2E2
310
E2E2E2E2E2E2E2E2E2E2E2E2E2E2E2E2E2E2E2E2E2E2E2E2E2E2E2E2E2BEE2E2E2E2F5F5F5E2E2E2E2BEE2E2E2E2E2E2E2E2E2E2E2E2E2E2E2E2E2E2E2E2E2E2E2E2E2E2E2E2E2E2E2E2E2E2E2E2E2E2E2E2E2E2E2E2E2E2E2E2E2E2E228C3C32828C3E228E2E2E2E2E2E2E2E2E2E2E2E2E2E2E2E2E2E2E2E2E2E2E2E2E2E2
310
E2E2E2E2E2E2E2E2E2E2E2E2E2E2E2E2E2E2E2E2E2E2E2E2E2E2E2E2E2E2E2E2E2E2E2E2E2E2E2E2E2E2E2E2E2E2E2E2E2E2E2E2E2E2E2E2E2E2E2E2E2E2E2E2E2E2E2E2E2E2E2E2E2E2E2E2E2E2E2E2E2E2BEE2E2E2E2F5F5F5E2E2E2E2BEE2E2E2E2E2E2E2E2E2E2E2E2E2E2E2E2E2E2E2E2E2E2E2E2E2E2E2E2E2E2E2E2
310
E2E2E2E2E2E2E2E2E2E2E2E2E2E2E2E2E2E2E228C3C32828C3C328E2E2E2E2E2E2E2E2E2E2E2E2E2E2E2E2E2E2E2E2E2E2E2E2E2E2E2E2E2E2E2E2E2E2E2E2E2E2E2E2E2E2E2E2E2E2E2E2E2E2E2E2E2E2E2E2E2E2E2E2E2E2E2E2E2E2E2E2E2E2E2E2E2E2E2E2E2E2E2E2E2E2E2E2E2E2E2E2E2E2E2E2E2E2E2E2E2E2E2E2
310
E2E2E2E2E2E2E2E2BEE2E2E2E2F5F5F5E2E2E2E2BEE2E2E2E2E2E2E2E2E2E2E2E2E2E2E2E2E22828282828282828282828282828282828282828282828282828E2E2E2E2E2E2E2E228C3C32828282828E2E2E2E2E2E2E2E2E2E2E2E2E2E2E2E2E2E2E2282828282828282828E2E2E2E2E2E2E2E2E2E2E2E2E2E2E2E2E2E2E2
310
E2E2E2E2E2E2E2E2E2E2E2E2E2E2E2E2E2E2E2E2E2E228282828282828282828E2E2E2E2E2E2E2E2E2E2E2E2E2E2E2E2E2E2E2E2E2E2E2E2E2E2E2E2E2BEE2E2E2E2F5F5F5E2E2E2E2BEE2E2E2E2E2E2E2E2E2E2E2E2E2E2E2E2E22828282828282828282828282828282828282828282828282828E2E2E2E2E2E2E2E228C3
310
C32828C3C328E2E2E2E2E2E2E2E2E2E2E2E2E2E2E2E2E2E2E2282828282828282828E2E2E2E2E2E2E2E2E2E2E2E2E2E2E2E2E2E2E2E2E2E2E2E2E2E2E2E2E2E2E2E2E2E2E2E2E2E2E2E2E228282828282828282828E2E2E2E2E2E2E2E2E2E2E2E2E2E2E2E2E2E2E2E2E2E2E2E2E2E2E2E2E2BEE2E2E2E2F5F5F5E2E2E2E2BE
310
E2E2E2E2E2E2E2E2E2E2E2E2E2E2E2E2E2E2E2E2E2E2E2E2E2E2E2E2E2E2E2E2E2E2E2E2E2E2E2E2E2E2E2E2E2E2E2E2E2E2E228C3C32828C3C328E2E2E2E2E2E2E2E2E2E2E2E2E2E2E2E2E2E2E2E2E2E2E2E2E2E2E2E2E2E2E2E2E2E2E2E2E2E2E2E2E2E2E2E2E2E2E2E2E2E2E2E2E2E2E2E2E2E2E2E2E2E2E2E2E2E2E2E2
310
E2E2E2E2E2E2E2E2E2E2E2E2E2E2E2E2E2E2E2E2E2E2E2E2E2E2E2E2E2E2E2E2E2E2E2E2E2E2E2E2BEE2E2E2E2F5F5F5E2E2E2E2BEE2E2E2E2E2E2E2E2E2E2E2E2E2E2E2E2E2E2E2E2E2E2E2E2E2E2E2E2E2E2E2E2E2E2E2E2E2E2E2E2E2E2E2E2E2E2E2E2E2E2E228C3C32828C3C328E2E2E2E2E2E2E2E2E2E2E2E2E2E2E2
310
E2E2E2E2E2E2E2E2E2E2E2E2E2E2E2E2E2E2E2E2E2E2E2E2E2E2E2E2E2E2E2E2E2E2E2E2E2E2E2E2E2E2E2E2E2E2E2E2E2E2E2E2E2E2E2E2E2E2E2E2E2E2E2E2E2E2E2E2E2E2E2E2E2E2E2E2E2E2E2E2E2E2E2E2E2E2E2E2E2E2E2E2E2BEE2E2E2E2F5F5F5E2E2E2E2BEE2E2E2E2E2E2E2E2E2E2E2E2E2E2E2E2E2E2E2E2E2
310
E2E2E2E2E2E2E2E2E2E2E2E2E2E2E2E2E2E2E2E2E2E2E2E2E2E2E2E2E2E228C3C32828C3C328E2E2E2E2E2E2E2E2E2E2E2E2E2E2E2E2E2E2E2E2E2E2E2E2E2E2E2E2E2E2E2E2E2E2E2E2E2E2E2E2E2E2E2E2E2E2E2E2E2E2E2E2E2E2E2E2E2E2E2E2E2E2E2E2E2E2E2E2E2E2E2E2E2E2E2E2E2E2E2E2E2E2E2E2E2E2E2E2E2
310
E2E2E2E2E2E2E2E2E2E2E2E2E2E2E2E2E2E2E2BEE2E2E2E2F5F5F5E2F5E2E2BEE2E2E2E2E2E2E2E2E2E2E2E2E2E2E2E2E2E2E2E2E2E2E2E2E2E2E2E2E2E2E2E2E2E2E2E2E2E2E2E2E2E2E2E2E2E2E2E2E2E2E22828282828282828E2E2E2E2E2E2E2E2E2E2E2E2E2E2E2E2E2E2E2E2E2E2E2E2E2E2E2E2E2E2E2E2E2E2E2E2
310
E2E2E2E2E2E2E2E2E2E2E2E2E2E2E2E2E2E2E2E2E2E2E2E2E2E2E2E2E2E2E2E2E2E2E2E2E2E2E2E2E2E2E2E2E2E2E2E2E2E2E2E2E2E2E2E2E2E2E2E2E2E2E2E2E2E2E2E2E2E2E2E2BEE2E2F5E2F5F5F5E2F5E2E2BEE2E2E2E2E2E2E2E2E2E2E2E2E2E2E2E2E2E2E2E2E2E2E2E2E2E2E2E2E2E2E2E2E2E2E2E2E2E2E2E2E2E2
310
E2E2E2E2E2E2E2E2E2E2E2E2E2E2E2E2E2E2E2E2E2E2E2E2E2E2E2E2E2E2E2E2E2E2E2E2E2E2E2E2E2E2E2E2E2E2E2E2E2E2E2E2E2E2E2E2E2E2E2E2E2E2E2E2E2E2E2E2E2E2E2E2E2E2E2E2E2E2E2E2E2E2E2E2E2E2E2E2E2E2E2E2E2E2E2E2E2E2E2E2E2E2E2E2E2E2E2E2E2E2E2E2E2E2E2E2E2E2E2E2E2E2E2E2E2BEE2
310
E2F5E2F5F5F5E2F5E2E2BEE2E2E2E2E2E2E2E2E2E2E2E2E2E2E2E2E2E2E2E2E2E2E2E2E2E2E2E2E2E2E2E2E2E2E2E2E2E2E2E2E2E2E2E2E2E2E2E2E2E2E2E2E2E2E2E2E2E2E2E2E2E2E2E2E2E2E2E2E2E2E2E2E2E2E2E2E2E2E2E2E2E2E2E2E2E2E2E2E2E2E2E2E2E2E2E2E2E2E2E2E2E2E2E2E2E2E2E2E2E2E2E2E2E2E2E2
310
E2E2E2E2E2E2E2E2E2E2E2E2E2E2E2E2E2E2E2E2E2E2E2E2E2E2E2E2E2E2E2E2E2E2E2E2E2E2E2E2E2E2E2E2E2E2E2E2E2E2E2BEE2E2F5E2F5F5F5E2F5E2E2BEE2E2E2E2E2E2E2E2E2E2E2E2E2E2E2E2E2E2E2E2E2E2E2E2E2E2E2E2E2E2E2E2E2E2E2E2E2E2E2E2E2E2E2E2E2E2E2E2E2E2E2E2E2E2E2E2E2E2E2E2E2E2E2
310
E2E2E2E2E2E2E2E2E2E2E2E2E2E2E2E2E2E2E2E2E2E2E2E2E2E2E2E2E2E2E2E2E2E2E2E2E2E2E2E2E2E2E2E2E2E2E2E2E2E2E2E2E2E2E2E2E2E2E2E2E2E2E2E2E2E2E2E2E2E2E2E2E2E2E2E2E2E2E2E2E2E2E2E2E2E2E2E2E2E2E2E2E2E2E2E2E2E2E2E2E2E2E2E2BEE2E2F5E2F5F5F5E2F5E2E2BEE2E2E2E2E2E2E2E2E2E2
310
E2E2E2E2E2E2E2E2E2E2E2E2E2E2E2E2E2E2E2E2E2E2E2E2E2E2E2E2E2E2E2E2E2E2E2E2E2E2E2E2E2E2E2E2E2E2E2E2E2E2E2E2E2E2E2E2E2E2E2E2E2E2E2E2E2E2E2E2E2E2E2E2E2E2E2E2E2E2E2E2E2E2E2E2E2E2E2E2E2E2E2E2E2E2E2E2E2E2E2E2E2E2E2E2E2E2E2E2E2E2E2E2E2E2E2E2E2E2E2E2E2E2E2E2E2E2E2
310
E2E2E2E2E2E2E2E2E2E2E2E2E2E2E2E2E2E2E2E2E2E2E2E2E2E2E2E2E2E2BEE2E2F5E2F5F5F5E2F5E2E2BEBEBEBEBEBEBEBEBEBEBEBEBEBEBEBEBEBEBEBEBEBEBEBEBEBEBEBEBEBEBEBEBEBEBEBEBEBEBEBEBEBEBEBEBEBEBEBEBEBEBEBEBEBEBEBEBEBEBEBEBEBEBEBEBEBEBEBEBEBEBEBEBEBEBEBEBEBEBEBEBEBEBEBEBE
310
BEBEBEBEBEBEBEBEBEBEBEBEBEBEBEBEBEBEBEBEBEBEBEBEBEBEBEBEBEBEBEBEBEBEBEBEBEBEBEBEBEBEBEBEBEBEBEBEBEBEBEBEBEBEBEBEBEBEBEBEBEBEBEBEBEBEBEBEBEBEBEBEBEBEBEBEBEBEBEBEBEBEBEBEE2E2F5E2F5F5F5E2F5E2E2E2E2E2E2E2E2E2E2E2E2E2E2E2E2E2E2E2E2E2E2E2E2E2E2E2E2E2E2E2E2E2E2
310
E2E2E2E2E2E2E2E2E2E2E2E2E2E2E2E2E2E2E2E2E2E2E2E2E2E2E2E2E2E2E2E2E2E2E2E2E2E2E2E2E2E2E2E2E2E2E2E2E2E2E2E2E2E2E2E2E2E2E2E2E2E2E2E2E2E2E2E2E2E2E2E2E2E2E2E2E2E2E2E2E2E2E2E2E2E2E2E2E2E2E2E2E2E2E2E2E2E2E2E2E2E2E2E2E2E2E2E2E2E2E2E2E2E2E2E2E2E2E2E2E2E2E2E2E2E2E2
310
E2E2E2E2E2E2E2E2E2E2E2E2F5E2F5F5F5E2F5F5F5F5F5F5F5F5E2E2E2E2E2E2E2E2E2F5F5F5F5F5F5F5F5F5F5F5F5F5F5F5F5E2E2E2E2E2E2E2E2E2F5F5F5F5F5F5F5F5F5F5F5F5F5F5F5F5E2E2E2E2E2E2E2E2E2F5F5F5F5F5F5F5F5F5F5F5F5F5F5F5F5E2E2E2E2E2E2E2E2E2F5F5F5F5F5F5F5F5F5F5F5F5F5F5F5F5E2
310
E2E2E2E2E2E2E2E2F5F5F5F5F5F5F5F5F5F5F5F5F5F5F5F5E2E2E2E2E2E2E2E2E2F5F5F5F5F5F5F5F5F5F5F5F5F5F5F5F5E2E2E2E2E2E2E2E2E2F5F5F5F5F5F5F5F5E2F5F5F5E2E2E2E2E2E2E2E2E2E2E2E2E2E2E2E2E2E2E2E2E2E2E2E2E2E2E2E2E2E2E2E2E2E2E2E2E2E2E2E2E2E2E2E2E2E2E2E2E2E2E2E2E2E2E2E2E2
310
E2E2E2E2E2E2E2E2E2E2E2E2E2E2E2E2E2E2E2E2E2E2E2E2E2E2E2E2E2E2E2E2E2E2E2E2E2E2E2E2E2E2E2E2E2E2E2E2E2E2E2E2E2E2E2E2E2E2E2E2E2E2E2E2E2E2E2E2E2E2E2E2E2E2E2E2E2E2E2E2E2E2E2E2E2E2E2E2E2E2E2E2E2E2E2E2E2E2E2E2E2E2E2E2E2E2E2E2E2E2E2E2E2E2E2E2E2E2E2E2F5EFF5F5F5F5F5
310
F5F5F5F5F5F5F5F5F5F5F5F5F5F5F5F5F5F5F5F5F5F5F5F5F5F5F5F5F5F5F5F5F5F5F5F5F5F5F5F5F5F5F5F5F5F5F5F5F5F5F5F5F5F5F5F5F5F5F5F5F5F5F5F5F5F5F5F5F5F5F5F5F5F5F5F5F5F5F5F5F5F5F5F5F5F5F5F5F5F5F5F5F5F5F5F5F5F5F5F5F5F5F5F5F5F5F5F5F5F5F5F5F5F5F5F5F5F5F5F5F5F5F5F5F5F5F5
310
F5F5F5F5F5F5F5F5F5F5F5F5F5F5F5F5F5F5F5F5F5F5F5F5F5F5F5F5F5F5F5F5F5F5F5F5F5F5F5F5F5F5F5F5F5F5F5EF
  0
XRECORD
  5
72A1
102
{ACAD_REACTORS
330
72A0
102
}
330
72A0
100
AcDbXrecord
280
     1
102
SHADEPLOT
 70
     0
102
SHADEPLOTRESLEVEL
 70
     2
102
SHADEPLOTCUSTOMDPI
 70
   300
  0
ENDSEC
  0
EOF
