  0
SECTION
  2
HEADER
  9
$ACADVER
  1
AC1015
  9
$ACADMAINTVER
 70
    20
  9
$DWGCODEPAGE
  3
ANSI_1252
  9
$INSBASE
 10
0.0
 20
0.0
 30
0.0
  9
$EXTMIN
 10
831.207408783815
 20
550.7609382249032
 30
0.0
  9
$EXTMAX
 10
1161.786563118569
 20
660.7630884843803
 30
0.0
  9
$LIMMIN
 10
0.0
 20
0.0
  9
$LIMMAX
 10
420.0
 20
297.0
  9
$ORTHOMODE
 70
     1
  9
$REGENMODE
 70
     1
  9
$FILLMODE
 70
     1
  9
$QTEXTMODE
 70
     0
  9
$MIRRTEXT
 70
     1
  9
$LTSCALE
 40
1.0
  9
$ATTMODE
 70
     1
  9
$TEXTSIZE
 40
2.399999999999999
  9
$TRACEWID
 40
1.0
  9
$TEXTSTYLE
  7
STANDARD
  9
$CLAYER
  8
DIM
  9
$CELTYPE
  6
ByLayer
  9
$CECOLOR
 62
   256
  9
$CELTSCALE
 40
1.0
  9
$DISPSILH
 70
     0
  9
$DIMSCALE
 40
1.0
  9
$DIMASZ
 40
3.0
  9
$DIMEXO
 40
1.0
  9
$DIMDLI
 40
1.0
  9
$DIMRND
 40
0.0
  9
$DIMDLE
 40
0.0
  9
$DIMEXE
 40
1.0
  9
$DIMTP
 40
0.2
  9
$DIMTM
 40
-0.2
  9
$DIMTXT
 40
3.0
  9
$DIMCEN
 40
-0.05
  9
$DIMTSZ
 40
0.0
  9
$DIMTOL
 70
     0
  9
$DIMLIM
 70
     0
  9
$DIMTIH
 70
     0
  9
$DIMTOH
 70
     0
  9
$DIMSE1
 70
     0
  9
$DIMSE2
 70
     0
  9
$DIMTAD
 70
     1
  9
$DIMZIN
 70
     8
  9
$DIMBLK
  1

  9
$DIMASO
 70
     1
  9
$DIMSHO
 70
     1
  9
$DIMPOST
  1

  9
$DIMAPOST
  1

  9
$DIMALT
 70
     0
  9
$DIMALTD
 70
     2
  9
$DIMALTF
 40
25.4
  9
$DIMLFAC
 40
1.0
  9
$DIMTOFL
 70
     1
  9
$DIMTVP
 40
5.0
  9
$DIMTIX
 70
     0
  9
$DIMSOXD
 70
     0
  9
$DIMSAH
 70
     0
  9
$DIMBLK1
  1

  9
$DIMBLK2
  1

  9
$DIMSTYLE
  2
STANDARD
  9
$DIMCLRD
 70
     3
  9
$DIMCLRE
 70
     3
  9
$DIMCLRT
 70
     6
  9
$DIMTFAC
 40
0.8
  9
$DIMGAP
 40
1.0
  9
$DIMJUST
 70
     0
  9
$DIMSD1
 70
     0
  9
$DIMSD2
 70
     0
  9
$DIMTOLJ
 70
     1
  9
$DIMTZIN
 70
     8
  9
$DIMALTZ
 70
     0
  9
$DIMALTTZ
 70
     0
  9
$DIMUPT
 70
     0
  9
$DIMDEC
 70
     2
  9
$DIMTDEC
 70
     1
  9
$DIMALTU
 70
     2
  9
$DIMALTTD
 70
     2
  9
$DIMTXSTY
  7
STANDARD
  9
$DIMAUNIT
 70
     0
  9
$DIMADEC
 70
     0
  9
$DIMALTRND
 40
0.0
  9
$DIMAZIN
 70
     0
  9
$DIMDSEP
 70
    46
  9
$DIMATFIT
 70
     3
  9
$DIMFRAC
 70
     0
  9
$DIMLDRBLK
  1

  9
$DIMLUNIT
 70
     2
  9
$DIMLWD
 70
    -1
  9
$DIMLWE
 70
    -2
  9
$DIMTMOVE
 70
     0
  9
$LUNITS
 70
     2
  9
$LUPREC
 70
     2
  9
$SKETCHINC
 40
1.0
  9
$FILLETRAD
 40
5.0
  9
$AUNITS
 70
     0
  9
$AUPREC
 70
     0
  9
$MENU
  1
.
  9
$ELEVATION
 40
0.0
  9
$PELEVATION
 40
0.0
  9
$THICKNESS
 40
0.0
  9
$LIMCHECK
 70
     0
  9
$CHAMFERA
 40
3.0
  9
$CHAMFERB
 40
3.0
  9
$CHAMFERC
 40
3.5
  9
$CHAMFERD
 40
0.7853981633974483
  9
$SKPOLY
 70
     0
  9
$TDCREATE
 40
2453787.394483275
  9
$TDUCREATE
 40
2453787.352816609
  9
$TDUPDATE
 40
2454162.451520811
  9
$TDUUPDATE
 40
2454162.409854144
  9
$TDINDWG
 40
1.1388032755
  9
$TDUSRTIMER
 40
1.1379511921
  9
$USRTIMER
 70
     1
  9
$ANGBASE
 50
0.0
  9
$ANGDIR
 70
     0
  9
$PDMODE
 70
     0
  9
$PDSIZE
 40
0.0
  9
$PLINEWID
 40
0.0
  9
$SPLFRAME
 70
     0
  9
$SPLINETYPE
 70
     6
  9
$SPLINESEGS
 70
     8
  9
$HANDSEED
  5
643A
  9
$SURFTAB1
 70
     6
  9
$SURFTAB2
 70
     6
  9
$SURFTYPE
 70
     6
  9
$SURFU
 70
     6
  9
$SURFV
 70
     6
  9
$UCSBASE
  2

  9
$UCSNAME
  2

  9
$UCSORG
 10
0.0
 20
0.0
 30
0.0
  9
$UCSXDIR
 10
1.0
 20
0.0
 30
0.0
  9
$UCSYDIR
 10
0.0
 20
1.0
 30
0.0
  9
$UCSORTHOREF
  2

  9
$UCSORTHOVIEW
 70
     0
  9
$UCSORGTOP
 10
0.0
 20
0.0
 30
0.0
  9
$UCSORGBOTTOM
 10
0.0
 20
0.0
 30
0.0
  9
$UCSORGLEFT
 10
0.0
 20
0.0
 30
0.0
  9
$UCSORGRIGHT
 10
0.0
 20
0.0
 30
0.0
  9
$UCSORGFRONT
 10
0.0
 20
0.0
 30
0.0
  9
$UCSORGBACK
 10
0.0
 20
0.0
 30
0.0
  9
$PUCSBASE
  2

  9
$PUCSNAME
  2

  9
$PUCSORG
 10
0.0
 20
0.0
 30
0.0
  9
$PUCSXDIR
 10
1.0
 20
0.0
 30
0.0
  9
$PUCSYDIR
 10
0.0
 20
1.0
 30
0.0
  9
$PUCSORTHOREF
  2

  9
$PUCSORTHOVIEW
 70
     0
  9
$PUCSORGTOP
 10
0.0
 20
0.0
 30
0.0
  9
$PUCSORGBOTTOM
 10
0.0
 20
0.0
 30
0.0
  9
$PUCSORGLEFT
 10
0.0
 20
0.0
 30
0.0
  9
$PUCSORGRIGHT
 10
0.0
 20
0.0
 30
0.0
  9
$PUCSORGFRONT
 10
0.0
 20
0.0
 30
0.0
  9
$PUCSORGBACK
 10
0.0
 20
0.0
 30
0.0
  9
$USERI1
 70
     0
  9
$USERI2
 70
     0
  9
$USERI3
 70
     0
  9
$USERI4
 70
     0
  9
$USERI5
 70
     0
  9
$USERR1
 40
0.0
  9
$USERR2
 40
0.0
  9
$USERR3
 40
0.0
  9
$USERR4
 40
0.0
  9
$USERR5
 40
0.0
  9
$WORLDVIEW
 70
     1
  9
$SHADEDGE
 70
     3
  9
$SHADEDIF
 70
    70
  9
$TILEMODE
 70
     0
  9
$MAXACTVP
 70
    64
  9
$PINSBASE
 10
0.0
 20
0.0
 30
0.0
  9
$PLIMCHECK
 70
     0
  9
$PEXTMIN
 10
-0.0052938850726605
 20
-0.0001345188433106
 30
-0.0015258207003583
  9
$PEXTMAX
 10
282.0477243098575
 20
196.0045506726061
 30
0.0000000349246037
  9
$PLIMMIN
 10
-7.473536455652777
 20
-6.995038200624321
  9
$PLIMMAX
 10
289.5159654974722
 20
202.9994533765241
  9
$UNITMODE
 70
     0
  9
$VISRETAIN
 70
     1
  9
$PLINEGEN
 70
     0
  9
$PSLTSCALE
 70
     1
  9
$TREEDEPTH
 70
  3020
  9
$CMLSTYLE
  2
Standard
  9
$CMLJUST
 70
     0
  9
$CMLSCALE
 40
20.0
  9
$PROXYGRAPHICS
 70
     1
  9
$MEASUREMENT
 70
     1
  9
$CELWEIGHT
370
    -1
  9
$ENDCAPS
280
     0
  9
$JOINSTYLE
280
     0
  9
$LWDISPLAY
290
     0
  9
$INSUNITS
 70
     4
  9
$HYPERLINKBASE
  1

  9
$STYLESHEET
  1

  9
$XEDIT
290
     1
  9
$CEPSNTYPE
380
     0
  9
$PSTYLEMODE
290
     1
  9
$FINGERPRINTGUID
  2
{65A8C6A1-B973-4B90-93E8-5CEEA7DDEAA7}
  9
$VERSIONGUID
  2
{BFE6251E-E030-43D3-A31E-C78EFC2BC833}
  9
$EXTNAMES
290
     1
  9
$PSVPSCALE
 40
1.0
  9
$OLESTARTUP
290
     0
  0
ENDSEC
  0
SECTION
  2
CLASSES
  0
CLASS
  1
ACDBDICTIONARYWDFLT
  2
AcDbDictionaryWithDefault
  3
ObjectDBX Classes
 90
        0
280
     0
281
     0
  0
CLASS
  1
ACDBPLACEHOLDER
  2
AcDbPlaceHolder
  3
ObjectDBX Classes
 90
        0
280
     0
281
     0
  0
CLASS
  1
LAYOUT
  2
AcDbLayout
  3
ObjectDBX Classes
 90
        0
280
     0
281
     0
  0
CLASS
  1
ACME_DOCUMENT
  2
AcMeDbDoc
  3
AcMeServices
 90
        0
280
     0
281
     0
  0
CLASS
  1
AMGSETTINGSOBJ
  2
AmgSettingsObj
  3
"AcadM|Product Description: AutoCAD Mechanical 2000|Company: Autodesk"
 90
        0
280
     0
281
     0
  0
CLASS
  1
ACMESCOPE
  2
AcMeScope
  3
AcMeServices
 90
        0
280
     0
281
     0
  0
CLASS
  1
ACMECOMMANDHISTORY
  2
AcMeCommandHistory
  3
AcMeServices
 90
        0
280
     0
281
     0
  0
CLASS
  1
ACIMSYSVARMAN
  2
AcImSysVarManager
  3
AcMeServices
 90
        0
280
     0
281
     0
  0
CLASS
  1
ACIMREALSYSVAR
  2
AcImRealSysVar
  3
AcMeServices
 90
        0
280
     0
281
     0
  0
CLASS
  1
ACIMINTSYSVAR
  2
AcImIntSysVar
  3
AcMeServices
 90
        0
280
     0
281
     0
  0
CLASS
  1
ACMEDRAWINGMAN
  2
AcMeDrawingMan
  3
AcMeServices
 90
        0
280
     0
281
     0
  0
CLASS
  1
ACMEVIEW
  2
AcMeView
  3
AcMeServices
 90
        0
280
     0
281
     0
  0
CLASS
  1
ACDBENTITYCACHE
  2
AcMeEntityCache
  3
AcMeServices
 90
        0
280
     0
281
     0
  0
CLASS
  1
GSMANAGER
  2
AcMeGSManager
  3
AcMeServices
 90
        0
280
     0
281
     0
  0
CLASS
  1
AMDTINTERNALREACTOR
  2
AmdtInternalReactor
  3
AcMeServices
 90
        0
280
     0
281
     0
  0
CLASS
  1
ACMESTATEMGR
  2
AcMeStateMgr
  3
AcMeServices
 90
        0
280
     0
281
     0
  0
CLASS
  1
ACGREFMASTER
  2
AcGrefMaster
  3
AcAttribServices
 90
        0
280
     0
281
     0
  0
CLASS
  1
ACME_DATABASE
  2
AcMeDbDatabase
  3
AcMeServices
 90
        0
280
     0
281
     0
  0
CLASS
  1
ACRFINSADJUSTERMGR
  2
AcRfInsAdjusterMgr
  3
AcMeServices
 90
        0
280
     0
281
     0
  0
CLASS
  1
ACGREFACADMASTER
  2
AcGrefacadMaster
  3
AcGrefServices
 90
        0
280
     0
281
     0
  0
CLASS
  1
AMIMASTER
  2
AmiMaster
  3
AmiServices
 90
        0
280
     0
281
     0
  0
CLASS
  1
ACMDATADICTIONARY
  2
AcmDataDictionary
  3
"AcmSymBB|Product Description: AutoCAD Mechanical 2004 DX|Company: Autodesk"
 90
        0
280
     0
281
     0
  0
CLASS
  1
ACMDATAENTRYBLOCK
  2
AcmDataEntryBlock
  3
"AcmSymBB|Product Description: AutoCAD Mechanical 2004 DX|Company: Autodesk"
 90
        0
280
     0
281
     0
  0
CLASS
  1
ACIMSTRSYSVAR
  2
AcImStrSysVar
  3
AcMeServices
 90
        0
280
     0
281
     0
  0
CLASS
  1
ACMSTANDARDISO
  2
AcmStandardISO
  3
"Amdt_StdImp|Product Description: AutoCAD Mechanical 2004 DX|Company: Autodesk"
 90
        0
280
     0
281
     0
  0
CLASS
  1
AMGOBJPROPCFG
  2
AmgObjPropCfg
  3
"AmgLay|Product Description: AutoCAD Mechanical 2000|Company: Autodesk"
 90
        1
280
     0
281
     0
  0
CLASS
  1
AMDTEDGESTANDARDISO
  2
AmdtEdgeStdISO
  3
"Amdt_StdImp|Product Description: AutoCAD Mechanical 2004 DX|Company: Autodesk"
 90
        0
280
     0
281
     0
  0
CLASS
  1
ACMSURFSTANDARDISO
  2
AcmSurfTextStdISO
  3
"Amdt_StdImp|Product Description: AutoCAD Mechanical 2004 DX|Company: Autodesk"
 90
        0
280
     0
281
     0
  0
CLASS
  1
ACMFCFSTANDARDISO
  2
AcmFCFStdISO
  3
"Amdt_StdImp|Product Description: AutoCAD Mechanical 2004 DX|Company: Autodesk"
 90
        0
280
     0
281
     0
  0
CLASS
  1
ACMWELDSTANDARDISO
  2
AcmWeldingStdISO
  3
"Amdt_StdImp|Product Description: AutoCAD Mechanical 2004 DX|Company: Autodesk"
 90
        0
280
     0
281
     0
  0
CLASS
  1
ACMIDSTANDARDISO
  2
AcmIdStdISO
  3
"Amdt_StdImp|Product Description: AutoCAD Mechanical 2004 DX|Company: Autodesk"
 90
        0
280
     0
281
     0
  0
CLASS
  1
ACMDATUMSTANDARDISO
  2
AcmDatumStdISO
  3
"Amdt_StdImp|Product Description: AutoCAD Mechanical 2004 DX|Company: Autodesk"
 90
        0
280
     0
281
     0
  0
CLASS
  1
ACMBOMSTANDARDISO
  2
AcmBOMStdISO
  3
"Amdt_StdImp|Product Description: AutoCAD Mechanical 2004 DX|Company: Autodesk"
 90
        0
280
     0
281
     0
  0
CLASS
  1
ACMDETAILSTANDARDISO
  2
AmdtDetailSymStdISO
  3
"Amdt_StdImp|Product Description: AutoCAD Mechanical 2004 DX|Company: Autodesk"
 90
        0
280
     0
281
     0
  0
CLASS
  1
ACMSECTIONSTANDARDISO
  2
AmdtSectionSymStdISO
  3
"Amdt_StdImp|Product Description: AutoCAD Mechanical 2004 DX|Company: Autodesk"
 90
        0
280
     0
281
     0
  0
CLASS
  1
ACMCENTERLINESTANDARDISO
  2
AmdtCenterLineStdISO
  3
"Amdt_StdImp|Product Description: AutoCAD Mechanical 2004 DX|Company: Autodesk"
 90
        0
280
     0
281
     0
  0
CLASS
  1
ACMNOTESTANDARDISO
  2
AmdtNoteStdISO
  3
"Amdt_StdImp|Product Description: AutoCAD Mechanical 2004 DX|Company: Autodesk"
 90
        0
280
     0
281
     0
  0
CLASS
  1
ACAMGLAYSTD
  2
AcAmgLayStd
  3
"AcAmgLayStd|Product Description: AutoCAD Mechanical 2000|Company: Autodesk"
 90
        0
280
     0
281
     0
  0
CLASS
  1
ACAMGDIMSTD
  2
AcAmgDimStd
  3
"AcAmgDimStd|Product Description: AutoCAD Mechanical 2000|Company: Autodesk"
 90
        0
280
     0
281
     0
  0
CLASS
  1
ACAMGHOLECHARTSTDISO
  2
AcAmgHoleChartStdISO
  3
ACMSYMBB_MODULE_NAME
 90
        0
280
     0
281
     0
  0
CLASS
  1
ACAMGTITLESTD
  2
AcAmgTitleStd
  3
"TITLEAPP"
 90
        0
280
     0
281
     0
  0
CLASS
  1
LAYER_INDEX
  2
AcDbLayerIndex
  3
ObjectDBX Classes
 90
    32768
280
     0
281
     0
  0
CLASS
  1
IDBUFFER
  2
AcDbIdBuffer
  3
ObjectDBX Classes
 90
    32768
280
     0
281
     0
  0
CLASS
  1
DICTIONARYVAR
  2
AcDbDictionaryVar
  3
ObjectDBX Classes
 90
        0
280
     0
281
     0
  0
CLASS
  1
AM_DRAWING_MGR
  2
AcDmDwgMgr
  3
AcMechDwgViewMgmt
 90
        0
280
     0
281
     0
  0
CLASS
  1
AM_DWG_DOCUMENT
  2
AcDmDwgDocument
  3
AcMechDwgViewMgmt
 90
        0
280
     0
281
     0
  0
CLASS
  1
AM_DWG_SHEET
  2
AcDmSheet
  3
AcMechDwgViewMgmt
 90
        0
280
     0
281
     0
  0
CLASS
  1
AM_VIEWDIMPARMAP
  2
AcDmViewDimParMap
  3
AcMechDwgViewMgmt
 90
        0
280
     0
281
     0
  0
CLASS
  1
AM_DWGMGR_NAME
  2
AcDmDwgMgrName
  3
AcMechDwgViewMgmt
 90
        0
280
     0
281
     0
  0
CLASS
  1
AMDTMENUSTATEMGR
  2
AmdtMenuStateMgr
  3
McadcomServices
 90
        0
280
     0
281
     0
  0
CLASS
  1
AMDTMCOMMENUSTATE
  2
AmdtMcomMenuState
  3
McadcomServices
 90
        0
280
     0
281
     0
  0
CLASS
  1
MAPIAMMOUDLE
  2
MApiAmModule
  3
MApiAmServices
 90
        0
280
     0
281
     0
  0
CLASS
  1
AMDTADMENUSTATE
  2
AmdtAdMenuState
  3
DesignerServices
 90
        0
280
     0
281
     0
  0
CLASS
  1
ADAPPL
  2
AcAdAppl
  3
DesignerServices
 90
        0
280
     0
281
     0
  0
CLASS
  1
DEPMGR
  2
AcAdDepMgr
  3
DesignerServices
 90
        0
280
     0
281
     0
  0
CLASS
  1
PARAMMGR
  2
AcAdParamMgr
  3
DesignerServices
 90
        0
280
     0
281
     0
  0
CLASS
  1
PARAMSCOPE
  2
AcAdParamScope
  3
DesignerServices
 90
        0
280
     0
281
     0
  0
CLASS
  1
NAMEDAPPL
  2
AcAdNamedAppl
  3
DesignerServices
 90
        0
280
     0
281
     0
  0
CLASS
  1
AMDTDMMENUSTATE
  2
AmdtDmMenuState
  3
AcMechDwgViewMgmt
 90
        0
280
     0
281
     0
  0
CLASS
  1
AMDTAMMENUSTATE
  2
AmdtAmMenuState
  3
DesignerAssemblies
 90
        0
280
     0
281
     0
  0
CLASS
  1
ACAMPROJECT
  2
AcAmProject
  3
DesignerAssemblies
 90
        0
280
     0
281
     0
  0
CLASS
  1
ACAMGRCOMPDEF
  2
AcAmGrCompDef
  3
DesignerAssemblies
 90
        0
280
     0
281
     0
  0
CLASS
  1
ACCMCONTEXT
  2
AcCmContext
  3
DesignerAssemblies
 90
        0
280
     0
281
     0
  0
CLASS
  1
ACAMCOMPDEF
  2
AcAmCompDef
  3
DesignerAssemblies
 90
        0
280
     0
281
     0
  0
CLASS
  1
ACAMCOMPDEFMGR
  2
AcAmCompDefMgr
  3
DesignerAssemblies
 90
        0
280
     0
281
     0
  0
CLASS
  1
AMCONTEXTMGR
  2
AcAmContextMgr
  3
DesignerAssemblies
 90
        0
280
     0
281
     0
  0
CLASS
  1
ACAMCONTEXTMODELER
  2
AcAmContextModeler
  3
DesignerAssemblies
 90
        0
280
     0
281
     0
  0
CLASS
  1
ACMTHREADLINESTANDARDISO
  2
AmdtThreadLineStdISO
  3
"Amdt_StdImp|Product Description: AutoCAD Mechanical 2004 DX|Company: Autodesk"
 90
        0
280
     0
281
     0
  0
CLASS
  1
CATALOGSTATE
  2
AcAmCatalogState
  3
DesignerAssemblies
 90
        0
280
     0
281
     0
  0
CLASS
  1
ACAMGRCOMPDEFSET
  2
AcAmGrCompDefSet
  3
DesignerAssemblies
 90
        0
280
     0
281
     0
  0
CLASS
  1
AMDTBROWSERDBTAB
  2
AmdtBrowserDbTab
  3
McadcomServices
 90
        0
280
     0
281
     0
  0
CLASS
  1
CBROWSERAPPOBJECT
  2
CBrowserAppObject
  3
McadcomServices
 90
        0
280
     0
281
     0
  0
CLASS
  1
DM_PLACEHOLDER
  2
AcDmSelsetPlaceholder
  3
AcMechDwgViewMgmt
 90
        0
280
     0
281
     0
  0
CLASS
  1
TABLESTYLE
  2
AcDbTableStyle
  3
ObjectDBX Classes
 90
     2047
280
     0
281
     0
  0
CLASS
  1
VAACXREFPANELOBJECT
  2
VaAcXREFPanelObject
  3
VAAC_ADDIN
 90
    32768
280
     0
281
     0
  0
CLASS
  1
VAACIMAGEINVENTORY
  2
VaAcImageInventory
  3
VAAC_ADDIN
 90
    32768
280
     0
281
     0
  0
CLASS
  1
AMDTNOTETEMPLATEDB
  2
AmdtNoteTemplateDB
  3
AMDT_STDIMP_MODULE_NAME
 90
        0
280
     0
281
     0
  0
CLASS
  1
ACAMGFILTERDAT
  2
AcAmgFilterDat
  3
"AcadM|Product Description: AutoCAD Mechanical 2000|Company: Autodesk"
 90
        0
280
     0
281
     0
  0
CLASS
  1
ACMBOM
  2
AcmBom
  3
"AcmSymBB|Product Description: AutoCAD Mechanical 2004 DX|Company: Autodesk"
 90
    32768
280
     0
281
     0
  0
CLASS
  1
AMDTFORMULAUPDATEDISPATCHER
  2
AmdtFormulaUpdateDispatcher
  3
AcMeServices
 90
    32768
280
     0
281
     0
  0
CLASS
  1
DIMASSOC
  2
AcDbDimAssoc
  3
"AcDbDimAssoc|Product Desc:     AcDim ARX App For Dimension|Company:          Autodesk, Inc.|WEB Address:      www.autodesk.com"
 90
        0
280
     0
281
     0
  0
CLASS
  1
SORTENTSTABLE
  2
AcDbSortentsTable
  3
ObjectDBX Classes
 90
        0
280
     0
281
     0
  0
CLASS
  1
ACRFATTGENMGR
  2
AcRfAttGeneralMgr
  3
AcAttribServices
 90
        0
280
     0
281
     0
  0
ENDSEC
  0
SECTION
  2
TABLES
  0
TABLE
  2
VPORT
  5
8
330
0
100
AcDbSymbolTable
 70
     3
  0
VPORT
  5
6413
330
8
100
AcDbSymbolTableRecord
100
AcDbViewportTableRecord
  2
*Active
 70
     0
 10
0.0
 20
0.0
 11
1.0
 21
1.0
 12
1038.081452245532
 22
620.5809944330091
 13
0.0
 23
0.0
 14
2.5
 24
2.5
 15
10.0
 25
10.0
 16
0.0
 26
0.0
 36
1.0
 17
0.0
 27
0.0
 37
0.0
 40
409.2826898974543
 41
1.361675126903552
 42
50.0
 43
0.0
 44
0.0
 50
0.0
 51
0.0
 71
     0
 72
   100
 73
     1
 74
     3
 75
     0
 76
     1
 77
     0
 78
     0
281
     0
 65
     1
110
0.0
120
0.0
130
0.0
111
1.0
121
0.0
131
0.0
112
0.0
122
1.0
132
0.0
 79
     0
146
0.0
  0
ENDTAB
  0
TABLE
  2
LTYPE
  5
5
330
0
100
AcDbSymbolTable
 70
    15
  0
LTYPE
  5
14
330
5
100
AcDbSymbolTableRecord
100
AcDbLinetypeTableRecord
  2
ByBlock
 70
     0
  3

 72
    65
 73
     0
 40
0.0
  0
LTYPE
  5
15
330
5
100
AcDbSymbolTableRecord
100
AcDbLinetypeTableRecord
  2
ByLayer
 70
     0
  3

 72
    65
 73
     0
 40
0.0
  0
LTYPE
  5
16
330
5
100
AcDbSymbolTableRecord
100
AcDbLinetypeTableRecord
  2
Continuous
 70
     0
  3
Solid line
 72
    65
 73
     0
 40
0.0
  0
LTYPE
  5
64
330
5
100
AcDbSymbolTableRecord
100
AcDbLinetypeTableRecord
  2
AM_ISO02W050
 70
     0
  3
__ __ __ __ __ __ __ __ __ __ __ __ __ __ __
 72
    65
 73
     2
 40
7.5
 49
6.0
 74
     0
 49
-1.5
 74
     0
  0
LTYPE
  5
65
330
5
100
AcDbSymbolTableRecord
100
AcDbLinetypeTableRecord
  2
AM_ISO08W050
 70
     0
  3
____ . ____ . ____ . ____ . ____ . ____ . ____
 72
    65
 73
     4
 40
18.0
 49
12.0
 74
     0
 49
-1.5
 74
     0
 49
3.0
 74
     0
 49
-1.5
 74
     0
  0
LTYPE
  5
66
330
5
100
AcDbSymbolTableRecord
100
AcDbLinetypeTableRecord
  2
AM_ISO09W050
 70
     0
  3
_____ . . _____ . . _____ . . ____ .. ____
 72
    65
 73
     6
 40
22.5
 49
12.0
 74
     0
 49
-1.5
 74
     0
 49
3.0
 74
     0
 49
-1.5
 74
     0
 49
3.0
 74
     0
 49
-1.5
 74
     0
  0
LTYPE
  5
67
330
5
100
AcDbSymbolTableRecord
100
AcDbLinetypeTableRecord
  2
Amconstr
 70
     0
  3
_______________________
 72
    65
 73
     2
 40
9999.0
 49
9999.0
 74
     0
 49
0.0
 74
     0
  0
LTYPE
  5
68
330
5
100
AcDbSymbolTableRecord
100
AcDbLinetypeTableRecord
  2
AM_ISO08W050x2
 70
     0
  3
__ . __ . __ . __ . __ . __
 72
    65
 73
     4
 40
9.0
 49
6.0
 74
     0
 49
-0.75
 74
     0
 49
1.5
 74
     0
 49
-0.75
 74
     0
  0
LTYPE
  5
69
330
5
100
AcDbSymbolTableRecord
100
AcDbLinetypeTableRecord
  2
AM_ISO02W050x2
 70
     0
  3
 _ _ _ _ _ _ _ _ _ _ _ _
 72
    65
 73
     2
 40
3.75
 49
3.0
 74
     0
 49
-0.75
 74
     0
  0
LTYPE
  5
6C
330
5
100
AcDbSymbolTableRecord
100
AcDbLinetypeTableRecord
  2
Amzigzag
 70
     0
  3
/\/-/\/-/\/-/\/-/\/-/\/
 72
    65
 73
     2
 40
11.0001
 49
0.0001
 74
     4
 75
   136
340
22C
 46
0.04
 50
0.0
 44
0.0
 45
0.0
 49
-11.0
 74
     0
  0
LTYPE
  5
7A
330
5
100
AcDbSymbolTableRecord
100
AcDbLinetypeTableRecord
  2
ACISOWELD
 70
     0
  3
_ _ _ _ _
 72
    65
 73
     2
 40
2.0
 49
2.0
 74
     0
 49
-1.0
 74
     0
  0
LTYPE
  5
7B
330
5
100
AcDbSymbolTableRecord
100
AcDbLinetypeTableRecord
  2
ACISOTGB
 70
     0
  3
__ . . __ . .
 72
    65
 73
     6
 40
9.0
 49
4.0
 74
     0
 49
-1.0
 74
     0
 49
1.0
 74
     0
 49
-1.0
 74
     0
 49
1.0
 74
     0
 49
-1.0
 74
     0
  0
LTYPE
  5
7C
330
5
100
AcDbSymbolTableRecord
100
AcDbLinetypeTableRecord
  2
ACISOTGL
 70
     0
  3
_ _ _ _ _
 72
    65
 73
     2
 40
3.0
 49
2.0
 74
     0
 49
-1.0
 74
     0
  0
LTYPE
  5
7E
330
5
100
AcDbSymbolTableRecord
100
AcDbLinetypeTableRecord
  2
CENTER
 70
     0
  3
__ . __
 72
    65
 73
     4
 40
7.0
 49
4.0
 74
     0
 49
-1.0
 74
     0
 49
1.0
 74
     0
 49
-1.0
 74
     0
  0
LTYPE
  5
D8
330
5
100
AcDbSymbolTableRecord
100
AcDbLinetypeTableRecord
  2
HIDDEN
 70
     0
  3
Hidden __ __ __ __ __ __ __ __ __ __ __ __ __ _
 72
    65
 73
     2
 40
9.524999999999998
 49
6.349999999999999
 74
     0
 49
-3.174999999999999
 74
     0
  0
LTYPE
  5
D9
330
5
100
AcDbSymbolTableRecord
100
AcDbLinetypeTableRecord
  2
PHANTOM2
 70
     0
  3
Phantom (.5x) ___ _ _ ___ _ _ ___ _ _ ___ _ _
 72
    65
 73
     6
 40
31.75
 49
15.875
 74
     0
 49
-3.174999999999999
 74
     0
 49
3.174999999999999
 74
     0
 49
-3.174999999999999
 74
     0
 49
3.174999999999999
 74
     0
 49
-3.174999999999999
 74
     0
  0
LTYPE
  5
3BD
330
5
100
AcDbSymbolTableRecord
100
AcDbLinetypeTableRecord
  2
CENTER2
 70
     0
  3
___ _ ___ _ ___ _ ___ _ ___ _ ___ _ ___ _ ___ _
 72
    65
 73
     4
 40
1.125
 49
0.75
 74
     0
 49
-0.125
 74
     0
 49
0.125
 74
     0
 49
-0.125
 74
     0
  0
ENDTAB
  0
TABLE
  2
LAYER
  5
2
102
{ACAD_XDICTIONARY
360
2F5
102
}
330
0
100
AcDbSymbolTable
 70
    14
  0
LAYER
  5
10
330
2
100
AcDbSymbolTableRecord
100
AcDbLayerTableRecord
  2
0
 70
     0
 62
     7
  6
Continuous
370
    -3
390
F
  0
LAYER
  5
3BE
330
2
100
AcDbSymbolTableRecord
100
AcDbLayerTableRecord
  2
SPEC
 70
     0
 62
     1
  6
Continuous
370
    -3
390
F
  0
LAYER
  5
3BF
330
2
100
AcDbSymbolTableRecord
100
AcDbLayerTableRecord
  2
CENTER
 70
     0
 62
   252
  6
CENTER2
370
    -3
390
F
  0
LAYER
  5
3C0
330
2
100
AcDbSymbolTableRecord
100
AcDbLayerTableRecord
  2
DATA
 70
     0
 62
     6
  6
Continuous
370
    -3
390
F
  0
LAYER
  5
3C1
330
2
100
AcDbSymbolTableRecord
100
AcDbLayerTableRecord
  2
DIM
 70
     0
 62
     3
  6
Continuous
370
    -3
390
F
  0
LAYER
  5
3C2
330
2
100
AcDbSymbolTableRecord
100
AcDbLayerTableRecord
  2
Defpoints
 70
     0
 62
     7
  6
Continuous
290
     0
370
    -3
390
F
  0
LAYER
  5
3C3
330
2
100
AcDbSymbolTableRecord
100
AcDbLayerTableRecord
  2
FRAME
 70
     0
 62
     1
  6
Continuous
370
    -3
390
F
  0
LAYER
  5
3C4
330
2
100
AcDbSymbolTableRecord
100
AcDbLayerTableRecord
  2
CONNECTOR
 70
     0
 62
     2
  6
Continuous
370
    -3
390
F
  0
LAYER
  5
3C5
330
2
100
AcDbSymbolTableRecord
100
AcDbLayerTableRecord
  2
SCHRIFT
 70
     0
 62
     1
  6
Continuous
370
    -3
390
F
  0
LAYER
  5
3E62
330
2
100
AcDbSymbolTableRecord
100
AcDbLayerTableRecord
  2
AM_VIEWS
 70
     0
 62
     1
  6
Continuous
370
    25
390
F
1001
AcAecLayerStandard
1000

1000

  0
LAYER
  5
41F0
330
2
100
AcDbSymbolTableRecord
100
AcDbLayerTableRecord
  2
AM_5
 70
     0
 62
     3
  6
Continuous
370
    25
390
F
1001
AcAecLayerStandard
1000

1000

  0
LAYER
  5
5549
330
2
100
AcDbSymbolTableRecord
100
AcDbLayerTableRecord
  2
AM_0
 70
     0
 62
     7
  6
Continuous
370
    50
390
F
1001
AcAecLayerStandard
1000

1000

  0
LAYER
  5
554B
330
2
100
AcDbSymbolTableRecord
100
AcDbLayerTableRecord
  2
AM_3
 70
     0
 62
     6
  6
AM_ISO02W050
370
    25
390
F
1001
AcAecLayerStandard
1000

1000

  0
LAYER
  5
5DB0
330
2
100
AcDbSymbolTableRecord
100
AcDbLayerTableRecord
  2
DIMENSION
 70
     0
 62
     1
  6
Continuous
370
    -3
390
F
  0
ENDTAB
  0
TABLE
  2
STYLE
  5
3
330
0
100
AcDbSymbolTable
 70
    11
  0
STYLE
  5
11
330
3
100
AcDbSymbolTableRecord
100
AcDbTextStyleTableRecord
  2
STANDARD
 70
     0
 40
0.0
 41
1.0
 50
0.0
 71
     0
 42
2.399999999999999
  3
ARIAL.TTF
  4

1001
ACAD
1000
Arial
1071
       34
  0
STYLE
  5
6B
330
3
100
AcDbSymbolTableRecord
100
AcDbTextStyleTableRecord
  2

 70
     1
 40
0.0
 41
1.0
 50
0.0
 71
     0
 42
2.5
  3
ltypeshp.shx
  4

  0
STYLE
  5
6D
330
3
100
AcDbSymbolTableRecord
100
AcDbTextStyleTableRecord
  2
ACISOTS
 70
     0
 40
1.0
 41
1.0
 50
0.0
 71
     0
 42
2.5
  3
isocp.shx
  4
bigfont.shx
  0
STYLE
  5
79
330
3
100
AcDbSymbolTableRecord
100
AcDbTextStyleTableRecord
  2
ACISOGDT
 70
     0
 40
0.0
 41
1.0
 50
0.0
 71
     0
 42
2.5
  3
AMGDT
  4
bigfont.shx
  0
STYLE
  5
1ED
330
3
100
AcDbSymbolTableRecord
100
AcDbTextStyleTableRecord
  2
USER1
 70
     0
 40
0.0
 41
1.0
 50
0.0
 71
     0
 42
2.5
  3
TXT.SHX
  4
bigfont.shx
  0
STYLE
  5
1EE
330
3
100
AcDbSymbolTableRecord
100
AcDbTextStyleTableRecord
  2
USER2
 70
     0
 40
0.0
 41
1.0
 50
0.0
 71
     0
 42
2.5
  3
SIMPLEX.SHX
  4
bigfont.shx
  0
STYLE
  5
1EF
330
3
100
AcDbSymbolTableRecord
100
AcDbTextStyleTableRecord
  2
USER3
 70
     0
 40
0.0
 41
1.0
 50
0.0
 71
     0
 42
2.5
  3
ITALIC.SHX
  4
bigfont.shx
  0
STYLE
  5
22C
330
3
100
AcDbSymbolTableRecord
100
AcDbTextStyleTableRecord
  2

 70
     1
 40
0.0
 41
1.0
 50
0.0
 71
     0
 42
2.5
  3
genltshp.shx
  4

  0
STYLE
  5
3C6
330
3
100
AcDbSymbolTableRecord
100
AcDbTextStyleTableRecord
  2
ITALICT
 70
     0
 40
2.0
 41
1.0
 50
0.0
 71
     0
 42
2.0
  3
ITALICT.shx
  4

  0
STYLE
  5
3C7
330
3
100
AcDbSymbolTableRecord
100
AcDbTextStyleTableRecord
  2
ROMANS
 70
     0
 40
0.0
 41
0.8
 50
0.0
 71
     0
 42
3.0
  3
romans.shx
  4

  0
ENDTAB
  0
TABLE
  2
VIEW
  5
6
330
0
100
AcDbSymbolTable
 70
     5
  0
ENDTAB
  0
TABLE
  2
UCS
  5
7
330
0
100
AcDbSymbolTable
 70
     0
  0
ENDTAB
  0
TABLE
  2
APPID
  5
9
330
0
100
AcDbSymbolTable
 70
    27
  0
APPID
  5
12
330
9
100
AcDbSymbolTableRecord
100
AcDbRegAppTableRecord
  2
ACAD
 70
     0
  0
APPID
  5
46
330
9
100
AcDbSymbolTableRecord
100
AcDbRegAppTableRecord
  2
MCAD_NO_VIS
 70
     0
  0
APPID
  5
47
330
9
100
AcDbSymbolTableRecord
100
AcDbRegAppTableRecord
  2
ACAD_TEMP_GRAPHIC
 70
     0
  0
APPID
  5
58
330
9
100
AcDbSymbolTableRecord
100
AcDbRegAppTableRecord
  2
ACATTRIBSERVICES
 70
     0
  0
APPID
  5
EE
330
9
100
AcDbSymbolTableRecord
100
AcDbRegAppTableRecord
  2
AD_DRAW
 70
     0
  0
APPID
  5
10C
330
9
100
AcDbSymbolTableRecord
100
AcDbRegAppTableRecord
  2
DESIGNERASSEMBLIES
 70
     0
  0
APPID
  5
111
330
9
100
AcDbSymbolTableRecord
100
AcDbRegAppTableRecord
  2
ACADM_DIM_EDIT
 70
     0
  0
APPID
  5
112
330
9
100
AcDbSymbolTableRecord
100
AcDbRegAppTableRecord
  2
AMDT_DM_ADJ
 70
     0
  0
APPID
  5
1A3
330
9
100
AcDbSymbolTableRecord
100
AcDbRegAppTableRecord
  2
ACAD_DSTYLE_DIMARC_LENGTH_SYMBOL
 70
     0
  0
APPID
  5
1A4
330
9
100
AcDbSymbolTableRecord
100
AcDbRegAppTableRecord
  2
ACAD_DSTYLE_DIMJOGGED_JOGANGLE_SYMBOL
 70
     0
  0
APPID
  5
2D9
330
9
100
AcDbSymbolTableRecord
100
AcDbRegAppTableRecord
  2
ACAD_PSEXT
 70
     0
  0
APPID
  5
9AB
330
9
100
AcDbSymbolTableRecord
100
AcDbRegAppTableRecord
  2
ACAD_EXEMPT_FROM_CAD_STANDARDS
 70
     0
  0
APPID
  5
218E
330
9
100
AcDbSymbolTableRecord
100
AcDbRegAppTableRecord
  2
ACAD_DSTYLE_DIMTEXT_FILL
 70
     0
  0
APPID
  5
218F
330
9
100
AcDbSymbolTableRecord
100
AcDbRegAppTableRecord
  2
ACAD_DSTYLE_DIMEXT_LENGTH
 70
     0
  0
APPID
  5
2190
330
9
100
AcDbSymbolTableRecord
100
AcDbRegAppTableRecord
  2
ACAD_DSTYLE_DIMEXT_ENABLED
 70
     0
  0
APPID
  5
2191
330
9
100
AcDbSymbolTableRecord
100
AcDbRegAppTableRecord
  2
ACAD_DSTYLE_DIM_LINETYPE
 70
     0
  0
APPID
  5
2192
330
9
100
AcDbSymbolTableRecord
100
AcDbRegAppTableRecord
  2
ACAD_DSTYLE_DIM_EXT1_LINETYPE
 70
     0
  0
APPID
  5
2193
330
9
100
AcDbSymbolTableRecord
100
AcDbRegAppTableRecord
  2
ACAD_DSTYLE_DIM_EXT2_LINETYPE
 70
     0
  0
APPID
  5
3E63
330
9
100
AcDbSymbolTableRecord
100
AcDbRegAppTableRecord
  2
AcAecLayerStandard
 70
     0
  0
APPID
  5
3E64
330
9
100
AcDbSymbolTableRecord
100
AcDbRegAppTableRecord
  2
GENIUS_GENSCREG_15
 70
     0
  0
APPID
  5
3E65
330
9
100
AcDbSymbolTableRecord
100
AcDbRegAppTableRecord
  2
GENIUS_GENOBJ-N-SDF_13
 70
     0
  0
APPID
  5
3E66
330
9
100
AcDbSymbolTableRecord
100
AcDbRegAppTableRecord
  2
GENIUS_GENODEF_13
 70
     0
  0
APPID
  5
4E53
330
9
100
AcDbSymbolTableRecord
100
AcDbRegAppTableRecord
  2
GENIUS_GENREC_14
 70
     0
  0
APPID
  5
4E54
330
9
100
AcDbSymbolTableRecord
100
AcDbRegAppTableRecord
  2
GENIUS_GENOBJ-N-REC_13
 70
     0
  0
APPID
  5
4EB8
330
9
100
AcDbSymbolTableRecord
100
AcDbRegAppTableRecord
  2
GENIUS_GENDTOL_13
 70
     0
  0
APPID
  5
53A4
330
9
100
AcDbSymbolTableRecord
100
AcDbRegAppTableRecord
  2
GENIUS_GENFIL_13
 70
     0
  0
APPID
  5
53A5
330
9
100
AcDbSymbolTableRecord
100
AcDbRegAppTableRecord
  2
GENIUS_GENOBJ-N-CHA_13
 70
     0
  0
ENDTAB
  0
TABLE
  2
DIMSTYLE
  5
A
330
0
100
AcDbSymbolTable
 70
    15
100
AcDbDimStyleTable
 71
     4
340
3C8
340
8B
340
86
340
81
  0
DIMSTYLE
105
81
330
A
100
AcDbSymbolTableRecord
100
AcDbDimStyleTableRecord
  2
AM_ISO
 70
     0
  4
"
 41
2.5
 42
1.0
 43
10.0
 44
1.0
 47
0.1
 48
0.1
 73
     0
 74
     0
 77
     1
 78
     8
 79
     2
140
3.5
141
0.0
143
0.0393701
146
0.71
147
1.5
172
     1
176
   256
177
   256
178
     2
271
     2
272
     3
274
     4
283
     0
284
     8
340
11
371
    -1
372
    -1
1001
ACAD_DSTYLE_DIMARC_LENGTH_SYMBOL
1070
   379
1070
     1
1001
ACAD_DSTYLE_DIMJOGGED_JOGANGLE_SYMBOL
1070
   384
1040
0.7853981633974483
  0
DIMSTYLE
105
82
330
A
100
AcDbSymbolTableRecord
100
AcDbDimStyleTableRecord
  2
AM_ISO$3
 70
     0
  4
"
 41
2.5
 42
1.0
 43
10.0
 44
1.0
 47
0.1
 48
0.1
 73
     0
 77
     1
 78
     8
 79
     2
140
3.5
141
0.0
143
0.0393701
146
0.71
147
1.5
176
   256
177
   256
178
     2
271
     2
272
     3
274
     4
283
     0
284
     8
288
     1
289
     0
340
11
371
    -1
372
    -1
1001
ACAD_DSTYLE_DIMARC_LENGTH_SYMBOL
1070
   379
1070
     1
1001
ACAD_DSTYLE_DIMJOGGED_JOGANGLE_SYMBOL
1070
   384
1040
0.7853981633974483
  0
DIMSTYLE
105
83
330
A
100
AcDbSymbolTableRecord
100
AcDbDimStyleTableRecord
  2
AM_ISO$4
 70
     0
  4
"
 41
2.5
 42
1.0
 43
10.0
 44
1.0
 47
0.1
 48
0.1
 73
     0
 77
     1
 78
     8
 79
     2
140
3.5
141
0.0
143
0.0393701
146
0.71
147
1.5
176
   256
177
   256
178
     2
271
     2
272
     3
274
     4
283
     0
284
     8
288
     1
289
     0
340
11
371
    -1
372
    -1
1001
ACAD_DSTYLE_DIMARC_LENGTH_SYMBOL
1070
   379
1070
     1
1001
ACAD_DSTYLE_DIMJOGGED_JOGANGLE_SYMBOL
1070
   384
1040
0.7853981633974483
  0
DIMSTYLE
105
84
330
A
100
AcDbSymbolTableRecord
100
AcDbDimStyleTableRecord
  2
AM_ISO$6
 70
     0
  4
"
 41
2.5
 42
1.0
 43
10.0
 44
1.0
 47
0.1
 48
0.1
 73
     0
 74
     0
 78
     8
 79
     2
140
3.5
141
0.0
143
0.0393701
146
0.71
147
1.5
172
     1
176
   256
177
   256
178
     2
271
     2
272
     3
274
     4
283
     0
284
     8
340
11
371
    -1
372
    -1
1001
ACAD_DSTYLE_DIMARC_LENGTH_SYMBOL
1070
   379
1070
     1
1001
ACAD_DSTYLE_DIMJOGGED_JOGANGLE_SYMBOL
1070
   384
1040
0.7853981633974483
  0
DIMSTYLE
105
85
330
A
100
AcDbSymbolTableRecord
100
AcDbDimStyleTableRecord
  2
AM_ISO$7
 70
     0
  4
"
 41
2.5
 42
1.0
 43
10.0
 44
1.0
 47
0.1
 48
0.1
 73
     0
 74
     0
 77
     1
 78
     8
 79
     2
140
5.0
141
0.0
143
0.0393701
146
0.71
147
1.5
172
     1
176
   256
177
   256
178
     2
271
     2
272
     3
274
     4
283
     0
284
     8
340
11
371
    -1
372
    -1
1001
ACAD_DSTYLE_DIMARC_LENGTH_SYMBOL
1070
   379
1070
     1
1001
ACAD_DSTYLE_DIMJOGGED_JOGANGLE_SYMBOL
1070
   384
1040
0.7853981633974483
  0
DIMSTYLE
105
86
330
A
100
AcDbSymbolTableRecord
100
AcDbDimStyleTableRecord
  2
AM_ISO$SF
 70
     0
  4
"
 41
2.5
 42
1.0
 43
10.0
 44
1.0
 47
0.1
 48
0.1
 73
     0
 74
     0
 75
     1
 76
     1
 77
     1
 78
     8
 79
     2
140
3.5
141
0.0
143
0.0393701
146
0.71
147
1.5
172
     1
176
   256
177
   256
178
     2
271
     2
272
     3
274
     4
283
     0
284
     8
340
11
371
    -1
372
    -1
1001
ACAD_DSTYLE_DIMARC_LENGTH_SYMBOL
1070
   379
1070
     1
1001
ACAD_DSTYLE_DIMJOGGED_JOGANGLE_SYMBOL
1070
   384
1040
0.7853981633974483
  0
DIMSTYLE
105
8B
330
A
100
AcDbSymbolTableRecord
100
AcDbDimStyleTableRecord
  2
AM_ISO$SH
 70
     0
  4
"
 41
2.5
 42
1.0
 43
10.0
 44
1.0
 47
0.1
 48
0.1
 73
     0
 74
     0
 75
     1
 76
     1
 77
     1
 78
     8
 79
     2
140
3.5
141
0.0
143
0.0393701
144
2.0
146
0.71
147
1.5
172
     1
173
     1
176
   256
177
   256
178
     2
271
     2
272
     3
274
     4
283
     0
284
     8
340
11
343
87
371
    -1
372
    -1
1001
ACAD_DSTYLE_DIMARC_LENGTH_SYMBOL
1070
   379
1070
     1
1001
ACAD_DSTYLE_DIMJOGGED_JOGANGLE_SYMBOL
1070
   384
1040
0.7853981633974483
  0
DIMSTYLE
105
3C8
102
{ACAD_REACTORS
330
19C9
330
19F4
330
2E07
330
2E09
330
2E0A
330
2E5C
330
5EEC
102
}
330
A
100
AcDbSymbolTableRecord
100
AcDbDimStyleTableRecord
  2
STANDARD
 70
     0
 41
3.0
 42
1.0
 43
1.0
 44
1.0
 48
0.000000001
 73
     0
 74
     0
 77
     1
 78
     8
140
3.0
141
-0.05
145
5.0
146
0.8
147
1.0
172
     1
176
     3
177
     3
178
     6
271
     2
272
     2
284
     8
340
11
371
    -1
1001
ACAD_DSTYLE_DIMEXT_LENGTH
1070
   378
1040
1.0
1001
ACAD_DSTYLE_DIMEXT_ENABLED
1070
   383
1070
     0
1001
ACAD_DSTYLE_DIMARC_LENGTH_SYMBOL
1070
   379
1070
     0
1001
ACAD_DSTYLE_DIMJOGGED_JOGANGLE_SYMBOL
1070
   384
1040
1.570796326794896
  0
DIMSTYLE
105
4DBB
102
{ACAD_REACTORS
330
19C9
330
59EF
330
5EE5
330
5EE8
330
60C7
330
60C9
102
}
330
A
100
AcDbSymbolTableRecord
100
AcDbDimStyleTableRecord
  2
STANDARD$0
 70
     0
 41
3.0
 42
1.0
 43
1.0
 44
1.0
 48
0.000000001
 73
     0
 74
     0
 77
     1
 78
     8
140
3.0
141
-0.05
145
5.0
146
0.8
147
1.0
172
     1
176
     3
177
     3
178
     6
271
     2
272
     2
284
     8
340
11
371
    -1
1001
ACAD_DSTYLE_DIMEXT_LENGTH
1070
   378
1040
1.0
1001
ACAD_DSTYLE_DIMEXT_ENABLED
1070
   383
1070
     0
1001
ACAD_DSTYLE_DIMARC_LENGTH_SYMBOL
1070
   379
1070
     0
1001
ACAD_DSTYLE_DIMJOGGED_JOGANGLE_SYMBOL
1070
   384
1040
1.570796326794896
  0
DIMSTYLE
105
5B4A
330
A
100
AcDbSymbolTableRecord
100
AcDbDimStyleTableRecord
  2
STANDARD$2
 70
     0
 41
3.0
 42
1.0
 43
1.0
 44
1.0
 48
0.000000001
 73
     0
 74
     0
 77
     1
 78
     8
140
3.0
141
-0.05
145
5.0
146
0.8
147
1.0
172
     1
176
     3
177
     3
178
     6
271
     2
272
     2
284
     8
340
11
371
    -1
1001
ACAD_DSTYLE_DIMEXT_LENGTH
1070
   378
1040
1.0
1001
ACAD_DSTYLE_DIMEXT_ENABLED
1070
   383
1070
     0
1001
ACAD_DSTYLE_DIMARC_LENGTH_SYMBOL
1070
   379
1070
     0
1001
ACAD_DSTYLE_DIMJOGGED_JOGANGLE_SYMBOL
1070
   384
1040
1.570796326794896
  0
DIMSTYLE
105
5DB1
102
{ACAD_REACTORS
330
5E5A
330
5E5D
330
5E5E
330
5E62
330
5E68
330
5E7C
330
5E88
330
5E89
330
5E8F
102
}
330
A
100
AcDbSymbolTableRecord
100
AcDbDimStyleTableRecord
  2
YL
 70
     0
 41
3.0
 42
1.0
 43
1.0
 44
1.0
 48
0.000000001
 73
     0
 74
     0
 77
     1
 78
     8
140
3.0
141
0.0
145
0.875
146
0.8
147
1.0
172
     1
176
     3
177
     3
178
     6
271
     2
272
     2
284
     8
340
11
1001
ACAD_DSTYLE_DIMEXT_LENGTH
1070
   378
1040
1.0
1001
ACAD_DSTYLE_DIMEXT_ENABLED
1070
   383
1070
     0
1001
ACAD_DSTYLE_DIMARC_LENGTH_SYMBOL
1070
   379
1070
     0
1001
ACAD_DSTYLE_DIMJOGGED_JOGANGLE_SYMBOL
1070
   384
1040
0.7853981633974483
  0
DIMSTYLE
105
5DB2
330
A
100
AcDbSymbolTableRecord
100
AcDbDimStyleTableRecord
  2
AM_ANSI
 70
     0
  4
mm
 41
0.1
 42
0.05
 43
0.5
 44
0.1
 47
0.1
 48
0.1
 78
     7
 79
     2
140
0.12
141
0.0
146
0.71
147
0.06
176
   256
177
   256
178
     2
274
     4
284
     7
340
11
371
    -1
372
    -1
1001
ACAD_DSTYLE_DIMARC_LENGTH_SYMBOL
1070
   379
1070
     1
1001
ACAD_DSTYLE_DIMJOGGED_JOGANGLE_SYMBOL
1070
   384
1040
0.7853981633974483
  0
DIMSTYLE
105
5DB3
330
A
100
AcDbSymbolTableRecord
100
AcDbDimStyleTableRecord
  2
AM_ANSI$SF
 70
     0
  4
mm
 41
0.1
 42
0.05
 43
0.5
 44
0.1
 47
0.1
 48
0.1
 75
     1
 76
     1
 78
     7
 79
     2
140
0.12
141
0.0
146
0.71
147
0.06
176
   256
177
   256
178
     2
274
     4
284
     7
340
11
371
    -1
372
    -1
1001
ACAD_DSTYLE_DIMARC_LENGTH_SYMBOL
1070
   379
1070
     1
1001
ACAD_DSTYLE_DIMJOGGED_JOGANGLE_SYMBOL
1070
   384
1040
0.7853981633974483
  0
DIMSTYLE
105
5DB4
330
A
100
AcDbSymbolTableRecord
100
AcDbDimStyleTableRecord
  2
AM_ANSI$SH
 70
     0
  4
mm
 41
0.1
 42
0.05
 43
0.5
 44
0.1
 47
0.1
 48
0.1
 75
     1
 76
     1
 78
     7
 79
     2
140
0.12
141
0.0
146
0.71
147
0.06
173
     1
176
   256
177
   256
178
     2
274
     4
284
     7
340
11
343
87
371
    -1
372
    -1
1001
ACAD_DSTYLE_DIMARC_LENGTH_SYMBOL
1070
   379
1070
     1
1001
ACAD_DSTYLE_DIMJOGGED_JOGANGLE_SYMBOL
1070
   384
1040
0.7853981633974483
  0
ENDTAB
  0
TABLE
  2
BLOCK_RECORD
  5
1
330
0
100
AcDbSymbolTable
 70
    26
  0
BLOCK_RECORD
  5
1F
102
{ACAD_XDICTIONARY
360
8F
102
}
330
1
100
AcDbSymbolTableRecord
100
AcDbBlockTableRecord
  2
*Model_Space
340
22
  0
BLOCK_RECORD
  5
1B
102
{ACAD_XDICTIONARY
360
2D9F
102
}
330
1
100
AcDbSymbolTableRecord
100
AcDbBlockTableRecord
  2
*Paper_Space
340
1E
  0
BLOCK_RECORD
  5
87
330
1
100
AcDbSymbolTableRecord
100
AcDbBlockTableRecord
  2
GENAXEH
340
0
  0
BLOCK_RECORD
  5
2FB
330
1
100
AcDbSymbolTableRecord
100
AcDbBlockTableRecord
  2
_DatumFilled
340
0
  0
BLOCK_RECORD
  5
2FF
330
1
100
AcDbSymbolTableRecord
100
AcDbBlockTableRecord
  2
_None
340
0
  0
BLOCK_RECORD
  5
125D
102
{ACAD_XDICTIONARY
360
128A
102
}
330
1
100
AcDbSymbolTableRecord
100
AcDbBlockTableRecord
  2
A$C75C560CA
340
0
1001
ACAD
1000
DesignCenter Data
1002
{
1070
     1
1070
     4
1002
}
  0
BLOCK_RECORD
  5
1A4C
330
1
100
AcDbSymbolTableRecord
100
AcDbBlockTableRecord
  2
*D5
340
0
  0
BLOCK_RECORD
  5
2CC0
102
{ACAD_XDICTIONARY
360
2CC2
102
}
330
1
100
AcDbSymbolTableRecord
100
AcDbBlockTableRecord
  2
A$C718C4946
340
0
1001
ACAD
1000
DesignCenter Data
1002
{
1070
     1
1070
     4
1002
}
  0
BLOCK_RECORD
  5
59F7
330
1
100
AcDbSymbolTableRecord
100
AcDbBlockTableRecord
  2
*D7
340
0
  0
BLOCK_RECORD
  5
5EF8
330
1
100
AcDbSymbolTableRecord
100
AcDbBlockTableRecord
  2
*D8
340
0
  0
BLOCK_RECORD
  5
5F04
330
1
100
AcDbSymbolTableRecord
100
AcDbBlockTableRecord
  2
*D9
340
0
  0
BLOCK_RECORD
  5
5F12
330
1
100
AcDbSymbolTableRecord
100
AcDbBlockTableRecord
  2
*D10
340
0
  0
BLOCK_RECORD
  5
5F1E
330
1
100
AcDbSymbolTableRecord
100
AcDbBlockTableRecord
  2
*D11
340
0
  0
BLOCK_RECORD
  5
5F2A
330
1
100
AcDbSymbolTableRecord
100
AcDbBlockTableRecord
  2
*D12
340
0
  0
BLOCK_RECORD
  5
5F36
330
1
100
AcDbSymbolTableRecord
100
AcDbBlockTableRecord
  2
*D13
340
0
  0
BLOCK_RECORD
  5
5F44
330
1
100
AcDbSymbolTableRecord
100
AcDbBlockTableRecord
  2
*D14
340
0
  0
BLOCK_RECORD
  5
5F50
330
1
100
AcDbSymbolTableRecord
100
AcDbBlockTableRecord
  2
*D15
340
0
  0
BLOCK_RECORD
  5
5F5C
330
1
100
AcDbSymbolTableRecord
100
AcDbBlockTableRecord
  2
*D16
340
0
  0
BLOCK_RECORD
  5
5F68
330
1
100
AcDbSymbolTableRecord
100
AcDbBlockTableRecord
  2
*D17
340
0
  0
BLOCK_RECORD
  5
5F73
330
1
100
AcDbSymbolTableRecord
100
AcDbBlockTableRecord
  2
*D18
340
0
  0
BLOCK_RECORD
  5
5F7F
330
1
100
AcDbSymbolTableRecord
100
AcDbBlockTableRecord
  2
*D19
340
0
  0
BLOCK_RECORD
  5
60CD
330
1
100
AcDbSymbolTableRecord
100
AcDbBlockTableRecord
  2
*D20
340
0
  0
BLOCK_RECORD
  5
60D5
330
1
100
AcDbSymbolTableRecord
100
AcDbBlockTableRecord
  2
*D21
340
0
  0
ENDTAB
  0
ENDSEC
  0
SECTION
  2
BLOCKS
  0
BLOCK
  5
20
330
1F
100
AcDbEntity
  8
0
100
AcDbBlockBegin
  2
*Model_Space
 70
     0
 10
0.0
 20
0.0
 30
0.0
  3
*Model_Space
  1

  0
ENDBLK
  5
21
330
1F
100
AcDbEntity
  8
0
100
AcDbBlockEnd
  0
BLOCK
  5
1C
330
1B
100
AcDbEntity
 67
     1
  8
0
100
AcDbBlockBegin
  2
*Paper_Space
 70
     0
 10
0.0
 20
0.0
 30
0.0
  3
*Paper_Space
  1

  0
ENDBLK
  5
1D
330
1B
100
AcDbEntity
 67
     1
  8
0
100
AcDbBlockEnd
  0
BLOCK
  5
89
330
87
100
AcDbEntity
  8
0
100
AcDbBlockBegin
  2
GENAXEH
 70
     0
 10
0.0
 20
0.0
 30
0.0
  3
GENAXEH
  1

  0
LINE
  5
88
330
87
100
AcDbEntity
  8
0
100
AcDbLine
 10
-1.0
 20
0.0
 30
0.0
 11
1.0
 21
0.0
 31
0.0
  0
ENDBLK
  5
8A
330
87
100
AcDbEntity
  8
0
100
AcDbBlockEnd
  0
BLOCK
  5
2FC
330
2FB
100
AcDbEntity
  8
0
100
AcDbBlockBegin
  2
_DatumFilled
 70
     0
 10
0.0
 20
0.0
 30
0.0
  3
_DatumFilled
  1

  0
SOLID
  5
2FD
330
2FB
100
AcDbEntity
  8
0
  6
ByBlock
 62
     0
100
AcDbTrace
 10
0.0
 20
0.5773502700000001
 30
0.0
 11
-1.0
 21
0.0
 31
0.0
 12
0.0
 22
-0.5773502700000001
 32
0.0
 13
0.0
 23
-0.5773502700000001
 33
0.0
  0
ENDBLK
  5
2FE
330
2FB
100
AcDbEntity
  8
0
100
AcDbBlockEnd
  0
BLOCK
  5
300
330
2FF
100
AcDbEntity
  8
0
100
AcDbBlockBegin
  2
_None
 70
     0
 10
0.0
 20
0.0
 30
0.0
  3
_None
  1

  0
ENDBLK
  5
301
330
2FF
100
AcDbEntity
  8
0
100
AcDbBlockEnd
  0
BLOCK
  5
128B
330
125D
100
AcDbEntity
  8
0
100
AcDbBlockBegin
  2
A$C75C560CA
 70
     0
 10
0.0
 20
0.0
 30
0.0
  3
A$C75C560CA
  1

  0
TEXT
  5
125E
330
125D
100
AcDbEntity
  8
FRAME
100
AcDbText
 10
198.0618690923416
 20
18.19796331725411
 30
0.0
 40
2.6
  1
M 1:1.5
 41
0.7
  7
ROMANS
100
AcDbText
  0
MTEXT
  5
125F
330
125D
100
AcDbEntity
  8
DIM
100
AcDbMText
 10
147.8052230115329
 20
14.75214036007798
 30
0.0
 40
2.0
 41
25.0
 71
     1
 72
     5
  1
X       %%p0.5\P1PL     %%p0.2\P2PL     %%p0.1\PANGLE   %%p30'
  7
ROMANS
 73
     1
 44
1.0
1001
ACAD
1000
MTEXTBEGIN
1070
    73
1070
     1
1070
    44
1040
1.0
1070
    74
1070
     0
1000
MTEXTEND
  0
LWPOLYLINE
  5
1260
330
125D
100
AcDbEntity
  8
SPEC
100
AcDbPolyline
 90
        2
 70
     0
 43
0.0
 10
46.10857599724545
 20
22.43272629327407
 10
107.7609609669623
 20
22.43272629327407
  0
LINE
  5
1261
330
125D
100
AcDbEntity
  8
SPEC
  6
HIDDEN
100
AcDbLine
 10
95.76650416238317
 20
4.962468073120362
 30
0.0
 11
130.435771777227
 21
4.962468073120362
 31
0.0
  0
TEXT
  5
1262
330
125D
100
AcDbEntity
  8
DATA
 62
     1
100
AcDbText
 10
93.21139064254088
 20
5.812552698566491
 30
0.0
 40
4.0
  1
(ST4018M0406-B)
 41
0.7
  7
ROMANS
100
AcDbText
  0
TEXT
  5
1263
330
125D
100
AcDbEntity
  8
DATA
 62
     1
100
AcDbText
 10
231.317878293991
 20
2.415962237127928
 30
0.0
 40
4.0
  1
ST4018M0406
 41
0.7
  7
ROMANS
100
AcDbText
  0
TEXT
  5
1264
330
125D
100
AcDbEntity
  8
DATA
 62
     1
100
AcDbText
 10
93.38807665210561
 20
11.87217307676974
 30
0.0
 40
4.0
  1
ST4018M0406-A
 41
0.7
  7
ROMANS
100
AcDbText
  0
LWPOLYLINE
  5
1265
330
125D
100
AcDbEntity
  8
SPEC
100
AcDbPolyline
 90
        2
 70
     0
 43
0.0
 10
0.0
 20
22.43272629327407
 10
46.20410858955392
 20
22.43272629327407
  0
LINE
  5
1266
330
125D
100
AcDbEntity
  8
DIM
100
AcDbLine
 10
146.5280168612521
 20
16.58038901312318
 30
0.0
 11
213.8442914438065
 21
16.58038901312318
 31
0.0
  0
LINE
  5
1267
330
125D
100
AcDbEntity
  8
DIM
100
AcDbLine
 10
228.8020370376457
 20
12.55466422304016
 30
0.0
 11
228.8020370376457
 21
0.466065179059342
 31
0.0
  0
LINE
  5
1268
330
125D
100
AcDbEntity
  8
DIM
100
AcDbLine
 10
195.7433482585834
 20
22.43272629327407
 30
0.0
 11
195.7433482585834
 21
0.0
 31
0.0
  0
LINE
  5
1269
330
125D
100
AcDbEntity
  8
DIM
100
AcDbLine
 10
178.9743605596215
 20
22.40187586043203
 30
0.0
 11
178.9743605596215
 21
6.730972725647461
 31
0.0
  0
LINE
  5
126A
330
125D
100
AcDbEntity
  8
DIM
100
AcDbLine
 10
167.6954380838244
 20
0.0
 30
0.0
 11
167.6954380838244
 21
22.32683486367228
 31
0.0
  0
LINE
  5
126B
330
125D
100
AcDbEntity
  8
DIM
100
AcDbLine
 10
167.9351755979376
 20
22.43272629327407
 30
0.0
 11
167.9351755979376
 21
0.0
 31
0.0
  0
LINE
  5
126C
330
125D
100
AcDbEntity
  8
DIM
100
AcDbLine
 10
213.8442921475325
 20
22.43272629327407
 30
0.0
 11
213.8442921475325
 21
0.0
 31
0.0
  0
LINE
  5
126D
330
125D
100
AcDbEntity
  8
DIM
100
AcDbLine
 10
74.01093817688343
 20
22.44942325395482
 30
0.0
 11
74.01093817688343
 21
0.0031114061869175
 31
0.0
  0
LINE
  5
126E
330
125D
100
AcDbEntity
  8
DIM
100
AcDbLine
 10
89.1300425376794
 20
22.44942325395482
 30
0.0
 11
89.1300425376794
 21
-0.0380746962764533
 31
0.0
  0
LINE
  5
126F
330
125D
100
AcDbEntity
  8
DIM
100
AcDbLine
 10
52.48454273927814
 20
22.43272629327407
 30
0.0
 11
52.48454273927814
 21
-0.0273489207340845
 31
0.0
  0
LINE
  5
1270
330
125D
100
AcDbEntity
  8
DIM
100
AcDbLine
 10
0.0
 20
22.43272629327407
 30
0.0
 11
292.2263229886494
 21
22.43272629327407
 31
0.0
  0
LINE
  5
1271
330
125D
100
AcDbEntity
  8
DIM
100
AcDbLine
 10
89.1300425376794
 20
17.17069886361321
 30
0.0
 11
0.1625959174562013
 21
17.17069886361321
 31
0.0
  0
LINE
  5
1272
330
125D
100
AcDbEntity
  8
DIM
100
AcDbLine
 10
0.1625959174562013
 20
11.90867143395235
 30
0.0
 11
89.1300425376794
 21
11.90867143395235
 31
0.0
  0
LINE
  5
1273
330
125D
100
AcDbEntity
  8
DIM
100
AcDbLine
 10
0.3324718815085816
 20
6.646644004291488
 30
0.0
 11
89.1300425376794
 21
6.646644004291488
 31
0.0
  0
LINE
  5
1274
330
125D
100
AcDbEntity
  8
DIM
100
AcDbLine
 10
11.37444121259409
 20
22.43272629327407
 30
0.0
 11
11.37444121259409
 21
0.0
 31
0.0
  0
LINE
  5
1275
330
125D
100
AcDbEntity
  8
DIM
100
AcDbLine
 10
213.8442921475325
 20
6.719875644631542
 30
0.0
 11
167.6954380838244
 21
6.719875644631542
 31
0.0
  0
LINE
  5
1276
330
125D
100
AcDbEntity
  8
DIM
100
AcDbLine
 10
167.6954380838244
 20
11.60070934481985
 30
0.0
 11
213.8442921475325
 21
11.60070934481985
 31
0.0
  0
TEXT
  5
1277
330
125D
100
AcDbEntity
  8
DIM
100
AcDbText
 10
149.3843128235895
 20
18.01141814143534
 30
0.0
 40
2.5
  1
SCALE FREE
 41
0.7
  7
ROMANS
 72
     2
 11
165.3009794902561
 21
18.01141814143534
 31
0.0
100
AcDbText
  0
LINE
  5
1278
330
125D
100
AcDbEntity
  8
DIM
100
AcDbLine
 10
146.5280168612521
 20
22.43272629327407
 30
0.0
 11
146.5280168612521
 21
0.0
 31
0.0
  0
TEXT
  5
1279
330
125D
100
AcDbEntity
  8
DIM
100
AcDbText
 10
75.4322038344294
 20
2.370654514404577
 30
0.0
 40
3.0
  1
APVD
 41
0.7
  7
ROMANS
100
AcDbText
  0
TEXT
  5
127A
330
125D
100
AcDbEntity
  8
DIM
100
AcDbText
 10
55.94274150779165
 20
2.370654514404577
 30
0.0
 40
3.0
  1
DATE
 41
0.7
  7
ROMANS
100
AcDbText
  0
TEXT
  5
127B
330
125D
100
AcDbEntity
  8
DIM
100
AcDbText
 10
14.2016707071748
 20
2.370654514404577
 30
0.0
 40
3.0
  1
DESCRIPTION
 41
0.7
  7
ROMANS
100
AcDbText
  0
TEXT
  5
127C
330
125D
100
AcDbEntity
  8
DIM
100
AcDbText
 10
2.706016815254362
 20
2.370654514404577
 30
0.0
 40
3.0
  1
REV
 41
0.7
  7
ROMANS
 72
     2
 11
8.406016815254361
 21
2.370654514404577
 31
0.0
100
AcDbText
  0
TEXT
  5
127D
330
125D
100
AcDbEntity
  8
DIM
100
AcDbText
 10
169.8977377686171
 20
17.46653611070155
 30
0.0
 40
3.0
  1
APVD
 41
0.7
  7
ROMANS
 72
     2
 11
177.3977377686171
 21
17.46653611070155
 31
0.0
100
AcDbText
  0
TEXT
  5
127E
330
125D
100
AcDbEntity
  8
DIM
100
AcDbText
 10
169.0333720135623
 20
12.69433802244657
 30
0.0
 40
3.0
  1
CHKD
 41
0.7
  7
ROMANS
 72
     2
 11
177.2333720135623
 21
12.69433802244657
 31
0.0
100
AcDbText
  0
TEXT
  5
127F
330
125D
100
AcDbEntity
  8
DIM
100
AcDbText
 10
170.0393831475915
 20
7.524456556443624
 30
0.0
 40
3.0
  1
DRN
 41
0.7
  7
ROMANS
 72
     2
 11
176.0393831475915
 21
7.524456556443624
 31
0.0
100
AcDbText
  0
TEXT
  5
1280
330
125D
100
AcDbEntity
  8
DIM
100
AcDbText
 10
172.2752627425855
 20
2.329814948448756
 30
0.0
 40
3.0
  1
SIGNATURE
 41
0.7
  7
ROMANS
 72
     2
 11
188.7752627425855
 21
2.329814948448756
 31
0.0
100
AcDbText
  0
TEXT
  5
1281
330
125D
100
AcDbEntity
  8
DIM
100
AcDbText
 10
201.0406724436551
 20
2.224204435222077
 30
0.0
 40
3.0
  1
DATE
 41
0.7
  7
ROMANS
 72
     2
 11
208.240672443655
 21
2.224204435222077
 31
0.0
100
AcDbText
  0
TEXT
  5
1282
330
125D
100
AcDbEntity
  8
DIM
100
AcDbText
 10
218.9507052575232
 20
15.70268350642743
 30
0.0
 40
3.799999999999999
  1
STEPPING MOTOR
 41
0.8
  7
ITALICT
 72
     2
 11
263.9716576384756
 21
15.70268350642743
 31
0.0
100
AcDbText
  0
LINE
  5
1283
330
125D
100
AcDbEntity
  8
DIM
100
AcDbLine
 10
213.8442921475325
 20
12.57581317811855
 30
0.0
 11
291.9564623227739
 21
12.57581317811855
 31
0.0
  0
TEXT
  5
1284
330
125D
100
AcDbEntity
  8
DIM
100
AcDbText
 10
229.779050611357
 20
8.525813178118596
 30
0.0
 40
2.5
  1
DWG.NO
 41
0.7
  7
ROMANS
 72
     2
 11
239.529050611357
 21
8.525813178118596
 31
0.0
100
AcDbText
  0
TEXT
  5
1285
330
125D
100
AcDbEntity
  8
DATA
 62
     1
100
AcDbText
 10
92.69009844013249
 20
17.14709370037587
 30
0.0
 40
3.0
  1
NANOTEC:
 41
0.7
  7
ROMANS
100
AcDbText
  0
TEXT
  5
1286
330
125D
100
AcDbEntity
  8
FRAME
100
AcDbText
 10
196.2632570647433
 20
7.811243394680104
 30
0.0
 40
2.6
  1
14.02.06
 41
0.7
  7
ROMANS
100
AcDbText
  0
LINE
  5
1287
330
125D
100
AcDbEntity
  8
SPEC
100
AcDbLine
 10
0.0
 20
22.43272629327407
 30
0.0
 11
0.0
 21
124.0795686925671
 31
0.0
  0
TEXT
  5
1288
330
125D
100
AcDbEntity
  8
DIM
100
AcDbText
 10
1.48247182125101
 20
198.3559972407229
 30
0.0
 40
3.0
  1
DIMENSION (UNIT : mm)
 41
0.7
  7
ROMANS
100
AcDbText
  0
LWPOLYLINE
  5
1289
330
125D
100
AcDbEntity
  8
DIM
 62
     4
100
AcDbPolyline
 90
        4
 70
     1
 43
0.6
 10
0.0
 20
202.9639180777265
 10
0.0
 20
0.0
 10
291.9564623227739
 20
0.0
 10
291.9564623227739
 20
202.9639180777265
  0
ENDBLK
  5
128C
330
125D
100
AcDbEntity
  8
0
100
AcDbBlockEnd
  0
BLOCK
  5
1A56
330
1A4C
100
AcDbEntity
  8
0
100
AcDbBlockBegin
  2
*D5
 70
     1
 10
0.0
 20
0.0
 30
0.0
  3
*D5
  1

  0
LINE
  5
5C44
330
1A4C
100
AcDbEntity
  8
DIM
 62
     3
370
    -2
100
AcDbLine
 10
129.9063688288351
 20
73.09868988223387
 30
0.0
 11
129.9063688288351
 21
54.91119174080847
 31
0.0
  0
LINE
  5
5C45
330
1A4C
100
AcDbEntity
  8
DIM
 62
     3
370
    -2
100
AcDbLine
 10
139.0972407104071
 20
59.09299455805125
 30
0.0
 11
139.0972407104071
 21
54.91119174080847
 31
0.0
  0
LINE
  5
5C46
330
1A4C
100
AcDbEntity
  8
DIM
 62
     3
100
AcDbLine
 10
132.3063688288351
 20
55.91119174080848
 30
0.0
 11
139.0972407104071
 21
55.91119174080848
 31
0.0
  0
SOLID
  5
5C47
330
1A4C
100
AcDbEntity
  8
DIM
 62
     3
100
AcDbTrace
 10
132.3063688288351
 20
56.31119174080847
 30
0.0
 11
132.3063688288351
 21
55.51119174080848
 31
0.0
 12
129.9063688288351
 22
55.91119174080848
 32
0.0
 13
129.9063688288351
 23
55.91119174080848
 33
0.0
  0
MTEXT
  5
5C48
330
1A4C
100
AcDbEntity
  8
DIM
 62
     6
100
AcDbMText
 10
134.4901433864878
 20
58.11119174080848
 30
0.0
 40
2.399999999999999
 41
0.0
 71
     5
 72
     1
  1
\A1;a
  7
ROMANS
 73
     1
 44
1.0
1001
ACAD
1000
MTEXTBEGIN
1070
    73
1070
     1
1070
    44
1040
1.0
1070
    74
1070
     0
1000
MTEXTEND
  0
POINT
  5
5C49
330
1A4C
100
AcDbEntity
  8
Defpoints
 62
     0
100
AcDbPoint
 10
129.9063688288351
 20
74.09868988223387
 30
0.0
  0
POINT
  5
5C4A
330
1A4C
100
AcDbEntity
  8
Defpoints
 62
     0
100
AcDbPoint
 10
139.0972407104071
 20
60.09299455805124
 30
0.0
  0
POINT
  5
5C4B
330
1A4C
100
AcDbEntity
  8
Defpoints
 62
     0
100
AcDbPoint
 10
139.0972407104071
 20
55.91119174080848
 30
0.0
  0
ENDBLK
  5
1A57
330
1A4C
100
AcDbEntity
  8
0
100
AcDbBlockEnd
  0
BLOCK
  5
2CC3
330
2CC0
100
AcDbEntity
  8
0
100
AcDbBlockBegin
  2
A$C718C4946
 70
     0
 10
0.0
 20
0.0
 30
0.0
  3
A$C718C4946
  1

  0
TEXT
  5
2CC1
330
2CC0
100
AcDbEntity
  8
DATA
100
AcDbText
 10
-0.3199997827265406
 20
-0.0000001889967507
 30
0.0
 40
2.4
  1
60%%P15%
 41
0.7
  7
ROMANS
100
AcDbText
  0
ENDBLK
  5
2CC4
330
2CC0
100
AcDbEntity
  8
0
100
AcDbBlockEnd
  0
BLOCK
  5
59FE
330
59F7
100
AcDbEntity
  8
0
100
AcDbBlockBegin
  2
*D7
 70
     1
 10
0.0
 20
0.0
 30
0.0
  3
*D7
  1

  0
LINE
  5
5A10
330
59F7
100
AcDbEntity
  8
AM_5
 62
     3
100
AcDbLine
 10
121.5695676576443
 20
75.85282582666772
 30
0.0
 11
114.9224874817821
 21
75.85282582666772
 31
0.0
  0
SOLID
  5
5A11
330
59F7
100
AcDbEntity
  8
AM_5
 62
     3
100
AcDbTrace
 10
121.5695676576443
 20
76.35282582666772
 30
0.0
 11
121.5695676576443
 21
75.35282582666773
 31
0.0
 12
124.5695676576443
 22
75.85282582666772
 32
0.0
 13
124.5695676576443
 23
75.85282582666772
 33
0.0
  0
SOLID
  5
5A12
330
59F7
100
AcDbEntity
  8
AM_5
 62
     3
100
AcDbTrace
 10
114.9224874817821
 20
76.35282582666772
 30
0.0
 11
114.9224874817821
 21
75.35282582666773
 31
0.0
 12
111.9224874817822
 22
75.85282582666772
 32
0.0
 13
111.9224874817822
 23
75.85282582666772
 33
0.0
  0
POINT
  5
5A13
330
59F7
100
AcDbEntity
  8
Defpoints
 62
     0
100
AcDbPoint
 10
124.5695676576443
 20
75.85282582666775
 30
0.0
  0
POINT
  5
5A14
330
59F7
100
AcDbEntity
  8
Defpoints
 62
     0
100
AcDbPoint
 10
111.9224874817822
 20
75.85282582666772
 30
0.0
  0
POINT
  5
5A15
330
59F7
100
AcDbEntity
  8
Defpoints
 62
     0
100
AcDbPoint
 10
111.9224874817822
 20
75.85282582666772
 30
0.0
  0
ENDBLK
  5
59FF
330
59F7
100
AcDbEntity
  8
0
100
AcDbBlockEnd
  0
BLOCK
  5
5F02
330
5EF8
100
AcDbEntity
  8
0
100
AcDbBlockBegin
  2
*D8
 70
     1
 10
0.0
 20
0.0
 30
0.0
  3
*D8
  1

  0
LINE
  5
62B9
330
5EF8
100
AcDbEntity
  8
DIM
  6
ACISOTGL
 62
     3
370
    -2
100
AcDbLine
 10
1101.216641901827
 20
612.5553310770209
 30
0.0
 11
1101.216641901827
 21
641.0357296232305
 31
0.0
  0
LINE
  5
62BA
330
5EF8
100
AcDbEntity
  8
DIM
  6
ACISOTGL
 62
     3
370
    -2
100
AcDbLine
 10
1120.266641901827
 20
612.5553310770206
 30
0.0
 11
1120.266641901827
 21
641.0357296232305
 31
0.0
  0
LINE
  5
62BB
330
5EF8
100
AcDbEntity
  8
DIM
  6
ACISOTGL
 62
     3
100
AcDbLine
 10
1104.216641901827
 20
640.0357296232304
 30
0.0
 11
1117.266641901827
 21
640.0357296232304
 31
0.0
  0
SOLID
  5
62BC
330
5EF8
100
AcDbEntity
  8
DIM
  6
ACISOTGL
 62
     3
100
AcDbTrace
 10
1104.216641901827
 20
640.5357296232304
 30
0.0
 11
1104.216641901827
 21
639.5357296232305
 31
0.0
 12
1101.216641901827
 22
640.0357296232304
 32
0.0
 13
1101.216641901827
 23
640.0357296232304
 33
0.0
  0
SOLID
  5
62BD
330
5EF8
100
AcDbEntity
  8
DIM
  6
ACISOTGL
 62
     3
100
AcDbTrace
 10
1117.266641901827
 20
640.5357296232304
 30
0.0
 11
1117.266641901827
 21
639.5357296232305
 31
0.0
 12
1120.266641901827
 22
640.0357296232304
 32
0.0
 13
1120.266641901827
 23
640.0357296232304
 33
0.0
  0
MTEXT
  5
62BE
330
5EF8
100
AcDbEntity
  8
DIM
  6
ACISOTGL
 62
     6
100
AcDbMText
 10
1109.957140190402
 20
642.5674485863956
 30
0.0
 40
3.0
 41
0.0
 71
     5
 72
     1
  1
\A1;19.05
 73
     1
 44
1.0
1001
ACAD
1000
MTEXTBEGIN
1070
    73
1070
     1
1070
    44
1040
1.0
1070
    74
1070
     0
1000
MTEXTEND
  0
POINT
  5
62BF
330
5EF8
100
AcDbEntity
  8
Defpoints
  6
ACISOTGL
 62
     0
100
AcDbPoint
 10
1101.216641901827
 20
611.5553310770209
 30
0.0
  0
POINT
  5
62C0
330
5EF8
100
AcDbEntity
  8
Defpoints
  6
ACISOTGL
 62
     0
100
AcDbPoint
 10
1120.266641901827
 20
611.5553310770207
 30
0.0
  0
POINT
  5
62C1
330
5EF8
100
AcDbEntity
  8
Defpoints
  6
ACISOTGL
 62
     0
100
AcDbPoint
 10
1120.266641901827
 20
640.0357296232304
 30
0.0
  0
ENDBLK
  5
5F03
330
5EF8
100
AcDbEntity
  8
0
100
AcDbBlockEnd
  0
BLOCK
  5
5F10
330
5F04
100
AcDbEntity
  8
0
100
AcDbBlockBegin
  2
*D9
 70
     1
 10
0.0
 20
0.0
 30
0.0
  3
*D9
  1

  0
LINE
  5
6292
330
5F04
100
AcDbEntity
  8
DIM
 62
     3
370
    -2
100
AcDbLine
 10
953.8283187119789
 20
614.0553310770208
 30
0.0
 11
945.7498128098769
 21
614.0553310770208
 31
0.0
  0
LINE
  5
6293
330
5F04
100
AcDbEntity
  8
DIM
 62
     3
370
    -2
100
AcDbLine
 10
953.8283187119789
 20
609.0553310770208
 30
0.0
 11
945.7498128098769
 21
609.0553310770208
 31
0.0
  0
LINE
  5
6294
330
5F04
100
AcDbEntity
  8
DIM
 62
     3
370
    -2
100
AcDbLine
 10
946.7498128098769
 20
617.0553310770208
 30
0.0
 11
946.7498128098769
 21
620.0553310770207
 31
0.0
  0
LINE
  5
6295
330
5F04
100
AcDbEntity
  8
DIM
 62
     3
370
    -2
100
AcDbLine
 10
946.7498128098769
 20
606.0553310770208
 30
0.0
 11
946.7498128098769
 21
581.8792294025491
 31
0.0
  0
LINE
  5
6296
330
5F04
100
AcDbEntity
  8
DIM
 62
     3
370
    -2
100
AcDbLine
 10
946.7498128098769
 20
614.0553310770208
 30
0.0
 11
946.7498128098769
 21
609.0553310770208
 31
0.0
  0
SOLID
  5
6297
330
5F04
100
AcDbEntity
  8
DIM
 62
     3
100
AcDbTrace
 10
946.249812809877
 20
617.0553310770208
 30
0.0
 11
947.249812809877
 21
617.0553310770208
 31
0.0
 12
946.7498128098769
 22
614.0553310770208
 32
0.0
 13
946.7498128098769
 23
614.0553310770208
 33
0.0
  0
SOLID
  5
6298
330
5F04
100
AcDbEntity
  8
DIM
 62
     3
100
AcDbTrace
 10
946.249812809877
 20
606.0553310770208
 30
0.0
 11
947.249812809877
 21
606.0553310770208
 31
0.0
 12
946.7498128098769
 22
609.0553310770208
 32
0.0
 13
946.7498128098769
 23
609.0553310770208
 33
0.0
  0
MTEXT
  5
6299
330
5F04
100
AcDbEntity
  8
DIM
 62
     6
100
AcDbMText
 10
943.195037912196
 20
589.6249319946364
 30
0.0
 40
3.0
 41
0.0
 71
     5
 72
     1
  1
\A1;\A1;%%C5{\H0.7x;\S 0^ -0.012;}
 11
0.0000000000000001
 21
1.0
 31
0.0
 73
     1
 44
1.0
1001
ACAD
1000
MTEXTBEGIN
1070
    73
1070
     1
1070
    44
1040
1.0
1070
    74
1070
     0
1000
MTEXTEND
  0
POINT
  5
629A
330
5F04
100
AcDbEntity
  8
Defpoints
 62
     0
100
AcDbPoint
 10
954.8283187119791
 20
614.0553310770208
 30
0.0
  0
POINT
  5
629B
330
5F04
100
AcDbEntity
  8
Defpoints
 62
     0
100
AcDbPoint
 10
954.8283187119791
 20
609.0553310770208
 30
0.0
  0
POINT
  5
629C
330
5F04
100
AcDbEntity
  8
Defpoints
 62
     0
100
AcDbPoint
 10
946.7498128098769
 20
609.0553310770208
 30
0.0
  0
ENDBLK
  5
5F11
330
5F04
100
AcDbEntity
  8
0
100
AcDbBlockEnd
  0
BLOCK
  5
5F1C
330
5F12
100
AcDbEntity
  8
0
100
AcDbBlockBegin
  2
*D10
 70
     1
 10
0.0
 20
0.0
 30
0.0
  3
*D10
  1

  0
LINE
  5
62AF
330
5F12
100
AcDbEntity
  8
DIM
 62
     3
370
    -2
100
AcDbLine
 10
975.828318711979
 20
622.5553310770208
 30
0.0
 11
937.5079433920458
 21
622.5553310770208
 31
0.0
  0
LINE
  5
62B0
330
5F12
100
AcDbEntity
  8
DIM
 62
     3
370
    -2
100
AcDbLine
 10
975.828318711979
 20
600.5553310770208
 30
0.0
 11
937.5079433920458
 21
600.5553310770208
 31
0.0
  0
LINE
  5
62B1
330
5F12
100
AcDbEntity
  8
DIM
 62
     3
370
    -2
100
AcDbLine
 10
938.5079433920457
 20
619.5553310770208
 30
0.0
 11
938.5079433920457
 21
603.5553310770207
 31
0.0
  0
SOLID
  5
62B2
330
5F12
100
AcDbEntity
  8
DIM
 62
     3
100
AcDbTrace
 10
938.0079433920458
 20
619.5553310770208
 30
0.0
 11
939.0079433920458
 21
619.5553310770208
 31
0.0
 12
938.5079433920457
 22
622.5553310770208
 32
0.0
 13
938.5079433920457
 23
622.5553310770208
 33
0.0
  0
SOLID
  5
62B3
330
5F12
100
AcDbEntity
  8
DIM
 62
     3
100
AcDbTrace
 10
938.0079433920458
 20
603.5553310770207
 30
0.0
 11
939.0079433920458
 21
603.5553310770207
 31
0.0
 12
938.5079433920457
 22
600.5553310770208
 32
0.0
 13
938.5079433920457
 23
600.5553310770208
 33
0.0
  0
MTEXT
  5
62B4
330
5F12
100
AcDbEntity
  8
DIM
 62
     6
100
AcDbMText
 10
934.9531684943649
 20
613.3297188095598
 30
0.0
 40
3.0
 41
0.0
 71
     5
 72
     1
  1
\A1;\A1;%%C22{\H0.7x;\S 0^ -0.05;}
 11
0.0000000000000001
 21
1.0
 31
0.0
 73
     1
 44
1.0
1001
ACAD
1000
MTEXTBEGIN
1070
    73
1070
     1
1070
    44
1040
1.0
1070
    74
1070
     0
1000
MTEXTEND
  0
POINT
  5
62B5
330
5F12
100
AcDbEntity
  8
Defpoints
 62
     0
100
AcDbPoint
 10
976.828318711979
 20
622.5553310770208
 30
0.0
  0
POINT
  5
62B6
330
5F12
100
AcDbEntity
  8
Defpoints
 62
     0
100
AcDbPoint
 10
976.828318711979
 20
600.5553310770208
 30
0.0
  0
POINT
  5
62B7
330
5F12
100
AcDbEntity
  8
Defpoints
 62
     0
100
AcDbPoint
 10
938.5079433920457
 20
600.5553310770208
 30
0.0
  0
ENDBLK
  5
5F1D
330
5F12
100
AcDbEntity
  8
0
100
AcDbBlockEnd
  0
BLOCK
  5
5F28
330
5F1E
100
AcDbEntity
  8
0
100
AcDbBlockBegin
  2
*D11
 70
     1
 10
0.0
 20
0.0
 30
0.0
  3
*D11
  1

  0
LINE
  5
6243
330
5F1E
100
AcDbEntity
  8
DIM
 62
     3
370
    -2
100
AcDbLine
 10
954.8283187119791
 20
615.0553310770208
 30
0.0
 11
954.8283187119791
 21
644.2322358427627
 31
0.0
  0
LINE
  5
6244
330
5F1E
100
AcDbEntity
  8
DIM
 62
     3
370
    -2
100
AcDbLine
 10
978.8283187119789
 20
633.7053310770207
 30
0.0
 11
978.8283187119789
 21
644.2322358427627
 31
0.0
  0
LINE
  5
6245
330
5F1E
100
AcDbEntity
  8
DIM
 62
     3
370
    -2
100
AcDbLine
 10
957.828318711979
 20
643.2322358427627
 30
0.0
 11
975.828318711979
 21
643.2322358427627
 31
0.0
  0
SOLID
  5
6246
330
5F1E
100
AcDbEntity
  8
DIM
 62
     3
100
AcDbTrace
 10
957.828318711979
 20
643.7322358427628
 30
0.0
 11
957.828318711979
 21
642.7322358427627
 31
0.0
 12
954.8283187119791
 22
643.2322358427627
 32
0.0
 13
954.8283187119791
 23
643.2322358427627
 33
0.0
  0
SOLID
  5
6247
330
5F1E
100
AcDbEntity
  8
DIM
 62
     3
100
AcDbTrace
 10
975.828318711979
 20
643.7322358427628
 30
0.0
 11
975.828318711979
 21
642.7322358427627
 31
0.0
 12
978.8283187119789
 22
643.2322358427627
 32
0.0
 13
978.8283187119789
 23
643.2322358427627
 33
0.0
  0
MTEXT
  5
6248
330
5F1E
100
AcDbEntity
  8
DIM
 62
     6
100
AcDbMText
 10
966.8165117534115
 20
645.758838844127
 30
0.0
 40
3.0
 41
0.0
 71
     5
 72
     1
  1
\A1;24{\H2.400000;±0.5}
 73
     1
 44
1.0
1001
ACAD
1000
MTEXTBEGIN
1070
    73
1070
     1
1070
    44
1040
1.0
1070
    74
1070
     0
1000
MTEXTEND
  0
POINT
  5
6249
330
5F1E
100
AcDbEntity
  8
Defpoints
 62
     0
100
AcDbPoint
 10
954.8283187119791
 20
614.0553310770208
 30
0.0
  0
POINT
  5
624A
330
5F1E
100
AcDbEntity
  8
Defpoints
 62
     0
100
AcDbPoint
 10
978.8283187119789
 20
632.7053310770208
 30
0.0
  0
POINT
  5
624B
330
5F1E
100
AcDbEntity
  8
Defpoints
 62
     0
100
AcDbPoint
 10
978.8283187119789
 20
643.2322358427627
 30
0.0
  0
ENDBLK
  5
5F29
330
5F1E
100
AcDbEntity
  8
0
100
AcDbBlockEnd
  0
BLOCK
  5
5F34
330
5F2A
100
AcDbEntity
  8
0
100
AcDbBlockBegin
  2
*D12
 70
     1
 10
0.0
 20
0.0
 30
0.0
  3
*D12
  1

  0
LINE
  5
6255
330
5F2A
100
AcDbEntity
  8
DIM
 62
     3
370
    -2
100
AcDbLine
 10
978.8283187119789
 20
633.7053310770207
 30
0.0
 11
978.8283187119789
 21
644.2322358427627
 31
0.0
  0
LINE
  5
6256
330
5F2A
100
AcDbEntity
  8
DIM
 62
     3
370
    -2
100
AcDbLine
 10
1009.828318711979
 20
633.7053310770206
 30
0.0
 11
1009.828318711979
 21
644.2322358427627
 31
0.0
  0
LINE
  5
6257
330
5F2A
100
AcDbEntity
  8
DIM
 62
     3
370
    -2
100
AcDbLine
 10
981.828318711979
 20
643.2322358427627
 30
0.0
 11
1006.828318711979
 21
643.2322358427627
 31
0.0
  0
SOLID
  5
6258
330
5F2A
100
AcDbEntity
  8
DIM
 62
     3
100
AcDbTrace
 10
981.828318711979
 20
643.7322358427628
 30
0.0
 11
981.828318711979
 21
642.7322358427627
 31
0.0
 12
978.8283187119789
 22
643.2322358427627
 32
0.0
 13
978.8283187119789
 23
643.2322358427627
 33
0.0
  0
SOLID
  5
6259
330
5F2A
100
AcDbEntity
  8
DIM
 62
     3
100
AcDbTrace
 10
1006.828318711979
 20
643.7322358427628
 30
0.0
 11
1006.828318711979
 21
642.7322358427627
 31
0.0
 12
1009.828318711979
 22
643.2322358427627
 32
0.0
 13
1009.828318711979
 23
643.2322358427627
 33
0.0
  0
MTEXT
  5
625A
330
5F2A
100
AcDbEntity
  8
DIM
 62
     6
100
AcDbMText
 10
993.7305677843767
 20
645.764977998288
 30
0.0
 40
3.0
 41
0.0
 71
     5
 72
     1
  1
\A1;31{\H2.400000;±1}
 73
     1
 44
1.0
1001
ACAD
1000
MTEXTBEGIN
1070
    73
1070
     1
1070
    44
1040
1.0
1070
    74
1070
     0
1000
MTEXTEND
  0
POINT
  5
625B
330
5F2A
100
AcDbEntity
  8
Defpoints
 62
     0
100
AcDbPoint
 10
978.8283187119789
 20
632.7053310770208
 30
0.0
  0
POINT
  5
625C
330
5F2A
100
AcDbEntity
  8
Defpoints
 62
     0
100
AcDbPoint
 10
1009.828318711979
 20
632.7053310770207
 30
0.0
  0
POINT
  5
625D
330
5F2A
100
AcDbEntity
  8
Defpoints
 62
     0
100
AcDbPoint
 10
1009.828318711979
 20
643.2322358427627
 30
0.0
  0
ENDBLK
  5
5F35
330
5F2A
100
AcDbEntity
  8
0
100
AcDbBlockEnd
  0
BLOCK
  5
5F42
330
5F36
100
AcDbEntity
  8
0
100
AcDbBlockBegin
  2
*D13
 70
     1
 10
0.0
 20
0.0
 30
0.0
  3
*D13
  1

  0
LINE
  5
622F
330
5F36
100
AcDbEntity
  8
DIM
 62
     3
370
    -2
100
AcDbLine
 10
976.828318711979
 20
623.5553310770208
 30
0.0
 11
976.828318711979
 21
639.2454670584479
 31
0.0
  0
LINE
  5
6230
330
5F36
100
AcDbEntity
  8
DIM
 62
     3
370
    -2
100
AcDbLine
 10
978.8283187119791
 20
633.7053310770207
 30
0.0
 11
978.8283187119791
 21
639.2454670584479
 31
0.0
  0
LINE
  5
6231
330
5F36
100
AcDbEntity
  8
DIM
 62
     3
370
    -2
100
AcDbLine
 10
973.828318711979
 20
638.2454670584479
 30
0.0
 11
970.8283187119789
 21
638.2454670584479
 31
0.0
  0
LINE
  5
6232
330
5F36
100
AcDbEntity
  8
DIM
 62
     3
370
    -2
100
AcDbLine
 10
981.828318711979
 20
638.2454670584479
 30
0.0
 11
988.8153582754171
 21
638.2454670584479
 31
0.0
  0
LINE
  5
6233
330
5F36
100
AcDbEntity
  8
DIM
 62
     3
370
    -2
100
AcDbLine
 10
976.828318711979
 20
638.2454670584479
 30
0.0
 11
978.8283187119791
 21
638.2454670584479
 31
0.0
  0
SOLID
  5
6234
330
5F36
100
AcDbEntity
  8
DIM
 62
     3
100
AcDbTrace
 10
973.828318711979
 20
638.7454670584479
 30
0.0
 11
973.828318711979
 21
637.7454670584479
 31
0.0
 12
976.828318711979
 22
638.2454670584479
 32
0.0
 13
976.828318711979
 23
638.2454670584479
 33
0.0
  0
SOLID
  5
6235
330
5F36
100
AcDbEntity
  8
DIM
 62
     3
100
AcDbTrace
 10
981.828318711979
 20
638.7454670584479
 30
0.0
 11
981.828318711979
 21
637.7454670584479
 31
0.0
 12
978.8283187119791
 22
638.2454670584479
 32
0.0
 13
978.8283187119791
 23
638.2454670584479
 33
0.0
  0
MTEXT
  5
6236
330
5F36
100
AcDbEntity
  8
DIM
 62
     6
100
AcDbMText
 10
986.821838493698
 20
640.751606212609
 30
0.0
 40
3.0
 41
0.0
 71
     5
 72
     1
  1
\A1;2
 73
     1
 44
1.0
1001
ACAD
1000
MTEXTBEGIN
1070
    73
1070
     1
1070
    44
1040
1.0
1070
    74
1070
     0
1000
MTEXTEND
  0
POINT
  5
6237
330
5F36
100
AcDbEntity
  8
Defpoints
 62
     0
100
AcDbPoint
 10
976.828318711979
 20
622.5553310770208
 30
0.0
  0
POINT
  5
6238
330
5F36
100
AcDbEntity
  8
Defpoints
 62
     0
100
AcDbPoint
 10
978.8283187119791
 20
632.7053310770208
 30
0.0
  0
POINT
  5
6239
330
5F36
100
AcDbEntity
  8
Defpoints
 62
     0
100
AcDbPoint
 10
978.8283187119791
 20
638.2454670584479
 30
0.0
  0
ENDBLK
  5
5F43
330
5F36
100
AcDbEntity
  8
0
100
AcDbBlockEnd
  0
BLOCK
  5
5F4E
330
5F44
100
AcDbEntity
  8
0
100
AcDbBlockBegin
  2
*D14
 70
     1
 10
0.0
 20
0.0
 30
0.0
  3
*D14
  1

  0
LINE
  5
6374
330
5F44
100
AcDbEntity
  8
DIM
 62
     3
370
    -2
100
AcDbLine
 10
1010.828318711979
 20
590.4053310770207
 30
0.0
 11
1016.314253620934
 21
590.4053310770207
 31
0.0
  0
LINE
  5
6375
330
5F44
100
AcDbEntity
  8
DIM
 62
     3
370
    -2
100
AcDbLine
 10
1005.297057846612
 20
562.0327633217137
 30
0.0
 11
1016.314253620934
 21
562.0327633217137
 31
0.0
  0
LINE
  5
6376
330
5F44
100
AcDbEntity
  8
DIM
 62
     3
370
    -2
100
AcDbLine
 10
1015.314253620934
 20
587.4053310770206
 30
0.0
 11
1015.314253620934
 21
565.0327633217137
 31
0.0
  0
SOLID
  5
6377
330
5F44
100
AcDbEntity
  8
DIM
 62
     3
100
AcDbTrace
 10
1014.814253620934
 20
587.4053310770206
 30
0.0
 11
1015.814253620934
 21
587.4053310770206
 31
0.0
 12
1015.314253620934
 22
590.4053310770207
 32
0.0
 13
1015.314253620934
 23
590.4053310770207
 33
0.0
  0
SOLID
  5
6378
330
5F44
100
AcDbEntity
  8
DIM
 62
     3
100
AcDbTrace
 10
1014.814253620934
 20
565.0327633217137
 30
0.0
 11
1015.814253620934
 21
565.0327633217137
 31
0.0
 12
1015.314253620934
 22
562.0327633217137
 32
0.0
 13
1015.314253620934
 23
562.0327633217137
 33
0.0
  0
MTEXT
  5
6379
330
5F44
100
AcDbEntity
  8
DIM
 62
     6
100
AcDbMText
 10
1012.781511465409
 20
576.0249040392927
 30
0.0
 40
3.0
 41
0.0
 71
     5
 72
     1
  1
\A1;300Min
 11
0.0000000000000001
 21
1.0
 31
0.0
 73
     1
 44
1.0
1001
ACAD
1000
MTEXTBEGIN
1070
    73
1070
     1
1070
    44
1040
1.0
1070
    74
1070
     0
1000
MTEXTEND
  0
POINT
  5
637A
330
5F44
100
AcDbEntity
  8
Defpoints
 62
     0
100
AcDbPoint
 10
1009.828318711979
 20
590.4053310770207
 30
0.0
  0
POINT
  5
637B
330
5F44
100
AcDbEntity
  8
Defpoints
 62
     0
100
AcDbPoint
 10
1004.297057846612
 20
562.0327633217137
 30
0.0
  0
POINT
  5
637C
330
5F44
100
AcDbEntity
  8
Defpoints
 62
     0
100
AcDbPoint
 10
1015.314253620934
 20
562.0327633217137
 30
0.0
  0
ENDBLK
  5
5F4F
330
5F44
100
AcDbEntity
  8
0
100
AcDbBlockEnd
  0
BLOCK
  5
5F5A
330
5F50
100
AcDbEntity
  8
0
100
AcDbBlockBegin
  2
*D15
 70
     1
 10
0.0
 20
0.0
 30
0.0
  3
*D15
  1

  0
LINE
  5
614E
330
5F50
100
AcDbEntity
  8
DIM
 62
     3
370
    -2
100
AcDbLine
 10
861.0157570574752
 20
628.0553310770208
 30
0.0
 11
861.0157570574752
 21
637.3910979633461
 31
0.0
  0
LINE
  5
614F
330
5F50
100
AcDbEntity
  8
DIM
 62
     3
370
    -2
100
AcDbLine
 10
892.0157570574753
 20
628.0553310770208
 30
0.0
 11
892.0157570574753
 21
637.3910979633461
 31
0.0
  0
LINE
  5
6150
330
5F50
100
AcDbEntity
  8
DIM
 62
     3
370
    -2
100
AcDbLine
 10
864.0157570574753
 20
636.3910979633462
 30
0.0
 11
889.0157570574753
 21
636.3910979633462
 31
0.0
  0
SOLID
  5
6151
330
5F50
100
AcDbEntity
  8
DIM
 62
     3
100
AcDbTrace
 10
864.0157570574753
 20
636.8910979633461
 30
0.0
 11
864.0157570574753
 21
635.8910979633462
 31
0.0
 12
861.0157570574752
 22
636.3910979633462
 32
0.0
 13
861.0157570574752
 23
636.3910979633462
 33
0.0
  0
SOLID
  5
6152
330
5F50
100
AcDbEntity
  8
DIM
 62
     3
100
AcDbTrace
 10
889.0157570574753
 20
636.8910979633461
 30
0.0
 11
889.0157570574753
 21
635.8910979633462
 31
0.0
 12
892.0157570574753
 22
636.3910979633462
 32
0.0
 13
892.0157570574753
 23
636.3910979633462
 33
0.0
  0
MTEXT
  5
6153
330
5F50
100
AcDbEntity
  8
DIM
 62
     6
100
AcDbMText
 10
876.5157570574753
 20
638.9238401188714
 30
0.0
 40
3.0
 41
0.0
 71
     5
 72
     1
  1
\A1;{\Famgdt|c0;o} 31%%P0.2
 73
     1
 44
1.0
1001
ACAD
1000
MTEXTBEGIN
1070
    73
1070
     1
1070
    44
1040
1.0
1070
    74
1070
     0
1000
MTEXTEND
  0
POINT
  5
6154
330
5F50
100
AcDbEntity
  8
Defpoints
 62
     0
100
AcDbPoint
 10
861.0157570574752
 20
627.0553310770208
 30
0.0
  0
POINT
  5
6155
330
5F50
100
AcDbEntity
  8
Defpoints
 62
     0
100
AcDbPoint
 10
892.0157570574753
 20
627.0553310770208
 30
0.0
  0
POINT
  5
6156
330
5F50
100
AcDbEntity
  8
Defpoints
 62
     0
100
AcDbPoint
 10
892.0157570574753
 20
636.3910979633462
 30
0.0
  0
ENDBLK
  5
5F5B
330
5F50
100
AcDbEntity
  8
0
100
AcDbBlockEnd
  0
BLOCK
  5
5F66
330
5F5C
100
AcDbEntity
  8
0
100
AcDbBlockBegin
  2
*D16
 70
     1
 10
0.0
 20
0.0
 30
0.0
  3
*D16
  1

  0
LINE
  5
616F
330
5F5C
100
AcDbEntity
  8
DIM
 62
     3
370
    -2
100
AcDbLine
 10
855.3657570574753
 20
629.3385816560952
 30
0.0
 11
855.3657570574753
 21
644.5010013803043
 31
0.0
  0
LINE
  5
6170
330
5F5C
100
AcDbEntity
  8
DIM
 62
     3
370
    -2
100
AcDbLine
 10
897.6657570574754
 20
629.3385816560951
 30
0.0
 11
897.6657570574754
 21
644.5010013803043
 31
0.0
  0
LINE
  5
6171
330
5F5C
100
AcDbEntity
  8
DIM
 62
     3
370
    -2
100
AcDbLine
 10
858.3657570574754
 20
643.5010013803043
 30
0.0
 11
894.6657570574753
 21
643.5010013803043
 31
0.0
  0
SOLID
  5
6172
330
5F5C
100
AcDbEntity
  8
DIM
 62
     3
100
AcDbTrace
 10
858.3657570574754
 20
644.0010013803043
 30
0.0
 11
858.3657570574754
 21
643.0010013803042
 31
0.0
 12
855.3657570574753
 22
643.5010013803043
 32
0.0
 13
855.3657570574753
 23
643.5010013803043
 33
0.0
  0
SOLID
  5
6173
330
5F5C
100
AcDbEntity
  8
DIM
 62
     3
100
AcDbTrace
 10
894.6657570574753
 20
644.0010013803043
 30
0.0
 11
894.6657570574753
 21
643.0010013803042
 31
0.0
 12
897.6657570574754
 22
643.5010013803043
 32
0.0
 13
897.6657570574754
 23
643.5010013803043
 33
0.0
  0
MTEXT
  5
6174
330
5F5C
100
AcDbEntity
  8
DIM
 62
     6
100
AcDbMText
 10
876.5157570574753
 20
646.0337435358296
 30
0.0
 40
3.0
 41
0.0
 71
     5
 72
     1
  1
\A1;{\Famgdt|c0;o} 42.3
 73
     1
 44
1.0
1001
ACAD
1000
MTEXTBEGIN
1070
    73
1070
     1
1070
    44
1040
1.0
1070
    74
1070
     0
1000
MTEXTEND
  0
POINT
  5
6175
330
5F5C
100
AcDbEntity
  8
Defpoints
 62
     0
100
AcDbPoint
 10
855.3657570574753
 20
628.3385816560952
 30
0.0
  0
POINT
  5
6176
330
5F5C
100
AcDbEntity
  8
Defpoints
 62
     0
100
AcDbPoint
 10
897.6657570574754
 20
628.3385816560951
 30
0.0
  0
POINT
  5
6177
330
5F5C
100
AcDbEntity
  8
Defpoints
 62
     0
100
AcDbPoint
 10
897.6657570574754
 20
643.5010013803043
 30
0.0
  0
ENDBLK
  5
5F67
330
5F5C
100
AcDbEntity
  8
0
100
AcDbBlockEnd
  0
BLOCK
  5
5F71
330
5F68
100
AcDbEntity
  8
0
100
AcDbBlockBegin
  2
*D17
 70
     1
 10
0.0
 20
0.0
 30
0.0
  3
*D17
  1

  0
LINE
  5
6160
330
5F68
100
AcDbEntity
  8
DIM
 62
     3
370
    -2
100
AcDbLine
 10
832.2520079709297
 20
583.3383124292047
 30
0.0
 11
856.065117629175
 21
593.8665561110425
 31
0.0
  0
LINE
  5
6161
330
5F68
100
AcDbEntity
  8
DIM
 62
     3
370
    -2
100
AcDbLine
 10
865.9663964857751
 20
598.2441060429984
 30
0.0
 11
868.7101933341537
 21
599.457192542316
 31
0.0
  0
MTEXT
  5
6162
330
5F68
100
AcDbEntity
  8
DIM
 62
     6
100
AcDbMText
 10
839.8555970906173
 20
592.201566358269
 30
0.0
 40
3.0
 41
0.0
 71
     5
 72
     1
  1
\A1;4-M3\P DEEP 4.5
 11
0.9145989494595774
 21
0.4043621664392421
 31
0.0
 73
     1
 44
1.0
1001
ACAD
1000
MTEXTBEGIN
1070
    73
1070
     1
1070
    44
1040
1.0
1070
    74
1070
     0
1000
MTEXTEND
  0
LINE
  5
6163
330
5F68
100
AcDbEntity
  8
DIM
 62
     3
370
    -2
100
AcDbLine
 10
863.2225996373962
 20
597.0310195436807
 30
0.0
 11
858.8089144775537
 21
595.0796426103602
 31
0.0
  0
SOLID
  5
6164
330
5F68
100
AcDbEntity
  8
DIM
 62
     3
100
AcDbTrace
 10
865.7642154025554
 20
598.7014055177281
 30
0.0
 11
866.1685775689946
 21
597.7868065682685
 31
0.0
 12
863.2225996373962
 22
597.0310195436807
 32
0.0
 13
863.2225996373962
 23
597.0310195436807
 33
0.0
  0
SOLID
  5
6165
330
5F68
100
AcDbEntity
  8
DIM
 62
     3
100
AcDbTrace
 10
855.8629365459553
 20
594.3238555857723
 30
0.0
 11
856.2672987123946
 21
593.4092566363127
 31
0.0
 12
858.8089144775537
 22
595.0796426103602
 32
0.0
 13
858.8089144775537
 23
595.0796426103602
 33
0.0
  0
POINT
  5
6166
330
5F68
100
AcDbEntity
  8
Defpoints
 62
     0
100
AcDbPoint
 10
858.8089144775537
 20
595.0796426103602
 30
0.0
  0
POINT
  5
6167
330
5F68
100
AcDbEntity
  8
Defpoints
 62
     0
100
AcDbPoint
 10
863.2225996373962
 20
597.0310195436807
 30
0.0
  0
ENDBLK
  5
5F72
330
5F68
100
AcDbEntity
  8
0
100
AcDbBlockEnd
  0
BLOCK
  5
5F7D
330
5F73
100
AcDbEntity
  8
0
100
AcDbBlockBegin
  2
*D18
 70
     1
 10
0.0
 20
0.0
 30
0.0
  3
*D18
  1

  0
LINE
  5
6267
330
5F73
100
AcDbEntity
  8
AM_5
  6
ACISOTGL
 62
     3
370
    -2
100
AcDbLine
 10
1009.828318711979
 20
633.7053310770207
 30
0.0
 11
1009.828318711979
 21
644.2322358427627
 31
0.0
  0
LINE
  5
6268
330
5F73
100
AcDbEntity
  8
AM_5
  6
ACISOTGL
 62
     3
370
    -2
100
AcDbLine
 10
1023.328318711979
 20
615.0553310770208
 30
0.0
 11
1023.328318711979
 21
644.2322358427627
 31
0.0
  0
LINE
  5
6269
330
5F73
100
AcDbEntity
  8
AM_5
  6
ACISOTGL
 62
     3
100
AcDbLine
 10
1012.828318711979
 20
643.2322358427627
 30
0.0
 11
1020.328318711979
 21
643.2322358427627
 31
0.0
  0
SOLID
  5
626A
330
5F73
100
AcDbEntity
  8
AM_5
  6
ACISOTGL
 62
     3
100
AcDbTrace
 10
1012.828318711979
 20
643.7322358427628
 30
0.0
 11
1012.828318711979
 21
642.7322358427627
 31
0.0
 12
1009.828318711979
 22
643.2322358427627
 32
0.0
 13
1009.828318711979
 23
643.2322358427627
 33
0.0
  0
SOLID
  5
626B
330
5F73
100
AcDbEntity
  8
AM_5
  6
ACISOTGL
 62
     3
100
AcDbTrace
 10
1020.328318711979
 20
643.7322358427628
 30
0.0
 11
1020.328318711979
 21
642.7322358427627
 31
0.0
 12
1023.328318711979
 22
643.2322358427627
 32
0.0
 13
1023.328318711979
 23
643.2322358427627
 33
0.0
  0
MTEXT
  5
626C
330
5F73
100
AcDbEntity
  8
AM_5
  6
ACISOTGL
 62
     6
100
AcDbMText
 10
1016.468305425198
 20
645.764977998288
 30
0.0
 40
3.0
 41
0.0
 71
     5
 72
     1
  1
\A1;13.5{\H2.400000;±1}
 73
     1
 44
1.0
1001
ACAD
1000
MTEXTBEGIN
1070
    73
1070
     1
1070
    44
1040
1.0
1070
    74
1070
     0
1000
MTEXTEND
  0
POINT
  5
626D
330
5F73
100
AcDbEntity
  8
Defpoints
  6
ACISOTGL
 62
     0
100
AcDbPoint
 10
1009.828318711979
 20
632.7053310770208
 30
0.0
  0
POINT
  5
626E
330
5F73
100
AcDbEntity
  8
Defpoints
  6
ACISOTGL
 62
     0
100
AcDbPoint
 10
1023.328318711979
 20
614.0553310770208
 30
0.0
  0
POINT
  5
626F
330
5F73
100
AcDbEntity
  8
Defpoints
  6
ACISOTGL
 62
     0
100
AcDbPoint
 10
1023.328318711979
 20
643.2322358427627
 30
0.0
  0
ENDBLK
  5
5F7E
330
5F73
100
AcDbEntity
  8
0
100
AcDbBlockEnd
  0
BLOCK
  5
5F8B
330
5F7F
100
AcDbEntity
  8
0
100
AcDbBlockBegin
  2
*D19
 70
     1
 10
0.0
 20
0.0
 30
0.0
  3
*D19
  1

  0
LINE
  5
5F80
330
5F7F
100
AcDbEntity
  8
AM_5
  6
ACISOTGL
 62
     3
370
    -2
100
AcDbLine
 10
1024.328318711979
 20
609.0553310770208
 30
0.0
 11
1033.446026779949
 21
609.0553310770208
 31
0.0
  0
LINE
  5
5F81
330
5F7F
100
AcDbEntity
  8
AM_5
  6
ACISOTGL
 62
     3
370
    -2
100
AcDbLine
 10
1024.328318711979
 20
614.0553310770208
 30
0.0
 11
1033.446026779949
 21
614.0553310770208
 31
0.0
  0
LINE
  5
5F82
330
5F7F
100
AcDbEntity
  8
AM_5
  6
ACISOTGL
 62
     3
100
AcDbLine
 10
1032.446026779949
 20
606.0553310770208
 30
0.0
 11
1032.446026779949
 21
603.0553310770208
 31
0.0
  0
LINE
  5
5F83
330
5F7F
100
AcDbEntity
  8
AM_5
  6
ACISOTGL
 62
     3
100
AcDbLine
 10
1032.446026779949
 20
617.0553310770208
 30
0.0
 11
1032.446026779949
 21
636.6996694126279
 31
0.0
  0
LINE
  5
5F84
330
5F7F
100
AcDbEntity
  8
AM_5
  6
ACISOTGL
 62
     3
100
AcDbLine
 10
1032.446026779949
 20
609.0553310770208
 30
0.0
 11
1032.446026779949
 21
614.0553310770208
 31
0.0
  0
SOLID
  5
5F85
330
5F7F
100
AcDbEntity
  8
AM_5
  6
ACISOTGL
 62
     3
100
AcDbTrace
 10
1031.946026779949
 20
606.0553310770208
 30
0.0
 11
1032.946026779949
 21
606.0553310770208
 31
0.0
 12
1032.446026779949
 22
609.0553310770208
 32
0.0
 13
1032.446026779949
 23
609.0553310770208
 33
0.0
  0
SOLID
  5
5F86
330
5F7F
100
AcDbEntity
  8
AM_5
  6
ACISOTGL
 62
     3
100
AcDbTrace
 10
1031.946026779949
 20
617.0553310770208
 30
0.0
 11
1032.946026779949
 21
617.0553310770208
 31
0.0
 12
1032.446026779949
 22
614.0553310770208
 32
0.0
 13
1032.446026779949
 23
614.0553310770208
 33
0.0
  0
MTEXT
  5
5F87
330
5F7F
100
AcDbEntity
  8
AM_5
  6
ACISOTGL
 62
     6
100
AcDbMText
 10
1028.534908089635
 20
628.3775002448244
 30
0.0
 40
3.0
 41
0.0
 71
     5
 72
     1
  1
\A1;%%c5{\H2.400000;\S 0^ -0.012;}
 11
0.0000000000000001
 21
1.0
 31
0.0
 73
     1
 44
1.0
1001
ACAD
1000
MTEXTBEGIN
1070
    73
1070
     1
1070
    44
1040
1.0
1070
    74
1070
     0
1000
MTEXTEND
  0
POINT
  5
5F88
330
5F7F
100
AcDbEntity
  8
Defpoints
  6
ACISOTGL
 62
     0
100
AcDbPoint
 10
1023.328318711979
 20
609.0553310770208
 30
0.0
  0
POINT
  5
5F89
330
5F7F
100
AcDbEntity
  8
Defpoints
  6
ACISOTGL
 62
     0
100
AcDbPoint
 10
1023.328318711979
 20
614.0553310770208
 30
0.0
  0
POINT
  5
5F8A
330
5F7F
100
AcDbEntity
  8
Defpoints
  6
ACISOTGL
 62
     0
100
AcDbPoint
 10
1032.446026779949
 20
614.0553310770208
 30
0.0
  0
ENDBLK
  5
5F8C
330
5F7F
100
AcDbEntity
  8
0
100
AcDbBlockEnd
  0
BLOCK
  5
60D3
330
60CD
100
AcDbEntity
  8
0
100
AcDbBlockBegin
  2
*D20
 70
     1
 10
0.0
 20
0.0
 30
0.0
  3
*D20
  1

  0
LINE
  5
63DA
330
60CD
100
AcDbEntity
  8
DATA
  6
ACISOTGL
100
AcDbLine
 10
199.7354234215792
 20
62.80301523093496
 30
0.0
 11
221.2014984365391
 21
62.80301523093496
 31
0.0
  0
SOLID
  5
63DB
330
60CD
100
AcDbEntity
  8
DATA
  6
ACISOTGL
100
AcDbTrace
 10
199.7354234215792
 20
63.30301523093496
 30
0.0
 11
199.7354234215792
 21
62.30301523093496
 31
0.0
 12
196.7354234215792
 22
62.80301523093496
 32
0.0
 13
196.7354234215792
 23
62.80301523093496
 33
0.0
  0
POINT
  5
63DC
330
60CD
100
AcDbEntity
  8
Defpoints
  6
ACISOTGL
 62
     0
100
AcDbPoint
 10
196.7354234215792
 20
62.8030152695328
 30
0.0
  0
POINT
  5
63DD
330
60CD
100
AcDbEntity
  8
Defpoints
  6
ACISOTGL
 62
     0
100
AcDbPoint
 10
221.2014984365391
 20
62.80301523093496
 30
0.0
  0
POINT
  5
63DE
330
60CD
100
AcDbEntity
  8
Defpoints
  6
ACISOTGL
 62
     0
100
AcDbPoint
 10
221.2014984365391
 20
62.80301523093496
 30
0.0
  0
ENDBLK
  5
60D4
330
60CD
100
AcDbEntity
  8
0
100
AcDbBlockEnd
  0
BLOCK
  5
60DB
330
60D5
100
AcDbEntity
  8
0
100
AcDbBlockBegin
  2
*D21
 70
     1
 10
0.0
 20
0.0
 30
0.0
  3
*D21
  1

  0
LINE
  5
63D5
330
60D5
100
AcDbEntity
  8
DATA
  6
ACISOTGL
100
AcDbLine
 10
199.7908907604763
 20
66.30756841275107
 30
0.0
 11
208.5559259502863
 21
66.30756841275107
 31
0.0
  0
SOLID
  5
63D6
330
60D5
100
AcDbEntity
  8
DATA
  6
ACISOTGL
100
AcDbTrace
 10
199.7908907604763
 20
66.80756841275107
 30
0.0
 11
199.7908907604763
 21
65.80756841275107
 31
0.0
 12
196.7908907604763
 22
66.30756841275107
 32
0.0
 13
196.7908907604763
 23
66.30756841275107
 33
0.0
  0
POINT
  5
63D7
330
60D5
100
AcDbEntity
  8
Defpoints
  6
ACISOTGL
 62
     0
100
AcDbPoint
 10
196.7908907604763
 20
66.30756845134891
 30
0.0
  0
POINT
  5
63D8
330
60D5
100
AcDbEntity
  8
Defpoints
  6
ACISOTGL
 62
     0
100
AcDbPoint
 10
208.5559259502863
 20
66.30756841275107
 30
0.0
  0
POINT
  5
63D9
330
60D5
100
AcDbEntity
  8
Defpoints
  6
ACISOTGL
 62
     0
100
AcDbPoint
 10
208.5559259502863
 20
66.30756841275107
 30
0.0
  0
ENDBLK
  5
60DC
330
60D5
100
AcDbEntity
  8
0
100
AcDbBlockEnd
  0
ENDSEC
  0
SECTION
  2
ENTITIES
  0
TEXT
  5
13FA
330
1F
100
AcDbEntity
  8
SPEC
100
AcDbText
 10
1198.0
 20
654.0
 30
0.0
 40
2.4
  1

 41
0.7
  7
ROMANS
100
AcDbText
  0
DIMENSION
  5
5E5A
330
1F
100
AcDbEntity
  8
DIM
 62
     7
100
AcDbDimension
  2
*D9
 10
946.7498128098769
 20
609.0553310770208
 30
0.0
 11
946.7498128098768
 21
589.6249319946364
 31
0.0
 70
   160
  1
\A1;%%C5{\H0.7x;\S 0^ -0.012;}
 71
     5
 42
5.0
  3
YL
100
AcDbAlignedDimension
 13
954.8283187119791
 23
614.0553310770208
 33
0.0
 14
954.8283187119791
 24
609.0553310770208
 34
0.0
 50
90.0
100
AcDbRotatedDimension
  0
LINE
  5
5E5B
330
1F
100
AcDbEntity
  8
SPEC
100
AcDbLine
 10
976.828318711979
 20
609.0553310770208
 30
0.0
 11
954.8283187119791
 21
609.0553310770208
 31
0.0
  0
LINE
  5
5E5C
330
1F
100
AcDbEntity
  8
SPEC
100
AcDbLine
 10
976.828318711979
 20
614.0553310770208
 30
0.0
 11
954.8283187119791
 21
614.0553310770208
 31
0.0
  0
DIMENSION
  5
5E5D
330
1F
100
AcDbEntity
  8
DIM
 62
     7
100
AcDbDimension
  2
*D10
 10
938.5079433920457
 20
600.5553310770208
 30
0.0
 11
938.5079433920457
 21
613.3297188095598
 31
0.0
 70
   160
  1
\A1;%%C22{\H0.7x;\S 0^ -0.05;}
 71
     5
 42
22.0
  3
YL
100
AcDbAlignedDimension
 13
976.828318711979
 23
622.5553310770208
 33
0.0
 14
976.828318711979
 24
600.5553310770208
 34
0.0
 50
90.0
100
AcDbRotatedDimension
  0
DIMENSION
  5
5E5E
330
1F
100
AcDbEntity
  8
DIM
 62
     7
100
AcDbDimension
  2
*D11
 10
978.8283187119789
 20
643.2322358427627
 30
0.0
 11
966.8165117534115
 21
643.2322358427627
 31
0.0
 70
   160
  1
<>
 71
     5
 42
24.0
  3
YL
100
AcDbAlignedDimension
 13
954.8283187119791
 23
614.0553310770208
 33
0.0
 14
978.8283187119789
 24
632.7053310770208
 34
0.0
100
AcDbRotatedDimension
1001
ACAD
1000
DSTYLE
1002
{
1070
    47
1040
0.5
1070
    48
1040
0.5
1070
   147
1040
1.0
1070
    72
1070
     0
1070
    71
1070
     1
1002
}
  0
LINE
  5
5E5F
330
1F
100
AcDbEntity
  8
CENTER
  6
AM_ISO08W050x2
100
AcDbLine
 10
952.6453035807598
 20
611.5553310770208
 30
0.0
 11
1025.550788748337
 21
611.5553310770208
 31
0.0
  0
LINE
  5
5E60
330
1F
100
AcDbEntity
  8
SPEC
100
AcDbLine
 10
954.8283187119791
 20
611.5553310770208
 30
0.0
 11
954.8283187119791
 21
614.0553310770208
 31
0.0
  0
LINE
  5
5E61
330
1F
100
AcDbEntity
  8
SPEC
100
AcDbLine
 10
954.8283187119791
 20
611.5553310770208
 30
0.0
 11
954.8283187119791
 21
609.0553310770208
 31
0.0
  0
DIMENSION
  5
5E62
330
1F
100
AcDbEntity
  8
DIM
 62
     7
100
AcDbDimension
  2
*D12
 10
1009.828318711979
 20
643.2322358427627
 30
0.0
 11
993.7305677843767
 21
643.2322358427627
 31
0.0
 70
   160
  1
<>
 71
     5
 42
30.99999999999989
  3
YL
100
AcDbAlignedDimension
 13
978.8283187119789
 23
632.7053310770208
 33
0.0
 14
1009.828318711979
 24
632.7053310770207
 34
0.0
100
AcDbRotatedDimension
1001
ACAD
1000
DSTYLE
1002
{
1070
    47
1040
1.0
1070
   147
1040
1.0
1070
    48
1040
1.0
1070
    72
1070
     0
1070
    71
1070
     1
1070
   144
1040
1.0
1002
}
  0
LINE
  5
5E63
330
1F
100
AcDbEntity
  8
SPEC
100
AcDbLine
 10
978.8283187119789
 20
590.4053310770208
 30
0.0
 11
1009.828318711979
 21
590.4053310770207
 31
0.0
  0
LINE
  5
5E64
330
1F
100
AcDbEntity
  8
SPEC
100
AcDbLine
 10
978.8283187119791
 20
632.7053310770208
 30
0.0
 11
1009.828318711979
 21
632.7053310770207
 31
0.0
  0
LINE
  5
5E65
330
1F
100
AcDbEntity
  8
SPEC
100
AcDbLine
 10
976.828318711979
 20
622.5553310770208
 30
0.0
 11
976.828318711979
 21
611.5553310770208
 31
0.0
  0
LINE
  5
5E66
330
1F
100
AcDbEntity
  8
SPEC
100
AcDbLine
 10
986.7243188752999
 20
628.3385816560951
 30
0.0
 11
986.7243188752999
 21
611.5553310770208
 31
0.0
  0
LINE
  5
5E67
330
1F
100
AcDbEntity
  8
SPEC
100
AcDbLine
 10
978.8283187119789
 20
632.7053310770208
 30
0.0
 11
978.8283187119789
 21
600.5553310770208
 31
0.0
  0
DIMENSION
  5
5E68
330
1F
100
AcDbEntity
  8
DIM
 62
     7
100
AcDbDimension
  2
*D13
 10
978.8283187119791
 20
638.2454670584479
 30
0.0
 11
986.821838493698
 21
638.2454670584479
 31
0.0
 70
   160
  1
2
 71
     5
 42
2.000000000000113
  3
YL
100
AcDbAlignedDimension
 13
976.828318711979
 23
622.5553310770208
 33
0.0
 14
978.8283187119791
 24
632.7053310770208
 34
0.0
100
AcDbRotatedDimension
  0
LINE
  5
5E69
330
1F
100
AcDbEntity
  8
SPEC
100
AcDbLine
 10
978.8283187119789
 20
600.5553310770208
 30
0.0
 11
978.8283187119789
 21
590.4053310770208
 31
0.0
  0
LINE
  5
5E6A
330
1F
100
AcDbEntity
  8
SPEC
100
AcDbLine
 10
976.828318711979
 20
600.5553310770208
 30
0.0
 11
976.828318711979
 21
611.5553310770208
 31
0.0
  0
LINE
  5
5E6B
330
1F
100
AcDbEntity
  8
SPEC
100
AcDbLine
 10
978.8283187119789
 20
600.5553310770208
 30
0.0
 11
976.828318711979
 21
600.5553310770208
 31
0.0
  0
LINE
  5
5E6C
330
1F
100
AcDbEntity
  8
SPEC
100
AcDbLine
 10
988.8283187119791
 20
590.4053310770208
 30
0.0
 11
988.8283187119791
 21
594.7720804979463
 31
0.0
  0
LINE
  5
5E6D
330
1F
100
AcDbEntity
  8
SPEC
100
AcDbLine
 10
986.7243188752999
 20
594.7720804979464
 30
0.0
 11
986.7243188752999
 21
611.5553310770208
 31
0.0
  0
LINE
  5
5E6E
330
1F
100
AcDbEntity
  8
SPEC
100
AcDbLine
 10
988.8283187119791
 20
594.7720804979464
 30
0.0
 11
986.7243188752999
 21
594.7720804979464
 31
0.0
  0
LINE
  5
5E6F
330
1F
100
AcDbEntity
  8
SPEC
100
AcDbLine
 10
978.8283187119789
 20
622.5553310770208
 30
0.0
 11
976.828318711979
 21
622.5553310770208
 31
0.0
  0
LINE
  5
5E70
330
1F
100
AcDbEntity
  8
SPEC
100
AcDbLine
 10
988.8283187119791
 20
628.3385816560952
 30
0.0
 11
986.7243188752999
 21
628.3385816560951
 31
0.0
  0
LINE
  5
5E71
330
1F
100
AcDbEntity
  8
SPEC
100
AcDbLine
 10
988.8283187119791
 20
632.7053310770208
 30
0.0
 11
988.8283187119791
 21
628.3385816560952
 31
0.0
  0
LINE
  5
5E72
330
1F
100
AcDbEntity
  8
SPEC
100
AcDbLine
 10
1001.932318548658
 20
628.3385816560951
 30
0.0
 11
1001.932318548658
 21
611.5553310770208
 31
0.0
  0
LINE
  5
5E73
102
{ACAD_REACTORS
330
5EE7
102
}
330
1F
100
AcDbEntity
  8
SPEC
100
AcDbLine
 10
1009.828318711979
 20
632.7053310770208
 30
0.0
 11
1009.828318711979
 21
590.4053310770208
 31
0.0
  0
LINE
  5
5E74
330
1F
100
AcDbEntity
  8
SPEC
100
AcDbLine
 10
999.828318711979
 20
590.4053310770208
 30
0.0
 11
999.828318711979
 21
594.7720804979463
 31
0.0
  0
LINE
  5
5E75
330
1F
100
AcDbEntity
  8
SPEC
100
AcDbLine
 10
1001.932318548658
 20
594.7720804979464
 30
0.0
 11
1001.932318548658
 21
611.5553310770208
 31
0.0
  0
LINE
  5
5E76
330
1F
100
AcDbEntity
  8
SPEC
100
AcDbLine
 10
999.828318711979
 20
594.7720804979464
 30
0.0
 11
1001.932318548658
 21
594.7720804979464
 31
0.0
  0
LINE
  5
5E77
330
1F
100
AcDbEntity
  8
SPEC
100
AcDbLine
 10
999.828318711979
 20
628.3385816560952
 30
0.0
 11
1001.932318548658
 21
628.3385816560951
 31
0.0
  0
LINE
  5
5E78
330
1F
100
AcDbEntity
  8
SPEC
100
AcDbLine
 10
999.8283187119792
 20
632.7053310770208
 30
0.0
 11
999.828318711979
 21
628.3385816560952
 31
0.0
  0
HATCH
  5
5E79
330
1F
100
AcDbEntity
  8
DIM
100
AcDbHatch
 10
0.0
 20
0.0
 30
0.0
210
0.0
220
0.0
230
1.0
  2
ANSI37
 70
     0
 71
     1
 91
        8
 92
        7
 72
     0
 73
     1
 93
        4
 10
998.8006769294553
 20
589.1088047874344
 10
997.6896196617289
 20
589.1088047874344
 10
997.6896196617289
 20
578.7121853542894
 10
998.8006769294557
 20
578.7121853542894
 97
        4
330
5EA1
330
5E9D
330
5EA0
330
5E9E
 92
        7
 72
     0
 73
     1
 93
        4
 10
999.8283187119788
 20
589.1088047874343
 10
998.8006769294555
 20
589.1088047874343
 10
998.8006769294555
 20
578.7121853542894
 10
999.8283187119781
 20
578.7121853542894
 97
        4
330
5EA1
330
5E9E
330
5EA0
330
5E9C
 92
        7
 72
     0
 73
     1
 93
        4
 10
999.8283187119785
 20
578.7121853542893
 10
1000.855960494502
 20
578.7121853542892
 10
1000.855960494502
 20
589.1088047874342
 10
999.8283187119788
 20
589.1088047874343
 97
        4
330
5EA3
330
5E9C
330
5EA0
330
5E9B
 92
        7
 72
     0
 73
     1
 93
        4
 10
1001.967017762228
 20
589.1088047874343
 10
1000.855960494502
 20
589.1088047874343
 10
1000.855960494502
 20
578.7121853542894
 10
1001.967017762228
 20
578.7121853542894
 97
        4
330
5EA3
330
5E9B
330
5EA0
330
5E9A
 92
        7
 72
     0
 73
     1
 93
        4
 10
1001.967017762228
 20
577.6507677053185
 10
1000.855960494502
 20
577.6507677053185
 10
1000.855960494502
 20
562.0327633217137
 10
1001.967017762228
 20
562.0327633217137
 97
        4
330
5E9F
330
5E7E
330
5E87
330
5E7D
 92
        7
 72
     0
 73
     1
 93
        4
 10
999.8283187119781
 20
562.0327633217137
 10
1000.855960494501
 20
562.0327633217137
 10
1000.855960494502
 20
577.6507677053185
 10
999.8283187119787
 20
577.6507677053185
 97
        4
330
5E9F
330
5E7F
330
5E87
330
5E7E
 92
        7
 72
     0
 73
     1
 93
        4
 10
999.8283187119787
 20
577.6507677053185
 10
998.8006769294553
 20
577.6507677053185
 10
998.8006769294553
 20
562.0327633217137
 10
999.8283187119783
 20
562.0327633217137
 97
        4
330
5E9F
330
5E80
330
5E86
330
5E7F
 92
        7
 72
     0
 73
     1
 93
        4
 10
997.6896196617289
 20
562.0327633217137
 10
998.8006769294553
 20
562.0327633217137
 10
998.8006769294555
 20
577.6507677053187
 10
997.6896196617291
 20
577.6507677053188
 97
        4
330
5E9F
330
5E81
330
5E86
330
5E80
 75
     0
 76
     1
 52
0.0
 41
15.0
 77
     0
 78
     2
 53
45.0
 43
986.6316359832834
 44
702.1812306332678
 45
-1.325825214724776
 46
1.325825214724776
 79
     0
 53
135.0
 43
986.6316359832834
 44
702.1812306332678
 45
-1.325825214724776
 46
-1.325825214724776
 79
     0
 47
0.1252913560188824
 98
        8
 10
998.5651457729966
 20
586.7865983680287
 10
999.3172154786796
 20
587.4130550814154
 10
1000.194629735448
 20
587.2877631883997
 10
1001.448080044643
 20
587.6636379502163
 10
1001.698770346398
 20
573.3804226836452
 10
1000.319975486118
 20
576.136832405993
 10
999.3172154786796
 20
575.3850847168211
 10
998.0637651694854
 20
575.1345018480204
  0
LEADER
  5
5E7A
330
1F
100
AcDbEntity
  8
DIM
100
AcDbLeader
  3
YL
 73
     0
 40
3.10231923601637
 41
14.4924965893588
 76
     3
 10
999.1918697280098
 20
572.7539659702586
 30
0.0
 10
991.9218605737674
 20
563.3571143522271
 30
0.0
 10
987.2566182672015
 20
563.36
 30
0.0
340
5E7B
213
0.4030044989599447
223
1.378458051301799
233
0.0
1001
ACAD
1000
DSTYLE
1002
{
1070
   147
1040
1.199999999999999
1070
    77
1070
     0
1002
}
  0
MTEXT
  5
5E7B
102
{ACAD_REACTORS
330
5E7A
102
}
330
1F
100
AcDbEntity
  8
DATA
100
AcDbMText
 10
985.6536137682416
 20
562.0001982496234
 30
0.0
 40
3.0
 41
0.0
 71
     9
 72
     1
  1
AWG26
 73
     1
 44
1.0
1001
ACAD
1000
MTEXTBEGIN
1070
    73
1070
     1
1070
    44
1040
1.0
1070
    74
1070
     0
1000
MTEXTEND
  0
DIMENSION
  5
5E7C
330
1F
100
AcDbEntity
  8
DIM
 62
     7
100
AcDbDimension
  2
*D14
 10
1015.314253620934
 20
562.0327633217137
 30
0.0
 11
1015.314253620934
 21
576.0249040392927
 31
0.0
 70
   160
  1
300Min
 71
     5
 42
28.37256775530704
  3
YL
100
AcDbAlignedDimension
 13
1009.828318711979
 23
590.4053310770207
 33
0.0
 14
1004.297057846612
 24
562.0327633217137
 34
0.0
 50
90.0
100
AcDbRotatedDimension
  0
LINE
  5
5E7D
102
{ACAD_REACTORS
330
5E79
102
}
330
1F
100
AcDbEntity
  8
DIMENSION
100
AcDbLine
 10
1001.967017762228
 20
577.6507677053185
 30
0.0
 11
1001.967017762228
 21
562.0327633217137
 31
0.0
  0
LINE
  5
5E7E
102
{ACAD_REACTORS
330
5E79
102
}
330
1F
100
AcDbEntity
  8
DIM
100
AcDbLine
 10
1000.855960494502
 20
577.6507677053185
 30
0.0
 11
1000.855960494501
 21
562.0327633217137
 31
0.0
  0
LINE
  5
5E7F
102
{ACAD_REACTORS
330
5E79
102
}
330
1F
100
AcDbEntity
  8
DIM
100
AcDbLine
 10
999.8283187119787
 20
577.6507677053185
 30
0.0
 11
999.8283187119781
 21
562.0327633217137
 31
0.0
  0
LINE
  5
5E80
102
{ACAD_REACTORS
330
5E79
102
}
330
1F
100
AcDbEntity
  8
DIM
100
AcDbLine
 10
998.8006769294555
 20
577.6507677053185
 30
0.0
 11
998.8006769294555
 21
562.0327633217137
 31
0.0
  0
LINE
  5
5E81
102
{ACAD_REACTORS
330
5E79
102
}
330
1F
100
AcDbEntity
  8
DIMENSION
100
AcDbLine
 10
997.6896196617289
 20
577.6507677053185
 30
0.0
 11
997.6896196617289
 21
562.0327633217137
 31
0.0
  0
MTEXT
  5
5E82
330
1F
100
AcDbEntity
  8
DATA
100
AcDbMText
 10
985.6536137682416
 20
556.3205372664739
 30
0.0
 40
3.0
 41
0.0
 71
     9
 72
     1
  1
UL1007
 73
     1
 44
1.0
1001
ACAD
1000
MTEXTBEGIN
1070
    73
1070
     1
1070
    44
1040
1.0
1070
    74
1070
     0
1000
MTEXTEND
  0
MTEXT
  5
5E83
330
1F
100
AcDbEntity
  8
DATA
100
AcDbMText
 10
1013.259170583649
 20
554.7002288115336
 30
0.0
 40
3.0
 41
0.0
 71
     1
 72
     1
  1
JST XHP-6
 73
     1
 44
1.0
1001
ACAD
1000
ACAD_MTEXT_DEFINED_HEIGHT_BEGIN
1070
    46
1040
0.0
1000
ACAD_MTEXT_DEFINED_HEIGHT_END
1000
MTEXTBEGIN
1070
    73
1070
     1
1070
    44
1040
1.0
1070
    74
1070
     0
1000
MTEXTEND
  0
LWPOLYLINE
  5
5E84
330
1F
100
AcDbEntity
  8
DIMENSION
100
AcDbPolyline
 90
        4
 70
     1
 43
0.0
 10
995.15855446664
 20
562.0327633217137
 10
1004.297057846612
 20
562.0327633217137
 10
1004.297057846612
 20
553.137849513761
 10
995.15855446664
 20
553.137849513761
  0
LEADER
  5
5E85
330
1F
100
AcDbEntity
  8
DIM
 62
     7
100
AcDbLeader
  3
YL
 76
     3
 10
1002.257278738888
 20
557.6710817655798
 30
0.0
 10
1007.296823500541
 20
553.7650056045484
 30
0.0
 10
1012.336368262195
 20
553.7650056045484
 30
0.0
1001
ACAD
1000
DSTYLE
1002
{
1070
   147
1040
1.199999999999999
1070
    77
1070
     0
1002
}
  0
LINE
  5
5E86
102
{ACAD_REACTORS
330
5E79
102
}
330
1F
100
AcDbEntity
  8
DIMENSION
100
AcDbLine
 10
997.6896196617289
 20
562.0327633217137
 30
0.0
 11
999.8283187119788
 21
562.0327633217137
 31
0.0
  0
LINE
  5
5E87
102
{ACAD_REACTORS
330
5E79
102
}
330
1F
100
AcDbEntity
  8
DIMENSION
100
AcDbLine
 10
1001.967017762228
 20
562.0327633217137
 30
0.0
 11
999.8283187119781
 21
562.0327633217137
 31
0.0
  0
DIMENSION
  5
5E88
330
1F
100
AcDbEntity
  8
DIM
 62
     7
100
AcDbDimension
  2
*D15
 10
892.0157570574753
 20
636.3910979633462
 30
0.0
 11
876.5157570574753
 21
638.9238401188714
 31
0.0
 70
    32
  1
{\Famgdt;o} 31%%P0.2
 71
     5
 42
31.0
  3
YL
100
AcDbAlignedDimension
 13
861.0157570574752
 23
627.0553310770208
 33
0.0
 14
892.0157570574753
 24
627.0553310770208
 34
0.0
100
AcDbRotatedDimension
  0
DIMENSION
  5
5E89
330
1F
100
AcDbEntity
  8
DIM
 62
     7
100
AcDbDimension
  2
*D16
 10
897.6657570574754
 20
643.5010013803043
 30
0.0
 11
876.5157570574753
 21
643.5010013803043
 31
0.0
 70
   160
  1
{\Famgdt;o} 42.3
 71
     5
 42
42.30000000000006
  3
YL
100
AcDbAlignedDimension
 13
855.3657570574753
 23
628.3385816560952
 33
0.0
 14
897.6657570574754
 24
628.3385816560951
 34
0.0
100
AcDbRotatedDimension
  0
LINE
  5
5E8A
330
1F
100
AcDbEntity
  8
CENTER
  6
AM_ISO08W050x2
100
AcDbLine
 10
854.1811301428127
 20
611.5553310770208
 30
0.0
 11
899.5635985525822
 21
611.5553310770208
 31
0.0
  0
LINE
  5
5E8B
330
1F
100
AcDbEntity
  8
SPEC
100
AcDbLine
 10
859.732506478401
 20
632.7053310770208
 30
0.0
 11
893.2990076365497
 21
632.7053310770208
 31
0.0
  0
LINE
  5
5E8C
330
1F
100
AcDbEntity
  8
SPEC
100
AcDbLine
 10
859.732506478401
 20
590.4053310770208
 30
0.0
 11
893.2990076365497
 21
590.4053310770208
 31
0.0
  0
CIRCLE
  5
5E8D
330
1F
100
AcDbEntity
  8
SPEC
100
AcDbCircle
 10
876.5157570574753
 20
611.5553310770208
 30
0.0
 40
11.0
  0
LINE
  5
5E8E
330
1F
100
AcDbEntity
  8
SPEC
100
AcDbLine
 10
855.3657570574753
 20
628.3385816560951
 30
0.0
 11
855.3657570574753
 21
594.7720804979464
 31
0.0
  0
DIMENSION
  5
5E8F
330
1F
100
AcDbEntity
  8
DIM
 62
     7
100
AcDbDimension
  2
*D17
 10
863.2225996373962
 20
597.0310195436807
 30
0.0
 11
841.890233871476
 21
587.5995614805824
 31
0.0
 70
   163
  1
4-M3\P DEEP 4.5
 71
     5
 42
4.825814814734258
  3
YL
100
AcDbDiametricDimension
 15
858.8089144775537
 25
595.0796426103602
 35
0.0
 40
0.0
  0
ARC
  5
5E90
330
1F
100
AcDbEntity
  8
SPEC
100
AcDbCircle
 10
876.5157570574753
 20
611.5553310770208
 30
0.0
 40
27.0
100
AcDbArc
 50
218.4332063408509
 51
231.5667936591492
  0
CIRCLE
  5
5E91
330
1F
100
AcDbEntity
  8
SPEC
100
AcDbCircle
 10
861.0157570574752
 20
596.0553310770207
 30
0.0
 40
2.0
  0
ARC
  5
5E92
330
1F
100
AcDbEntity
  8
SPEC
  6
ACISOWELD
 62
     3
100
AcDbCircle
 10
861.0157570574752
 20
596.0553310770207
 30
0.0
 40
2.412907407366787
100
AcDbArc
 50
86.48133521379042
 51
0.2643844808278279
  0
ARC
  5
5E93
330
1F
100
AcDbEntity
  8
SPEC
  6
ACISOWELD
 62
     3
100
AcDbCircle
 10
861.0157570574752
 20
627.0553310770208
 30
0.0
 40
2.412907407366787
100
AcDbArc
 50
356.481335213784
 51
270.2643844808278
  0
CIRCLE
  5
5E94
330
1F
100
AcDbEntity
  8
SPEC
100
AcDbCircle
 10
861.0157570574752
 20
627.0553310770208
 30
0.0
 40
2.0
  0
ARC
  5
5E95
330
1F
100
AcDbEntity
  8
SPEC
100
AcDbCircle
 10
876.5157570574753
 20
611.5553310770208
 30
0.0
 40
27.0
100
AcDbArc
 50
128.4332063408508
 51
141.5667936591491
  0
LINE
  5
5E96
330
1F
100
AcDbEntity
  8
SPEC
100
AcDbLine
 10
897.6657570574753
 20
628.3385816560952
 30
0.0
 11
897.6657570574754
 21
594.7720804979464
 31
0.0
  0
LINE
  5
5E97
330
1F
100
AcDbEntity
  8
CENTER
  6
CENTER
100
AcDbLine
 10
876.5157570574753
 20
635.4715316936091
 30
0.0
 11
876.5157570574753
 21
587.2191194696811
 31
0.0
  0
CIRCLE
  5
5E98
330
1F
100
AcDbEntity
  8
SPEC
100
AcDbCircle
 10
892.0157570574753
 20
596.0553310770207
 30
0.0
 40
2.0
  0
ARC
  5
5E99
330
1F
100
AcDbEntity
  8
SPEC
  6
ACISOWELD
 62
     3
100
AcDbCircle
 10
892.0157570574753
 20
596.0553310770207
 30
0.0
 40
2.412907407366787
100
AcDbArc
 50
176.4813352137839
 51
90.26438448082785
  0
LINE
  5
5E9A
102
{ACAD_REACTORS
330
5E79
102
}
330
1F
100
AcDbEntity
  8
DIMENSION
100
AcDbLine
 10
1001.967017762228
 20
589.1088047874343
 30
0.0
 11
1001.967017762228
 21
578.7121853542894
 31
0.0
  0
LINE
  5
5E9B
102
{ACAD_REACTORS
330
5E79
102
}
330
1F
100
AcDbEntity
  8
DIM
100
AcDbLine
 10
1000.855960494502
 20
589.1088047874343
 30
0.0
 11
1000.855960494502
 21
578.7121853542894
 31
0.0
  0
LINE
  5
5E9C
102
{ACAD_REACTORS
330
5E79
102
}
330
1F
100
AcDbEntity
  8
DIM
100
AcDbLine
 10
999.8283187119788
 20
589.1088047874343
 30
0.0
 11
999.8283187119785
 21
578.7121853542894
 31
0.0
  0
LINE
  5
5E9D
102
{ACAD_REACTORS
330
5E79
102
}
330
1F
100
AcDbEntity
  8
DIMENSION
100
AcDbLine
 10
997.6896196617289
 20
589.1088047874343
 30
0.0
 11
997.6896196617289
 21
578.7121853542894
 31
0.0
  0
LINE
  5
5E9E
102
{ACAD_REACTORS
330
5E79
102
}
330
1F
100
AcDbEntity
  8
DIM
100
AcDbLine
 10
998.8006769294555
 20
589.1088047874343
 30
0.0
 11
998.8006769294555
 21
578.7121853542894
 31
0.0
  0
LINE
  5
5E9F
102
{ACAD_REACTORS
330
5E79
102
}
330
1F
100
AcDbEntity
  8
DIMENSION
100
AcDbLine
 10
996.8924191999837
 20
577.6507677053185
 30
0.0
 11
1002.491700288459
 21
577.6507677053185
 31
0.0
  0
LINE
  5
5EA0
102
{ACAD_REACTORS
330
5E79
102
}
330
1F
100
AcDbEntity
  8
DIMENSION
100
AcDbLine
 10
996.969121812109
 20
578.7121853542894
 30
0.0
 11
1002.568402900584
 21
578.7121853542894
 31
0.0
  0
LINE
  5
5EA1
102
{ACAD_REACTORS
330
5E79
102
}
330
1F
100
AcDbEntity
  8
DIMENSION
100
AcDbLine
 10
996.8986738319042
 20
589.1088047874343
 30
0.0
 11
999.8283187119788
 21
589.1088047874343
 31
0.0
  0
LINE
  5
5EA2
330
1F
100
AcDbEntity
  8
DIMENSION
100
AcDbLine
 10
996.8986738319042
 20
590.4053310770207
 30
0.0
 11
996.8986738319042
 21
589.1088047874343
 31
0.0
  0
LINE
  5
5EA3
102
{ACAD_REACTORS
330
5E79
102
}
330
1F
100
AcDbEntity
  8
DIMENSION
100
AcDbLine
 10
1002.757963592053
 20
589.1088047874342
 30
0.0
 11
999.8283187119788
 21
589.1088047874343
 31
0.0
  0
LINE
  5
5EA4
330
1F
100
AcDbEntity
  8
DIMENSION
100
AcDbLine
 10
1002.757963592053
 20
590.4053310770206
 30
0.0
 11
1002.757963592053
 21
589.1088047874342
 31
0.0
  0
CIRCLE
  5
5EA5
330
1F
100
AcDbEntity
  8
SPEC
100
AcDbCircle
 10
876.5157570574753
 20
611.5553310770208
 30
0.0
 40
2.5
  0
CIRCLE
  5
5EA6
330
1F
100
AcDbEntity
  8
SPEC
100
AcDbCircle
 10
876.5157570574753
 20
611.5553310770208
 30
0.0
 40
3.5
  0
ARC
  5
5EA7
330
1F
100
AcDbEntity
  8
SPEC
100
AcDbCircle
 10
876.5157570574753
 20
611.5553310770208
 30
0.0
 40
27.0
100
AcDbArc
 50
308.4332063408508
 51
321.5667936591491
  0
CIRCLE
  5
5EA8
330
1F
100
AcDbEntity
  8
SPEC
100
AcDbCircle
 10
892.0157570574753
 20
627.0553310770208
 30
0.0
 40
2.0
  0
ARC
  5
5EA9
330
1F
100
AcDbEntity
  8
SPEC
  6
ACISOWELD
 62
     3
100
AcDbCircle
 10
892.0157570574753
 20
627.0553310770208
 30
0.0
 40
2.412907407366787
100
AcDbArc
 50
266.4813352137904
 51
180.2643844808343
  0
ARC
  5
5EAA
330
1F
100
AcDbEntity
  8
SPEC
100
AcDbCircle
 10
876.5157570574753
 20
611.5553310770208
 30
0.0
 40
27.0
100
AcDbArc
 50
38.43320634085087
 51
51.56679365914913
  0
LINE
  5
5EAB
330
1F
100
AcDbEntity
  8
CENTER
  6
AM_ISO08W050x2
100
AcDbLine
 10
1110.741641901827
 20
635.4715316936091
 30
0.0
 11
1110.741641901827
 21
587.2191194696811
 31
0.0
  0
LINE
  5
5EAC
330
1F
100
AcDbEntity
  8
CENTER
  6
AM_ISO08W050x2
100
AcDbLine
 10
1083.421857177487
 20
611.5553310770208
 30
0.0
 11
1136.964347079956
 21
611.5553310770208
 31
0.0
  0
LINE
  5
5EAD
330
1F
100
AcDbEntity
  8
SPEC
100
AcDbLine
 10
1093.958391322753
 20
632.7053310770208
 30
0.0
 11
1127.524892480902
 21
632.7053310770208
 31
0.0
  0
LINE
  5
5EAE
330
1F
100
AcDbEntity
  8
SPEC
100
AcDbLine
 10
1093.958391322753
 20
590.4053310770208
 30
0.0
 11
1127.524892480902
 21
590.4053310770208
 31
0.0
  0
LINE
  5
5EAF
330
1F
100
AcDbEntity
  8
SPEC
100
AcDbLine
 10
1089.591641901827
 20
628.3385816560952
 30
0.0
 11
1089.591641901827
 21
594.7720804979466
 31
0.0
  0
ARC
  5
5EB0
330
1F
100
AcDbEntity
  8
SPEC
100
AcDbCircle
 10
1110.741641901827
 20
611.5553310770208
 30
0.0
 40
27.0
100
AcDbArc
 50
218.4332063408509
 51
231.566793659149
  0
LINE
  5
5EB1
330
1F
100
AcDbEntity
  8
SPEC
100
AcDbLine
 10
1096.879324957974
 20
597.2033703653784
 30
0.0
 11
1095.526096807527
 21
595.8501422149318
 31
0.0
  0
LINE
  5
5EB2
330
1F
100
AcDbEntity
  8
SPEC
100
AcDbLine
 10
1096.453375365308
 20
597.6464633824818
 30
0.0
 11
1095.091575502642
 21
596.2846635198161
 31
0.0
  0
LINE
  5
5EB3
330
1F
100
AcDbEntity
  8
SPEC
100
AcDbLine
 10
1096.247325234207
 20
594.3265739989514
 30
0.0
 11
1095.124926912876
 21
595.4489723202814
 31
0.0
  0
LINE
  5
5EB4
330
1F
100
AcDbEntity
  8
SPEC
100
AcDbLine
 10
1096.694933023592
 20
594.6813059988659
 30
0.0
 11
1095.526096807527
 21
595.8501422149318
 31
0.0
  0
CIRCLE
  5
5EB5
330
1F
100
AcDbEntity
  8
SPEC
100
AcDbCircle
 10
1095.241641901827
 20
596.0553310770207
 30
0.0
 40
2.0
  0
LINE
  5
5EB6
330
1F
100
AcDbEntity
  8
SPEC
100
AcDbLine
 10
1094.690405607992
 20
595.8834936251657
 30
0.0
 11
1093.650509596367
 21
594.8435976135402
 31
0.0
  0
LINE
  5
5EB7
330
1F
100
AcDbEntity
  8
SPEC
100
AcDbLine
 10
1095.124926912876
 20
595.4489723202814
 30
0.0
 11
1094.09360261347
 21
594.4176480208749
 31
0.0
  0
LINE
  5
5EB8
330
1F
100
AcDbEntity
  8
SPEC
100
AcDbLine
 10
1094.690405607992
 20
595.8834936251657
 30
0.0
 11
1093.512884823758
 21
597.0610144093998
 31
0.0
  0
LINE
  5
5EB9
330
1F
100
AcDbEntity
  8
SPEC
100
AcDbLine
 10
1095.091575502642
 20
596.2846635198161
 30
0.0
 11
1093.867616823672
 21
597.508622198786
 31
0.0
  0
ARC
  5
5EBA
330
1F
100
AcDbEntity
  8
SPEC
100
AcDbCircle
 10
1110.741641901827
 20
611.5553310770208
 30
0.0
 40
27.0
100
AcDbArc
 50
128.4332063408508
 51
141.5667936591491
  0
LINE
  5
5EBB
330
1F
100
AcDbEntity
  8
SPEC
100
AcDbLine
 10
1096.453375365308
 20
625.4641987715598
 30
0.0
 11
1095.091575502642
 21
626.8259986342254
 31
0.0
  0
LINE
  5
5EBC
330
1F
100
AcDbEntity
  8
SPEC
100
AcDbLine
 10
1096.879324957974
 20
625.9072917886632
 30
0.0
 11
1095.526096807527
 21
627.2605199391098
 31
0.0
  0
LINE
  5
5EBD
330
1F
100
AcDbEntity
  8
SPEC
100
AcDbLine
 10
1096.694933023592
 20
628.4293561551757
 30
0.0
 11
1095.526096807527
 21
627.2605199391098
 31
0.0
  0
LINE
  5
5EBE
330
1F
100
AcDbEntity
  8
SPEC
100
AcDbLine
 10
1096.247325234207
 20
628.7840881550902
 30
0.0
 11
1095.124926912876
 21
627.6616898337602
 31
0.0
  0
CIRCLE
  5
5EBF
330
1F
100
AcDbEntity
  8
SPEC
100
AcDbCircle
 10
1095.241641901827
 20
627.0553310770208
 30
0.0
 40
2.0
  0
LINE
  5
5EC0
330
1F
100
AcDbEntity
  8
SPEC
100
AcDbLine
 10
1094.690405607992
 20
627.2271685288758
 30
0.0
 11
1093.512884823758
 21
626.0496477446418
 31
0.0
  0
LINE
  5
5EC1
330
1F
100
AcDbEntity
  8
SPEC
100
AcDbLine
 10
1094.690405607992
 20
627.2271685288758
 30
0.0
 11
1093.650509596367
 21
628.2670645405013
 31
0.0
  0
LINE
  5
5EC2
330
1F
100
AcDbEntity
  8
SPEC
100
AcDbLine
 10
1095.091575502642
 20
626.8259986342254
 30
0.0
 11
1093.867616823672
 21
625.6020399552555
 31
0.0
  0
LINE
  5
5EC3
330
1F
100
AcDbEntity
  8
SPEC
100
AcDbLine
 10
1095.124926912876
 20
627.6616898337602
 30
0.0
 11
1094.09360261347
 21
628.6930141331667
 31
0.0
  0
CIRCLE
  5
5EC4
330
1F
100
AcDbEntity
  8
SPEC
100
AcDbCircle
 10
1110.741641901827
 20
611.5553310770208
 30
0.0
 40
3.5
  0
LINE
  5
5EC5
330
1F
100
AcDbEntity
  8
DIMENSION
100
AcDbLine
 10
1113.671286781902
 20
589.1088047874343
 30
0.0
 11
1110.741641901827
 21
589.1088047874344
 31
0.0
  0
LINE
  5
5EC6
330
1F
100
AcDbEntity
  8
DIMENSION
100
AcDbLine
 10
1107.811997021753
 20
589.1088047874344
 30
0.0
 11
1110.741641901827
 21
589.1088047874344
 31
0.0
  0
LINE
  5
5EC7
330
1F
100
AcDbEntity
  8
DIMENSION
100
AcDbLine
 10
1107.811997021753
 20
590.4053310770208
 30
0.0
 11
1107.811997021753
 21
589.1088047874344
 31
0.0
  0
LINE
  5
5EC8
330
1F
100
AcDbEntity
  8
DIMENSION
100
AcDbLine
 10
1113.671286781902
 20
590.4053310770207
 30
0.0
 11
1113.671286781902
 21
589.1088047874343
 31
0.0
  0
LINE
  5
5EC9
330
1F
100
AcDbEntity
  8
SPEC
100
AcDbLine
 10
1131.891641901827
 20
628.3385816560952
 30
0.0
 11
1131.891641901827
 21
594.7720804979464
 31
0.0
  0
ARC
  5
5ECA
330
1F
100
AcDbEntity
  8
SPEC
100
AcDbCircle
 10
1110.741641901827
 20
611.5553310770208
 30
0.0
 40
27.0
100
AcDbArc
 50
308.4332063408508
 51
321.566793659149
  0
LINE
  5
5ECB
330
1F
100
AcDbEntity
  8
SPEC
100
AcDbLine
 10
1124.788350780062
 20
594.6813059988659
 30
0.0
 11
1125.957186996128
 21
595.8501422149318
 31
0.0
  0
LINE
  5
5ECC
330
1F
100
AcDbEntity
  8
SPEC
100
AcDbLine
 10
1125.235958569448
 20
594.3265739989514
 30
0.0
 11
1126.358356890778
 21
595.4489723202814
 31
0.0
  0
LINE
  5
5ECD
330
1F
100
AcDbEntity
  8
SPEC
100
AcDbLine
 10
1125.029908438347
 20
597.6464633824818
 30
0.0
 11
1126.391708301012
 21
596.2846635198161
 31
0.0
  0
LINE
  5
5ECE
330
1F
100
AcDbEntity
  8
SPEC
100
AcDbLine
 10
1124.603958845681
 20
597.2033703653784
 30
0.0
 11
1125.957186996128
 21
595.8501422149318
 31
0.0
  0
CIRCLE
  5
5ECF
330
1F
100
AcDbEntity
  8
SPEC
100
AcDbCircle
 10
1126.241641901827
 20
596.0553310770207
 30
0.0
 40
2.0
  0
LINE
  5
5ED0
330
1F
100
AcDbEntity
  8
SPEC
100
AcDbLine
 10
1126.358356890778
 20
595.4489723202814
 30
0.0
 11
1127.389681190185
 21
594.4176480208749
 31
0.0
  0
LINE
  5
5ED1
330
1F
100
AcDbEntity
  8
SPEC
100
AcDbLine
 10
1126.792878195662
 20
595.8834936251657
 30
0.0
 11
1127.832774207288
 21
594.8435976135402
 31
0.0
  0
LINE
  5
5ED2
330
1F
100
AcDbEntity
  8
SPEC
100
AcDbLine
 10
1126.391708301012
 20
596.2846635198161
 30
0.0
 11
1127.615666979982
 21
597.508622198786
 31
0.0
  0
LINE
  5
5ED3
330
1F
100
AcDbEntity
  8
SPEC
100
AcDbLine
 10
1126.792878195662
 20
595.8834936251657
 30
0.0
 11
1127.970398979897
 21
597.0610144093998
 31
0.0
  0
ARC
  5
5ED4
330
1F
100
AcDbEntity
  8
SPEC
100
AcDbCircle
 10
1110.741641901827
 20
611.5553310770208
 30
0.0
 40
27.0
100
AcDbArc
 50
38.4332063408509
 51
51.56679365914909
  0
LINE
  5
5ED5
330
1F
100
AcDbEntity
  8
SPEC
100
AcDbLine
 10
1124.603958845681
 20
625.9072917886632
 30
0.0
 11
1125.957186996128
 21
627.2605199391098
 31
0.0
  0
LINE
  5
5ED6
330
1F
100
AcDbEntity
  8
SPEC
100
AcDbLine
 10
1125.029908438347
 20
625.4641987715598
 30
0.0
 11
1126.391708301012
 21
626.8259986342254
 31
0.0
  0
LINE
  5
5ED7
330
1F
100
AcDbEntity
  8
SPEC
100
AcDbLine
 10
1125.235958569448
 20
628.7840881550902
 30
0.0
 11
1126.358356890778
 21
627.6616898337602
 31
0.0
  0
LINE
  5
5ED8
330
1F
100
AcDbEntity
  8
SPEC
100
AcDbLine
 10
1124.788350780062
 20
628.4293561551757
 30
0.0
 11
1125.957186996128
 21
627.2605199391098
 31
0.0
  0
CIRCLE
  5
5ED9
330
1F
100
AcDbEntity
  8
SPEC
100
AcDbCircle
 10
1126.241641901827
 20
627.0553310770208
 30
0.0
 40
2.0
  0
LINE
  5
5EDA
330
1F
100
AcDbEntity
  8
SPEC
100
AcDbLine
 10
1126.792878195662
 20
627.2271685288758
 30
0.0
 11
1127.832774207288
 21
628.2670645405013
 31
0.0
  0
LINE
  5
5EDB
330
1F
100
AcDbEntity
  8
SPEC
100
AcDbLine
 10
1126.792878195662
 20
627.2271685288758
 30
0.0
 11
1127.970398979897
 21
626.0496477446418
 31
0.0
  0
LINE
  5
5EDC
330
1F
100
AcDbEntity
  8
SPEC
100
AcDbLine
 10
1126.358356890778
 20
627.6616898337602
 30
0.0
 11
1127.389681190185
 21
628.6930141331667
 31
0.0
  0
LINE
  5
5EDD
330
1F
100
AcDbEntity
  8
SPEC
100
AcDbLine
 10
1126.391708301012
 20
626.8259986342254
 30
0.0
 11
1127.615666979982
 21
625.6020399552555
 31
0.0
  0
TEXT
  5
5EDE
330
1F
100
AcDbEntity
  8
DIM
100
AcDbText
 10
846.9097001284966
 20
653.0
 30
0.0
 40
3.571428571428572
  1
Front view and mounting
100
AcDbText
  0
TEXT
  5
5EDF
330
1F
100
AcDbEntity
  8
DIM
100
AcDbText
 10
985.8872812531718
 20
653.0
 30
0.0
 40
3.571428571428572
  1
Side view
100
AcDbText
  0
TEXT
  5
5EE0
330
1F
100
AcDbEntity
  8
DIM
100
AcDbText
 10
1097.721157820663
 20
653.0
 30
0.0
 40
3.571428571428572
  1
Rear view
100
AcDbText
  0
LINE
  5
5EE1
330
1F
100
AcDbEntity
  8
SPEC
  6
ACISOTGL
100
AcDbLine
 10
1009.828318711979
 20
609.0553310770208
 30
0.0
 11
1023.328318711979
 21
609.0553310770208
 31
0.0
  0
LINE
  5
5EE2
330
1F
100
AcDbEntity
  8
SPEC
  6
ACISOTGL
100
AcDbLine
 10
1009.828318711979
 20
614.0553310770208
 30
0.0
 11
1023.328318711979
 21
614.0553310770208
 31
0.0
  0
LINE
  5
5EE3
102
{ACAD_REACTORS
330
5EE7
330
5EEA
102
}
330
1F
100
AcDbEntity
  8
SPEC
  6
ACISOTGL
100
AcDbLine
 10
1023.328318711979
 20
611.5553310770208
 30
0.0
 11
1023.328318711979
 21
614.0553310770208
 31
0.0
  0
LINE
  5
5EE4
102
{ACAD_REACTORS
330
5EEA
102
}
330
1F
100
AcDbEntity
  8
SPEC
  6
ACISOTGL
100
AcDbLine
 10
1023.328318711979
 20
611.5553310770208
 30
0.0
 11
1023.328318711979
 21
609.0553310770208
 31
0.0
  0
DIMENSION
  5
5EE5
102
{ACAD_XDICTIONARY
360
5EE6
102
}
102
{ACAD_REACTORS
330
5EE7
102
}
330
1F
100
AcDbEntity
  8
AM_5
  6
ACISOTGL
100
AcDbDimension
  2
*D18
 10
1023.328318711979
 20
643.2322358427627
 30
0.0
 11
1016.468305425198
 21
643.2322358427627
 31
0.0
 70
   160
 71
     5
 42
13.5
  3
STANDARD$0
100
AcDbAlignedDimension
 13
1009.828318711979
 23
632.7053310770208
 33
0.0
 14
1023.328318711979
 24
614.0553310770208
 34
0.0
100
AcDbRotatedDimension
1001
ACAD
1000
DSTYLE
1002
{
1070
    47
1040
1.0
1070
   147
1040
1.0
1070
    48
1040
1.0
1070
    72
1070
     0
1070
    71
1070
     1
1002
}
  0
DIMENSION
  5
5EE8
102
{ACAD_XDICTIONARY
360
5EE9
102
}
102
{ACAD_REACTORS
330
5EEA
102
}
330
1F
100
AcDbEntity
  8
AM_5
  6
ACISOTGL
100
AcDbDimension
  2
*D19
 10
1032.446026779949
 20
614.0553310770208
 30
0.0
 11
1028.534908089635
 21
628.3775002448244
 31
0.0
 70
    32
  1
%%c<>
 71
     5
 42
5.0
  3
STANDARD$0
100
AcDbAlignedDimension
 13
1023.328318711979
 23
609.0553310770208
 33
0.0
 14
1023.328318711979
 24
614.0553310770208
 34
0.0
 50
90.0
100
AcDbRotatedDimension
1001
ACAD
1000
DSTYLE
1002
{
1070
   272
1070
     3
1070
    48
1040
0.012
1070
   147
1040
1.0
1070
    72
1070
     0
1070
    71
1070
     1
1002
}
  0
LEADER
  5
5EEB
330
1F
100
AcDbEntity
  8
DIM
  6
ACISOTGL
100
AcDbLeader
  3
STANDARD
 76
     3
 10
1120.266641901827
 20
611.5553310770207
 30
0.0
 10
1133.297786613262
 20
636.6623793792499
 30
0.0
 10
1158.681722660278
 20
636.6623793792499
 30
0.0
1001
ACAD
1000
DSTYLE
1002
{
1070
    40
1040
1.0
1070
    77
1070
     0
1002
}
  0
DIMENSION
  5
5EEC
330
1F
100
AcDbEntity
  8
DIM
  6
ACISOTGL
100
AcDbDimension
  2
*D8
 10
1120.266641901827
 20
640.0357296232304
 30
0.0
 11
1109.957140190402
 21
640.0357296232304
 31
0.0
 70
   160
 71
     5
 42
19.05000000000018
  3
STANDARD
100
AcDbAlignedDimension
 13
1101.216641901827
 23
611.5553310770209
 33
0.0
 14
1120.266641901827
 24
611.5553310770207
 34
0.0
100
AcDbRotatedDimension
1001
ACAD
1000
DSTYLE
1002
{
1070
    40
1040
1.0
1002
}
  0
MTEXT
  5
5EED
102
{ACAD_REACTORS
330
5EEE
102
}
330
1F
100
AcDbEntity
  8
SPEC
  6
HIDDEN
 62
     6
100
AcDbMText
 10
1035.955290513502
 20
601.3952718342152
 30
0.0
 40
3.0
 41
54.2857142857143
 71
     1
 72
     1
  1
(only for type ST4118S0406-B\PReady for encoder + \Pdriver mount)
 73
     1
 44
1.0
1001
ACAD
1000
ACAD_MTEXT_DEFINED_HEIGHT_BEGIN
1070
    46
1040
0.0
1000
ACAD_MTEXT_DEFINED_HEIGHT_END
1000
MTEXTBEGIN
1070
    73
1070
     1
1070
    44
1040
1.0
1070
    74
1070
     0
1000
MTEXTEND
  0
LEADER
  5
5EEE
330
1F
100
AcDbEntity
  8
SPEC
  6
ACISOTGL
100
AcDbLeader
  3
STANDARD
 73
     0
 40
9.356980445657114
 41
37.73124147339699
 76
     3
 10
1019.009814877513
 20
611.7108428059229
 30
0.0
 10
1025.003705605993
 20
595.7611059012053
 30
0.0
 10
1034.569371621043
 20
595.7611059012053
 30
0.0
213
-2.423850538799245
223
-1.208600593008168
233
0.0
1001
ACAD
1000
DSTYLE
1002
{
1070
    40
1040
1.0
1070
    77
1070
     0
1002
}
  0
CIRCLE
  5
5EEF
330
1F
100
AcDbEntity
  8
CENTER
  6
CENTER
100
AcDbCircle
 10
1110.741641901827
 20
611.5553310770207
 30
0.0
 40
9.52500000000009
  0
LEADER
  5
5EF0
330
1F
100
AcDbEntity
  8
DIM
  6
ACISOTGL
100
AcDbLeader
  3
STANDARD
 76
     3
 10
1101.216641901827
 20
611.5553310770207
 30
0.0
 10
1083.867412785139
 20
590.4766994509945
 30
0.0
 10
1077.255316839328
 20
590.4663760502164
 30
0.0
1001
ACAD
1000
DSTYLE
1002
{
1070
    40
1040
1.0
1070
    77
1070
     0
1002
}
  0
CIRCLE
  5
5EF1
330
1F
100
AcDbEntity
  8
AM_5
  6
ACISOTGL
100
AcDbCircle
 10
1101.216641901827
 20
611.5553310770208
 30
0.0
 40
1.190476190476191
  0
CIRCLE
  5
5EF2
330
1F
100
AcDbEntity
  8
SPEC
  6
ACISOTGL
100
AcDbCircle
 10
1101.216641901827
 20
611.555331077021
 30
0.0
 40
0.9523809523809527
  0
CIRCLE
  5
5EF3
330
1F
100
AcDbEntity
  8
AM_5
  6
ACISOTGL
100
AcDbCircle
 10
1120.266641901827
 20
611.5553310770209
 30
0.0
 40
1.190476190476191
  0
CIRCLE
  5
5EF4
330
1F
100
AcDbEntity
  8
SPEC
  6
ACISOTGL
100
AcDbCircle
 10
1120.266641901827
 20
611.5553310770209
 30
0.0
 40
0.9523809523809527
  0
CIRCLE
  5
5EF5
330
1F
100
AcDbEntity
  8
SPEC
  6
ACISOTGL
100
AcDbCircle
 10
1110.741641901827
 20
611.5553310770208
 30
0.0
 40
2.5
  0
TEXT
  5
5EF6
330
1F
100
AcDbEntity
  8
DATA
100
AcDbText
 10
1134.076467620615
 20
637.6964645579963
 30
0.0
 40
3.0
  1
2-M2.5x0.45
100
AcDbText
  0
TEXT
  5
5EF7
330
1F
100
AcDbEntity
  8
DATA
100
AcDbText
 10
1134.076467620615
 20
632.8772285416253
 30
0.0
 40
3.0
  1
DEPTH 2 MIN.
100
AcDbText
  0
TOLERANCE
  5
61CB
330
1F
100
AcDbEntity
  8
DIM
100
AcDbFcf
  3
STANDARD
 10
935.5146405926475
 20
623.2900448962702
 30
0.0
  1
{\Fgdt;r}%%v0.075%%v%%vA%%v%%v
 11
0.0000000000000001
 21
1.0
 31
0.0
1001
ACAD
1000
DSTYLE
1002
{
1070
   147
1040
0.9523809523809527
1002
}
  0
TOLERANCE
  5
61CC
330
1F
100
AcDbEntity
  8
DIM
100
AcDbFcf
  3
STANDARD
 10
949.8889359799546
 20
595.6115908917306
 30
0.0
  1
{\Fgdt;b}%%v0.1%%v%%vA%%v%%v
1001
ACAD
1000
DSTYLE
1002
{
1070
   147
1040
0.9523809523809527
1002
}
  0
TOLERANCE
  5
61CD
330
1F
100
AcDbEntity
  8
DIM
100
AcDbFcf
  3
STANDARD
 10
966.6323372353147
 20
627.4669146283993
 30
0.0
  1
%%v%%v%%vA%%v%%v
1001
ACAD
1000
DSTYLE
1002
{
1070
   147
1040
0.9523809523809527
1002
}
  0
LEADER
  5
61CE
330
1F
100
AcDbEntity
  8
DIM
100
AcDbLeader
  3
STANDARD
 76
     2
 10
969.653229052899
 20
614.0553310770208
 30
0.0
 10
969.653229052899
 20
624.4669146283992
 30
0.0
210
0.0
220
0.0
230
-1.0
1001
ACAD
1000
DSTYLE
1002
{
1070
   341
1005
2FB
1070
    40
1040
1.0
1070
    77
1070
     0
1002
}
  0
TOLERANCE
  5
61CF
330
1F
100
AcDbEntity
  8
DIM
100
AcDbFcf
  3
STANDARD
 10
943.7498276418374
 20
631.4642312147266
 30
0.0
  1
{\Fgdt;h}%%v0.05%%v%%v%%v%%v
 11
0.0000000000000001
 21
1.0
 31
0.0
1001
ACAD
1000
DSTYLE
1002
{
1070
   147
1040
0.9523809523809527
1002
}
  0
LEADER
  5
629D
330
1F
100
AcDbEntity
  8
DIM
100
AcDbLeader
  3
STANDARD
 76
     2
 10
978.8283187119789
 20
595.4803310770207
 30
0.0
 10
972.579249758945
 20
595.4803310770207
 30
0.0
1001
ACAD
1000
DSTYLE
1002
{
1070
   147
1040
1.0
1070
    77
1070
     0
1070
    47
1040
0.2
1070
    48
1040
-0.2
1070
   272
1070
     1
1002
}
  0
LINE
  5
62A5
330
1F
100
AcDbEntity
  8
DIM
100
AcDbLine
 10
946.7498276418373
 20
619.90322908554
 30
0.0
 11
946.7498276418373
 21
631.4642312147266
 31
0.0
  0
LINE
  5
62B8
330
1F
100
AcDbEntity
  8
DIM
100
AcDbLine
 10
938.5146405926475
 20
622.5579996494505
 30
0.0
 11
938.5146405926475
 21
623.2900448962702
 31
0.0
  0
LINE
  5
6389
330
1F
100
AcDbEntity
  8
DIMENSION
100
AcDbLine
 10
879.44540193755
 20
589.1088047874343
 30
0.0
 11
876.5157570574753
 21
589.1088047874344
 31
0.0
  0
LINE
  5
638A
330
1F
100
AcDbEntity
  8
DIMENSION
100
AcDbLine
 10
873.5861121774005
 20
589.1088047874344
 30
0.0
 11
876.5157570574753
 21
589.1088047874344
 31
0.0
  0
LINE
  5
638B
330
1F
100
AcDbEntity
  8
DIMENSION
100
AcDbLine
 10
873.5861121774005
 20
590.4053310770208
 30
0.0
 11
873.5861121774005
 21
589.1088047874344
 31
0.0
  0
LINE
  5
638C
330
1F
100
AcDbEntity
  8
DIMENSION
100
AcDbLine
 10
879.44540193755
 20
590.4053310770207
 30
0.0
 11
879.44540193755
 21
589.1088047874343
 31
0.0
  0
LINE
  5
63F6
330
1F
100
AcDbEntity
  8
DIM
100
AcDbLine
 10
878.6544561077251
 20
589.1088047874344
 30
0.0
 11
878.6544561077249
 21
578.7121853542895
 31
0.0
  0
LINE
  5
63F7
330
1F
100
AcDbEntity
  8
DIM
100
AcDbLine
 10
877.5433988399987
 20
589.1088047874344
 30
0.0
 11
877.5433988399985
 21
578.7121853542895
 31
0.0
  0
LINE
  5
63F8
330
1F
100
AcDbEntity
  8
DIM
100
AcDbLine
 10
876.5157570574753
 20
589.1088047874344
 30
0.0
 11
876.515757057475
 21
578.7121853542895
 31
0.0
  0
LINE
  5
63F9
330
1F
100
AcDbEntity
  8
DIM
100
AcDbLine
 10
874.3770580072254
 20
589.1088047874344
 30
0.0
 11
874.3770580072254
 21
578.7121853542895
 31
0.0
  0
LINE
  5
63FA
330
1F
100
AcDbEntity
  8
DIM
100
AcDbLine
 10
875.4881152749518
 20
589.1088047874344
 30
0.0
 11
875.488115274952
 21
578.7121853542895
 31
0.0
  0
LINE
  5
6408
330
1F
100
AcDbEntity
  8
DIM
100
AcDbLine
 10
1112.880340952077
 20
589.1088047874344
 30
0.0
 11
1112.880340952077
 21
578.7121853542895
 31
0.0
  0
LINE
  5
6409
330
1F
100
AcDbEntity
  8
DIM
100
AcDbLine
 10
1111.769283684351
 20
589.1088047874344
 30
0.0
 11
1111.769283684351
 21
578.7121853542895
 31
0.0
  0
LINE
  5
640A
330
1F
100
AcDbEntity
  8
DIM
100
AcDbLine
 10
1110.741641901827
 20
589.1088047874344
 30
0.0
 11
1110.741641901827
 21
578.7121853542895
 31
0.0
  0
LINE
  5
640B
330
1F
100
AcDbEntity
  8
DIM
100
AcDbLine
 10
1108.602942851577
 20
589.1088047874344
 30
0.0
 11
1108.602942851577
 21
578.7121853542895
 31
0.0
  0
LINE
  5
640C
330
1F
100
AcDbEntity
  8
DIM
100
AcDbLine
 10
1109.714000119304
 20
589.1088047874344
 30
0.0
 11
1109.714000119304
 21
578.7121853542895
 31
0.0
  0
VIEWPORT
  5
2D8
102
{ACAD_XDICTIONARY
360
6436
102
}
330
1B
100
AcDbEntity
 67
     1
  8
0
100
AcDbViewport
 10
172.1436092240135
 20
99.743485253803
 30
0.0
 40
427.177147558204
 41
313.7144382813279
 68
     1
 69
     1
 12
172.1436092240135
 22
99.743485253803
 13
0.0
 23
0.0
 14
10.0
 24
10.0
 15
10.0
 25
10.0
 16
0.0
 26
0.0
 36
1.0
 17
0.0
 27
0.0
 37
0.0
 42
50.0
 43
0.0
 44
0.0
 45
313.7144382813279
 50
0.0
 51
0.0
 72
   100
 90
    32768
  1

281
     0
 71
     0
 74
     0
110
0.0
120
0.0
130
0.0
111
1.0
121
0.0
131
0.0
112
0.0
122
1.0
132
0.0
 79
     0
146
0.0
  0
MTEXT
  5
1290
330
1B
100
AcDbEntity
 67
     1
  8
DATA
100
AcDbMText
 10
142.6845396305116
 20
14.24154306217638
 30
0.0
 40
1.930697999999999
 41
24.133725
 71
     1
 72
     5
  1
X       %%p0.5\P1PL     %%p0.2\P2PL     %%p0.1\PANGLE   %%p30'
  7
ROMANS
 73
     1
 44
1.0
1001
ACAD
1000
MTEXTBEGIN
1070
    73
1070
     1
1070
    44
1040
1.0
1070
    74
1070
     0
1000
MTEXTEND
  0
LWPOLYLINE
  5
1291
330
1B
100
AcDbEntity
 67
     1
  8
SPEC
100
AcDbPolyline
 90
        2
 70
     0
 43
0.0
 10
44.51178313191621
 20
21.65598901220129
 10
104.0278513100474
 20
21.65598901220129
  0
TEXT
  5
1294
330
1B
100
AcDbEntity
 67
     1
  8
DATA
100
AcDbText
 10
223.3033978947773
 20
2.332825847364669
 30
0.0
 40
3.861395999999999
  1
ST4118S0406
 41
0.7
  7
ROMANS
100
AcDbText
  0
LWPOLYLINE
  5
1296
330
1B
100
AcDbEntity
 67
     1
  8
SPEC
100
AcDbPolyline
 90
        2
 70
     0
 43
0.0
 10
0.0009154015513104
 20
21.65598901220129
 10
44.6040054243686
 20
21.65598901220129
  0
LINE
  5
1297
330
1B
100
AcDbEntity
 67
     1
  8
DATA
100
AcDbLine
 10
141.4515899505442
 20
16.0064410711449
 30
0.0
 11
206.4352883025385
 21
16.0064410711449
 31
0.0
  0
LINE
  5
1299
330
1B
100
AcDbEntity
 67
     1
  8
DATA
100
AcDbLine
 10
188.9615608996265
 20
21.65598901220129
 30
0.0
 11
188.9615608996265
 21
0.0005791177154606
 31
0.0
  0
LINE
  5
129A
330
1B
100
AcDbEntity
 67
     1
  8
DATA
100
AcDbLine
 10
172.7736353934214
 20
21.6559890122013
 30
0.0
 11
172.7736353934214
 21
6.498316907446511
 31
0.0
  0
LINE
  5
129B
330
1B
100
AcDbEntity
 67
     1
  8
DATA
100
AcDbLine
 10
161.8855388603332
 20
0.0005791177154606
 30
0.0
 11
161.8855388603332
 21
21.6559890122013
 31
0.0
  0
LINE
  5
129D
330
1B
100
AcDbEntity
 67
     1
  8
DATA
100
AcDbLine
 10
206.4352889818797
 20
21.65598901220129
 30
0.0
 11
206.4352889818797
 21
0.0005791177154606
 31
0.0
  0
LINE
  5
129E
330
1B
100
AcDbEntity
 67
     1
  8
DATA
100
AcDbLine
 10
71.44730055966755
 20
21.6559890122013
 30
0.0
 11
71.44730055966757
 21
0.0035827105665952
 31
0.0
  0
LINE
  5
129F
330
1B
100
AcDbEntity
 67
     1
  8
DATA
100
AcDbLine
 10
86.04251283525758
 20
21.6559890122013
 30
0.0
 11
86.0425128352576
 21
0.0005791177154606
 31
0.0
  0
LINE
  5
12A0
330
1B
100
AcDbEntity
 67
     1
  8
DATA
100
AcDbLine
 10
50.66681625037072
 20
21.65598901220129
 30
0.0
 11
50.66681625037072
 21
0.0005791177154606
 31
0.0
  0
LINE
  5
12A2
330
1B
100
AcDbEntity
 67
     1
  8
DATA
100
AcDbLine
 10
86.0425128352576
 20
16.5762960950056
 30
0.0
 11
0.1578772078717369
 21
16.5762960950056
 31
0.0
  0
LINE
  5
12A3
330
1B
100
AcDbEntity
 67
     1
  8
DATA
100
AcDbLine
 10
0.1578772078717369
 20
11.49660317780992
 30
0.0
 11
86.0425128352576
 21
11.49660317780992
 31
0.0
  0
LINE
  5
12A4
330
1B
100
AcDbEntity
 67
     1
  8
DATA
100
AcDbLine
 10
0.3218667998937382
 20
6.416910260614244
 30
0.0
 11
86.0425128352576
 21
6.416910260614244
 31
0.0
  0
LINE
  5
12A5
330
1B
100
AcDbEntity
 67
     1
  8
DATA
100
AcDbLine
 10
10.9812208516878
 20
21.65598901220129
 30
0.0
 11
10.9812208516878
 21
0.0005791177154606
 31
0.0
  0
LINE
  5
12A6
330
1B
100
AcDbEntity
 67
     1
  8
DATA
100
AcDbLine
 10
206.4352889818797
 20
6.487604351384876
 30
0.0
 11
161.8855388603332
 21
6.487604351384876
 31
0.0
  0
LINE
  5
12A7
330
1B
100
AcDbEntity
 67
     1
  8
DATA
100
AcDbLine
 10
161.8855388603332
 20
11.19931228302795
 30
0.0
 11
206.4352889818797
 21
11.19931228302795
 31
0.0
  0
TEXT
  5
12A8
330
1B
100
AcDbEntity
 67
     1
  8
DATA
100
AcDbText
 10
144.2089124014906
 20
17.38788360913192
 30
0.0
 40
2.413372499999999
  1
SCALE FREE
 41
0.7
  7
ROMANS
 72
     2
 11
159.5740506514906
 21
17.38788360913192
 31
0.0
100
AcDbText
  0
LINE
  5
12A9
330
1B
100
AcDbEntity
 67
     1
  8
DATA
100
AcDbLine
 10
141.4515899505442
 20
21.65598901220129
 30
0.0
 11
141.4515899505442
 21
0.0005791177154606
 31
0.0
  0
TEXT
  5
12AA
330
1B
100
AcDbEntity
 67
     1
  8
DATA
100
AcDbText
 10
72.81931794091391
 20
2.289088082541405
 30
0.0
 40
2.896047
  1
APVD
 41
0.7
  7
ROMANS
100
AcDbText
  0
TEXT
  5
12AB
330
1B
100
AcDbEntity
 67
     1
  8
DATA
100
AcDbText
 10
54.00518497335647
 20
2.289088082541405
 30
0.0
 40
2.896047
  1
DATE
 41
0.7
  7
ROMANS
100
AcDbText
  0
TEXT
  5
12AC
330
1B
100
AcDbEntity
 67
     1
  8
DATA
100
AcDbText
 10
13.71048401705179
 20
2.289088082541405
 30
0.0
 40
2.896047
  1
DESCRIPTION
 41
0.7
  7
ROMANS
100
AcDbText
  0
TEXT
  5
12AD
330
1B
100
AcDbEntity
 67
     1
  8
DATA
100
AcDbText
 10
2.61316602814029
 20
2.289088082541405
 30
0.0
 40
2.896047
  1
REV
 41
0.7
  7
ROMANS
 72
     2
 11
8.11565532814029
 21
2.289088082541405
 31
0.0
100
AcDbText
  0
TEXT
  5
12AE
330
1B
100
AcDbEntity
 67
     1
  8
DATA
100
AcDbText
 10
164.0115266587481
 20
16.86188228564509
 30
0.0
 40
2.896047
  1
APVD
 41
0.7
  7
ROMANS
 72
     2
 11
171.2516441587481
 21
16.86188228564509
 31
0.0
100
AcDbText
  0
TEXT
  5
12AF
330
1B
100
AcDbEntity
 67
     1
  8
DATA
100
AcDbText
 10
163.1771120414716
 20
12.25504563334623
 30
0.0
 40
2.896047
  1
CHKD
 41
0.7
  7
ROMANS
 72
     2
 11
171.0929738414716
 21
12.25504563334623
 31
0.0
100
AcDbText
  0
TEXT
  5
12B0
330
1B
100
AcDbEntity
 67
     1
  8
DATA
100
AcDbText
 10
164.1482638836956
 20
7.264305730021757
 30
0.0
 40
2.896047
  1
DRN
 41
0.7
  7
ROMANS
 72
     2
 11
169.9403578836956
 21
7.264305730021757
 31
0.0
100
AcDbText
  0
TEXT
  5
12B1
330
1B
100
AcDbEntity
 67
     1
  8
DATA
100
AcDbText
 10
166.3066680148434
 20
2.249663648385519
 30
0.0
 40
2.896047
  1
SIGNATURE
 41
0.7
  7
ROMANS
 72
     2
 11
182.2349265148434
 21
2.249663648385519
 31
0.0
100
AcDbText
  0
TEXT
  5
12B2
330
1B
100
AcDbEntity
 67
     1
  8
DATA
100
AcDbText
 10
194.0753275043612
 20
2.147712645052658
 30
0.0
 40
2.896047
  1
DATE
 41
0.7
  7
ROMANS
 72
     2
 11
201.0258403043613
 21
2.147712645052658
 31
0.0
100
AcDbText
  0
TEXT
  5
12B3
330
1B
100
AcDbEntity
 67
     1
  8
DATA
100
AcDbText
 10
211.3647597711961
 20
15.15914893796167
 30
0.0
 40
3.668326199999999
  1
STEPPING MOTOR
 41
0.8
  7
ITALICT
 72
     2
 11
254.825691131196
 21
15.15914893796167
 31
0.0
100
AcDbText
  0
LINE
  5
12B4
330
1B
100
AcDbEntity
 67
     1
  8
DATA
100
AcDbLine
 10
206.4352889818797
 20
12.14062779339902
 30
0.0
 11
281.8407943483788
 21
12.14062779339902
 31
0.0
  0
TEXT
  5
12B5
330
1B
100
AcDbEntity
 67
     1
  8
DATA
100
AcDbText
 10
208.2206521091139
 20
8.230964343399071
 30
0.0
 40
2.413372499999999
  1
DWG.NO
 41
0.7
  7
ROMANS
 72
     2
 11
217.6328048591138
 21
8.230964343399071
 31
0.0
100
AcDbText
  0
TEXT
  5
12B6
330
1B
100
AcDbEntity
 67
     1
  8
DATA
100
AcDbText
 10
89.47920924063479
 20
16.55350887427961
 30
0.0
 40
2.896047
  1
NANOTEC:
 41
0.7
  7
ROMANS
100
AcDbText
  0
TEXT
  5
12B7
330
1B
100
AcDbEntity
 67
     1
  8
DATA
100
AcDbText
 10
189.4634543457442
 20
7.541155117526503
 30
0.0
 40
2.509907399999999
  1
29.11.06
 41
0.7
  7
ROMANS
100
AcDbText
  0
LINE
  5
12B8
330
1B
100
AcDbEntity
 67
     1
  8
SPEC
100
AcDbLine
 10
0.0009154015513104
 20
21.65598901220129
 30
0.0
 11
0.0009154015513104
 21
119.7806666755164
 31
0.0
  0
LWPOLYLINE
  5
12BA
330
1B
100
AcDbEntity
 67
     1
  8
SPEC
100
AcDbPolyline
 90
        4
 70
     1
 43
0.0
 10
0.0009154015513104
 20
196.0005791177017
 10
0.0009154015513104
 20
0.0005791177154606
 10
282.0457558342515
 20
0.0005791177154606
 10
282.045681937342
 20
196.0005791177017
  0
LWPOLYLINE
  5
1708
330
1B
100
AcDbEntity
 67
     1
  8
SPEC
100
AcDbPolyline
 90
        2
 70
     0
 43
0.0
 10
46.10949139879676
 20
21.6559890122013
 10
107.7618763685136
 20
21.6559890122013
  0
TEXT
  5
1948
330
1B
100
AcDbEntity
 67
     1
  8
DATA
100
AcDbText
 10
222.0559120269539
 20
45.3814127047898
 30
0.0
 40
2.4
  1
CCW
 41
0.7
  7
ROMANS
 72
     1
 11
224.7359120269539
 21
45.3814127047898
 31
0.0
100
AcDbText
  0
SOLID
  5
1949
330
1B
100
AcDbEntity
 67
     1
  8
DATA
100
AcDbTrace
 10
224.3297618573704
 20
40.43820172486755
 30
0.0
 11
225.1297618573706
 21
40.43820172486755
 31
0.0
 12
224.7297618573705
 22
42.83820172486741
 32
0.0
 13
224.7297618573705
 23
42.83820172486741
 33
0.0
  0
TEXT
  5
194A
330
1B
100
AcDbEntity
 67
     1
  8
DATA
100
AcDbText
 10
209.8202700920619
 20
45.3814127047898
 30
0.0
 40
2.4
  1
B\
 41
0.7
  7
ROMANS
 72
     1
 11
211.6202700920619
 21
45.3814127047898
 31
0.0
100
AcDbText
  0
TEXT
  5
194B
330
1B
100
AcDbEntity
 67
     1
  8
DATA
100
AcDbText
 10
202.0602700920619
 20
45.3814127047898
 30
0.0
 40
2.4
  1
A\
 41
0.7
  7
ROMANS
 72
     1
 11
203.6202700920619
 21
45.3814127047898
 31
0.0
100
AcDbText
  0
TEXT
  5
194C
330
1B
100
AcDbEntity
 67
     1
  8
DATA
100
AcDbText
 10
210.7228682165457
 20
40.58141270478984
 30
0.0
 40
2.4
  1
-
 41
0.7
  7
ROMANS
 72
     1
 11
211.7628682165457
 21
40.58141270478984
 31
0.0
100
AcDbText
  0
TEXT
  5
194D
330
1B
100
AcDbEntity
 67
     1
  8
DATA
100
AcDbText
 10
210.7228682165457
 20
36.00504105520997
 30
0.0
 40
2.4
  1
-
 41
0.7
  7
ROMANS
 72
     1
 11
211.7628682165457
 21
36.00504105520997
 31
0.0
100
AcDbText
  0
LINE
  5
194E
330
1B
100
AcDbEntity
 67
     1
  8
DATA
100
AcDbLine
 10
218.6387615475084
 20
33.05614067461068
 30
0.0
 11
218.6387615475084
 21
43.50753322399839
 31
0.0
  0
TEXT
  5
194F
330
1B
100
AcDbEntity
 67
     1
  8
DATA
100
AcDbText
 10
202.7228682165457
 20
40.58141270478984
 30
0.0
 40
2.4
  1
-
 41
0.7
  7
ROMANS
 72
     1
 11
203.7628682165457
 21
40.58141270478984
 31
0.0
100
AcDbText
  0
TEXT
  5
1950
330
1B
100
AcDbEntity
 67
     1
  8
DATA
100
AcDbText
 10
202.5802700920619
 20
35.78141270478989
 30
0.0
 40
2.4
  1
+
 41
0.7
  7
ROMANS
 72
     1
 11
203.6202700920619
 21
35.78141270478989
 31
0.0
100
AcDbText
  0
TEXT
  5
1951
330
1B
100
AcDbEntity
 67
     1
  8
DATA
100
AcDbText
 10
194.7402700920619
 20
45.3814127047898
 30
0.0
 40
2.4
  1
B
 41
0.7
  7
ROMANS
 72
     1
 11
195.6202700920619
 21
45.3814127047898
 31
0.0
100
AcDbText
  0
TEXT
  5
1952
330
1B
100
AcDbEntity
 67
     1
  8
DATA
100
AcDbText
 10
186.9002700920619
 20
45.3814127047898
 30
0.0
 40
2.4
  1
A
 41
0.7
  7
ROMANS
 72
     1
 11
187.6202700920619
 21
45.3814127047898
 31
0.0
100
AcDbText
  0
TEXT
  5
1953
330
1B
100
AcDbEntity
 67
     1
  8
DATA
100
AcDbText
 10
194.3512967575834
 20
30.97103195662715
 30
0.0
 40
2.4
  1
-
 41
0.7
  7
ROMANS
 72
     1
 11
195.3912967575834
 21
30.97103195662715
 31
0.0
100
AcDbText
  0
TEXT
  5
1954
330
1B
100
AcDbEntity
 67
     1
  8
DATA
100
AcDbText
 10
186.3512967575834
 20
30.97103195662715
 30
0.0
 40
2.4
  1
-
 41
0.7
  7
ROMANS
 72
     1
 11
187.3912967575834
 21
30.97103195662715
 31
0.0
100
AcDbText
  0
TEXT
  5
1955
330
1B
100
AcDbEntity
 67
     1
  8
DATA
100
AcDbText
 10
210.5802700920619
 20
26.18141270478975
 30
0.0
 40
2.4
  1
+
 41
0.7
  7
ROMANS
 72
     1
 11
211.6202700920619
 21
26.18141270478975
 31
0.0
100
AcDbText
  0
TEXT
  5
1956
330
1B
100
AcDbEntity
 67
     1
  8
DATA
100
AcDbText
 10
202.5943255391937
 20
26.05143211885059
 30
0.0
 40
2.4
  1
-
 41
0.7
  7
ROMANS
 72
     1
 11
203.6343255391937
 21
26.05143211885059
 31
0.0
100
AcDbText
  0
TEXT
  5
1957
330
1B
100
AcDbEntity
 67
     1
  8
DATA
100
AcDbText
 10
194.5943255391937
 20
26.05143211885059
 30
0.0
 40
2.4
  1
-
 41
0.7
  7
ROMANS
 72
     1
 11
195.6343255391937
 21
26.05143211885059
 31
0.0
100
AcDbText
  0
TEXT
  5
1958
330
1B
100
AcDbEntity
 67
     1
  8
DATA
100
AcDbText
 10
186.5802700920619
 20
26.18141270478975
 30
0.0
 40
2.4
  1
+
 41
0.7
  7
ROMANS
 72
     1
 11
187.6202700920619
 21
26.18141270478975
 31
0.0
100
AcDbText
  0
TEXT
  5
1959
330
1B
100
AcDbEntity
 67
     1
  8
DATA
100
AcDbText
 10
217.0288461595641
 20
26.48678758595418
 30
0.0
 40
2.4
  1
CW
 41
0.7
  7
ROMANS
 72
     1
 11
218.8688461595641
 21
26.48678758595418
 31
0.0
100
AcDbText
  0
LINE
  5
195A
330
1B
100
AcDbEntity
 67
     1
  8
DATA
100
AcDbLine
 10
183.6202700920619
 20
48.9814127047897
 30
0.0
 11
183.6202700920619
 21
24.98141270478971
 31
0.0
  0
LINE
  5
195B
330
1B
100
AcDbEntity
 67
     1
  8
DATA
100
AcDbLine
 10
227.8307527739102
 20
48.9814127047897
 30
0.0
 11
227.8307527739102
 21
24.98141270478971
 31
0.0
  0
LINE
  5
195C
330
1B
100
AcDbEntity
 67
     1
  8
DATA
100
AcDbLine
 10
224.7297618573705
 20
40.43820172486755
 30
0.0
 11
224.7297618573705
 21
30.67805494059928
 31
0.0
  0
SOLID
  5
195D
330
1B
100
AcDbEntity
 67
     1
  8
DATA
100
AcDbTrace
 10
219.0387615475085
 20
33.05614067461068
 30
0.0
 11
218.2387615475084
 21
33.05614067461068
 31
0.0
 12
218.6387615475084
 22
30.65614067461059
 32
0.0
 13
218.6387615475084
 23
30.65614067461059
 33
0.0
  0
LINE
  5
195E
330
1B
100
AcDbEntity
 67
     1
  8
DATA
100
AcDbLine
 10
221.4805168944572
 20
48.9814127047897
 30
0.0
 11
221.4805168944572
 21
24.98141270478971
 31
0.0
  0
TEXT
  5
195F
330
1B
100
AcDbEntity
 67
     1
  8
DATA
100
AcDbText
 10
210.5802700920619
 20
30.98141270478971
 30
0.0
 40
2.4
  1
+
 41
0.7
  7
ROMANS
 72
     1
 11
211.6202700920619
 21
30.98141270478971
 31
0.0
100
AcDbText
  0
TEXT
  5
1960
330
1B
100
AcDbEntity
 67
     1
  8
DATA
100
AcDbText
 10
202.5802700920619
 20
30.98141270478971
 30
0.0
 40
2.4
  1
+
 41
0.7
  7
ROMANS
 72
     1
 11
203.6202700920619
 21
30.98141270478971
 31
0.0
100
AcDbText
  0
LINE
  5
1961
330
1B
100
AcDbEntity
 67
     1
  8
DATA
100
AcDbLine
 10
215.6202700920619
 20
48.9814127047897
 30
0.0
 11
215.6202700920619
 21
24.98141270478971
 31
0.0
  0
LINE
  5
1962
330
1B
100
AcDbEntity
 67
     1
  8
DATA
100
AcDbLine
 10
207.6202700920619
 20
48.9814127047897
 30
0.0
 11
207.6202700920619
 21
24.98141270478971
 31
0.0
  0
LINE
  5
1963
330
1B
100
AcDbEntity
 67
     1
  8
DATA
100
AcDbLine
 10
199.6202700920619
 20
48.9814127047897
 30
0.0
 11
199.6202700920619
 21
24.98141270478971
 31
0.0
  0
TEXT
  5
1964
330
1B
100
AcDbEntity
 67
     1
  8
DATA
100
AcDbText
 10
178.9402700920619
 20
40.58141270478984
 30
0.0
 40
2.4
  1
1
 41
0.7
  7
ROMANS
 72
     1
 11
179.6202700920619
 21
40.58141270478984
 31
0.0
100
AcDbText
  0
TEXT
  5
1965
330
1B
100
AcDbEntity
 67
     1
  8
DATA
100
AcDbText
 10
178.8202700920619
 20
35.78141270478989
 30
0.0
 40
2.4
  1
2
 41
0.7
  7
ROMANS
 72
     1
 11
179.6202700920619
 21
35.78141270478989
 31
0.0
100
AcDbText
  0
TEXT
  5
1966
330
1B
100
AcDbEntity
 67
     1
  8
DATA
100
AcDbText
 10
178.7802700920619
 20
26.18141270478975
 30
0.0
 40
2.4
  1
4
 41
0.7
  7
ROMANS
 72
     1
 11
179.6202700920619
 21
26.18141270478975
 31
0.0
100
AcDbText
  0
TEXT
  5
1967
330
1B
100
AcDbEntity
 67
     1
  8
DATA
100
AcDbText
 10
178.8202700920619
 20
30.98141270478971
 30
0.0
 40
2.4
  1
3
 41
0.7
  7
ROMANS
 72
     1
 11
179.6202700920619
 21
30.98141270478971
 31
0.0
100
AcDbText
  0
LINE
  5
1968
330
1B
100
AcDbEntity
 67
     1
  8
DATA
100
AcDbLine
 10
175.6202700920619
 20
48.9814127047897
 30
0.0
 11
175.6202700920619
 21
24.98141270478971
 31
0.0
  0
TEXT
  5
1969
330
1B
100
AcDbEntity
 67
     1
  8
DATA
100
AcDbText
 10
175.6202700920619
 20
50.39093651431369
 30
0.0
 40
2.8
  1
WHEN FACING MOUNTING END (X)
 41
0.7
  7
ROMANS
100
AcDbText
  0
TEXT
  5
196A
330
1B
100
AcDbEntity
 67
     1
  8
DATA
100
AcDbText
 10
175.4533880495009
 20
54.98141270478971
 30
0.0
 40
2.8
  1
FULL STEP 2 PHASE-Ex.,
 41
0.7
  7
ROMANS
100
AcDbText
  0
LINE
  5
196B
330
1B
100
AcDbEntity
 67
     1
  8
DATA
100
AcDbLine
 10
175.6202700920619
 20
44.18141270478975
 30
0.0
 11
215.6202700920619
 21
44.18141270478975
 31
0.0
  0
LINE
  5
196C
330
1B
100
AcDbEntity
 67
     1
  8
DATA
100
AcDbLine
 10
175.6202700920619
 20
29.78141270478989
 30
0.0
 11
215.6202700920619
 21
29.78141270478989
 31
0.0
  0
LINE
  5
196D
330
1B
100
AcDbEntity
 67
     1
  8
DATA
100
AcDbLine
 10
227.8307527739102
 20
48.9814127047897
 30
0.0
 11
175.6202700920619
 21
48.9814127047897
 31
0.0
  0
LINE
  5
196E
330
1B
100
AcDbEntity
 67
     1
  8
DATA
100
AcDbLine
 10
175.6202700920619
 20
24.98141270478971
 30
0.0
 11
227.8307527739102
 21
24.98141270478971
 31
0.0
  0
TEXT
  5
196F
330
1B
100
AcDbEntity
 67
     1
  8
DATA
100
AcDbText
 10
176.5802700920619
 20
45.3814127047898
 30
0.0
 40
2.4
  1
STEP
 41
0.7
  7
ROMANS
 72
     1
 11
179.6202700920619
 21
45.3814127047898
 31
0.0
100
AcDbText
  0
TEXT
  5
1970
330
1B
100
AcDbEntity
 67
     1
  8
DATA
100
AcDbText
 10
194.5802700920619
 20
40.58141270478984
 30
0.0
 40
2.4
  1
+
 41
0.7
  7
ROMANS
 72
     1
 11
195.6202700920619
 21
40.58141270478984
 31
0.0
100
AcDbText
  0
TEXT
  5
1971
330
1B
100
AcDbEntity
 67
     1
  8
DATA
100
AcDbText
 10
194.5802700920619
 20
35.78141270478989
 30
0.0
 40
2.4
  1
+
 41
0.7
  7
ROMANS
 72
     1
 11
195.6202700920619
 21
35.78141270478989
 31
0.0
100
AcDbText
  0
TEXT
  5
1972
330
1B
100
AcDbEntity
 67
     1
  8
DATA
100
AcDbText
 10
186.5802700920619
 20
40.58141270478984
 30
0.0
 40
2.4
  1
+
 41
0.7
  7
ROMANS
 72
     1
 11
187.6202700920619
 21
40.58141270478984
 31
0.0
100
AcDbText
  0
TEXT
  5
1973
330
1B
100
AcDbEntity
 67
     1
  8
DATA
100
AcDbText
 10
186.3512967575834
 20
35.77622212781932
 30
0.0
 40
2.4
  1
-
 41
0.7
  7
ROMANS
 72
     1
 11
187.3912967575834
 21
35.77622212781932
 31
0.0
100
AcDbText
  0
LINE
  5
1974
330
1B
100
AcDbEntity
 67
     1
  8
DATA
100
AcDbLine
 10
191.6202700920619
 20
48.9814127047897
 30
0.0
 11
191.6202700920619
 21
24.98141270478971
 31
0.0
  0
LINE
  5
1975
330
1B
100
AcDbEntity
 67
     1
  8
DATA
100
AcDbLine
 10
175.6202700920619
 20
39.38141270478979
 30
0.0
 11
215.6202700920619
 21
39.38141270478979
 31
0.0
  0
LINE
  5
1976
330
1B
100
AcDbEntity
 67
     1
  8
DATA
100
AcDbLine
 10
175.6202700920619
 20
34.58141270478984
 30
0.0
 11
215.6202700920619
 21
34.58141270478984
 31
0.0
  0
LINE
  5
19BB
330
1B
100
AcDbEntity
 67
     1
  8
SPEC
100
AcDbLine
 10
170.0009154015513
 20
21.6559890122013
 30
0.0
 11
170.0009154015513
 21
111.6559890122013
 31
0.0
  0
TEXT
  5
19BD
330
1B
100
AcDbEntity
 67
     1
  8
DATA
100
AcDbText
 10
1.828349188375568
 20
73.0
 30
0.0
 40
2.4
  1
DETENT TORQUE (Nm) [lb-in]
 41
0.7
  7
ROMANS
100
AcDbText
  0
TEXT
  5
19BF
330
1B
100
AcDbEntity
 67
     1
  8
SPEC
100
AcDbText
 10
153.8283491883755
 20
48.0
 30
0.0
 40
2.4
  1

 41
0.7
  7
ROMANS
100
AcDbText
  0
TEXT
  5
19C0
330
1B
100
AcDbEntity
 67
     1
  8
DATA
  6
HIDDEN
100
AcDbText
 10
111.8283491883755
 20
105.2917072386782
 30
0.0
 40
3.0
  1
PERMISSIBLE RADIAL+AXIAL FORCE
 41
0.7
  7
ROMANS
100
AcDbText
  0
TEXT
  5
19C1
330
1B
100
AcDbEntity
 67
     1
  8
DATA
100
AcDbText
 10
1.828349188375568
 20
43.0
 30
0.0
 40
2.4
  1
AMBIENT TEMPERATURE -10°~ 50°C [14°F ~ 122°F]
 41
0.7
  7
ROMANS
100
AcDbText
  0
TEXT
  5
19C2
330
1B
100
AcDbEntity
 67
     1
  8
DATA
100
AcDbText
 10
110.8283491883755
 20
48.0
 30
0.0
 40
2.4
  1
AXIAL-FORCE Fa (N)
 41
0.7
  7
ROMANS
100
AcDbText
  0
TEXT
  5
19C4
330
1B
100
AcDbEntity
 67
     1
  8
DATA
100
AcDbText
 10
1.828349188375568
 20
28.0
 30
0.0
 40
2.4
  1
DIELECTRIC STRENGTH 500VAC FOR 1 MIN. (BETWEEN THE MOTOR COILS AND THE MOTOR CASE)
 41
0.59
  7
ROMANS
100
AcDbText
  0
TEXT
  5
19C5
330
1B
100
AcDbEntity
 67
     1
  8
DATA
100
AcDbText
 10
1.828349188375568
 20
33.0
 30
0.0
 40
2.4
  1
INSULATION CLASS B 130° [266°F]
 41
0.7
  7
ROMANS
100
AcDbText
  0
TEXT
  5
19C6
330
1B
100
AcDbEntity
 67
     1
  8
DATA
100
AcDbText
 10
1.828349188375568
 20
38.0
 30
0.0
 40
2.4
  1
INSULATION RESISTANCE 100 MOhm (UNDER NORMAL TEMPERATURE AND HUMIDITY)
 41
0.69
  7
ROMANS
100
AcDbText
  0
TEXT
  5
19C7
330
1B
100
AcDbEntity
 67
     1
  8
DATA
100
AcDbText
 10
1.828349188375568
 20
48.0
 30
0.0
 40
2.4
  1
TEMPERATURE RISE: MAX.80°C (MOTOR STANDSTILL; FOR 2 PHASE ENERGIZED)
 41
0.7
  7
ROMANS
100
AcDbText
  0
MTEXT
  5
19C8
330
1B
100
AcDbEntity
 67
     1
  8
DATA
100
AcDbMText
 10
131.290926933951
 20
85.84775216573845
 30
0.0
 40
2.399999999999999
 41
6.509999999999999
 71
     1
 72
     5
  1
F{\H0.8333x;r}
  7
ROMANS
 73
     1
 44
1.0
1001
ACAD
1000
MTEXTBEGIN
1070
    73
1070
     1
1070
    44
1040
1.0
1070
    74
1070
     0
1000
MTEXTEND
  0
DIMENSION
  5
19C9
330
1B
100
AcDbEntity
 67
     1
  8
DIM
100
AcDbDimension
  2
*D5
 10
139.0972407104071
 20
55.91119174080848
 30
0.0
 11
134.4901433864878
 21
55.91119174080848
 31
0.0
 70
   160
  1
a
 71
     5
 42
9.190871881572007
  3
STANDARD
100
AcDbAlignedDimension
 13
129.9063688288351
 23
74.09868988223387
 33
0.0
 14
139.0972407104071
 24
60.09299455805124
 34
0.0
100
AcDbRotatedDimension
1001
ACAD
1000
DSTYLE
1002
{
1070
   344
1005
2FF
1070
   173
1070
     1
1070
   343
1005
0
1070
    41
1040
2.399999999999999
1070
   340
1005
3C7
1070
   140
1040
2.399999999999999
1070
    40
1040
1.0
1002
}
  0
LINE
  5
19D1
330
1B
100
AcDbEntity
 67
     1
  8
CENTER
  6
AM_ISO08W050x2
100
AcDbLine
 10
126.6677412239616
 20
75.98428938777749
 30
0.0
 11
169.0047821176252
 21
75.98428938777749
 31
0.0
  0
TEXT
  5
19D2
330
1B
100
AcDbEntity
 67
     1
  8
DATA
100
AcDbText
 10
164.5
 20
43.0
 30
0.0
 40
2.4
  1
20
 41
0.7
  7
ROMANS
100
AcDbText
  0
TEXT
  5
19D3
330
1B
100
AcDbEntity
 67
     1
  8
DATA
100
AcDbText
 10
164.5
 20
38.0
 30
0.0
 40
2.4
  1
20
 41
0.7
  7
ROMANS
100
AcDbText
  0
TEXT
  5
19D4
330
1B
100
AcDbEntity
 67
     1
  8
DATA
100
AcDbText
 10
157.0
 20
38.0
 30
0.0
 40
2.4
  1
26
 41
0.7
  7
ROMANS
100
AcDbText
  0
TEXT
  5
19D5
330
1B
100
AcDbEntity
 67
     1
  8
DATA
100
AcDbText
 10
157.0
 20
43.0
 30
0.0
 40
2.4
  1
15
 41
0.7
  7
ROMANS
100
AcDbText
  0
TEXT
  5
19D6
330
1B
100
AcDbEntity
 67
     1
  8
DATA
100
AcDbText
 10
149.5
 20
43.0
 30
0.0
 40
2.4
  1
10
 41
0.7
  7
ROMANS
100
AcDbText
  0
TEXT
  5
19D7
330
1B
100
AcDbEntity
 67
     1
  8
DATA
100
AcDbText
 10
149.5
 20
38.0
 30
0.0
 40
2.4
  1
36
 41
0.7
  7
ROMANS
100
AcDbText
  0
TEXT
  5
19D8
330
1B
100
AcDbEntity
 67
     1
  8
DATA
100
AcDbText
 10
143.3283491883756
 20
43.0
 30
0.0
 40
2.4
  1
5
 41
0.7
  7
ROMANS
100
AcDbText
  0
TEXT
  5
19D9
330
1B
100
AcDbEntity
 67
     1
  8
DATA
100
AcDbText
 10
142.0
 20
38.0
 30
0.0
 40
2.4
  1
58
 41
0.7
  7
ROMANS
100
AcDbText
  0
TEXT
  5
19DC
330
1B
100
AcDbEntity
 67
     1
  8
DATA
100
AcDbText
 10
110.8283491883755
 20
38.0
 30
0.0
 40
2.4
  1
RADIAL-FORCE Fr (N)
 41
0.7
  7
ROMANS
100
AcDbText
  0
TEXT
  5
19DD
330
1B
100
AcDbEntity
 67
     1
  8
DATA
100
AcDbText
 10
110.8283491883755
 20
43.0
 30
0.0
 40
2.4
  1
DISTANCE a  (mm)
 41
0.7
  7
ROMANS
100
AcDbText
  0
TEXT
  5
19DE
330
1B
100
AcDbEntity
 67
     1
  8
DATA
100
AcDbText
 10
70.0
 20
63.0
 30
0.0
 40
2.4
  1
%%P5%
 41
0.7
  7
ROMANS
100
AcDbText
  0
TEXT
  5
19DF
330
1B
100
AcDbEntity
 67
     1
  8
DATA
100
AcDbText
 10
70.0
 20
68.0
 30
0.0
 40
2.4
  1
1.8
 41
0.7
  7
ROMANS
100
AcDbText
  0
TEXT
  5
19E0
330
1B
100
AcDbEntity
 67
     1
  8
DATA
100
AcDbText
 10
88.82834918837557
 20
88.0
 30
0.0
 40
2.4
  1
60%%P15%%%
 41
0.7
  7
ROMANS
100
AcDbText
  0
TEXT
  5
19E1
330
1B
100
AcDbEntity
 67
     1
  8
DATA
100
AcDbText
 10
88.82834918837557
 20
93.0
 30
0.0
 40
2.4
  1
0.25
 41
0.7
  7
ROMANS
100
AcDbText
  0
TEXT
  5
19E2
330
1B
100
AcDbEntity
 67
     1
  8
DATA
100
AcDbText
 10
51.0
 20
102.617252115867
 30
0.0
 40
2.399999999999999
  1
BIPOLAR-1 WINDING
 41
0.7
  7
ROMANS
100
AcDbText
  0
TEXT
  5
19E3
330
1B
100
AcDbEntity
 67
     1
  8
DATA
100
AcDbText
 10
53.82834918837557
 20
107.617252115867
 30
0.0
 40
2.399999999999999
  1
UNIPOLAR OR
 41
0.7
  7
ROMANS
100
AcDbText
  0
TEXT
  5
19E4
330
1B
100
AcDbEntity
 67
     1
  8
DATA
100
AcDbText
 10
31.82834918837557
 20
107.617252115867
 30
0.0
 40
2.4
  1
CONNECTION
 41
0.7
  7
ROMANS
100
AcDbText
  0
TEXT
  5
19E5
330
1B
100
AcDbEntity
 67
     1
  8
DATA
100
AcDbText
 10
53.82834918837557
 20
83.0
 30
0.0
 40
2.4
  1
21.7%%P20%%%
 41
0.7
  7
ROMANS
100
AcDbText
  0
TEXT
  5
19E6
330
1B
100
AcDbEntity
 67
     1
  8
DATA
100
AcDbText
 10
53.82834918837557
 20
88.0
 30
0.0
 40
2.4
  1
30%%P15%%%
 41
0.7
  7
ROMANS
100
AcDbText
  0
TEXT
  5
19E7
330
1B
100
AcDbEntity
 67
     1
  8
DATA
100
AcDbText
 10
53.82834918837557
 20
93.0
 30
0.0
 40
2.4
  1
0.35
 41
0.7
  7
ROMANS
100
AcDbText
  0
TEXT
  5
19E8
330
1B
100
AcDbEntity
 67
     1
  8
DATA
100
AcDbText
 10
53.82834918837557
 20
98.0
 30
0.0
 40
2.4
  1
10.5
 41
0.7
  7
ROMANS
100
AcDbText
  0
TEXT
  5
19E9
330
1B
100
AcDbEntity
 67
     1
  8
DATA
100
AcDbText
 10
1.828349188375568
 20
98.0
 30
0.0
 40
2.4
  1
VOLTAGE (VDC)
 41
0.7
  7
ROMANS
100
AcDbText
  0
TEXT
  5
19EA
330
1B
100
AcDbEntity
 67
     1
  8
DATA
100
AcDbText
 10
1.828349188375568
 20
93.0
 30
0.0
 40
2.4
  1
AMPS/PHASE
 41
0.7
  7
ROMANS
100
AcDbText
  0
TEXT
  5
19EB
330
1B
100
AcDbEntity
 67
     1
  8
DATA
100
AcDbText
 10
1.828349188375568
 20
103.617252115867
 30
0.0
 40
2.4
  1
SPECIFICATION
 41
0.7
  7
ROMANS
100
AcDbText
  0
TEXT
  5
19EC
330
1B
100
AcDbEntity
 67
     1
  8
DATA
100
AcDbText
 10
1.828349188375568
 20
88.0
 30
0.0
 40
2.4
  1
RESISTANCE/PHASE  (Ohms)@25%%DC
 41
0.7
  7
ROMANS
100
AcDbText
  0
TEXT
  5
19ED
330
1B
100
AcDbEntity
 67
     1
  8
DATA
100
AcDbText
 10
1.828349188375568
 20
83.0
 30
0.0
 40
2.4
  1
INDUCTANCE/PHASE (mH) @1KHz
 41
0.7
  7
ROMANS
100
AcDbText
  0
TEXT
  5
19EE
330
1B
100
AcDbEntity
 67
     1
  8
DATA
100
AcDbText
 10
53.82834918837557
 20
78.0
 30
0.0
 40
2.4
  1
0.16 [1.416]
 41
0.7
  7
ROMANS
100
AcDbText
  0
TEXT
  5
19EF
330
1B
100
AcDbEntity
 67
     1
  8
DATA
100
AcDbText
 10
1.828349188375568
 20
78.0
 30
0.0
 40
2.4
  1
HOLDING TORQUE (Nm) [lb-in]
 41
0.7
  7
ROMANS
100
AcDbText
  0
TEXT
  5
19F0
330
1B
100
AcDbEntity
 67
     1
  8
DATA
100
AcDbText
 10
1.828349188375568
 20
53.0
 30
0.0
 40
2.4
  1
WEIGHT (Kg) [lb]
 41
0.7
  7
ROMANS
100
AcDbText
  0
TEXT
  5
19F1
330
1B
100
AcDbEntity
 67
     1
  8
DATA
100
AcDbText
 10
1.828349188375568
 20
68.0
 30
0.0
 40
2.4
  1
STEP ANGLE (°)
 41
0.7
  7
ROMANS
100
AcDbText
  0
TEXT
  5
19F2
330
1B
100
AcDbEntity
 67
     1
  8
DATA
100
AcDbText
 10
1.828349188375568
 20
63.0
 30
0.0
 40
2.4
  1
STEP ACCURACY (NON-ACCUM)
 41
0.7
  7
ROMANS
100
AcDbText
  0
LEADER
  5
19F4
330
1B
100
AcDbEntity
 67
     1
  8
DIM
100
AcDbLeader
  3
STANDARD
 76
     2
 10
130.0606073289473
 20
78.69222240356484
 30
0.0
 10
130.0606073289473
 20
86.51626982104639
 30
0.0
1001
ACAD
1000
DSTYLE
1002
{
1070
    41
1040
2.399999999999999
1070
   341
1005
0
1070
    40
1040
1.0
1070
    77
1070
     0
1002
}
  0
TEXT
  5
19F5
330
1B
100
AcDbEntity
 67
     1
  8
DATA
100
AcDbText
 10
88.82834918837557
 20
98.0
 30
0.0
 40
2.4
  1
15.0
 41
0.7
  7
ROMANS
100
AcDbText
  0
TEXT
  5
19F6
330
1B
100
AcDbEntity
 67
     1
  8
DATA
100
AcDbText
 10
88.82834918837557
 20
102.617252115867
 30
0.0
 40
2.399999999999999
  1
SERIAL
 41
0.7
  7
ROMANS
100
AcDbText
  0
TEXT
  5
19F7
330
1B
100
AcDbEntity
 67
     1
  8
DATA
100
AcDbText
 10
88.82834918837557
 20
107.617252115867
 30
0.0
 40
2.399999999999999
  1
BIPOLAR
 41
0.7
  7
ROMANS
100
AcDbText
  0
LINE
  5
19F9
330
1B
100
AcDbEntity
 67
     1
  8
SPEC
100
AcDbLine
 10
0.0009154015513104
 20
111.6559890122013
 30
0.0
 11
281.8407943483788
 21
111.6559890122013
 31
0.0
  0
LINE
  5
19FA
330
1B
100
AcDbEntity
 67
     1
  8
SPEC
100
AcDbLine
 10
281.8407943483788
 20
21.6559890122013
 30
0.0
 11
0.0009154015513104
 21
21.6559890122013
 31
0.0
  0
LINE
  5
19FB
330
1B
100
AcDbEntity
 67
     1
  8
SPEC
100
AcDbLine
 10
0.0009154015513104
 20
111.6559890122013
 30
0.0
 11
110.0009154015513
 21
111.6559890122013
 31
0.0
  0
LINE
  5
19FD
330
1B
100
AcDbEntity
 67
     1
  8
SPEC
100
AcDbLine
 10
0.0009154015513104
 20
26.65598901220131
 30
0.0
 11
170.0009154015513
 21
26.65598901220131
 31
0.0
  0
LINE
  5
19FF
330
1B
100
AcDbEntity
 67
     1
  8
SPEC
100
AcDbLine
 10
0.0009154015513104
 20
31.65598901220131
 30
0.0
 11
170.0009154015513
 21
31.65598901220131
 31
0.0
  0
LINE
  5
1A00
330
1B
100
AcDbEntity
 67
     1
  8
SPEC
100
AcDbLine
 10
0.0009154015513104
 20
36.65598901220142
 30
0.0
 11
170.0009154015513
 21
36.65598901220142
 31
0.0
  0
LINE
  5
1A01
330
1B
100
AcDbEntity
 67
     1
  8
SPEC
100
AcDbLine
 10
0.0009154015513104
 20
46.65598901220142
 30
0.0
 11
170.0009154015513
 21
46.65598901220142
 31
0.0
  0
LINE
  5
1A02
330
1B
100
AcDbEntity
 67
     1
  8
SPEC
100
AcDbLine
 10
0.0009154015513104
 20
41.65598901220142
 30
0.0
 11
170.0009154015513
 21
41.65598901220142
 31
0.0
  0
LINE
  5
1A03
330
1B
100
AcDbEntity
 67
     1
  8
SPEC
100
AcDbLine
 10
0.0009154015513104
 20
66.65598901220142
 30
0.0
 11
110.0009154015513
 21
66.65598901220142
 31
0.0
  0
LINE
  5
1A04
330
1B
100
AcDbEntity
 67
     1
  8
SPEC
100
AcDbLine
 10
0.0009154015513104
 20
61.65598901220142
 30
0.0
 11
110.0009154015513
 21
61.65598901220142
 31
0.0
  0
LINE
  5
1A05
330
1B
100
AcDbEntity
 67
     1
  8
SPEC
100
AcDbLine
 10
0.0009154015513104
 20
56.6559890122013
 30
0.0
 11
110.0009154015513
 21
56.6559890122013
 31
0.0
  0
LINE
  5
1A06
330
1B
100
AcDbEntity
 67
     1
  8
SPEC
100
AcDbLine
 10
0.0009154015513104
 20
51.6559890122013
 30
0.0
 11
170.0009154015513
 21
51.6559890122013
 31
0.0
  0
LINE
  5
1A07
330
1B
100
AcDbEntity
 67
     1
  8
SPEC
100
AcDbLine
 10
0.0009154015513104
 20
101.6559890122014
 30
0.0
 11
110.0009154015513
 21
101.6559890122014
 31
0.0
  0
LINE
  5
1A08
330
1B
100
AcDbEntity
 67
     1
  8
SPEC
100
AcDbLine
 10
0.0009154015513104
 20
96.6559890122013
 30
0.0
 11
110.0009154015513
 21
96.6559890122013
 31
0.0
  0
LINE
  5
1A09
330
1B
100
AcDbEntity
 67
     1
  8
SPEC
100
AcDbLine
 10
0.0009154015513104
 20
86.6559890122013
 30
0.0
 11
110.0009154015513
 21
86.6559890122013
 31
0.0
  0
LINE
  5
1A0A
330
1B
100
AcDbEntity
 67
     1
  8
SPEC
100
AcDbLine
 10
0.0009154015513104
 20
91.6559890122013
 30
0.0
 11
110.0009154015513
 21
91.6559890122013
 31
0.0
  0
LINE
  5
1A0B
330
1B
100
AcDbEntity
 67
     1
  8
SPEC
100
AcDbLine
 10
0.0009154015513104
 20
71.6559890122013
 30
0.0
 11
110.0009154015513
 21
71.6559890122013
 31
0.0
  0
LINE
  5
1A0C
330
1B
100
AcDbEntity
 67
     1
  8
SPEC
100
AcDbLine
 10
0.0009154015513104
 20
76.65598901220142
 30
0.0
 11
110.0009154015513
 21
76.65598901220142
 31
0.0
  0
LINE
  5
1A0D
330
1B
100
AcDbEntity
 67
     1
  8
SPEC
100
AcDbLine
 10
0.0009154015513104
 20
81.65598901220141
 30
0.0
 11
110.0009154015513
 21
81.65598901220141
 31
0.0
  0
MTEXT
  5
1A0E
330
1B
100
AcDbEntity
 67
     1
  8
DATA
100
AcDbMText
 10
2.328349188375568
 20
61.11725211586701
 30
0.0
 40
2.399999999999999
 41
110.0
 71
     1
 72
     5
  1
{\W0.7;ROTOR INERTIA (Kg-m²) [lb-in²]}
  7
ROMANS
 73
     1
 44
1.0
1001
ACAD
1000
ACAD_MTEXT_DEFINED_HEIGHT_BEGIN
1070
    46
1040
0.0
1000
ACAD_MTEXT_DEFINED_HEIGHT_END
1000
MTEXTBEGIN
1070
    73
1070
     1
1070
    44
1040
1.0
1070
    74
1070
     0
1000
MTEXTEND
  0
LINE
  5
1A0F
330
1B
100
AcDbEntity
 67
     1
  8
SPEC
100
AcDbLine
 10
0.0009154015513104
 20
91.6559890122013
 30
0.0
 11
50.00091540155131
 21
91.6559890122013
 31
0.0
  0
LINE
  5
1A10
330
1B
100
AcDbEntity
 67
     1
  8
SPEC
100
AcDbLine
 10
50.00091540155131
 20
111.6559890122013
 30
0.0
 11
50.00091540155131
 21
51.6559890122013
 31
0.0
  0
LINE
  5
1A11
330
1B
100
AcDbEntity
 67
     1
  8
SPEC
100
AcDbLine
 10
50.00091540155131
 20
101.6559890122014
 30
0.0
 11
0.0009154015513104
 21
111.6559890122013
 31
0.0
  0
LINE
  5
1A13
330
1B
100
AcDbEntity
 67
     1
  8
SPEC
100
AcDbLine
 10
50.00091540155131
 20
111.6559890122013
 30
0.0
 11
80.0009154015513
 21
111.6559890122013
 31
0.0
  0
LINE
  5
1A14
330
1B
100
AcDbEntity
 67
     1
  8
SPEC
100
AcDbLine
 10
80.0009154015513
 20
111.6559890122013
 30
0.0
 11
80.0009154015513
 21
76.65598901220142
 31
0.0
  0
LINE
  5
1A15
330
1B
100
AcDbEntity
 67
     1
  8
SPEC
100
AcDbLine
 10
110.0009154015513
 20
111.6559890122013
 30
0.0
 11
170.0009154015513
 21
111.6559890122013
 31
0.0
  0
TEXT
  5
1A16
330
1B
100
AcDbEntity
 67
     1
  8
DATA
100
AcDbText
 10
111.8283491883755
 20
28.0
 30
0.0
 40
2.4
  1
SHAFT PLAY (mm)
 41
0.7
  7
ROMANS
100
AcDbText
  0
LINE
  5
1A17
330
1B
100
AcDbEntity
 67
     1
  8
SPEC
100
AcDbLine
 10
110.0009154015513
 20
31.65598901220131
 30
0.0
 11
140.0009154015513
 21
31.65598901220131
 31
0.0
  0
TEXT
  5
1A18
330
1B
100
AcDbEntity
 67
     1
  8
DATA
100
AcDbText
 10
143.8283491883755
 20
32.61725211586702
 30
0.0
 40
2.5
  1
AXIAL
 41
0.7
  7
ROMANS
100
AcDbText
  0
TEXT
  5
1A19
330
1B
100
AcDbEntity
 67
     1
  8
DATA
100
AcDbText
 10
157.8283491883756
 20
32.61725211586702
 30
0.0
 40
2.5
  1
RADIAL
 41
0.7
  7
ROMANS
100
AcDbText
  0
TEXT
  5
1A1A
330
1B
100
AcDbEntity
 67
     1
  8
DATA
100
AcDbText
 10
142.8283491883755
 20
27.61725211586702
 30
0.0
 40
2.5
  1
0.08
 41
0.7
  7
ROMANS
100
AcDbText
  0
TEXT
  5
1A1B
330
1B
100
AcDbEntity
 67
     1
  8
DATA
100
AcDbText
 10
157.8283491883756
 20
27.61725211586702
 30
0.0
 40
2.5
  1
0.02
 41
0.7
  7
ROMANS
100
AcDbText
  0
TEXT
  5
1A1C
330
1B
100
AcDbEntity
 67
     1
  8
DATA
100
AcDbText
 10
143.8283491883755
 20
22.61725211586702
 30
0.0
 40
2.5
  1
4.5
 41
0.7
  7
ROMANS
100
AcDbText
  0
TEXT
  5
1A1D
330
1B
100
AcDbEntity
 67
     1
  8
DATA
100
AcDbText
 10
157.8283491883756
 20
22.61725211586702
 30
0.0
 40
2.5
  1
4.5
 41
0.7
  7
ROMANS
100
AcDbText
  0
LINE
  5
1A1E
330
1B
100
AcDbEntity
 67
     1
  8
SPEC
100
AcDbLine
 10
110.0009154015513
 20
36.65598901220142
 30
0.0
 11
140.0009154015513
 21
31.65598901220131
 31
0.0
  0
LINE
  5
1A1F
330
1B
100
AcDbEntity
 67
     1
  8
SPEC
100
AcDbLine
 10
140.0009154015513
 20
46.65598901220142
 30
0.0
 11
146.0009154015513
 21
46.65598901220142
 31
0.0
  0
LINE
  5
1A21
330
1B
100
AcDbEntity
 67
     1
  8
SPEC
100
AcDbLine
 10
147.5009154015513
 20
46.65598901220142
 30
0.0
 11
147.5009154015513
 21
36.65598901220142
 31
0.0
  0
LINE
  5
1A22
330
1B
100
AcDbEntity
 67
     1
  8
SPEC
100
AcDbLine
 10
155.0009154015513
 20
46.65598901220142
 30
0.0
 11
155.0009154015513
 21
36.65598901220142
 31
0.0
  0
LINE
  5
1A23
330
1B
100
AcDbEntity
 67
     1
  8
SPEC
100
AcDbLine
 10
162.5009154015513
 20
46.65598901220142
 30
0.0
 11
162.5009154015513
 21
36.65598901220142
 31
0.0
  0
LINE
  5
1A6A
330
1B
100
AcDbEntity
 67
     1
  8
SPEC
100
AcDbLine
 10
110.0009154015513
 20
111.6559890122013
 30
0.0
 11
110.0009154015513
 21
21.6559890122013
 31
0.0
  0
VIEWPORT
  5
1E55
102
{ACAD_XDICTIONARY
360
6438
102
}
330
1B
100
AcDbEntity
 67
     1
  8
AM_VIEWS
100
AcDbViewport
 10
141.0232986694466
 20
153.8282840649515
 30
0.0
 40
282.0447665357907
 41
84.34459010550037
 68
     2
 69
     2
 12
56.76247732025492
 22
-23.25636066884587
 13
0.0
 23
0.0
 14
2.5
 24
2.5
 15
10.0
 25
10.0
 16
0.0
 26
0.0
 36
503.017576584829
 17
937.8833387861368
 27
626.5091020841953
 37
0.0
 42
50.0
 43
0.0
 44
0.0
 45
127.467323117964
 50
0.0
 51
0.0
 72
   100
 90
    32864
  1

281
     0
 71
     1
 74
     0
110
0.0
120
0.0
130
0.0
111
1.0
121
0.0
131
0.0
112
0.0
122
1.0
132
0.0
 79
     0
146
0.0
1001
GENIUS_GENOBJ-N-SDF_13
1002
{
1000
OWNER
1000
GEN
1002
}
1001
GENIUS_GENODEF_13
1002
{
1000
HIER
1070
     0
1002
}
1002
{
1000
MANEDIT
1070
     0
1002
}
1002
{
1000
NOSEL
1070
     0
1002
}
1002
{
1000
BEHIND
1070
     0
1002
}
1002
{
1000
OTHER
1070
     0
1002
}
1002
{
1000
REACTOR
1002
}
1001
GENIUS_GENSCREG_15
1000
PF
1040
0.0
1000
DF
1040
0.0
1000
MIN
1011
0.0009154015513104
1021
111.6559890122013
1031
0.0
1000
MAX
1011
282.045681937342
1021
196.0005791177017
1031
0.0
1000
FLAGS
1070
     2
  0
TEXT
  5
2CB7
330
1B
100
AcDbEntity
 67
     1
  8
DATA
100
AcDbText
 10
70.0
 20
53.0
 30
0.0
 40
2.4
  1
0.2 [0.44]
 41
0.7
  7
ROMANS
100
AcDbText
  0
TEXT
  5
2CBF
330
1B
100
AcDbEntity
 67
     1
  8
DATA
100
AcDbText
 10
88.83
 20
83.0
 30
0.0
 40
2.4
  1
86.8%%P20%%%
 41
0.7
  7
ROMANS
100
AcDbText
  0
TEXT
  5
2CCB
330
1B
100
AcDbEntity
 67
     1
  8
DATA
100
AcDbText
 10
88.83
 20
78.0
 30
0.0
 40
2.4
  1
0.226 [2.0]
 41
0.7
  7
ROMANS
100
AcDbText
  0
LWPOLYLINE
  5
2CEB
330
1B
100
AcDbEntity
 67
     1
  8
SPEC
100
AcDbPolyline
 90
        4
 70
     1
 43
0.0
 10
139.0972407104071
 20
91.87558421750372
 10
159.2275531197891
 20
91.87558421750374
 10
159.2275531197891
 20
60.09299455805124
 10
139.0972407104071
 20
60.09299455805124
  0
LWPOLYLINE
  5
2D6D
330
1B
100
AcDbEntity
 67
     1
  8
SPEC
100
AcDbPolyline
 90
        4
 70
     1
 43
0.0
 10
139.0972407104071
 20
87.09730240531003
 10
137.6137908953366
 20
87.09730240531003
 10
137.6137908953366
 20
64.87127637024494
 10
139.0972407104071
 20
64.87127637024494
  0
LINE
  5
2D70
330
1B
100
AcDbEntity
 67
     1
  8
SPEC
100
AcDbLine
 10
168.9451046743791
 20
74.09868988223387
 30
0.0
 11
159.2275531197891
 21
74.09868988223387
 31
0.0
  0
LINE
  5
2D71
330
1B
100
AcDbEntity
 67
     1
  8
SPEC
100
AcDbLine
 10
168.9451046743791
 20
77.86988889332109
 30
0.0
 11
159.2275531197891
 21
77.86988889332109
 31
0.0
  0
LINE
  5
2D72
330
1B
100
AcDbEntity
 67
     1
  8
SPEC
100
AcDbLine
 10
168.9451046743791
 20
74.09868988223387
 30
0.0
 11
168.9451046743791
 21
77.86988889332109
 31
0.0
  0
LWPOLYLINE
  5
2D94
330
1B
100
AcDbEntity
 67
     1
  8
SPEC
100
AcDbPolyline
 90
        4
 70
     1
 43
0.0
 10
157.9302096399492
 20
81.38735029589254
 10
154.6305199228664
 20
81.38735029589254
 10
154.6305199228664
 20
70.58122847966247
 10
157.9302096399492
 20
70.58122847966247
  0
CIRCLE
  5
2D95
330
1B
100
AcDbEntity
 67
     1
  8
SPEC
100
AcDbCircle
 10
156.2803647814078
 20
79.73750543735114
 30
0.0
 40
1.649844858541398
  0
CIRCLE
  5
2D96
330
1B
100
AcDbEntity
 67
     1
  8
SPEC
100
AcDbCircle
 10
156.2803647814078
 20
72.23107333820388
 30
0.0
 40
1.649844858541398
  0
LINE
  5
2D97
330
1B
100
AcDbEntity
 67
     1
  8
SPEC
100
AcDbLine
 10
157.9302096399492
 20
81.38735029589254
 30
0.0
 11
158.5734045934214
 21
80.74081741993238
 31
0.0
  0
LINE
  5
2D98
330
1B
100
AcDbEntity
 67
     1
  8
SPEC
100
AcDbLine
 10
158.6531348075577
 20
77.651473709366
 30
0.0
 11
158.5053768956558
 21
77.48676576983574
 31
0.0
  0
LINE
  5
2D99
330
1B
100
AcDbEntity
 67
     1
  8
SPEC
100
AcDbLine
 10
158.5053768956559
 20
74.48181300571924
 30
0.0
 11
158.6531348075576
 21
74.31710506618914
 31
0.0
  0
LINE
  5
2D9A
330
1B
100
AcDbEntity
 67
     1
  8
SPEC
100
AcDbLine
 10
158.5734045934215
 20
71.2277613556228
 30
0.0
 11
157.9302096399492
 21
70.58122847966247
 31
0.0
  0
ARC
  5
2D9E
330
1B
100
AcDbEntity
 67
     1
  8
SPEC
100
AcDbCircle
 10
156.9783020632643
 20
79.15395009142419
 30
0.0
 40
2.25
100
AcDbArc
 50
318.1050245216237
 51
44.85171410623406
  0
ARC
  5
2DA1
330
1B
100
AcDbEntity
 67
     1
  8
SPEC
100
AcDbCircle
 10
156.9783020632643
 20
72.81462868413088
 30
0.0
 40
2.25
100
AcDbArc
 50
315.1482858937687
 51
41.8949754783788
  0
ARC
  5
2DA2
330
1B
100
AcDbEntity
 67
     1
  8
SPEC
100
AcDbCircle
 10
160.1802096399492
 20
75.98428938777752
 30
0.0
 40
2.25
100
AcDbArc
 50
138.1050245216231
 51
221.8949754783793
  0
LWPOLYLINE
  5
2DA3
330
1B
100
AcDbEntity
 67
     1
  8
SPEC
100
AcDbPolyline
 90
        4
 70
     1
 43
0.0
 10
139.0972407104071
 20
81.38735029589254
 10
142.3969304274899
 20
81.38735029589254
 10
142.3969304274899
 20
70.58122847966247
 10
139.0972407104071
 20
70.58122847966247
  0
CIRCLE
  5
2DA4
330
1B
100
AcDbEntity
 67
     1
  8
SPEC
100
AcDbCircle
 10
140.7470855689485
 20
79.73750543735114
 30
0.0
 40
1.649844858541398
  0
CIRCLE
  5
2DA5
330
1B
100
AcDbEntity
 67
     1
  8
SPEC
100
AcDbCircle
 10
140.7470855689485
 20
72.23107333820388
 30
0.0
 40
1.649844858541398
  0
TEXT
  5
2DC8
330
1B
100
AcDbEntity
 67
     1
  8
DATA
100
AcDbText
 10
1.828349188375568
 20
23.0
 30
0.0
 40
2.4
  1
AMBIENT HUMIDITY MAX. 85% (NO CONDENSATION)
 41
0.7
  7
ROMANS
100
AcDbText
  0
TEXT
  5
2DC9
330
1B
100
AcDbEntity
 67
     1
  8
DATA
100
AcDbText
 10
78.1634206147337
 20
59.90755208937024
 30
0.0
 40
1.399999999999999
  1
-6
 41
0.7
  7
ROMANS
100
AcDbText
  0
TEXT
  5
2DCB
330
1B
100
AcDbEntity
 67
     1
  8
DATA
100
AcDbText
 10
70.0
 20
58.0
 30
0.0
 40
2.4
  1
3.8x10  [1.3x10  ]
 41
0.7
  7
ROMANS
100
AcDbText
  0
LINE
  5
2DD6
330
1B
100
AcDbEntity
 67
     1
  8
SPEC
100
AcDbLine
 10
146.0009154015513
 20
46.65598901220142
 30
0.0
 11
151.0009154015513
 21
46.65598901220142
 31
0.0
  0
LINE
  5
2DD7
330
1B
100
AcDbEntity
 67
     1
  8
SPEC
100
AcDbLine
 10
140.0009154015513
 20
51.6559890122013
 30
0.0
 11
140.0009154015513
 21
21.6559890122013
 31
0.0
  0
LINE
  5
2DD8
330
1B
100
AcDbEntity
 67
     1
  8
SPEC
100
AcDbLine
 10
140.0009154015513
 20
36.65598901220131
 30
0.0
 11
155.0009154015513
 21
36.65598901220136
 31
0.0
  0
LINE
  5
2DD9
330
1B
100
AcDbEntity
 67
     1
  8
SPEC
100
AcDbLine
 10
155.0009154015513
 20
36.65598901220136
 30
0.0
 11
155.0009154015513
 21
21.6559890122013
 31
0.0
  0
TEXT
  5
2DE0
330
1B
100
AcDbEntity
 67
     1
  8
DATA
100
AcDbText
 10
111.8283491883755
 20
23.0
 30
0.0
 40
2.4
  1
AT LOAD MAX: (N)
 41
0.7
  7
ROMANS
100
AcDbText
  0
LINE
  5
2DE5
330
1B
100
AcDbEntity
 67
     1
  8
SPEC
100
AcDbLine
 10
127.8962393407466
 20
74.09868988223387
 30
0.0
 11
137.6137908953366
 21
74.09868988223387
 31
0.0
  0
LINE
  5
2DE6
330
1B
100
AcDbEntity
 67
     1
  8
SPEC
100
AcDbLine
 10
127.8962393407466
 20
77.86988889332109
 30
0.0
 11
137.6137908953366
 21
77.86988889332109
 31
0.0
  0
LINE
  5
2DE7
330
1B
100
AcDbEntity
 67
     1
  8
SPEC
100
AcDbLine
 10
127.8962393407466
 20
74.09868988223387
 30
0.0
 11
127.8962393407466
 21
77.86988889332109
 31
0.0
  0
MTEXT
  5
2E04
330
1B
100
AcDbEntity
 67
     1
  8
SPEC
 62
     6
100
AcDbMText
 10
145.5187721793249
 20
89.62880385942026
 30
0.0
 40
2.0
 41
0.0
 71
     1
 72
     1
  1
BEARING
  7
ROMANS
 73
     1
 44
1.0
1001
ACAD
1000
ACAD_MTEXT_DEFINED_HEIGHT_BEGIN
1070
    46
1040
0.0
1000
ACAD_MTEXT_DEFINED_HEIGHT_END
1000
MTEXTBEGIN
1070
    73
1070
     1
1070
    44
1040
1.0
1070
    74
1070
     0
1000
MTEXTEND
  0
LEADER
  5
2E07
330
1B
100
AcDbEntity
 67
     1
  8
SPEC
100
AcDbLeader
  3
STANDARD
 76
     2
 10
156.2803647814078
 20
79.73750543735114
 30
0.0
 10
150.8271563148611
 20
87.12304269521258
 30
0.0
1001
ACAD
1000
DSTYLE
1002
{
1070
   147
1040
1.0
1070
    77
1070
     0
1002
}
  0
LEADER
  5
2E09
330
1B
100
AcDbEntity
 67
     1
  8
SPEC
100
AcDbLeader
  3
STANDARD
 76
     2
 10
140.7470855689485
 20
79.73750543735114
 30
0.0
 10
146.7956208247884
 20
86.83653569069861
 30
0.0
1001
ACAD
1000
DSTYLE
1002
{
1070
   147
1040
1.0
1070
    77
1070
     0
1002
}
  0
LEADER
  5
2E0A
330
1B
100
AcDbEntity
 67
     1
  8
SPEC
100
AcDbLeader
  3
STANDARD
 73
     0
 75
     1
 40
5.333333333333333
 41
9.066666666666666
 76
     3
 10
158.5734045934214
 20
80.74081741993238
 30
0.0
 10
167.8050595951458
 20
94.46023307290511
 30
0.0
 10
164.8050595951458
 20
94.46023307290511
 30
0.0
340
2E0B
213
1.881250193365758
223
-4.427990251304436
233
0.0
1001
ACAD
1000
DSTYLE
1002
{
1070
   147
1040
1.0
1070
    77
1070
     0
1002
}
  0
MTEXT
  5
2E0B
102
{ACAD_REACTORS
330
2E0A
102
}
330
1B
100
AcDbEntity
 67
     1
  8
SPEC
 62
     6
100
AcDbMText
 10
161.9238094017801
 20
98.88822332420955
 30
0.0
 40
2.0
 41
0.0
 71
     3
 72
     1
  1
SPRING\PWASHER
  7
ROMANS
 73
     1
 44
1.0
1001
ACAD
1000
ACAD_MTEXT_DEFINED_HEIGHT_BEGIN
1070
    46
1040
0.0
1000
ACAD_MTEXT_DEFINED_HEIGHT_END
1000
MTEXTBEGIN
1070
    73
1070
     1
1070
    44
1040
1.0
1070
    74
1070
     0
1000
MTEXTEND
  0
MTEXT
  5
2E19
330
1B
100
AcDbEntity
 67
     1
  8
DATA
100
AcDbMText
 10
148.4983559025127
 20
50.13711884239956
 30
0.0
 40
2.399999999999999
 41
110.0
 71
     1
 72
     5
  1
{\W0.7;F\H0.8333x;a\H1.2x;=7}
  7
ROMANS
 73
     1
 44
1.0
1001
ACAD
1000
ACAD_MTEXT_DEFINED_HEIGHT_BEGIN
1070
    46
1040
0.0
1000
ACAD_MTEXT_DEFINED_HEIGHT_END
1000
MTEXTBEGIN
1070
    73
1070
     1
1070
    44
1040
1.0
1070
    74
1070
     0
1000
MTEXTEND
  0
MTEXT
  5
2E48
330
1B
100
AcDbEntity
 67
     1
  8
SPEC
 62
     6
100
AcDbMText
 10
111.8786983663672
 20
99.27994356100203
 30
0.0
 40
2.0
 41
0.0
 71
     1
 72
     1
  1
ROTOR SPRING-\PMOUNTED IN\PAXIAL DIRECTION
  7
ROMANS
 73
     1
 44
1.0
1001
ACAD
1000
ACAD_MTEXT_DEFINED_HEIGHT_BEGIN
1070
    46
1040
0.0
1000
ACAD_MTEXT_DEFINED_HEIGHT_END
1000
MTEXTBEGIN
1070
    73
1070
     1
1070
    44
1040
1.0
1070
    74
1070
     0
1000
MTEXTEND
  0
LEADER
  5
2E5C
330
1B
100
AcDbEntity
 67
     1
  8
DIM
100
AcDbLeader
  3
STANDARD
 76
     2
 10
131.5179864032658
 20
89.06775256840445
 30
0.0
 10
112.2566843209139
 20
89.06775256840445
 30
0.0
1001
ACAD
1000
DSTYLE
1002
{
1070
   147
1040
1.0
1070
    77
1070
     0
1002
}
  0
TEXT
  5
557C
330
1B
100
AcDbEntity
 67
     1
  8
DATA
100
AcDbText
 10
102.9106217481551
 20
2.296070477388891
 30
0.0
 40
3.861395999999999
  1
ST4118S0406
 41
0.7
  7
ROMANS
100
AcDbText
  0
MTEXT
  5
5690
330
1B
100
AcDbEntity
 67
     1
  8
DATA
100
AcDbMText
 10
70.0
 20
76.11725211586701
 30
0.0
 40
2.399999999999999
 41
50.69688999264281
 71
     1
 72
     5
  1
{\W0.7;5.9x10  [5.222x10  ]}
  7
ROMANS
 73
     1
 44
1.0
1001
ACAD
1000
ACAD_MTEXT_DEFINED_HEIGHT_BEGIN
1070
    46
1040
0.0
1000
ACAD_MTEXT_DEFINED_HEIGHT_END
1000
MTEXTBEGIN
1070
    73
1070
     1
1070
    44
1040
1.0
1070
    74
1070
     0
1000
MTEXTEND
  0
TEXT
  5
5691
330
1B
100
AcDbEntity
 67
     1
  8
DATA
100
AcDbText
 10
78.3062061745848
 20
74.86179032103716
 30
0.0
 40
1.399999999999999
  1
-3
 41
0.7
  7
ROMANS
100
AcDbText
  0
TEXT
  5
5692
330
1B
100
AcDbEntity
 67
     1
  8
DATA
100
AcDbText
 10
94.58643846002132
 20
74.80722873461779
 30
0.0
 40
1.399999999999999
  1
-2
 41
0.7
  7
ROMANS
100
AcDbText
  0
TEXT
  5
56EE
330
1B
100
AcDbEntity
 67
     1
  8
DATA
100
AcDbText
 10
91.33789027873524
 20
59.74927012169125
 30
0.0
 40
1.399999999999999
  1
-2
 41
0.7
  7
ROMANS
100
AcDbText
  0
LINE
  5
587F
330
1B
100
AcDbEntity
 67
     1
  8
DATA
100
AcDbLine
 10
250.4678865339459
 20
58.19408831766705
 30
0.0
 11
255.8584365330474
 21
58.19408831766705
 31
0.0
  0
LINE
  5
5880
330
1B
100
AcDbEntity
 67
     1
  8
DATA
100
AcDbLine
 10
255.8584365330474
 20
44.2817597485569
 30
0.0
 11
250.4678865339459
 21
44.2817597485569
 31
0.0
  0
LINE
  5
5881
330
1B
100
AcDbEntity
 67
     1
  8
DATA
100
AcDbLine
 10
250.4678865339459
 20
51.30156689024419
 30
0.0
 11
255.8584365330474
 21
51.30156689024419
 31
0.0
  0
TEXT
  5
5882
330
1B
100
AcDbEntity
 67
     1
  8
DATA
100
AcDbText
 10
237.0982115220702
 20
42.87861689164809
 30
0.0
 40
2.399999999599999
  1
(A\)ORG
 41
0.7
  7
ROMANS
 72
     2
 11
247.4182115203502
 21
42.87861689164809
 31
0.0
100
AcDbText
  0
CIRCLE
  5
5883
330
1B
100
AcDbEntity
 67
     1
  8
DATA
100
AcDbCircle
 10
249.9969293911673
 20
44.2817597485569
 30
0.0
 40
0.4709571427786491
  0
TEXT
  5
5884
330
1B
100
AcDbEntity
 67
     1
  8
DATA
100
AcDbText
 10
235.3382115223635
 20
49.88625260476577
 30
0.0
 40
2.399999999599999
  1
(COM)BLK
 41
0.7
  7
ROMANS
 72
     2
 11
247.4182115203502
 21
49.88625260476577
 31
0.0
100
AcDbText
  0
TEXT
  5
5885
330
1B
100
AcDbEntity
 67
     1
  8
DATA
100
AcDbText
 10
238.9382115217635
 20
56.77877403218864
 30
0.0
 40
2.399999999599999
  1
(A)BRN
 41
0.7
  7
ROMANS
 72
     2
 11
247.4182115203502
 21
56.77877403218864
 31
0.0
100
AcDbText
  0
CIRCLE
  5
5886
330
1B
100
AcDbEntity
 67
     1
  8
DATA
100
AcDbCircle
 10
249.9969293911673
 20
51.30156689024419
 30
0.0
 40
0.4709571427786491
  0
CIRCLE
  5
5887
330
1B
100
AcDbEntity
 67
     1
  8
DATA
100
AcDbCircle
 10
249.9969293911673
 20
58.19408831766705
 30
0.0
 40
0.4709571427786491
  0
TEXT
  5
5888
330
1B
100
AcDbEntity
 67
     1
  8
DATA
100
AcDbText
 10
266.3182115199502
 20
22.52000997914437
 30
0.0
 40
2.399999999599999
  1
(COM)WHT
 50
90.0
 41
0.7
  7
ROMANS
 72
     2
 11
263.9182115203502
 21
35.00000997706437
 31
0.0
100
AcDbText
 73
     3
  0
TEXT
  5
5889
330
1B
100
AcDbEntity
 67
     1
  8
DATA
100
AcDbText
 10
259.8182115199502
 20
26.44000997849103
 30
0.0
 40
2.399999999599999
  1
(B)RED
 50
90.0
 41
0.7
  7
ROMANS
 72
     2
 11
257.4182115203502
 21
35.00000997706437
 31
0.0
100
AcDbText
 73
     3
  0
TEXT
  5
588A
330
1B
100
AcDbEntity
 67
     1
  8
DATA
100
AcDbText
 10
272.8182115199502
 20
25.0800099787177
 30
0.0
 40
2.399999999599999
  1
(B\)YEL
 50
90.0
 41
0.7
  7
ROMANS
 72
     2
 11
270.4182115203502
 21
35.00000997706437
 31
0.0
100
AcDbText
 73
     3
  0
LINE
  5
588B
330
1B
100
AcDbEntity
 67
     1
  8
DATA
100
AcDbLine
 10
255.8584365330474
 20
45.67553831975311
 30
0.0
 11
255.8584365330474
 21
44.2817597485569
 31
0.0
  0
ARC
  5
588C
330
1B
100
AcDbEntity
 67
     1
  8
DATA
100
AcDbCircle
 10
264.3464865316326
 20
42.03834903464522
 30
0.0
 40
0.7032535713113561
100
AcDbArc
 50
180.0
 51
0.0
  0
LINE
  5
588D
330
1B
100
AcDbEntity
 67
     1
  8
DATA
100
AcDbLine
 10
258.1167401040997
 20
36.64779903554373
 30
0.0
 11
258.1167401040997
 21
42.03834903464522
 31
0.0
  0
CIRCLE
  5
588E
330
1B
100
AcDbEntity
 67
     1
  8
DATA
100
AcDbCircle
 10
258.1167401040997
 20
36.17684189276511
 30
0.0
 40
0.4709571427786491
  0
LINE
  5
588F
330
1B
100
AcDbEntity
 67
     1
  8
DATA
100
AcDbLine
 10
258.1167401040997
 20
42.03834903464522
 30
0.0
 11
259.3832329610317
 21
42.03834903464522
 31
0.0
  0
ARC
  5
5890
330
1B
100
AcDbEntity
 67
     1
  8
DATA
100
AcDbCircle
 10
261.4929936749655
 20
42.03834903464522
 30
0.0
 40
0.7032535713113561
100
AcDbArc
 50
180.0
 51
0.0
  0
ARC
  5
5891
330
1B
100
AcDbEntity
 67
     1
  8
DATA
100
AcDbCircle
 10
260.086486532343
 20
42.03834903464522
 30
0.0
 40
0.7032535713113561
100
AcDbArc
 50
180.0
 51
0.0
  0
ARC
  5
5892
330
1B
100
AcDbEntity
 67
     1
  8
DATA
100
AcDbCircle
 10
262.8995008175881
 20
42.03834903464522
 30
0.0
 40
0.7032535713113561
100
AcDbArc
 50
180.0
 51
0.0
  0
LINE
  5
5893
330
1B
100
AcDbEntity
 67
     1
  8
DATA
100
AcDbLine
 10
272.0714543874884
 20
42.03834903464522
 30
0.0
 11
272.0714543874884
 21
36.64779903554373
 31
0.0
  0
LINE
  5
5894
330
1B
100
AcDbEntity
 67
     1
  8
DATA
100
AcDbLine
 10
265.0497401029442
 20
36.64779903554373
 30
0.0
 11
265.0497401029442
 21
42.03834903464522
 31
0.0
  0
CIRCLE
  5
5895
330
1B
100
AcDbEntity
 67
     1
  8
DATA
100
AcDbCircle
 10
265.0497401029442
 20
36.17684189276511
 30
0.0
 40
0.4709571427786491
  0
CIRCLE
  5
5896
330
1B
100
AcDbEntity
 67
     1
  8
DATA
100
AcDbCircle
 10
272.0714543874884
 20
36.17684189276511
 30
0.0
 40
0.4709571427786491
  0
ARC
  5
5897
330
1B
100
AcDbEntity
 67
     1
  8
DATA
100
AcDbCircle
 10
269.9744222449805
 20
42.03834903464522
 30
0.0
 40
0.7032535713113561
100
AcDbArc
 50
180.0
 51
0.0
  0
ARC
  5
5898
330
1B
100
AcDbEntity
 67
     1
  8
DATA
100
AcDbCircle
 10
267.1614079597351
 20
42.03834903464522
 30
0.0
 40
0.7032535713113561
100
AcDbArc
 50
180.0
 51
0.0
  0
ARC
  5
5899
330
1B
100
AcDbEntity
 67
     1
  8
DATA
100
AcDbCircle
 10
265.7529936742554
 20
42.03834903464522
 30
0.0
 40
0.7032535713113561
100
AcDbArc
 50
180.0
 51
0.0
  0
ARC
  5
589A
330
1B
100
AcDbEntity
 67
     1
  8
DATA
100
AcDbCircle
 10
268.5679151023579
 20
42.03834903464522
 30
0.0
 40
0.7032535713113561
100
AcDbArc
 50
180.0
 51
0.0
  0
LINE
  5
589B
330
1B
100
AcDbEntity
 67
     1
  8
DATA
100
AcDbLine
 10
270.6776758162924
 20
42.03834903464522
 30
0.0
 11
272.0714543874884
 21
42.03834903464522
 31
0.0
  0
CIRCLE
  5
589C
330
1B
100
AcDbEntity
 67
     1
  8
DATA
100
AcDbCircle
 10
264.8684265315459
 20
51.02373046171911
 30
0.0
 40
6.338828570372099
  0
ARC
  5
589D
330
1B
100
AcDbEntity
 67
     1
  8
DATA
100
AcDbCircle
 10
255.8584365330474
 20
52.0048204615557
 30
0.0
 40
0.7032535713113561
100
AcDbArc
 50
90.0
 51
270.0
  0
ARC
  5
589E
330
1B
100
AcDbEntity
 67
     1
  8
DATA
100
AcDbCircle
 10
255.8584365330474
 20
49.19180617631019
 30
0.0
 40
0.7032535713113561
100
AcDbArc
 50
90.0
 51
270.0
  0
ARC
  5
589F
330
1B
100
AcDbEntity
 67
     1
  8
DATA
100
AcDbCircle
 10
255.8584365330474
 20
46.37879189106462
 30
0.0
 40
0.7032535713113561
100
AcDbArc
 50
90.0
 51
270.0
  0
ARC
  5
58A0
330
1B
100
AcDbEntity
 67
     1
  8
DATA
100
AcDbCircle
 10
255.8584365330474
 20
47.78529903368741
 30
0.0
 40
0.7032535713113561
100
AcDbArc
 50
90.0
 51
270.0
  0
ARC
  5
58A1
330
1B
100
AcDbEntity
 67
     1
  8
DATA
100
AcDbCircle
 10
255.8584365330474
 20
50.59831331893291
 30
0.0
 40
0.7032535713113561
100
AcDbArc
 50
90.0
 51
270.0
  0
ARC
  5
58A2
330
1B
100
AcDbEntity
 67
     1
  8
DATA
100
AcDbCircle
 10
255.8584365330474
 20
56.22434188942375
 30
0.0
 40
0.7032535713113561
100
AcDbArc
 50
90.0
 51
270.0
  0
ARC
  5
58A3
330
1B
100
AcDbEntity
 67
     1
  8
DATA
100
AcDbCircle
 10
255.8584365330474
 20
53.41132760417841
 30
0.0
 40
0.7032535713113561
100
AcDbArc
 50
90.0
 51
270.0
  0
ARC
  5
58A4
330
1B
100
AcDbEntity
 67
     1
  8
DATA
100
AcDbCircle
 10
255.8584365330474
 20
54.8178347468012
 30
0.0
 40
0.7032535713113561
100
AcDbArc
 50
90.0
 51
270.0
  0
LINE
  5
58A5
330
1B
100
AcDbEntity
 67
     1
  8
DATA
100
AcDbLine
 10
255.8584365330474
 20
58.19408831766705
 30
0.0
 11
255.8584365330474
 21
56.92759546073526
 31
0.0
  0
TEXT
  5
58A6
330
1B
100
AcDbEntity
 67
     1
  8
DATA
100
AcDbText
 10
252.1376934247477
 20
61.34557060237412
 30
0.0
 40
2.5
  1
WIRING DIAGRAM
 41
0.7
  7
ROMANS
100
AcDbText
  0
MTEXT
  5
5999
330
1B
100
AcDbEntity
 67
     1
  8
DATA
100
AcDbMText
 10
118.0295105820216
 20
79.42044065926015
 30
0.0
 40
2.399999999999999
 41
6.509999999999999
 71
     1
 72
     5
  1
F{\H0.8333x;a}
  7
ROMANS
 73
     1
 44
1.0
1001
ACAD
1000
ACAD_MTEXT_DEFINED_HEIGHT_BEGIN
1070
    46
1040
0.0
1000
ACAD_MTEXT_DEFINED_HEIGHT_END
1000
MTEXTBEGIN
1070
    73
1070
     1
1070
    44
1040
1.0
1070
    74
1070
     0
1000
MTEXTEND
  0
DIMENSION
  5
59EF
330
1B
100
AcDbEntity
 67
     1
  8
AM_5
100
AcDbDimension
  2
*D7
 10
111.9224874817822
 20
75.85282582666772
 30
0.0
 11
118.2460275697132
 21
75.85282582666772
 31
0.0
 70
    32
  1
 
 71
     5
 42
12.64708017586213
  3
STANDARD$0
100
AcDbAlignedDimension
 13
124.5695676576443
 23
75.85282582666775
 33
0.0
 14
111.9224874817822
 24
75.85282582666772
 34
0.0
 50
0.0000000000002036
100
AcDbRotatedDimension
1001
ACAD
1000
DSTYLE
1002
{
1070
   281
1070
     0
1070
    76
1070
     1
1070
    75
1070
     1
1070
    47
1040
0.2
1070
    48
1040
-0.2
1070
   272
1070
     1
1002
}
  0
TEXT
  5
5B53
330
1B
100
AcDbEntity
 67
     1
  8
DATA
100
AcDbText
 10
175.6829051118027
 20
7.348353290222588
 30
0.0
 40
3.0
  1
J.W.
  7
ITALICT
100
AcDbText
  0
LINE
  5
6068
102
{ACAD_REACTORS
330
606C
102
}
330
1B
100
AcDbEntity
 67
     1
  8
DATA
100
AcDbLine
 10
269.738359146162
 20
78.50770675431684
 30
0.0
 11
267.8183591461622
 21
78.50770675431684
 31
0.0
  0
LINE
  5
6069
102
{ACAD_REACTORS
330
606C
102
}
330
1B
100
AcDbEntity
 67
     1
  8
DATA
100
AcDbLine
 10
267.8183591461622
 20
74.02770675431682
 30
0.0
 11
269.738359146162
 21
74.02770675431682
 31
0.0
  0
LINE
  5
606A
102
{ACAD_REACTORS
330
606C
102
}
330
1B
100
AcDbEntity
 67
     1
  8
DATA
100
AcDbLine
 10
269.738359146162
 20
74.02770675431682
 30
0.0
 11
269.738359146162
 21
78.50770675431684
 31
0.0
  0
LINE
  5
606B
102
{ACAD_REACTORS
330
606C
102
}
330
1B
100
AcDbEntity
 67
     1
  8
DATA
100
AcDbLine
 10
267.8183591461622
 20
78.50770675431684
 30
0.0
 11
267.8183591461622
 21
74.02770675431682
 31
0.0
  0
HATCH
  5
606C
330
1B
100
AcDbEntity
 67
     1
  8
DATA
100
AcDbHatch
 10
0.0
 20
0.0
 30
0.0
210
0.0
220
0.0
230
1.0
  2
SOLID
 70
     1
 71
     1
 91
        1
 92
        1
 93
        4
 72
     1
 10
269.738359146162
 20
78.50770675431684
 11
267.8183591461622
 21
78.50770675431684
 72
     1
 10
267.8183591461622
 20
78.50770675431684
 11
267.8183591461622
 21
74.02770675431682
 72
     1
 10
267.8183591461622
 20
74.02770675431682
 11
269.738359146162
 21
74.02770675431682
 72
     1
 10
269.738359146162
 20
74.02770675431682
 11
269.738359146162
 21
78.50770675431684
 97
        4
330
6068
330
606B
330
6069
330
606A
 75
     0
 76
     1
 98
        1
 10
120.6183591461621
 20
-34.4522932456832
  0
LWPOLYLINE
  5
606D
330
1B
100
AcDbEntity
 67
     1
  8
DATA
100
AcDbPolyline
 90
        3
 70
     0
 43
0.0
 10
220.8617780377182
 20
79.75416802201997
 10
220.8617780377182
 20
79.75416802201997
 10
224.9356555082792
 20
79.75416801712348
  0
LWPOLYLINE
  5
606E
330
1B
100
AcDbEntity
 67
     1
  8
DATA
100
AcDbPolyline
 90
        3
 70
     0
 43
0.0
 10
220.8617780729762
 20
91.59065952842073
 10
220.8617780729762
 20
91.59065952842073
 10
224.9356555082792
 20
91.59065952295648
  0
LWPOLYLINE
  5
606F
330
1B
100
AcDbEntity
 67
     1
  8
DATA
100
AcDbPolyline
 90
        3
 70
     0
 43
0.0
 10
195.6221676495524
 20
79.75416836851926
 10
195.6221676495524
 20
79.75416836851926
 10
199.6960451201134
 20
79.75416836851926
  0
LWPOLYLINE
  5
6070
330
1B
100
AcDbEntity
 67
     1
  8
DATA
100
AcDbPolyline
 90
        3
 70
     0
 43
0.0
 10
195.6221676848103
 20
91.59065987981652
 10
195.6221676848103
 20
91.59065987981652
 10
199.6960451201134
 20
91.59065987435226
  0
MTEXT
  5
6071
330
1B
100
AcDbEntity
 67
     1
  8
DATA
100
AcDbMText
 10
258.3048583367681
 20
74.7447928968418
 30
0.0
 40
2.4
 41
5.0
 71
     1
 72
     1
  1
B\\
  7
ROMANS
 73
     1
 44
1.0
1001
ACAD
1000
MTEXTBEGIN
1070
    73
1070
     1
1070
    44
1040
1.0
1070
    74
1070
     0
1000
MTEXTEND
  0
TEXT
  5
6072
330
1B
100
AcDbEntity
 67
     1
  8
DATA
100
AcDbText
 10
257.8480814709187
 20
75.37053733045812
 30
0.0
 40
2.399999999999999
  1
COM
 41
0.65
  7
ROMANS
100
AcDbText
  0
MTEXT
  5
6073
330
1B
100
AcDbEntity
 67
     1
  8
DATA
100
AcDbMText
 10
258.2680091878182
 20
80.89901710886968
 30
0.0
 40
2.4
 41
4.0
 71
     1
 72
     1
  1
B
  7
ROMANS
 73
     1
 44
1.0
1001
ACAD
1000
MTEXTBEGIN
1070
    73
1070
     1
1070
    44
1040
1.0
1070
    74
1070
     0
1000
MTEXTEND
  0
MTEXT
  5
6074
330
1B
100
AcDbEntity
 67
     1
  8
DATA
100
AcDbMText
 10
257.9161623979991
 20
85.90218176055831
 30
0.0
 40
2.4
 41
5.0
 71
     1
 72
     1
  1
A\\
  7
ROMANS
 73
     1
 44
1.0
1001
ACAD
1000
MTEXTBEGIN
1070
    73
1070
     1
1070
    44
1040
1.0
1070
    74
1070
     0
1000
MTEXTEND
  0
TEXT
  5
6075
330
1B
100
AcDbEntity
 67
     1
  8
DATA
100
AcDbText
 10
257.7572709637124
 20
86.58625208457877
 30
0.0
 40
2.399999999999999
  1
COM
 41
0.65
  7
ROMANS
100
AcDbText
  0
MTEXT
  5
6076
330
1B
100
AcDbEntity
 67
     1
  8
DATA
100
AcDbMText
 10
258.1422683890561
 20
92.34243757784387
 30
0.0
 40
2.4
 41
4.0
 71
     1
 72
     1
  1
A
  7
ROMANS
 73
     1
 44
1.0
1001
ACAD
1000
MTEXTBEGIN
1070
    73
1070
     1
1070
    44
1040
1.0
1070
    74
1070
     0
1000
MTEXTEND
  0
TEXT
  5
6077
330
1B
100
AcDbEntity
 67
     1
  8
DATA
100
AcDbText
 10
188.419458591072
 20
74.97555751759207
 30
0.0
 40
2.399999999999999
  1
COM
 41
0.65
  7
ROMANS
100
AcDbText
  0
TEXT
  5
6078
330
1B
100
AcDbEntity
 67
     1
  8
DATA
100
AcDbText
 10
188.4674050533953
 20
86.37125946384552
 30
0.0
 40
2.399999999999999
  1
COM
 41
0.65
  7
ROMANS
100
AcDbText
  0
TEXT
  5
6079
330
1B
100
AcDbEntity
 67
     1
  8
DATA
100
AcDbText
 10
199.902028676975
 20
102.4833485259546
 30
0.0
 40
2.4
  1
(EXTERN)
 41
0.65
  7
ROMANS
100
AcDbText
  0
TEXT
  5
607A
330
1B
100
AcDbEntity
 67
     1
  8
DATA
100
AcDbText
 10
243.9210145737535
 20
104.0271312619623
 30
0.0
 40
2.4
  1
MOTOR
 41
0.65
  7
ROMANS
100
AcDbText
  0
TEXT
  5
607B
330
1B
100
AcDbEntity
 67
     1
  8
DATA
100
AcDbText
 10
192.9570950358801
 20
105.845534496515
 30
0.0
 40
2.4
  1
TYPE OF CONNECTION
 41
0.65
  7
ROMANS
100
AcDbText
  0
LWPOLYLINE
  5
607C
330
1B
100
AcDbEntity
 67
     1
  8
DATA
100
AcDbPolyline
 90
        4
 70
     1
 43
0.0
 10
188.0029645968472
 20
101.3615054702091
 10
273.9215438430419
 20
101.3615048490826
 10
273.9215438430419
 20
109.5300185160377
 10
188.0029645968472
 20
109.5300185160377
  0
MLINE
  5
607D
330
1B
100
AcDbEntity
 67
     1
  8
DATA
100
AcDbMline
  2
STANDARD
340
18
 40
0.3
 70
     0
 71
     1
 72
     2
 73
     2
 10
214.7274504279657
 20
97.65991125131861
 30
0.0
210
0.0
220
0.0
230
1.0
 11
214.7274504279657
 21
97.65991125131861
 31
0.0
 12
-9.856318957397505E-10
 22
-1.0
 32
0.0
 13
1.0
 23
-9.856322653661528E-10
 33
0.0
 74
     2
 41
0.0
 41
0.0
 75
     0
 74
     2
 41
-0.3
 41
0.0
 75
     0
 11
214.7274504009487
 21
70.24907462935792
 31
0.0
 12
-9.856318957397505E-10
 22
-1.0
 32
0.0
 13
1.0
 23
-9.856322653661528E-10
 33
0.0
 74
     2
 41
0.0
 41
0.0
 75
     0
 74
     2
 41
-0.3
 41
0.0
 75
     0
  0
MLINE
  5
607E
330
1B
100
AcDbEntity
 67
     1
  8
DATA
100
AcDbMline
  2
STANDARD
340
18
 40
0.3
 70
     0
 71
     1
 72
     2
 73
     2
 10
226.5075849814595
 20
109.5300185160377
 30
0.0
210
0.0
220
0.0
230
1.0
 11
226.5075849814595
 21
109.5300185160377
 31
0.0
 12
-1.135098967989524E-08
 22
-1.0
 32
0.0
 13
1.0
 23
-1.135098972660561E-08
 33
0.0
 74
     2
 41
0.0
 41
0.0
 75
     0
 74
     2
 41
-0.3
 41
0.0
 75
     0
 11
226.507584535582
 21
70.24907459426803
 31
0.0
 12
-1.135098967989524E-08
 22
-1.0
 32
0.0
 13
1.0
 23
-1.135098972660561E-08
 33
0.0
 74
     2
 41
0.0
 41
0.0
 75
     0
 74
     2
 41
-0.3
 41
0.0
 75
     0
  0
MLINE
  5
607F
330
1B
100
AcDbEntity
 67
     1
  8
DATA
100
AcDbMline
  2
STANDARD
340
18
 40
0.3
 70
     0
 71
     1
 72
     2
 73
     2
 10
201.4696787349682
 20
101.3615054570939
 30
0.0
210
0.0
220
0.0
230
1.0
 11
201.4696787349682
 21
101.3615054570939
 31
0.0
 12
-9.856328188687973E-10
 22
-1.0
 32
0.0
 13
1.0
 23
-9.856331535445725E-10
 33
0.0
 74
     2
 41
0.0
 41
0.0
 75
     0
 74
     2
 41
-0.3
 41
0.0
 75
     0
 11
201.4696787043028
 21
70.24907466884932
 31
0.0
 12
-9.856328188687973E-10
 22
-1.0
 32
0.0
 13
1.0
 23
-9.856331535445725E-10
 33
0.0
 74
     2
 41
0.0
 41
0.0
 75
     0
 74
     2
 41
-0.3
 41
0.0
 75
     0
  0
TEXT
  5
6080
330
1B
100
AcDbEntity
 67
     1
  8
DATA
100
AcDbText
 10
228.0080286655129
 20
94.4639087328392
 30
0.0
 40
2.4
  1
PIN NO.
 41
0.7
  7
ROMANS
100
AcDbText
  0
LINE
  5
6081
330
1B
100
AcDbEntity
 67
     1
  8
DATA
100
AcDbLine
 10
241.060047061565
 20
101.3615049925493
 30
0.0
 11
188.0029642717226
 21
101.3615056959018
 31
0.0
  0
TEXT
  5
6082
330
1B
100
AcDbEntity
 67
     1
  8
DATA
100
AcDbText
 10
244.0499643991527
 20
96.22599635370765
 30
0.0
 40
2.4
  1
LEADS
 41
0.7
  7
ROMANS
100
AcDbText
  0
MTEXT
  5
6083
102
{ACAD_REACTORS
330
60C1
102
}
330
1B
100
AcDbEntity
 67
     1
  8
DATA
100
AcDbMText
 10
205.4683705508176
 20
78.09828929486574
 30
0.0
 40
2.4
 41
4.0
 71
     9
 72
     1
  1
B
  7
ROMANS
 73
     1
 44
1.0
1001
ACAD
1000
MTEXTBEGIN
1070
    73
1070
     1
1070
    44
1040
1.0
1070
    74
1070
     0
1000
MTEXTEND
  0
MTEXT
  5
6084
102
{ACAD_REACTORS
330
60C3
102
}
330
1B
100
AcDbEntity
 67
     1
  8
DATA
100
AcDbMText
 10
205.5194259385178
 20
89.67636985758899
 30
0.0
 40
2.4
 41
4.0
 71
     9
 72
     1
  1
\A1;A
  7
ROMANS
 73
     1
 44
1.0
1001
ACAD
1000
MTEXTBEGIN
1070
    73
1070
     1
1070
    44
1040
1.0
1070
    74
1070
     0
1000
MTEXTEND
  0
TEXT
  5
6085
330
1B
100
AcDbEntity
 67
     1
  8
DATA
100
AcDbText
 10
202.2527999335018
 20
94.4793757099981
 30
0.0
 40
2.4
  1
1WINDING
 41
0.65
  7
ROMANS
100
AcDbText
  0
LINE
  5
6086
330
1B
100
AcDbEntity
 67
     1
  8
DATA
100
AcDbLine
 10
188.0029645968472
 20
101.3615054702091
 30
0.0
 11
188.0029640971629
 21
70.24907470896327
 31
0.0
  0
LINE
  5
6087
330
1B
100
AcDbEntity
 67
     1
  8
DATA
100
AcDbLine
 10
273.9215438430419
 20
93.54851846536101
 30
0.0
 11
188.0029644915871
 21
93.54851850480853
 31
0.0
  0
MTEXT
  5
6088
330
1B
100
AcDbEntity
 67
     1
  8
DATA
100
AcDbMText
 10
188.9217809635037
 20
92.1554456044203
 30
0.0
 40
2.4
 41
4.0
 71
     1
 72
     1
  1
A
  7
ROMANS
 73
     1
 44
1.0
1001
ACAD
1000
MTEXTBEGIN
1070
    73
1070
     1
1070
    44
1040
1.0
1070
    74
1070
     0
1000
MTEXTEND
  0
TEXT
  5
6089
330
1B
100
AcDbEntity
 67
     1
  8
DATA
100
AcDbText
 10
188.6074479930641
 20
96.15851026500449
 30
0.0
 40
2.4
  1
UNIPOLAR
 41
0.65
  7
ROMANS
100
AcDbText
  0
MTEXT
  5
608A
330
1B
100
AcDbEntity
 67
     1
  8
DATA
100
AcDbMText
 10
188.6956749724467
 20
85.71518978713474
 30
0.0
 40
2.4
 41
5.0
 71
     1
 72
     1
  1
A\\
  7
ROMANS
 73
     1
 44
1.0
1001
ACAD
1000
MTEXTBEGIN
1070
    73
1070
     1
1070
    44
1040
1.0
1070
    74
1070
     0
1000
MTEXTEND
  0
MTEXT
  5
608B
330
1B
100
AcDbEntity
 67
     1
  8
DATA
100
AcDbMText
 10
189.0475217622658
 20
80.7120251354461
 30
0.0
 40
2.4
 41
4.0
 71
     1
 72
     1
  1
B
  7
ROMANS
 73
     1
 44
1.0
1001
ACAD
1000
MTEXTBEGIN
1070
    73
1070
     1
1070
    44
1040
1.0
1070
    74
1070
     0
1000
MTEXTEND
  0
LWPOLYLINE
  5
608C
330
1B
100
AcDbEntity
 67
     1
  8
DATA
100
AcDbPolyline
 90
        2
 70
     0
 43
0.0
 10
199.6960451201134
 20
84.12127465841038
 10
195.6221676625609
 20
84.12127465841038
  0
MTEXT
  5
608D
330
1B
100
AcDbEntity
 67
     1
  8
DATA
100
AcDbMText
 10
189.0843709112159
 20
74.55780092341822
 30
0.0
 40
2.4
 41
5.0
 71
     1
 72
     1
  1
B\\
  7
ROMANS
 73
     1
 44
1.0
1001
ACAD
1000
MTEXTBEGIN
1070
    73
1070
     1
1070
    44
1040
1.0
1070
    74
1070
     0
1000
MTEXTEND
  0
LWPOLYLINE
  5
608E
330
1B
100
AcDbEntity
 67
     1
  8
DATA
100
AcDbPolyline
 90
        2
 70
     0
 43
0.0
 10
199.6960450978139
 20
72.26791781532964
 10
195.6221676272529
 20
72.26791842384912
  0
TEXT
  5
608F
330
1B
100
AcDbEntity
 67
     1
  8
DATA
100
AcDbText
 10
259.798736124268
 20
96.30745611208389
 30
0.0
 40
2.4
  1
WINDING
 41
0.7
  7
ROMANS
100
AcDbText
  0
LWPOLYLINE
  5
6090
330
1B
100
AcDbEntity
 67
     1
  8
DATA
100
AcDbPolyline
 90
        4
 70
     1
 43
0.0
 10
257.0312163332032
 20
101.3615048490826
 10
273.9215438430419
 20
101.3615048490826
 10
273.9215438430419
 20
70.24907458580449
 10
257.0312163353309
 20
70.24907458580449
  0
LINE
  5
6091
330
1B
100
AcDbEntity
 67
     1
  8
DATA
100
AcDbLine
 10
201.4696787313198
 20
97.65991136506253
 30
0.0
 11
226.2075849387033
 21
97.65991134068011
 31
0.0
  0
TEXT
  5
6092
330
1B
100
AcDbEntity
 67
     1
  8
DATA
100
AcDbText
 10
216.0636953057735
 20
94.54662433762226
 30
0.0
 40
2.4
  1
SERIAL
 41
0.65
  7
ROMANS
100
AcDbText
  0
LWPOLYLINE
  5
6093
330
1B
100
AcDbEntity
 67
     1
  8
DATA
100
AcDbPolyline
 90
        2
 70
     0
 43
0.0
 10
224.9356555082792
 20
84.1212743070146
 10
220.8617780507267
 20
84.12127431247885
  0
MTEXT
  5
6094
330
1B
100
AcDbEntity
 67
     1
  8
DATA
100
AcDbMText
 10
217.3665905375371
 20
77.68633206382154
 30
0.0
 40
2.4
 41
4.0
 71
     9
 72
     1
  1
B
  7
ROMANS
 73
     1
 44
1.0
1001
ACAD
1000
MTEXTBEGIN
1070
    73
1070
     1
1070
    44
1040
1.0
1070
    74
1070
     0
1000
MTEXTEND
  0
LWPOLYLINE
  5
6095
330
1B
100
AcDbEntity
 67
     1
  8
DATA
100
AcDbPolyline
 90
        2
 70
     0
 43
0.0
 10
224.9356555512251
 20
72.2679178601334
 10
220.8617780154185
 20
72.26791789297365
  0
MTEXT
  5
6096
330
1B
100
AcDbEntity
 67
     1
  8
DATA
100
AcDbMText
 10
219.3098743162856
 20
81.89851409829092
 30
0.0
 40
2.4
 41
4.0
 71
     9
 72
     1
  1
A\\
  7
ROMANS
 73
     1
 44
1.0
1001
ACAD
1000
MTEXTBEGIN
1070
    73
1070
     1
1070
    44
1040
1.0
1070
    74
1070
     0
1000
MTEXTEND
  0
MTEXT
  5
6097
330
1B
100
AcDbEntity
 67
     1
  8
DATA
100
AcDbMText
 10
217.3441045766923
 20
90.39065952295644
 30
0.0
 40
2.4
 41
4.0
 71
     9
 72
     1
  1
\A1;A
  7
ROMANS
 73
     1
 44
1.0
1001
ACAD
1000
MTEXTBEGIN
1070
    73
1070
     1
1070
    44
1040
1.0
1070
    74
1070
     0
1000
MTEXTEND
  0
MTEXT
  5
6098
330
1B
100
AcDbEntity
 67
     1
  8
DATA
100
AcDbMText
 10
219.3353321211688
 20
70.55963534719265
 30
0.0
 40
2.4
 41
4.0
 71
     9
 72
     1
  1
B\\
  7
ROMANS
 73
     1
 44
1.0
1001
ACAD
1000
MTEXTBEGIN
1070
    73
1070
     1
1070
    44
1040
1.0
1070
    74
1070
     0
1000
MTEXTEND
  0
LINE
  5
6099
330
1B
100
AcDbEntity
 67
     1
  8
DATA
100
AcDbLine
 10
267.8183591461622
 20
76.48385996712048
 30
0.0
 11
263.5085514145334
 21
76.48385996712048
 31
0.0
  0
LINE
  5
609A
330
1B
100
AcDbEntity
 67
     1
  8
DATA
100
AcDbLine
 10
267.8183591461622
 20
87.86651900166615
 30
0.0
 11
263.5085514145334
 21
87.86651900166615
 31
0.0
  0
LINE
  5
609B
330
1B
100
AcDbEntity
 67
     1
  8
DATA
100
AcDbLine
 10
268.7783591461622
 20
78.50770675431684
 30
0.0
 11
268.778359146162
 21
80.16979317998655
 31
0.0
  0
LINE
  5
609C
330
1B
100
AcDbEntity
 67
     1
  8
DATA
100
AcDbLine
 10
268.7783591461622
 20
74.02770675431682
 30
0.0
 11
268.778359146162
 21
72.16979317998656
 31
0.0
  0
LINE
  5
609D
330
1B
100
AcDbEntity
 67
     1
  8
DATA
100
AcDbLine
 10
268.778359146162
 20
80.16979317998655
 30
0.0
 11
263.5085514145334
 21
80.16979317998655
 31
0.0
  0
LINE
  5
609E
330
1B
100
AcDbEntity
 67
     1
  8
DATA
100
AcDbLine
 10
268.778359146162
 20
72.16979317998656
 30
0.0
 11
263.5085514145334
 21
72.16979317998656
 31
0.0
  0
LINE
  5
609F
330
1B
100
AcDbEntity
 67
     1
  8
DATA
100
AcDbLine
 10
268.7783591461622
 20
89.85526557195887
 30
0.0
 11
268.7783591461622
 21
91.55245221453222
 31
0.0
  0
LINE
  5
60A0
330
1B
100
AcDbEntity
 67
     1
  8
DATA
100
AcDbLine
 10
268.7783591461622
 20
91.55245221453222
 30
0.0
 11
263.5085514145334
 21
91.55245221453222
 31
0.0
  0
LINE
  5
60A1
102
{ACAD_REACTORS
330
60A5
102
}
330
1B
100
AcDbEntity
 67
     1
  8
DATA
100
AcDbLine
 10
269.738359146162
 20
89.85526557195887
 30
0.0
 11
267.8183591461622
 21
89.85526557195887
 31
0.0
  0
LINE
  5
60A2
330
1B
100
AcDbEntity
 67
     1
  8
DATA
100
AcDbLine
 10
268.7783591461622
 20
85.37526557195887
 30
0.0
 11
268.7783591461622
 21
83.55245221453222
 31
0.0
  0
LINE
  5
60A3
330
1B
100
AcDbEntity
 67
     1
  8
DATA
100
AcDbLine
 10
268.7783591461622
 20
83.55245221453222
 30
0.0
 11
263.5085514145334
 21
83.55245221453222
 31
0.0
  0
LINE
  5
60A4
102
{ACAD_REACTORS
330
60A5
102
}
330
1B
100
AcDbEntity
 67
     1
  8
DATA
100
AcDbLine
 10
267.8183591461622
 20
85.37526557195887
 30
0.0
 11
269.738359146162
 21
85.37526557195887
 31
0.0
  0
HATCH
  5
60A5
330
1B
100
AcDbEntity
 67
     1
  8
DATA
100
AcDbHatch
 10
0.0
 20
0.0
 30
0.0
210
0.0
220
0.0
230
1.0
  2
SOLID
 70
     1
 71
     1
 91
        1
 92
        1
 93
        4
 72
     1
 10
269.738359146162
 20
89.85526557195887
 11
267.8183591461622
 21
89.85526557195887
 72
     1
 10
267.8183591461622
 20
89.85526557195887
 11
267.8183591461622
 21
85.37526557195887
 72
     1
 10
267.8183591461622
 20
85.37526557195887
 11
269.738359146162
 21
85.37526557195887
 72
     1
 10
269.738359146162
 20
85.37526557195887
 11
269.738359146162
 21
89.85526557195887
 97
        4
330
60A1
330
60A7
330
60A4
330
60A6
 75
     0
 76
     1
 98
        1
 10
120.6183591461621
 20
-23.10473442804104
  0
LINE
  5
60A6
102
{ACAD_REACTORS
330
60A5
102
}
330
1B
100
AcDbEntity
 67
     1
  8
DATA
100
AcDbLine
 10
269.738359146162
 20
85.37526557195887
 30
0.0
 11
269.738359146162
 21
89.85526557195887
 31
0.0
  0
LINE
  5
60A7
102
{ACAD_REACTORS
330
60A5
102
}
330
1B
100
AcDbEntity
 67
     1
  8
DATA
100
AcDbLine
 10
267.8183591461622
 20
89.85526557195887
 30
0.0
 11
267.8183591461622
 21
85.37526557195887
 31
0.0
  0
TEXT
  5
60A8
330
1B
100
AcDbEntity
 67
     1
  8
DATA
100
AcDbText
 10
209.7048280491173
 20
98.16339065076457
 30
0.0
 40
2.4
  1
BIPOLAR
 41
0.65
  7
ROMANS
100
AcDbText
  0
LWPOLYLINE
  5
60A9
330
1B
100
AcDbEntity
 67
     1
  8
DATA
100
AcDbPolyline
 90
        4
 70
     1
 43
0.0
 10
241.060047061565
 20
101.3615050676394
 10
257.0312163332032
 20
101.3615048490826
 10
257.0312163332032
 20
70.24907458580449
 10
241.0600470233362
 20
70.2490745870962
  0
LINE
  5
60AA
330
1B
100
AcDbEntity
 67
     1
  8
DATA
100
AcDbLine
 10
188.0029641776861
 20
70.24907470896327
 30
0.0
 11
226.5075846095491
 21
70.24907459426803
 31
0.0
  0
LINE
  5
60AB
330
1B
100
AcDbEntity
 67
     1
  8
DATA
100
AcDbLine
 10
226.5075849507941
 20
70.24907459426803
 30
0.0
 11
257.0312163025378
 21
70.24907458580449
 31
0.0
  0
TEXT
  5
60AC
330
1B
100
AcDbEntity
 67
     1
  8
DATA
100
AcDbText
 10
243.5704412751208
 20
82.63720077424322
 30
0.0
 40
2.4
  1
ORG
 41
0.7
  7
ROMANS
100
AcDbText
  0
TEXT
  5
60AD
330
1B
100
AcDbEntity
 67
     1
  8
DATA
100
AcDbText
 10
231.5258701904608
 20
82.75078207299547
 30
0.0
 40
2.4
  1
 3
 41
0.7
  7
ROMANS
100
AcDbText
  0
TEXT
  5
60AE
330
1B
100
AcDbEntity
 67
     1
  8
DATA
100
AcDbText
 10
231.5258701904608
 20
86.63649635870982
 30
0.0
 40
2.4
  1
 5
 41
0.7
  7
ROMANS
100
AcDbText
  0
TEXT
  5
60AF
330
1B
100
AcDbEntity
 67
     1
  8
DATA
100
AcDbText
 10
226.9712595133277
 20
97.81390873283934
 30
0.0
 40
2.4
  1
CONNECTOR
 41
0.65
  7
ROMANS
100
AcDbText
  0
TEXT
  5
60B0
330
1B
100
AcDbEntity
 67
     1
  8
DATA
100
AcDbText
 10
231.5258701904608
 20
90.52221064442418
 30
0.0
 40
2.4
  1
 1
 41
0.7
  7
ROMANS
100
AcDbText
  0
LINE
  5
60B1
330
1B
100
AcDbEntity
 67
     1
  8
DATA
100
AcDbLine
 10
226.5075849660579
 20
85.73553123950208
 30
0.0
 11
257.0312163178018
 21
85.73553123103854
 31
0.0
  0
LINE
  5
60B2
330
1B
100
AcDbEntity
 67
     1
  8
DATA
100
AcDbLine
 10
226.5075849622764
 20
81.89879642163489
 30
0.0
 11
257.0312163332032
 21
81.89879641446308
 31
0.0
  0
LINE
  5
60B3
330
1B
100
AcDbEntity
 67
     1
  8
DATA
100
AcDbLine
 10
226.5075849699771
 20
89.71178343113436
 30
0.0
 11
257.0312163217208
 21
89.71178342267084
 31
0.0
  0
TEXT
  5
60B4
330
1B
100
AcDbEntity
 67
     1
  8
DATA
100
AcDbText
 10
243.5704412751208
 20
86.52291505995757
 30
0.0
 40
2.4
  1
BLK
 41
0.7
  7
ROMANS
100
AcDbText
  0
TEXT
  5
60B5
330
1B
100
AcDbEntity
 67
     1
  8
DATA
100
AcDbText
 10
243.5704412751208
 20
90.40862934567192
 30
0.0
 40
2.4
  1
BRN
 41
0.7
  7
ROMANS
100
AcDbText
  0
TEXT
  5
60B6
330
1B
100
AcDbEntity
 67
     1
  8
DATA
100
AcDbText
 10
231.5258701904608
 20
74.97935350156698
 30
0.0
 40
2.4
  1
 6
 41
0.7
  7
ROMANS
100
AcDbText
  0
TEXT
  5
60B7
330
1B
100
AcDbEntity
 67
     1
  8
DATA
100
AcDbText
 10
231.5258701904608
 20
78.86506778728133
 30
0.0
 40
2.4
  1
 2
 41
0.7
  7
ROMANS
100
AcDbText
  0
TEXT
  5
60B8
330
1B
100
AcDbEntity
 67
     1
  8
DATA
100
AcDbText
 10
231.5258701904608
 20
71.09363921585262
 30
0.0
 40
2.4
  1
 4
 41
0.7
  7
ROMANS
100
AcDbText
  0
LINE
  5
60B9
330
1B
100
AcDbEntity
 67
     1
  8
DATA
100
AcDbLine
 10
226.5075849584948
 20
78.06206160247578
 30
0.0
 11
257.0312163102384
 21
78.06206159530396
 31
0.0
  0
LINE
  5
60BA
330
1B
100
AcDbEntity
 67
     1
  8
DATA
100
AcDbLine
 10
226.5075849547131
 20
74.2253267859003
 30
0.0
 11
257.031216306457
 21
74.22532677743678
 31
0.0
  0
TEXT
  5
60BB
330
1B
100
AcDbEntity
 67
     1
  8
DATA
100
AcDbText
 10
243.5704412751208
 20
70.98005791710036
 30
0.0
 40
2.4
  1
YEL
 41
0.7
  7
ROMANS
100
AcDbText
  0
TEXT
  5
60BC
330
1B
100
AcDbEntity
 67
     1
  8
DATA
100
AcDbText
 10
243.5704412751208
 20
74.86577220281472
 30
0.0
 40
2.4
  1
WHT
 41
0.7
  7
ROMANS
100
AcDbText
  0
TEXT
  5
60BD
330
1B
100
AcDbEntity
 67
     1
  8
DATA
100
AcDbText
 10
243.5704412751208
 20
78.75148648852908
 30
0.0
 40
2.4
  1
RED
 41
0.7
  7
ROMANS
100
AcDbText
  0
LINE
  5
60BE
330
1B
100
AcDbEntity
 67
     1
  8
DATA
100
AcDbLine
 10
241.060047061565
 20
101.3615049925493
 30
0.0
 11
241.0600470233362
 21
70.2490745870962
 31
0.0
  0
LEADER
  5
60BF
330
1B
100
AcDbEntity
 67
     1
  8
DATA
100
AcDbLeader
  3
STANDARD
 40
3.657142857142857
 41
2.959999999999999
 76
     2
 10
195.6221676585045
 20
76.1202998588017
 30
0.0
 10
199.6960450740311
 20
76.12029985638471
 30
0.0
211
-1.0
221
0.0000000000000011
231
0.0
213
-1.226612880412093
223
-2.266874782613133
233
0.0
1001
ACAD
1000
DSTYLE
1002
{
1070
   176
1070
   256
1070
   341
1005
2FF
1070
    40
1040
1.0
1070
    77
1070
     0
1002
}
  0
LEADER
  5
60C0
330
1B
100
AcDbEntity
 67
     1
  8
DATA
100
AcDbLeader
  3
STANDARD
 40
3.657142857142857
 41
2.959999999999999
 76
     2
 10
195.6221676736856
 20
87.85596636624317
 30
0.0
 10
199.6960451089887
 20
87.8559663580086
 30
0.0
211
-1.0
221
0.0000000019712656
231
0.0
210
0.0
220
0.0
230
-1.0
213
-1.226612875943478
223
2.266874785031113
233
0.0
1001
ACAD
1000
DSTYLE
1002
{
1070
   176
1070
   256
1070
   341
1005
2FF
1070
    40
1040
1.0
1070
    77
1070
     0
1002
}
  0
LEADER
  5
60C1
330
1B
100
AcDbEntity
 67
     1
  8
DATA
100
AcDbLeader
  3
STANDARD
 73
     0
 40
2.4
 41
1.28
 76
     2
 10
212.4272719670472
 20
79.75416836070306
 30
0.0
 10
208.3533945317442
 20
79.75416801806791
 30
0.0
213
2.583231898013991
223
1.655878723202182
233
0.0
1001
ACAD
1000
DSTYLE
1002
{
1070
   176
1070
   256
1070
   341
1005
2FF
1070
    40
1040
1.0
1070
    77
1070
     0
1002
}
  0
LEADER
  5
60C2
330
1B
100
AcDbEntity
 67
     1
  8
DATA
100
AcDbLeader
  3
STANDARD
 40
3.657142857142857
 41
2.959999999999999
 76
     2
 10
212.4272720033727
 20
76.12029983720143
 30
0.0
 10
208.3533945209198
 20
76.12029984543577
 30
0.0
211
1.0
221
-0.0000000019712646
231
0.0
210
0.0
220
0.0
230
-1.0
213
1.226612875943481
223
-2.266874785031112
233
0.0
1001
ACAD
1000
DSTYLE
1002
{
1070
   176
1070
   256
1070
   341
1005
2FF
1070
    40
1040
1.0
1070
    77
1070
     0
1002
}
  0
LEADER
  5
60C3
330
1B
100
AcDbEntity
 67
     1
  8
DATA
100
AcDbLeader
  3
STANDARD
 73
     0
 40
2.4
 41
1.462857142857143
 76
     2
 10
212.4272720097823
 20
91.59065934642947
 30
0.0
 10
208.3533945670019
 20
91.59065986653621
 30
0.0
213
2.532176545571502
223
1.91429000894723
233
0.0
1001
ACAD
1000
DSTYLE
1002
{
1070
   176
1070
   256
1070
   341
1005
2FF
1070
    40
1040
1.0
1070
    77
1070
     0
1002
}
  0
LEADER
  5
60C4
330
1B
100
AcDbEntity
 67
     1
  8
DATA
100
AcDbLeader
  3
STANDARD
 40
3.657142857142857
 41
2.959999999999999
 76
     2
 10
212.4272713557912
 20
87.85891483227761
 30
0.0
 10
208.3533938733384
 20
87.85891413877296
 30
0.0
211
0.9999999999999856
221
0.0000001701820919
231
0.0
210
0.0
220
0.0
230
-1.0
213
1.22661249463058
223
2.266874991360646
233
0.0
1001
ACAD
1000
DSTYLE
1002
{
1070
   176
1070
   256
1070
   341
1005
2FF
1070
    40
1040
1.0
1070
    77
1070
     0
1002
}
  0
TEXT
  5
60C5
330
1B
100
AcDbEntity
 67
     1
  8
DATA
100
AcDbText
 10
178.5514915248215
 20
65.37687408687308
 30
0.0
 40
3.0
  1
for >speed
 41
0.65
  7
ROMANS
 11
178.5514915248215
 21
64.37687408687307
 31
0.0
100
AcDbText
 73
     1
  0
TEXT
  5
60C6
330
1B
100
AcDbEntity
 67
     1
  8
DATA
100
AcDbText
 10
178.5514915248215
 20
61.47115134416688
 30
0.0
 40
3.0
  1
for <speed
 41
0.65
  7
ROMANS
 11
178.5514915248215
 21
60.47115134416689
 31
0.0
100
AcDbText
 73
     1
  0
DIMENSION
  5
60C7
330
1B
100
AcDbEntity
 67
     1
  8
DATA
  6
ACISOTGL
100
AcDbDimension
  2
*D20
 10
221.2014984365391
 20
62.80301523093496
 30
0.0
 11
210.4684609290592
 21
62.80301523093496
 31
0.0
 70
    32
  1
 
 71
     5
 42
24.46607501495987
  3
STANDARD$0
100
AcDbAlignedDimension
 13
196.7354234215792
 23
62.8030152695328
 33
0.0
 14
221.2014984365391
 24
62.80301523093496
 34
0.0
 50
359.9999998293309
100
AcDbRotatedDimension
1001
ACAD
1000
DSTYLE
1002
{
1070
   176
1070
   256
1070
   344
1005
2FF
1070
   173
1070
     1
1070
   343
1005
0
1070
    76
1070
     1
1070
    75
1070
     1
1070
    47
1040
0.2
1070
    48
1040
-0.2
1070
   272
1070
     1
1002
}
  0
LINE
  5
60C8
330
1B
100
AcDbEntity
 67
     1
  8
DATA
  6
ACISOTGL
100
AcDbLine
 10
221.2003386169222
 20
62.811273191448
 30
0.0
 11
221.2003386169222
 21
68.78580908058407
 31
0.0
  0
DIMENSION
  5
60C9
330
1B
100
AcDbEntity
 67
     1
  8
DATA
  6
ACISOTGL
100
AcDbDimension
  2
*D21
 10
208.5559259502863
 20
66.30756841275107
 30
0.0
 11
204.1734083553813
 21
66.30756841275107
 31
0.0
 70
    32
  1
 
 71
     5
 42
11.76503518980996
  3
STANDARD$0
100
AcDbAlignedDimension
 13
196.7908907604763
 23
66.30756845134891
 33
0.0
 14
208.5559259502863
 24
66.30756841275107
 34
0.0
 50
359.9999998293301
100
AcDbRotatedDimension
1001
ACAD
1000
DSTYLE
1002
{
1070
   176
1070
   256
1070
   344
1005
2FF
1070
   173
1070
     1
1070
   343
1005
0
1070
    76
1070
     1
1070
    75
1070
     1
1070
    47
1040
0.2
1070
    48
1040
-0.2
1070
   272
1070
     1
1002
}
  0
LINE
  5
60CA
330
1B
100
AcDbEntity
 67
     1
  8
DATA
  6
ACISOTGL
100
AcDbLine
 10
208.5446380379635
 20
66.30159262244209
 30
0.0
 11
208.5446380379635
 21
68.78580908058407
 31
0.0
  0
TEXT
  5
60CB
330
1B
100
AcDbEntity
 67
     1
  8
DATA
100
AcDbText
 10
201.8968391701355
 20
86.3742072363753
 30
0.0
 40
2.399999999999999
  1
COM
 41
0.65
  7
ROMANS
100
AcDbText
  0
TEXT
  5
60CC
330
1B
100
AcDbEntity
 67
     1
  8
DATA
100
AcDbText
 10
201.8968398177169
 20
74.63559294303812
 30
0.0
 40
2.399999999999999
  1
COM
 41
0.65
  7
ROMANS
100
AcDbText
  0
TEXT
  5
63D3
330
1B
100
AcDbEntity
 67
     1
  8
DATA
100
AcDbText
 10
189.4634543457442
 20
17.05999183728654
 30
0.0
 40
2.509907399999999
  1
26.02.07
 41
0.7
  7
ROMANS
100
AcDbText
  0
TEXT
  5
63D4
330
1B
100
AcDbEntity
 67
     1
  8
DATA
100
AcDbText
 10
175.6829051118027
 20
16.86719000998262
 30
0.0
 40
3.0
  1
S.Ha.
  7
ITALICT
100
AcDbText
  0
ENDSEC
  0
SECTION
  2
OBJECTS
  0
DICTIONARY
  5
C
330
0
100
AcDbDictionary
281
     1
  3
ACAD_COLOR
350
BE
  3
ACAD_GROUP
350
D
  3
ACAD_LAYOUT
350
1A
  3
ACAD_MATERIAL
350
BD
  3
ACAD_MLINESTYLE
350
17
  3
ACAD_PLOTSETTINGS
350
19
  3
ACAD_PLOTSTYLENAME
350
E
  3
ACAD_TABLESTYLE
350
11A
  3
AcadDim
350
2E5B
  3
ACDBHEADERROUNDTRIPXREC
350
6432
  3
AcDbVariableDictionary
350
94
  3
AcmDictionary
350
5B
  3
AMG
350
41
  3
AMGSNAPSETTINGS
350
26B
  3
DWGPROPS
350
6431
  0
DICTIONARY
  5
2F5
330
2
100
AcDbDictionary
280
     1
281
     1
  3
ACAD_LAYERSTATES
360
2F6
  3
AMLAYER_GROUPCOLORS
360
554A
  0
DICTIONARY
  5
8F
330
1F
100
AcDbDictionary
280
     1
281
     1
  3
ACAD_SORTENTS
360
53A3
  0
DICTIONARY
  5
2D9F
330
1B
100
AcDbDictionary
280
     1
281
     1
  3
ACAD_SORTENTS
360
2DA0
  0
DICTIONARY
  5
128A
330
125D
100
AcDbDictionary
280
     1
281
     1
  0
DICTIONARY
  5
2CC2
330
2CC0
100
AcDbDictionary
280
     1
281
     1
  0
DICTIONARY
  5
5EE6
330
5EE5
100
AcDbDictionary
280
     1
281
     1
  3
ACAD_DIMASSOC
360
5EE7
  0
DICTIONARY
  5
5EE9
330
5EE8
100
AcDbDictionary
280
     1
281
     1
  3
ACAD_DIMASSOC
360
5EEA
  0
DICTIONARY
  5
6436
330
2D8
100
AcDbDictionary
280
     1
281
     1
  3
ACAD_XREC_ROUNDTRIP
360
6437
  0
DICTIONARY
  5
6438
330
1E55
100
AcDbDictionary
280
     1
281
     1
  3
ACAD_XREC_ROUNDTRIP
360
6439
  0
DICTIONARY
  5
BE
102
{ACAD_REACTORS
330
C
102
}
330
C
100
AcDbDictionary
281
     1
  0
DICTIONARY
  5
D
102
{ACAD_REACTORS
330
C
102
}
330
C
100
AcDbDictionary
281
     1
  0
DICTIONARY
  5
1A
102
{ACAD_REACTORS
330
C
102
}
330
C
100
AcDbDictionary
281
     1
  3
Layout1
350
1E
  3
Model
350
22
  0
DICTIONARY
  5
BD
102
{ACAD_REACTORS
330
C
102
}
330
C
100
AcDbDictionary
281
     1
  0
DICTIONARY
  5
17
102
{ACAD_REACTORS
330
C
102
}
330
C
100
AcDbDictionary
281
     1
  3
Standard
350
18
  0
DICTIONARY
  5
19
102
{ACAD_REACTORS
330
C
102
}
330
C
100
AcDbDictionary
281
     1
  0
ACDBDICTIONARYWDFLT
  5
E
102
{ACAD_REACTORS
330
C
102
}
330
C
100
AcDbDictionary
281
     1
  3
Normal
350
F
100
AcDbDictionaryWithDefault
340
F
  0
DICTIONARY
  5
11A
102
{ACAD_REACTORS
330
C
102
}
330
C
100
AcDbDictionary
281
     1
  3
Standard
350
11B
  0
XRECORD
  5
2E5B
102
{ACAD_REACTORS
330
C
102
}
330
C
100
AcDbXrecord
280
     1
 90
   990106
  3

 60
     0
 61
     0
 62
     1
 63
     3
 64
     0
 65
     0
 66
     0
 67
     3
 68
     1
 69
     0
 70
     0
 71
     0
 72
     0
 40
0.0
170
     0
340
2E0B
  0
DICTIONARY
  5
6432
102
{ACAD_REACTORS
330
C
102
}
330
C
100
AcDbDictionary
281
     1
  0
DICTIONARY
  5
94
102
{ACAD_REACTORS
330
C
102
}
330
C
100
AcDbDictionary
281
     1
  3
CTABLESTYLE
350
138
  3
DIMASSOC
350
96
  3
INDEXCTL
350
95
  3
PROJECTNAME
350
1B03
  0
DICTIONARY
  5
5B
102
{ACAD_REACTORS
330
C
102
}
330
C
100
AcDbDictionary
281
     1
  3
AcmBOM
350
272
  3
AcmStdDictionary
350
61
  3
AMDTSECTSYM_ARROWCOLOR
350
123
  0
DICTIONARY
  5
41
102
{ACAD_REACTORS
330
C
102
}
330
C
100
AcDbDictionary
281
     1
  0
DICTIONARY
  5
26B
102
{ACAD_REACTORS
330
C
102
}
330
C
100
AcDbDictionary
281
     1
  0
XRECORD
  5
6431
102
{ACAD_REACTORS
330
C
102
}
330
C
100
AcDbXrecord
280
     1
  1
DWGPROPS COOKIE
  2

  3

  4

  6

  7

  8

  9

300
AmdtFileType=84
301
=
302
=
303
=
304
=
305
=
306
=
307
=
308
=
309
=
 40
1.138803101851851
 41
2453787.394483275
 42
2454162.451520811
  1

 90
        1
  0
DICTIONARY
  5
2F6
102
{ACAD_REACTORS
330
2F5
102
}
330
2F5
100
AcDbDictionary
281
     1
  0
DICTIONARY
  5
554A
102
{ACAD_REACTORS
330
2F5
102
}
330
2F5
100
AcDbDictionary
280
     1
281
     1
  0
SORTENTSTABLE
  5
53A3
102
{ACAD_REACTORS
330
8F
102
}
330
8F
100
AcDbSortentsTable
330
1F
331
13FA
  5
13FA
  0
SORTENTSTABLE
  5
2DA0
102
{ACAD_REACTORS
330
2D9F
102
}
330
2D9F
100
AcDbSortentsTable
330
1B
331
19FB
  5
19FB
331
1A6A
  5
1A6A
331
1A03
  5
1A03
331
1A0B
  5
1A0B
331
2D8
  5
2D8
331
1296
  5
1296
331
19C4
  5
19C4
331
129E
  5
129E
331
194D
  5
194D
331
12A6
  5
12A6
331
1955
  5
1955
331
19D4
  5
19D4
331
1A13
  5
1A13
331
1A1B
  5
1A1B
331
2D71
  5
2D71
331
1A23
  5
1A23
331
2D99
  5
2D9A
331
12AE
  5
12AE
331
195D
  5
195D
331
19DC
  5
19DC
331
12B6
  5
12B6
331
1965
  5
1965
331
19E4
  5
19E4
331
196D
  5
196D
331
19EC
  5
19EC
331
1975
  5
1975
331
19F4
  5
19F4
331
2DA1
  5
2DA2
331
1A04
  5
1A04
331
1A0C
  5
1A0C
331
19BD
  5
19BD
331
1297
  5
1297
331
19C5
  5
19C5
331
129F
  5
129F
331
194E
  5
194E
331
12A7
  5
12A7
331
1956
  5
1956
331
19D5
  5
19D5
331
1A14
  5
1A14
331
1A1C
  5
1A1C
331
2D72
  5
2D72
331
2D9A
  5
2DA1
331
12AF
  5
12AF
331
195E
  5
195E
331
19DD
  5
19DD
331
12B7
  5
12B7
331
1966
  5
1966
331
19E5
  5
19E5
331
196E
  5
196E
331
19ED
  5
19ED
331
1976
  5
1976
331
19F5
  5
19F5
331
2DA2
  5
2D9E
331
19FD
  5
19FD
331
1A05
  5
1A05
331
2CCB
  5
2CCB
331
1A0D
  5
1A0D
331
2CEB
  5
2CEB
331
1290
  5
1290
331
19C6
  5
19C6
331
12A0
  5
12A0
331
194F
  5
194F
331
19D6
  5
19D6
331
1957
  5
1957
331
1A15
  5
1A15
331
1A1D
  5
1A1D
331
12A8
  5
12A8
331
19DE
  5
19DE
331
12B0
  5
12B0
331
195F
  5
195F
331
19E6
  5
19E6
331
12B8
  5
12B8
331
1967
  5
1967
331
19EE
  5
19EE
331
196F
  5
196F
331
19F6
  5
19F6
331
1A06
  5
1A06
331
1A0E
  5
1A0E
331
1E55
  5
1E55
331
19BF
  5
19BF
331
1708
  5
1708
331
1291
  5
1291
331
19C7
  5
19C7
331
1299
  5
1299
331
1948
  5
1948
331
1950
  5
1950
331
19D7
  5
19D7
331
1A16
  5
1A16
331
1A1E
  5
1A1E
331
2D94
  5
2D94
331
1958
  5
1958
331
12A9
  5
12A9
331
1960
  5
1960
331
12B1
  5
12B1
331
19DF
  5
19DF
331
1968
  5
1968
331
19E7
  5
19E7
331
1970
  5
1970
331
19EF
  5
19EF
331
19F7
  5
19F7
331
19FF
  5
19FF
331
1A07
  5
1A07
331
1A0F
  5
1A0F
331
19C0
  5
19C0
331
129A
  5
129A
331
1949
  5
1949
331
19C8
  5
19C8
331
12A2
  5
12A2
331
1951
  5
1951
331
1A17
  5
1A17
331
2D6D
  5
2D6D
331
1A1F
  5
1A1F
331
2D95
  5
2D95
331
12AA
  5
12AA
331
1959
  5
1959
331
19D8
  5
19D8
331
12B2
  5
12B2
331
1961
  5
1961
331
19E0
  5
19E0
331
12BA
  5
12BA
331
1969
  5
1969
331
19E8
  5
19E8
331
1971
  5
1971
331
19F0
  5
19F0
331
1A00
  5
1A00
331
1A08
  5
1A08
331
19C1
  5
19C1
331
129B
  5
129B
331
194A
  5
194A
331
19C9
  5
19C9
331
12A3
  5
12A3
331
1952
  5
1952
331
19D1
  5
19D1
331
1A10
  5
1A10
331
1A18
  5
1A18
331
2D96
  5
2D96
331
2CB7
  5
2CB7
331
2D9E
  5
2D99
331
12AB
  5
12AB
331
195A
  5
195A
331
19D9
  5
19D9
331
12B3
  5
12B3
331
1962
  5
1962
331
19E1
  5
19E1
331
196A
  5
196A
331
19E9
  5
19E9
331
1972
  5
1972
331
19F1
  5
19F1
331
19F9
  5
19F9
331
2CBF
  5
2CBF
331
1A01
  5
1A01
331
1A09
  5
1A09
331
1294
  5
1294
331
19C2
  5
19C2
331
194B
  5
194B
331
12A4
  5
12A4
331
1953
  5
1953
331
19D2
  5
19D2
331
1A11
  5
1A11
331
1A19
  5
1A19
331
1A21
  5
1A21
331
2D97
  5
2D97
331
12AC
  5
12AC
331
195B
  5
195B
331
12B4
  5
12B4
331
1963
  5
1963
331
19E2
  5
19E2
331
196B
  5
196B
331
19EA
  5
19EA
331
1973
  5
1973
331
19F2
  5
19F2
331
19FA
  5
19FA
331
1A02
  5
1A02
331
1A0A
  5
1A0A
331
19BB
  5
19BB
331
129D
  5
129D
331
194C
  5
194C
331
12A5
  5
12A5
331
1954
  5
1954
331
19D3
  5
19D3
331
1A1A
  5
1A1A
331
2D70
  5
2D70
331
1A22
  5
1A22
331
2D98
  5
2D98
331
12AD
  5
12AD
331
195C
  5
195C
331
12B5
  5
12B5
331
1964
  5
1964
331
19E3
  5
19E3
331
196C
  5
196C
331
19EB
  5
19EB
331
1974
  5
1974
  0
DIMASSOC
  5
5EE7
102
{ACAD_REACTORS
330
5EE6
102
}
330
5EE6
100
AcDbDimAssoc
330
5EE5
 90
        3
 70
     0
 71
     0
  1
AcDbOsnapPointRef
 72
    13
331
5E73
 73
     0
 91
        0
 40
0.0
 10
0.0
 20
0.0
 30
2.000000000000000E+50
 75
     0
  1
AcDbOsnapPointRef
 72
     1
331
5EE3
 73
     0
 91
        0
 40
0.0
 10
0.0
 20
0.0
 30
2.000000000000000E+50
 75
     0
  0
DIMASSOC
  5
5EEA
102
{ACAD_REACTORS
330
5EE9
102
}
330
5EE9
100
AcDbDimAssoc
330
5EE8
 90
        3
 70
     0
 71
     0
  1
AcDbOsnapPointRef
 72
     1
331
5EE4
 73
     0
 91
        0
 40
0.0
 10
0.0
 20
0.0
 30
2.000000000000000E+50
 75
     0
  1
AcDbOsnapPointRef
 72
     1
331
5EE3
 73
     0
 91
        0
 40
0.0
 10
0.0
 20
0.0
 30
2.000000000000000E+50
 75
     0
  0
XRECORD
  5
6437
102
{ACAD_REACTORS
330
6436
102
}
330
6436
100
AcDbXrecord
280
     1
102
SHADEPLOT
 70
     0
  0
XRECORD
  5
6439
102
{ACAD_REACTORS
330
6438
102
}
330
6438
100
AcDbXrecord
280
     1
102
SHADEPLOT
 70
     0
  0
LAYOUT
  5
1E
102
{ACAD_XDICTIONARY
360
2F8
102
}
102
{ACAD_REACTORS
330
1A
102
}
330
1A
100
AcDbPlotSettings
  1

  2
Win2PDF.pc3
  4
A4
  6

 40
3.174999952316284
 41
3.174999952316284
 42
3.17498779296875
 43
3.175003051757812
 44
296.989501953125
 45
209.9944915771484
 46
4.281918756031529
 47
3.819901690812457
 48
0.0
 49
0.0
140
0.0
141
0.0
142
1.0
143
1.0
 70
   692
 72
     1
 73
     0
 74
     1
  7
monochrome.ctb
 75
    16
147
1.0
148
0.0166177473049629
149
0.0001365574955798
100
AcDbLayout
  1
Layout1
 70
     1
 71
     1
 10
-7.473536455652777
 20
-6.995038200624321
 11
289.5159654974722
 21
202.9994533765241
 12
0.0
 22
0.0
 32
0.0
 14
-0.0052938850726605
 24
-0.0001345188433106
 34
-0.0015258207003583
 15
282.0477243098575
 25
196.0045506726061
 35
0.0000000349246037
146
0.0
 13
0.0
 23
0.0
 33
0.0
 16
1.0
 26
0.0
 36
0.0
 17
0.0
 27
1.0
 37
0.0
 76
     0
330
1B
331
2D8
1001
ACAD_PSEXT
1000
Win2PDF.pc3
1000
Win2PDF
1000
PDFFILE:
1000

1070
     0
  0
LAYOUT
  5
22
102
{ACAD_XDICTIONARY
360
6434
102
}
102
{ACAD_REACTORS
330
1A
102
}
330
1A
100
AcDbPlotSettings
  1

  2
\\pallas\ColorLaserJet Büro
  4
A4
  6

 40
6.805083274841308
 41
5.027085304260253
 42
6.805084228515625
 43
5.027069091796875
 44
209.9733276367187
 45
296.9683227539062
 46
0.0
 47
0.0
 48
0.0
 49
0.0
140
0.0
141
0.0
142
1.0
143
1.82975238375777
 70
 11952
 72
     1
 73
     1
 74
     0
  7

 75
     0
147
0.5465220370126233
148
-1003.732693658126
149
-531.8054935907698
100
AcDbLayout
  1
Model
 70
     1
 71
     0
 10
0.0
 20
0.0
 11
12.0
 21
9.0
 12
0.0
 22
0.0
 32
0.0
 14
0.0
 24
0.0
 34
0.0
 15
0.0
 25
0.0
 35
0.0
146
0.0
 13
0.0
 23
0.0
 33
0.0
 16
1.0
 26
0.0
 36
0.0
 17
0.0
 27
1.0
 37
0.0
 76
     0
330
1F
1001
ACAD_PSEXT
1000
\\pallas\ColorLaserJet Büro
1000
HP Color LaserJet 4550 PCL
1000
Serverraum
1000
HP ColorLaserJet 4550N
1070
     0
  0
MLINESTYLE
  5
18
102
{ACAD_REACTORS
330
17
102
}
330
17
100
AcDbMlineStyle
  2
STANDARD
 70
     0
  3

 62
   256
 51
90.0
 52
90.0
 71
     2
 49
0.5
 62
   256
  6
BYLAYER
 49
-0.5
 62
   256
  6
BYLAYER
  0
ACDBPLACEHOLDER
  5
F
102
{ACAD_REACTORS
330
E
102
}
330
E
  0
TABLESTYLE
  5
11B
102
{ACAD_REACTORS
330
11A
102
}
330
11A
100
AcDbTableStyle
  3
Standard
 70
     0
 71
     0
 40
1.5
 41
1.5
280
     0
281
     0
  7
STANDARD
140
4.5
170
     2
 62
     0
 63
     7
283
     0
274
    -2
284
     1
 64
     0
275
    -2
285
     1
 65
     0
276
    -2
286
     1
 66
     0
277
    -2
287
     1
 67
     0
278
    -2
288
     1
 68
     0
279
    -2
289
     1
 69
     0
  7
STANDARD
140
6.0
170
     5
 62
     0
 63
     7
283
     0
274
    -2
284
     1
 64
     0
275
    -2
285
     1
 65
     0
276
    -2
286
     1
 66
     0
277
    -2
287
     1
 67
     0
278
    -2
288
     1
 68
     0
279
    -2
289
     1
 69
     0
  7
STANDARD
140
4.5
170
     5
 62
     0
 63
     7
283
     0
274
    -2
284
     1
 64
     0
275
    -2
285
     1
 65
     0
276
    -2
286
     1
 66
     0
277
    -2
287
     1
 67
     0
278
    -2
288
     1
 68
     0
279
    -2
289
     1
 69
     0
  0
DICTIONARYVAR
  5
138
102
{ACAD_REACTORS
330
94
102
}
330
94
100
DictionaryVariables
280
     0
  1
STANDARD
  0
DICTIONARYVAR
  5
96
102
{ACAD_REACTORS
330
94
102
}
330
94
100
DictionaryVariables
280
     0
  1
2
  0
DICTIONARYVAR
  5
95
102
{ACAD_REACTORS
330
94
102
}
330
94
100
DictionaryVariables
280
     0
  1
0
  0
DICTIONARYVAR
  5
1B03
102
{ACAD_REACTORS
330
94
102
}
330
94
100
DictionaryVariables
280
     0
  1

  0
DICTIONARY
  5
272
102
{ACAD_REACTORS
330
5B
102
}
330
5B
100
AcDbDictionary
281
     1
  0
DICTIONARY
  5
61
102
{ACAD_REACTORS
330
5B
102
}
330
5B
100
AcDbDictionary
281
     1
  0
XRECORD
  5
123
102
{ACAD_REACTORS
330
5B
102
}
330
5B
100
AcDbXrecord
280
     1
 90
-1023410169
  0
DICTIONARY
  5
2F8
330
1E
100
AcDbDictionary
280
     1
281
     1
  3
ACAD_XREC_ROUNDTRIP
360
6433
  3
ADSK_XREC_LAYOUTTHUMBNAIL
360
2F9
  0
DICTIONARY
  5
6434
330
22
100
AcDbDictionary
280
     1
281
     1
  3
ACAD_XREC_ROUNDTRIP
360
6435
  0
XRECORD
  5
6433
102
{ACAD_REACTORS
330
2F8
102
}
330
2F8
100
AcDbXrecord
280
     1
102
SHADEPLOT
 70
     0
102
SHADEPLOTRESLEVEL
 70
     2
102
SHADEPLOTCUSTOMDPI
 70
   300
  0
XRECORD
  5
2F9
102
{ACAD_REACTORS
330
2F8
102
}
330
2F8
100
AcDbXrecord
280
     1
310
28000000B40000007F00000001000800000000004C590000000000000000000000010000000000000000000000000000FFFFFF000000000000000000000000000000000000000000000000000000000000000000330000006600000099000000CC000000FF00000000330000333300006633000099330000CC330000FF3300
310
0000660000336600006666000099660000CC660000FF66000000990000339900006699000099990000CC990000FF99000000CC000033CC000066CC000099CC0000CCCC0000FFCC000000FF000033FF000066FF000099FF0000CCFF0000FFFF000000003300330033006600330099003300CC003300FF003300003333003333
310
33006633330099333300CC333300FF33330000663300336633006666330099663300CC663300FF66330000993300339933006699330099993300CC993300FF99330000CC330033CC330066CC330099CC3300CCCC3300FFCC330000FF330033FF330066FF330099FF3300CCFF3300FFFF330000006600330066006600660099
310
006600CC006600FF00660000336600333366006633660099336600CC336600FF33660000666600336666006666660099666600CC666600FF66660000996600339966006699660099996600CC996600FF99660000CC660033CC660066CC660099CC6600CCCC6600FFCC660000FF660033FF660066FF660099FF6600CCFF6600
310
FFFF660000009900330099006600990099009900CC009900FF00990000339900333399006633990099339900CC339900FF33990000669900336699006666990099669900CC669900FF66990000999900339999006699990099999900CC999900FF99990000CC990033CC990066CC990099CC9900CCCC9900FFCC990000FF99
310
0033FF990066FF990099FF9900CCFF9900FFFF99000000CC003300CC006600CC009900CC00CC00CC00FF00CC000033CC003333CC006633CC009933CC00CC33CC00FF33CC000066CC003366CC006666CC009966CC00CC66CC00FF66CC000099CC003399CC006699CC009999CC00CC99CC00FF99CC0000CCCC0033CCCC0066CC
310
CC0099CCCC00CCCCCC00FFCCCC0000FFCC0033FFCC0066FFCC0099FFCC00CCFFCC00FFFFCC000000FF003300FF006600FF009900FF00CC00FF00FF00FF000033FF003333FF006633FF009933FF00CC33FF00FF33FF000066FF003366FF006666FF009966FF00CC66FF00FF66FF000099FF003399FF006699FF009999FF00CC
310
99FF00FF99FF0000CCFF0033CCFF0066CCFF0099CCFF00CCCCFF00FFCCFF0000FFFF0033FFFF0066FFFF0099FFFF00CCFFFF00FFFFFF00000000000D0D0D001A1A1A00282828003535350043434300505050005D5D5D006B6B6B00787878008686860093939300A1A1A100AEAEAE00BBBBBB00C9C9C900D6D6D600E4E4E400
310
F1F1F100FFFFFF0000000000000000000000000000000000000000000000000000000000000000000000000000000000EFEFF5F5F5F5F5F5F5F5F5F5F5F5F5F5F5F5F5F5F5F5F5F5F5F5F5F5F5F5F5F5F5F5F5F5F5F5F5F5F5F5F5F5F5F5F5F5F5F5F5F5F5F5F5F5F5F5F5F5F5F5F5F5F5F5F5F5F5F5F5F5F5F5F5F5F5F5F5
310
F5F5F5F5F5F5F5F5F5F5F5F5F5F5F5F5F5F5F5F5F5F5F5F5F5F5F5F5F5F5F5F5F5F5F5F5F5F5F5F5F5F5F5F5F5F5F5F5F5F5F5F5F5F5F5F5F5F5F5F5F5F5F5F5F5F5F5F5F5F5F5F5F5F5F5F5F5F5F5F5F5F5F5F5F5F5F5F5F5F5F5F5F5F5F5F5F5F5F5F5F5F5F5F5F5F5F5F5F5F5F5F5F5F5F5F5F5F5F5F5F5F5F5F5F5F5F5
310
F5F5F5F5F5F5F5F5F5F5F5F5F5F5F5F5F5F5F5F5F5F5F5F5F5F5F5F5F5F5F5F5F5F5F5F5F5F5F5F5F5F5F5F5F5F5F5F5F5F5F5F5F5F5F5F5F5F5F5F5F5F5F5F5F5F5F5F5F5F5F5F5F5F5F5F5F5F5F5F5F5F5F5F5F5F5F5F5F5F5F5F5F5F5F5F5F5F5F5F5F5F5F5F5F5F5F5F5F5F5F5F5F5F5F5F5F5F5F5F5F5F5F5F5F5F5F5
310
F5F5F5F5F5F5F5F5F5F5F5F5F5F5F5F5F5F5F5F5F5F5F5F5F5F5F5F5E2E2E2E2E2E2E2E2E2E2E2E2E2E2E2E2E2E2E2E2E2E2E2E2E2E2E2E2E2E2E2E2E2E2E2E2E2E2E2E2E2E2E2E2E2E2E2E2E2E2E2E2E2E2E2E2E2E2E2E2E2E2E2E2E2E2E2E2E2E2E2E2E2E2E2E2E2E2E2E2E2E2E2E2E2E2E2E2E2E2E2E2E2E2E2E2E2E2E2
310
E2E2E2E2E2E2E2E2E2E2E2E2E2E2E2E2E2E2E2E2E2E2E2E2E2E2E2E2E2E2E2E2E2E2E2E2E2E2E2E2E2E2E2E2E2E2E2E2E2E2E2E2E2E2E2E2E2E2E2E2E2E2E2E2E2E2E2E2E2E2E2E2E2E2E2E2E2E2F5F5F5E2F5F5F5F5F5F5F5F5E2E2E2E2E2E2E2E2E2F5F5F5F5F5F5F5F5F5F5F5F5F5F5F5F5E2E2E2E2E2E2E2E2E2F5F5F5
310
F5F5F5F5F5F5F5F5F5F5F5F5F5E2E2E2E2E2E2E2E2E2F5F5F5F5F5F5F5F5F5F5F5F5F5F5F5F5E2E2E2E2E2E2E2E2E2F5F5F5F5F5F5F5F5F5F5F5F5F5F5F5F5E2E2E2E2E2E2E2E2E2F5F5F5F5F5F5F5F5F5F5F5F5F5F5F5F5E2E2E2E2E2E2E2E2E2F5F5F5F5F5F5F5F5F5F5F5F5F5F5F5F5E2E2E2E2E2E2E2E2E2F5F5F5F5F5
310
F5F5F5E2F5F5F5E2F5E2E2E2E2E2E2E2E2E2E2E2E2E2E2E2E2E2E2E2E2E2E2E2E2E2E2E2E2E2E2E2E2E2E2E2E2E2E2E2E2E2E2E2E2E2E2E2E2E2E2E2E2E2E2E2E2E2E2E2E2E2E2E2E2E2E2E2E2E2E2E2E2E2E2E2E2E2E2E2E2E2E2E2E2E2E2E2E2E2E2E2E2E2E2E2E2E2E2E2E2E2E2E2E2E2E2E2E2E2E2E2E2E2E2E2E2E2E2
310
E2E2E2E2E2E2E2E2E2E2E2E2E2E2E2E2E2E2E2E2E2E2E2E2E2E2E2E2E2E2E2E2E2E2E2E2E2E2E2E2E2E2E2E2E2E2E2E2E2E2E2E2E2E2E2F5E2F5F5F5E2F5E2E2BEBEBEBEBEBEBEBEBEBEBEBEBEBEBEBEBEBEBEBEBEBEBEBEBEBEBEBEBEBEBEBEBEBEBEBEBEBEBEBEBEBEBEBEBEBEBEBEBEBEBEBEBEBEBEBEBEBEBEBEBEBEBE
310
BEBEBEBEBEBEBEBEBEBEBEBEBEBEBEBEBEBEBEBEBEBEBEBEBEBEBEBEBEBEBEBEBEBEBEBEBEBEBEBEBEBEBEBEBEBEBEBEBEBEBEBEBEBEBEBEBEBEBEBEBEBEBEBEBEBEBEBEBEBEBEBEBEBEBEBEBEBEBEBEBEBEBEBEBEBEBEBEBEBEBEBEBEBEBEBEBEBEBEBEBEBEBEBEBEBEE2E2F5E2F5F5F5E2F5E2E2BEE2C3C3C3E2C3E2C3C3
310
C3C3C3C3C3C3C3C3C3C3E2E2E2E2E2E2E2E2E2E2C3E2C3C3C3C3C3E2E2E2E2E2E2C3C3C3C3C3E2E2E2C3E2E2E2E2E2E2E2E2E2E2C3C3E2C3C3E2C3C3C3C3C3C3C3C3C3C3E2E2E2E2E2E2C3C3C3C3C3C3E2E2C3C3C3C3C3E2E2C3C3C3C3C3C3C3C3C3C3C3E2E2E2C3E2E2C3C3C3C3C3E2E2C3E2E2E2E2E2E2E2E2E2C3C3C3E2
310
C3C3E2C3C3C3C3C3C3C3C3C3C3E2E2E2E2E2E2E2E2E2E2E2E2E2E2E2E2E2E2BEE2E2F5E2F5F5F5E2F5E2E2BEE2C3C3C3C3C3E2C3C3C3C3C3C3C3C3C3C3C3C3E2E2E2E2E2E2E2E2E2E2C3E2C3C3C3C3C3E2E2E2E2E2E2C3C3C3C3C3C3E2E2C3E2E2E2E2E2E2E2E2E2E2C3C3C3C3C3E2C3C3C3C3C3C3C3C3C3C3C3E2E2E2E2E2
310
C3C3C3C3C3C3E2E2C3C3C3C3C3E2E2C3C3C3C3C3C3C3C3C3C3E2E2E2E2C3E2E2C3C3C3C3E2E2E2C3E2E2E2E2E2E2E2E2E2C3C3C3C3C3C3E2C3C3C3C3C3C3C3C3C3C3E2E2E2E2E2E2E2E2E2E2E2E2E2E2E2E2E2E2BEE2E2F5E2F5F5F5E2F5E2E2BEE2C3C3C3C3C3E2C3C3C3C3C3C3C3C3C3C3C3C3E2E2E2E2E2E2E2E2E2E2C3
310
E2C3C3C3C3C3E2E2E2E2E2E2C3C3C3C3C3C3E2E2C3E2E2E2E2E2E2E2E2E2E2C3C3E2C3C3E2C3C3C3C3C3C3C3C3C3C3C3E2E2E2E2E2C3C3C3C3E2E2E2E2C3C3C3C3C3E2E2C3C3C3C3C3C3C3C3C3C3C3E2E2E2C3E2E2C3C3C3C3C3E2E2C3E2E2E2E2E2E2E2E2E2C3C3C3E2C3C3C3C3C3C3C3C3C3C3C3C3C3E2E2E2E2E2E2E2E2
310
E2E2E2E2E2E2E2E2E2E2BEE2E2F5E2F5F5F5E2F5E2E2BEC3C3C3C3C3C3C3C3C3C3C3C3C3C3C3C3C3C3C3C3C3C3C3C3C3C3C3C3C3C3C3C3C3C3C3C3C3C3C3C3C3C3C3C3C3C3C3C3C3C3C3E2E2E2E2E2E2E2E2E2E2C3C3C3C3C3E2C3C3C3C3C3C3C3C3C3C3E2E2E2E2E2E2C3C3C3C3E2E2E2E2C3C3C3C3C3C3C3C3C3C3C3C3C3
310
C3C3C3C3C3C3C3C3C3C3C3C3C3C3C3C3C3C3C3E2E2E2E2E2E2E2E2E2E2C3C3C3C3C3E2C3C3E2C3C3E2C3C3E2C3E2E2E2E2E2E2E2E2E2E2E2E2E2E2E2E2E2E2BEE2E2F5E2F5F5F5E2F5E2E2BEE2E2E2E2E2C3E2E2E2E2E2E2E2E2E2E2E2E2E2E2E2E2E2E2E2E2E2E2E2C3E2E2E2E2E2E2E2E2E2E2E2E2C3E2E2E2E2E2E2E2C3
310
E2E2E2E2E2E2E2E2E2E2E2E2E2E2E2E2E2E2E2E2E2E2E2E2E2E2E2E2E2E2E2E2C3C3C3C3E2E2E2E2C3C3C3C3C3E2C3C3C3C3E2C3E2C3C3C3C3C3C3E2E2C3C3C3C3C3C3C3C3E2E2C3C3C3C3C3C3C3C3E2E2E2E2E2E2E2E2E2E2E2E2E2E2E2E2E2E2E2E2E2E2E2E2E2E2E2E2E2E2E2E2E2E2E2E2E2BEE2E2F5E2F5F5F5E2E2E2
310
E2BEE2E2E2E2E2C3E2E2E2E2E2E2E2E2E2E2E2E2E2E2E2E2E2E2E2E2E2E2E2C3E2E2E2E2E2E2E2E2E2E2E2E2C3E2E2E2E2E2E2E2C3E2E2E2E2E2E2E2E2E2E2E2E2E2E2E2E2E2E2E2E2E2E2E2E2E2E2E2E2E2E2E2E2C3C3C3C3E2E2E2E2C3C3C3C3C3E2C3C3C3C3E2C3E2E2C3E2C3C3C3E2E2C3C3C3C3C3C3C3C3E2E2C3C3C3
310
C3C3C3C3C3E2E2E2E2E2E2E2E2E2E2E2E2E2E2E2E2E2E2E2E2E2E2E2E2E2E2E2E2E2E2E2E2E2E2E2E2E2BEE2E2E2E2F5F5F5E2E2E2E2BEC3C3C3C3C3C3C3C3C3C3C3C3C3C3C3C3C3C3C3C3C3C3C3C3C3C3C3C3C3C3C3C3C3C3C3C3C3C3C3C3C3C3C3C3C3C3C3C3C3C3C3E2E2E2E2E2E2E2E2E2E2E2E2E2E2E2E2E2E2E2E2E2
310
E2E2E2E2E2E2E2E2E2E2E2C3C3C3E2E2E2E2E2C3C3C3C3C3C3C3C3C3C3C3C3C3C3C3C3C3C3C3C3C3C3C3C3C3C3C3C3C3C3C3C3C3C3C3C3C3C3C3C3C3C3C3C3C3C3C3C3C3C3C3C3C3C3C3C3C3C3C3C3C3C3C3C3C3C3C3C3C3C3C3C3C3C3C3C3BEE2E2E2E2F5F5F5E2E2E2E2BEE2E2E2E2E2C3E2E2E2E2E2E2E2E2E2E2E2E2E2
310
E2E2E2E2E2E2E2E2E2E2C3E2E2E2E2E2E2E2E2E2E2E2E2C3E2E2E2E2E2E2E2C3E2E2E2E2E2E2E2E2E2E2E2E2E2E2E2E2E2E2E2E2E2E2E2E2E2E2E2E2E2E2E2E2C3C3C3E2E2E2E2E2C3C3C3C3C3C3C3C3C3C3C3C3E2E2E2E2E2E2E2E2E2C3E2E2E2E2E2E2E2E2E2C3E2E2E2E2E2E2E2E2E2E2E2E2E2E2E2E2E2E2E2E2E2E2E2
310
E2E2E2E2E2E2E2E2E2E2E2E2E2E2E2E2E2E2E2E2E2BEE2E2E2E2F5F5F5E2E2E2E2BEE2E2E2E2E2C3E2E2E2E2E2E2E2E2E2E2E2E2E2E2E2E2E2E2E2E2E2E2E2C3E2E2E2E2E2E2E2E2E2E2E2E2C3E2E2E2E2E2E2E2C3E2E2E2E2E2E2E2E2E2E2E2E2E2E2E2E2E2E2E2E2E2E2E2E2E2E2E2E2E2E2E2E2C3C3C3C3C3C3C3C3C3C3
310
C3C3C3C3C3C3C3C3C3C3C3C3C3C3C3C3C3C3C3C3C3C3C3C3C3C3C3C3C3C3E2E2C3C3C3C3C3C3C3E2C3C3C3C3C3C3C3E2C3C3C3C3C3C3E2C3C3C3C3E2E2E2E2E2E2E2E2E2E2E2E2E2E2E2BEE2E2E2E2F5F5F5E2E2E2E2BEC3C3C3C3C3C3C3C3C3C3C3C3C3C3C3C3C3C3C3C3C3C3C3C3C3C3C3C3C3C3C3C3C3C3C3C3C3C3C3C3
310
C3C3C3C3C3C3C3C3C3C3C3E2C3C3C3C3C3C3C3C3C3C3E2E2E2E2E2E2E2E2E2E2E2E2E2E2E2E2E2E2E2E2E2C3E2C3C3C3C3C3E2C3C3C3C3C3E2C3C3C3C3C3C3E2C3C3C3C3C3C3C3C3C3C3C3C3C3C3C3E2E2E2C3E2E2C3C3E2C3C3C3C3C3C3C3C3C3C3C3C3E2E2C3C3C3C3E2C3C3C3C3C3E2E2E2E2E2E2E2E2E2E2E2E2E2E2E2
310
BEE2E2E2E2F5F5F5E2E2E2E2BEE2E2E2E2E2C3E2E2E2E2E2E2E2E2E2E2E2E2E2E2E2E2E2E2E2E2E2E2E2C3E2E2E2E2E2E2E2E2E2E2E2E2C3E2E2E2E2E2E2E2C3E2C3C3C3C3C3C3C3C3C3C3E2E2E2E2E2E2E2E2E2E2E2E2E2E2E2E2E2E2E2E2E2C3E2C3C3C3C3C3E2C3C3C3C3C3E2C3C3C3C3C3C3E2C3C3E2C3C3C3C3E2C3C3
310
C3C3C3C3C3C3E2E2C3E2E2C3C3C3C3C3C3C3C3C3C3C3C3C3C3C3E2E2C3C3C3C3C3C3C3C3C3C3E2E2E2E2E2E2E2E2E2E2E2E2E2E2E2BEE2E2E2E2F5F5F5E2E2E2E2BEE2E2E2E2E2C3E2E2E2E2E2E2E2E2E2E2E2E2E2E2E2E2E2E2E2E2E2E2E2C3E2E2E2E2E2E2E2E2E2E2E2E2C3E2E2E2E2E2E2E2C3E2C3C3C3C3C3C3C3C3C3
310
E2E2E2E2E2E2E2E2E2E2E2E2E2E2E2E2E2E2E2E2E2E2C3E2C3C3C3C3C3E2C3C3C3C3C3E2C3C3C3C3C3C3E2C3C3E2C3C3C3E2E2C3C3C3C3C3C3C3C3E2E2C3E2E2E2E2E2E2E2E2E2E2E2E2E2E2E2E2E2E2E2E2E2E2E2E2E2E2E2E2E2E2E2E2E2E2E2E2E2E2E2E2E2E2E2E2BEE2E2E2E2F5F5F5E2E2E2E2BEBEBEBEBEBEBEBEBE
310
BEBEBEBEBEBEBEBEBEBEBEBEBEBEBEBEC3BEBEBEBEBEBEBEBEBEBEBEBEBEC3BEBEBEBEBEBEBEBEBEBEBEBEBEBEBEBEBEBEBEBEBEBEBEBEBEBEBEBEBEBEBEBEBEBEBEBEBEBEBEC3C3BEBEBEBEBEC3C3C3BEBEBEBEBEBEC3C3BEBEBEBEBEBEBEBEBEBEBEBEBEBEBEBEBEBEBEBEBEBEBEBEBEBEBEBEBEBEBEBEBEBEBEBEBEBEBE
310
BEBEBEBEBEBEBEBEBEBEBEBEBEBEBEBEBEBEBEBEBEBEBEBEBEBEBEBEBEBEBEBEBEE2E2E2E2F5F5F5E2E2E2E2BEC3C3C3C3C3C3C3C3C3C3C3C3C3C3E2C3C3C3C3C3C3C3C3C3C3C3C3C3C3C3C3C3C3C3C3C3C3C3C3C3E2E2E2E2E2E2E2E2E2E2E2E2E2E2E2E2E2E2E2E2E2E2E2E2E2BEC3C3C3C3C3C3C3C3C3C3C3E2C3C3C3E2
310
BEE2E2C3C3C3E2E2E2BEE2C3C3C3E2E2E2E2BEE2E2E2E2E2E2E2E2E2E2E2E2E2E2E2E2E2E2E2E2E2E2E2E2E2E2E2E2E2E2E2E2E2E2E2E2E2E2E2E2E2E2E2E2E2E2E2E2E2E2E2E2E2E2E2C3C3C3E2E2E2E2E2E2E2E2BEE2E2E2E2F5F5F5E2F5E2E2BEC3C3C3C3C3C3C3C3C3C3C3C3C3C3C3C3C3C3C3C3C3C3C3C3C3C3C3C3C3
310
C3C3C3C3C3C3C3C3C3C3C3E2E2E2E2E2E2E2E2E2E2E2E2E2E2E2E2E2E2E2E2E2E2E2E2E2BEC3C3C3C3C3C3C3C3C3C3C3E2C3C3C3E2BEE2E2C3C3C3E2E2E2BEE2E2C3C3E2E2E2E2BEE2E2E2C3C3C3C3C3C3C3C3C3C3C3C3C3C3C3C3C3C3C3C3C3C3C3C3C3C3C3C3C3C3C3C3E2E2E2E2E2E2E2E2E2E2E2E2E2E2E2E2E2E2E2E2
310
C3C3C3E2C3C3C3E2E2E2E2BEE2E2F5E2F5F5F5E2F5E2E2BEBEBEBEBEBEBEBEBEBEBEBEBEBEBEBEBEBEBEBEBEBEBEBEBEBEBEBEBEBEBEBEBEBEBEBEBEBEBEBEBEBEBEBEBEBEBEBEBEBEBEBEBEBEBEBEBEBEBEBEBEBEBEBEBEBEBEBEBEBEBEBEBEBEBEBEBEC3BEBEC3BEBEBEBEC3C3C3C3BEBEBEBEBEC3C3C3C3BEBEBEBEE2E2
310
E2C3E2C3E2C3E2C3C3E2C3E2C3C3E2C3E2C3C3E2C3E2C3C3C3C3C3C3C3E2E2E2C3E2E2E2E2E2E2E2E2E2E2E2E2E2E2E2E2C3C3C3E2C3C3C3E2C3C3C3E2E2E2E2BEE2E2F5E2F5F5F5E2F5E2E2BEC3C3C3C3C3C3C3C3C3C3C3C3C3C3C3C3C3C3C3C3E2C3C3C3C3E2C3C3C3C3C3C3C3C3C3C3C3C3C3C3C3C3C3C3C3C3C3C3C3C3
310
C3C3C3C3C3C3C3C3C3C3C3C3C3C3E2BEC3C3C3C3C3C3C3C3C3E2C3C3C3C3C3E2BEE2C3C3C3C3E2E2E2BEE2C3C3C3C3E2E2E2BEE2E2E2C3E2C3E2C3E2E2C3E2C3E2E2E2E2C3E2E2E2E2C3E2C3E2C3C3C3C3C3E2E2E2C3E2E2E2E2E2E2E2E2E2E2E2E2E2E2E2E2C3C3C3E2C3C3C3E2C3E2E2E2E2E2E2BEE2E2F5E2F5F5F5E2F5
310
E2E2BEC3C3C3C3C3C3C3C3C3C3C3C3C3C3C3C3C3C3C3C3E2C3C3C3C3E2C3C3E2C3C3C3C3C3C3C3C3C3C3C3C3C3C3C3C3C3C3C3E2C3C3C3C3C3C3C3C3C3C3C3C3C3C3C3E2BEC3C3C3C3C3C3C3C3C3C3C3C3C3C3C3E2BEE2C3C3C3C3E2E2E2BEE2C3C3C3C3E2E2E2BEE2E2E2C3C3C3C3C3C3C3C3C3C3C3C3C3C3C3C3C3C3C3C3
310
C3C3C3C3E2C3E2C3E2C3E2C3E2E2E2E2E2E2E2E2E2E2E2E2E2E2E2E2C3C3C3E2C3C3C3E2C3C3C3E2E2E2E2BEE2E2F5E2F5F5F5E2F5E2E2BEBEBEBEBEBEBEBEBEBEBEBEBEBEBEBEBEBEBEBEBEBEBEBEBEBEBEBEBEBEBEBEBEBEBEBEBEBEBEBEBEBEBEBEBEBEBEBEBEBEBEBEBEBEBEBEBEBEBEBEBEBEBEBEBEBEBEBEBEBEBEBE
310
BEBEBEBEBEBEBEBEBEBEBEBEBEBEC3C3C3C3C3BEBEBEC3C3C3C3C3C3BEBEE2E2E2C3E2C3E2C3E2C3C3E2C3E2C3C3E2C3E2C3C3E2C3E2C3C3C3E2C3C3C3E2C3E2C3E2E2E2E2E2E2E2E2E2E2E2E2E2E2E2E2C3C3C3E2C3C3C3E2C3C3C3E2E2E2E2BEE2E2F5E2F5F5F5E2F5E2E2BEC3C3C3C3C3C3C3C3C3C3C3C3C3C3C3C3C3C3
310
C3C3C3C3C3C3C3C3C3E2E2E2E2E2E2E2E2E2E2E2E2E2E2E2E2E2E2E2E2E2E2E2E2E2E2E2E2E2E2E2E2E2E2E2E2E2E2BEE2E2E2E2E2E2E2E2BEBEBEBEBEBEE2E2BEE2E2C3C3C3C3E2E2BEE2C3C3C3C3C3E2E2BEE2E2E2C3E2C3E2C3E2E2E2E2C3E2E2E2E2C3E2C3E2E2C3E2C3E2C3E2C3C3C3E2C3E2C3E2E2E2E2E2E2E2E2E2
310
E2E2E2E2E2E2E2C3C3C3E2C3C3C3E2C3C3C3E2E2E2E2BEE2E2F5E2F5F5F5E2F5E2E2BEC3C3C3C3C3C3C3C3C3C3C3C3C3C3C3C3C3C3C3C3C3C3C3C3C3C3C3E2E2E2E2E2E2E2E2E2E2E2E2E2E2E2E2E2E2E2E2E2E2E2E2E2E2E2E2E2E2E2E2E2E2E2E2E2E2BEE2E2BEBEBEBEBEBEE2E2E2E2E2E2E2E2BEE2E2C3C3C3C3E2E2BE
310
E2C3C3C3C3C3E2E2BEE2E2E2C3C3C3C3C3C3C3C3C3C3C3C3C3C3C3C3C3C3C3C3C3C3C3C3E2C3E2C3E2C3E2C3E2E2E2E2E2E2E2E2E2E2E2E2E2E2E2E2C3C3C3E2C3C3E2E2E2C3C3E2E2E2E2BEE2E2F5E2F5F5F5E2F5E2E2BEBEBEBEBEBEBEBEBEBEBEBEBEBEBEBEBEBEBEBEBEBEBEBEBEBEBEBEBEBEBEBEBEBEBEBEBEBEBEBE
310
BEBEBEBEBEBEBEBEBEBEBEBEBEBEBEBEBEBEBEBEBEBEBEBEBEBEBEBEBEBEBEBEBEBEBEBEBEBEBEBEBEBEBEBEBEBEBEBEBEBEBEBEBEBEBEBEBEBEBEBEBEBEE2E2E2C3E2C3E2C3E2C3C3E2C3E2C3C3E2C3E2C3C3E2C3E2C3C3C3E2C3E2C3E2C3E2C3E2E2E2E2E2E2E2E2E2E2E2E2E2E2E2E2E2C3E2E2E2C3E2E2E2C3E2E2E2E2
310
E2BEE2E2F5E2F5F5F5E2F5E2E2BEC3C3C3C3C3C3C3C3C3C3C3C3C3C3C3C3C3C3C3C3C3C3C3C3C3C3C3C3C3C3C3C3C3C3C3C3C3C3C3C3C3E2C3C3C3C3C3C3C3C3C3C3C3C3C3C3E2C3C3C3C3C3C3C3C3BEC3C3C3C3C3C3C3C3C3C3C3C3C3E2C3C3BEE2C3C3E2BEC3C3C3BEE2C3C3E2BEC3C3C3BEE2E2E2C3C3C3C3C3C3C3C3C3
310
C3C3C3C3C3C3C3C3C3C3C3C3C3C3C3E2C3E2C3E2C3E2C3E2E2E2E2E2E2E2E2E2E2E2E2E2E2E2E2E2C3E2E2E2C3E2E2E2C3E2E2E2E2E2BEE2E2F5E2F5F5F5E2F5E2E2BEC3C3C3C3C3C3C3C3C3C3C3C3C3C3C3C3C3C3C3C3C3C3E2C3C3C3C3C3C3C3C3C3C3C3C3C3C3C3C3C3C3E2C3C3C3C3C3C3C3C3C3C3C3C3C3C3E2C3C3C3
310
C3C3C3C3E2BEC3C3C3C3E2C3C3C3C3C3C3C3C3E2C3C3BEE2C3C3E2BEC3C3C3BEE2C3C3E2BEC3C3C3BEE2E2E2C3E2C3E2C3E2E2C3E2C3E2E2C3E2C3E2E2E2E2C3E2E2E2C3E2C3E2C3E2C3E2C3E2E2E2E2E2E2E2E2E2E2E2E2E2E2E2E2E2C3E2E2E2C3E2E2E2C3E2E2E2E2E2BEE2E2F5E2F5F5F5E2F5E2E2BEBEBEBEBEBEBEBE
310
BEBEBEBEBEBEBEBEBEBEBEBEBEBEBEBEBEBEBEBEBEBEBEBEBEBEBEBEBEBEBEBEBEBEBEBEBEBEBEBEBEBEBEBEBEBEBEBEBEBEBEBEBEBEBEBEBEBEBEBEBEBEBEBEBEBEBEBEBEBEBEBEBEBEBEBEBEBEBEBEBEBEBEBEBEBEBEBEBEBEBEBEBEBEE2E2E2C3E2C3E2C3E2C3C3E2C3E2C3C3E2C3E2C3C3E2C3E2C3C3C3E2C3E2C3E2C3
310
E2C3E2E2E2E2E2C3E2C3E2E2E2E2E2E2E2E2E2C3C3C3C3C3C3C3C3C3E2E2E2E2E2BEE2E2F5E2F5F5F5E2F5E2E2BEC3C3C3C3C3C3C3C3C3C3C3C3C3C3C3C3C3C3E2C3C3C3C3C3C3C3C3C3E2C3C3C3C3E2C3E2C3C3C3C3C3E2E2E2E2E2E2E2E2E2E2E2E2E2E2E2E2E2E2E2E2E2E2E2E2BEC3C3C3C3C3C3C3C3C3E2C3C3C3C3C3
310
E2BEE2E2C3E2BEE2C3C3BEE2C3C3E2BEC3C3C3BEE2E2E2C3C3C3C3C3C3C3C3C3C3C3C3C3C3C3C3C3C3C3C3C3C3C3C3E2C3E2C3E2C3E2C3E2E2E2E2C3C3C3C3C3C3C3E2C3C3C3C3E2E2E2E2E2E2E2E2E2E2E2E2E2E2E2BEE2E2F5E2F5F5F5E2F5E2E2BEC3C3C3C3C3C3C3C3C3C3C3C3C3C3C3C3C3C3E2E2C3C3C3E2C3C3C3C3
310
E2C3C3C3C3E2E2E2C3C3C3C3C3E2E2E2E2E2E2E2E2E2E2E2E2E2E2E2E2E2E2E2E2E2E2E2E2BEC3C3C3C3C3C3C3C3C3E2C3C3C3C3C3E2BEE2E2C3E2BEC3C3C3BEE2C3C3E2BEC3C3C3BEE2E2E2C3C3C3C3C3E2C3C3E2C3E2C3C3E2C3C3C3C3E2C3C3C3C3C3E2E2E2C3C3C3C3C3E2E2E2E2E2C3C3C3C3C3C3E2C3E2E2C3E2E2E2
310
C3C3C3C3C3E2E2E2E2E2E2E2BEE2E2F5E2F5F5F5E2F5E2E2BEBEBEBEBEBEBEBEBEBEBEBEBEBEBEBEBEBEBEBEBEBEBEBEBEBEBEBEBEBEBEBEBEBEBEBEBEBEBEBEBEBEBEBEBEBEBEBEBEBEBEBEBEBEBEBEBEBEBEBEBEBEBEBEBEBEBEBEBEBEBEBEBEBEBEBEBEBEBEBEBEBEBEBEBEBEBEBEC3C3C3C3BEBEBEBEBEBEBEBEBEBEE2
310
E2E2C3C3C3C3C3E2E2C3E2C3E2C3C3E2C3E2C3C3E2C3C3C3C3C3E2E2E2C3C3C3C3C3E2E2E2E2E2E2E2E2E2E2E2E2E2E2E2C3E2E2E2C3E2E2E2E2C3E2E2E2E2E2E2BEE2E2F5E2F5F5F5E2F5E2E2BEC3C3C3C3C3C3C3C3C3C3C3E2C3C3C3C3C3C3C3C3C3C3C3C3C3C3C3C3C3C3E2C3C3C3C3C3C3C3C3C3E2C3C3C3C3C3C3C3C3
310
C3C3C3C3C3C3C3C3C3C3C3C3C3E2E2E2BEC3C3C3C3C3C3C3C3C3C3C3C3E2C3C3C3BEE2E2E2E2C3C3C3C3C3E2E2E2E2E2E2E2E2BEE2E2E2C3C3C3C3C3C3C3C3C3C3C3C3C3C3C3C3C3C3C3C3C3C3C3C3C3C3C3C3C3C3C3C3E2E2E2E2C3E2E2C3E2E2E2E2E2E2E2C3E2E2C3E2E2E2E2E2C3E2E2E2E2E2E2BEE2E2F5E2F5F5F5E2
310
E2E2E2BEC3C3C3C3C3C3C3C3C3C3C3E2C3C3C3C3C3C3C3C3C3C3C3C3C3C3C3C3C3C3E2C3C3C3C3C3C3C3C3C3E2C3C3C3C3C3C3C3C3C3C3C3C3C3C3C3C3C3C3C3C3E2E2E2E2BEC3C3C3E2C3C3C3C3C3C3C3C3E2C3C3C3BEE2E2E2E2C3C3E2C3C3E2E2E2E2E2E2E2E2BEE2E2E2C3C3C3C3C3E2C3C3C3C3C3C3E2C3C3C3C3C3C3
310
C3C3C3E2C3C3C3C3E2C3C3C3E2E2E2E2C3C3C3C3C3C3C3C3E2C3E2E2C3E2C3E2E2E2E2E2E2E2C3E2E2E2E2E2BEE2E2E2E2F5F5F5E2E2E2E2BEBEBEBEBEBEBEBEBEBEBEBEBEBEBEBEBEBEBEBEBEBEBEBEBEBEBEBEBEBEBEBEBEBEBEBEBEBEBEBEBEBEBEBEBEC3C3BEBEC3BEBEBEBEBEBEBEBEBEBEBEBEBEBEBEBEBEBEBEBEBE
310
BEBEBEBEBEBEBEBEBEBEBEBEBEBEBEBEBEBEBEBEBEBEBEBEBEBEBEBEBEBEBEE2E2E2C3C3C3C3C3E2C3C3C3C3C3C3E2C3C3C3C3C3C3C3C3C3E2C3C3C3C3E2C3C3C3E2E2E2E2C3C3C3C3C3C3C3C3E2C3C3C3C3E2E2C3E2E2E2E2E2E2C3E2E2E2E2E2BEE2E2E2E2F5F5F5E2E2E2E2BEC3C3C3C3C3C3C3C3C3C3E2C3C3C3E2E2E2
310
E2E2E2E2E2E2E2E2E2E2E2E2BEE2E2E2E2E2E2E2E2E2E2E2C3C3C3C3C3C3C3C3E2E2E2E2E2E2E2E2E2E2E2E2E2E2E2E2BEE2E2E2E2E2E2E2E2E2E2E2E2E2E2E2E2E2E2E2E2E2E2E2E2E2E2E2E2E2E2E2E2E2E2BEE2E2E2C3C3C3C3C3E2C3C3C3C3C3C3E2C3C3C3C3C3C3C3C3C3C3C3C3C3C3E2C3C3C3E2E2E2E2E2E2E2E2E2
310
E2E2E2E2E2E2E2C3E2E2C3E2E2E2E2E2C3E2E2E2E2E2E2BEE2E2E2E2F5F5F5E2E2E2E2BEC3C3C3C3C3C3C3C3C3C3E2C3C3C3E2E2E2E2E2E2E2E2E2E2E2E2E2E2E2BEE2E2E2E2E2E2E2E2E2E2E2C3C3C3C3C3E2C3C3E2E2E2E2E2E2E2E2E2E2E2E2E2E2E2E2BEE2E2E2E2E2E2E2E2E2E228282828282828E2E2E2E2E2E2E2E2
310
E2E2E2E2E2E2E2E2E2BEE2E2E2C3C3C3C3C3C3C3C3C3E2C3C3E2C3C3C3C3C3C3C3C3C3C3E2E2E2E2E2E2E2E2E2E2E2E2E2E2E2C3C3E2E2E2E2E2E2E2C3E2E2E2C3E2E2E2E2C3E2E2E2E2E2E2BEE2E2E2E2F5F5F5E2E2E2E2BEBEBEBEBEBEBEBEBEBEBEBEBEBEC3C3C3BEBEC3BEC3BEBEBEBEC3BEBEBEBEBEBEBEBEBEBEBEBE
310
BEBEBEBEBEBEBEBEBEBEC3BEBEBEBEBEBEBEC3BEBEBEBEBEBEBEBEBEE2E2E2E2E2E2E2E2E2E2282828C3E2E228E2E2E2E2E2E2E2E2E2E2E2E2E2E2E2E2E2BEE2E2E2C3C3C3C3E2C3C3C3C3C3C3C3E2C3C3C3C3C3C3E2C3C3E2E2E2E2E2E2E2E2E2E2E2E2E2E2E2E2C3C3C3C3C3E2C3E2E2C3E2E2E2C3C3C3C3C3E2E2E2E2E2
310
E2E2BEE2E2E2E2F5F5F5E2E2E2E2BEC3C3C3C3C3C3C3C3C3C3C3C3E2C3C3C3C3C3C3C3C3C3C3C3C3C3E2E2E2BEE2E2E2E2E2E2E2E2E2E2E2C3C3C3C3C3C3E2C3C3C3C3C3C3E2E2C3E2E2E2E2E2E2E2E2BEE2E2E2E2E2E2E2E2E2E228E2E2C3E2E228E2E2E2E2E2E2E2E2E2E2E2E2E2E2E2E2E2BEE2E2E2E2E2E2E2E2E2E2E2
310
E2E2E2E2E2E2E2E2E2E2E2E2E2E2E2E2E2E2E2E2E2E2E2E2E2E2E2E2E2E2C3C3C3C3C3E2C3C3C3C3E2E2E2E2E2E2E2E2E2E2E2E2E2E2E2BEE2E2E2E2F5F5F5E2E2E2E2BEC3C3C3C3C3C3C3C3C3C3C3C3E2C3C3C3C3C3C3C3C3C3E2C3C3C3E2E2E2BEE2E2E2E2E2E2E2E2E2E2E2C3C3C3C3C3C3C3C3C3C3C3C3C3C3C3C3E2E2
310
E2E2E2E2E2E2BEE2E2E2E2E2E2E2E2E2E228E2E2E2E2E2BEBEBEBEBEBEBEBEBEBEBEBEBEE2E2E2E2E2BEE2E2E2E2E2E2E2E2E2E2C3E2E2E2E2E2E2E2E2E2E2E2E2E2E2E2E2E2E2E2E2E2E2E2E2E2E2E2E2E2E2C3C3E2E2E2E2E2E2E2E2E2E2E2E2E2E2E2E2E2E2E2E2E2E2E2BEE2E2E2E2F5F5F5E2E2E2E2BEBEBEBEBEBEBE
310
BEBEBEBEBEBEBEBEBEBEBEBEBEBEBEBEBEBEBEBEBEBEBEBEBEBEBEBEBEBEBEBEBEBEBEBEBEBEBEBEC3C3BEBEBEBEBEBEBEBEBEBEBEBEBEBEBEBEBEBEE2E2E2E2E2E2E2E2E2E228E2E2E2E2E2BEE2E2E2E2E2E2E2E2E2E2E2BEE2E2E2E2E2BEE2E2E2E2E2C3C3E2C3C3C3C3C3C3C3C3C3C3C3C3C3C3C3C3C3C3C3C3C3C3C3E2
310
E2E2E2E2E2E2E2E2E2E2E2E2E2E2E2E2E2C3C3C3C3C3E2C3C3C3C3C3C3C3E2E2E2E2BEE2E2E2E2F5F5F5E2E2E2E2BEC3C3C3C3E2C3C3C3C3C3C3C3C3C3C3C3C3C3C3C3C3C3C3C3C3E2E2E2E2BEE2E2E2E2E2E2E2E2E2E2E2C3C3C3C3E2E2E2E2E2E2E2E2E2E2E2E2E2E2E2E2E2E2E2E2BEE2E2E2E2E2E2E2E2E2E228E2E2E2
310
E2E2BEE2E2E2E2E2E2E2E2E2E2E2BEE2E2E2E2E2BEE2E2E2E2C3C3C3C3E2C3C3C3C3C3C3E2C3C3E2E2E2E2E2E2E2E2E2E2E2E2C3E2E2E2E2E2E2E2E2E2E2E2E2E2E2E2E2E2C3C3C3C3C3C3E2C3C3C3C3C3C3C3E2E2E2E2BEE2E2E2E2F5F5F5E2F5E2E2BEC3C3C3C3E2C3C3C3C3C3C3C3C3E2C3C3C3C3E2C3C3C3C3C3C3E2E2
310
E2E2BEE2E2E2E2E2E2E2E2E2E2E2C3C3C3C3E2E2E2E2E2E2E2E2E2E2E2E2E2E2E2E2E2E2E2E2BEE2E2E2E2E2E2E2E2E2E228E2E2E2E2BEBEE2E2E2E2E2E2E2E2E2E2E2BEE2E2E2E2E2BEE2E2E2E2E2C3C3E2C3C3C3C3C3C3C3E2E2C3E2E2E2E2E2E2E2E2E2E2E2E2C3E2E2E2E2E2E2E2E2E2E2E2E2E2E2E2E2E2E2E2E2E2E2
310
E2E2E2E2E2E2E2E2E2E2E2E2E2BEE2E2F5E2F5F5F5E2F5E2E2BEBEBEBEBEBEBEBEBEBEBEBEBEBEBEBEBEBEBEBEBEBEBEBEBEBEBEBEBEBEBEBEBEBEBEBEBEBEBEBEBEBEBEBEBEBEBEBEBEBEBEBEBEBEBEBEBEBEBEBEBEBEBEBEBEBEBEE2E2E2E2E2E2E2E2E2E228E2E2E2E2BEBEE2E2E2E2E2E2E2E2E2E2E2BEE2E2E2E2E2BE
310
E2E2E2E2C3C3C3C3E2C3C3C3C3C3C3C3C3C3C3C3C3C3C3E2E2E2E2E2E2E2C3E2E2E2E2E2E2E2E2E2E2E2E2E2E2E2E2E2E2E2E2E2E2E2E2E2E2E2E2E2E2E2E2E2E2E2BEE2E2F5E2F5F5F5E2F5E2E2BEC3C3C3C3E2C3C3C3C3C3C3E2C3E2E2E2E2E2E2E2E2E2E2E2E2E2E2E2E2BEE2E2E2E2E2E2E2E2E2E2E2C3C3C3E2E2E2E2
310
E2E2E2E2E2E2E2E2E2E2E2E2E2E2E2E2E2BEE2E2E2E2E2E2E2E2E2E228E2E2E2E2BEBEE2E2E2E2E2E2E2E2E2E2E2BEE2E2E2E2E2BEE2E2E2E2E2C3E2E2C3E2E2E2E2E2C3E2E2E2E2E2E2E2C3E2E2E2E2E2E2E2C3E2E2E2E2E2E2E2E2E2E2E2E2E2E2E2E2E2E2E2E2E2E2E2E2E2E2E2E2E2E2E2E2E2E2E2BEE2E2F5E2F5F5F5
310
E2F5E2E2BEC3C3C3C3E2C3C3C3C3C3C3C3C3E2E2E2E2E2E2E2E2E2E2E2E2E2E2E2E2BEE2E2E2E2E2E2E2E2E2E2E2C3C3C3E2E2E2E2E2E2E2E2E2E2E2E2E2E2E2E2E2E2E2E2E2BEE2E2E2E2E2E2E2E2E2E228E2E2E2E2BEBEBEBEE2E2E2E2E2E2BEBEBEBEE2E2E2E2E2BEE2E2E2E2E2E2E2E2E2E2C3C3C3C3C3C3C3C3C3C3C3
310
C3C3C3C3C3C3C3C3C3C3C3C3C3C3C3C3C3C3C3C3C3C3C3C3C3C3C3C3C3C3C3C3C3C3C3C3C3C3C3C3C3E2E2E2E2BEE2E2F5E2F5F5F5E2F5E2E2BEBEBEBEBEBEBEBEBEBEBEBEBEBEBEBEBEBEBEBEBEBEBEBEBEBEBEBEBEBEBEBEBEBEBEBEBEBEBEBEBEBEBEBEBEBEBEBEBEC3BEBEBEBEBEBEBEBEC3C3BEBEBEBEBEBEBEE2E2E2
310
E2E2E2E2E2E2E228E2E2E2E2BEBEE2BEE2E2E2E2E2E2BEE2BEBEE2E2E2E2E2BEE2E2E2E2E2E2E2E2E2E2C3C3E2C3E2C3C3C3C3E2E2E2E2E2E2E2C3C3E2C3C3C3C3C3E2E2E2C3C3E2E2E2C3E2C3C3E2E2E2E2E2C3C3C3C3C3C3C3C3E2E2C3E2E2E2E2BEE2E2F5E2F5F5F5E2F5E2E2BEC3C3C3C3C3C3E2C3C3C3C3C3C3C3C3C3
310
C3C3C3C3C3C3C3C3E2E2E2E2E2BEE2E2E2E2E2E2E2E2E2E2E2C3C3C3C3C3E2E2C3C3C3C3C3C3C3C3E2E2C3E2E2E2E2E2E2BEE2E2E2E2E2E2E2E2E2BEBEBEBEBEBEBEBEBEBEE2E2E2E2E2E2BEBEBEBEBEBEBEBEBEBEE2E2E2E2E2E2E2E2E2E2C3C3C3E2E2E2E2E2C3E2E2E2E2E2E2E2C3C3C3E2E2E2E2C3C3C3C3C3C3C3C3C3
310
C3C3C3C3C3C3C3C3C3C3C3C3E2E2E2E2C3C3E2C3E2E2E2E2BEE2E2F5E2F5F5F5E2F5E2E2BEC3C3C3C3C3C3C3C3C3C3C3C3C3C3C3C3C3C3C3C3C3C3C3C3E2E2E2E2E2BEE2E2E2E2E2E2E2E2E2E2E2C3C3C3C3C3C3C3C3C3C3C3C3C3C3C3C3C3C3E2E2E2E2E2E2BE2828282828282828ECBEECECECECECBEBEECBEECECECECEC
310
ECBEECBEBEECECECECECBEE2E2E2E2E2E2E2E2E2E2C3C3C3C3E2C3C3C3C3C3C3C3C3C3C3C3C3E2E2E2E2E2E2C3E2E2E2C3C3E2E2E2C3C3C3C3C3E2E2E2E2C3C3C3C3E2E2E2C3C3E2C3E2E2E2E2BEE2E2F5E2F5F5F5E2F5E2E2BEBEBEBEBEBEBEBEBEBEBEBEBEBEBEBEBEBEBEBEBEBEBEBEBEBEBEBEBEBEBEBEBEBEBEBEBEBE
310
BEBEBEBEBEBEBEBEBEBEBEBEBEBEBEBEBEBEBEBEC3C3BEC3C3BEBEBEBEE228E2C3C32828E2E2BEBEBEBEBEBEBEBEE2BEE2E2E2E2E2E2BEE2BEBEBEBEBEBEBEBEE2E2E2E2E2E2E2E2E2E2C3C3C3C3E2E2E2E2C3C3C3C3E2E2E2E2C3C3E2E2E2E2E2C3E2E2E2C3C3E2E2E2C3C3C3C3C3E2E2E2E2C3C3C3C3C3C3C3C3C3E2C3E2
310
E2E2E2BEE2E2F5E2F5F5F5E2F5E2E2BEC3C3C3C3C3C3C3E2C3C3C3C3C3C3C3C3C3C3C3C3C3C3C3C3C3E2E2E2E2BEE2C3C3C3C3E2C3C3C3C3C3C3E2E2E2E2E2BEE2E2E2E2C3C3C3C3C3C3C3C3C3C3E2E2E2BEE2E2E2C3C3C3E2E2E2E228E2E2E2E2BEBEBEBEE2E2E2E2E2E2BEBEBEBEE2E2E2E2E2BEE2E2E2E2E2E2E2E2E2E2
310
C3C3E2E2E2E2E2E2C3E2C3E2E2E2E2E2C3C3C3E2E2E2E2C3C3C3C3C3C3C3C3C3C3C3C3C3C3C3C3C3C3C3C3C3E2E2E2E2C3C3E2C3E2E2E2E2BEE2E2F5E2F5F5F5E2F5E2E2BEC3C3C3C3C3C3C3C3C3C3C3C3C3C3C3C3C3C3C3C3C3E2C3E2C3E2E2E2E2BEE2C3C3C3C3E2C3C3C3C3C3C3E2E2E2E2E2BEE2E2E2E2C3C3C3C3C3C3
310
C3C3C3C3E2E2E2BEE2E2E2E2E2E2E2E2E2E22828E2E2E2BEBE28BEE2E2E2E2E2E2BE2828BEE2E2E2E2E2BEE2E2E2E2E2E2E2E2E2E2C3C3E2E2E2C3C3C3C3E2C3E2C3C3C3C3C3C3C3E2C3C3C3C3E2E2E2C3C3E2E2E2C3C3C3C3C3E2E2E2E2C3C3C3E2C3C3C3C3E2E2C3E2E2E2E2BEE2E2F5E2F5F5F5E2F5E2E2BEBEBEBEBEBE
310
BEBEBEBEBEBEBEBEBEBEBEBEBEBEBEBEBEBEBEBEBEBEBEBEBEBEBEBEBEBEBEBEBEBEBEBEBEBEBEBEBEBEBEBEBEBEBEBEBEBEBEBEBEBEBEBEBEBEBEBEBEE2E2E2E2E2E2E2E2E2E228E2E2E2E2BEBEBE28E2E2E2E2E2E228BEBE2828E2E2E2E2BEE2E2E2E2E2E2E2E2E2E2C3C3C3E2E2E2E2E2C3E2E2E2E2E2E2E2C3C3C3C3E2
310
E2E2C3C3C3C3C3C3C3C3C3C3C3C3C3C3C3C3C3C3C3E2E2C3E2E2E2E2E2E2C3E2E2E2E2BEE2E2F5E2F5F5F5E2F5E2E2BEC3C3C3C3C3C3C3C3C3C3C3C3C3C3C3C3C3C3C3C3C3C3C3C3C3C3C3E2E2BEE2C3C3C3C3C3C3C3C3E2E2E2E2E2E2E2E2BEE2E2E2E2C3C3C3C3C3C3C3C3E2E2E2E2E2BEE2E2E2E2E2E2E2E2E2E228C3C3
310
E2E2BEBEE2E228E2E2E2E228E2E2E228E2E2E2E2E2BEE2E2E2E2E2E2E2E2E2E2C3C3C3E2E2C3C3C3C3E2E2E2E2E2E2E2C3C3C3C3C3C3C3C3E2E2E2C3C3E2E2E2C3C3C3C3C3E2E2E2E2C3C3C3C3C3C3C3C3E2E2C3E2E2E2E2BEE2E2F5E2F5F5F5E2F5E2E2BEC3C3C3C3C3C3C3C3C3C3C3C3C3C3C3C3C3E2C3C3E2C3C3C3C3C3
310
E2E2E2BEE2C3C3E2C3C3C3C3C3E2E2E2E2E2E2E2E2BEE2E2E2E2C3C3C3C3C3C3C3C3E2E2E2E2E2BEE2E2E2E2E2E2E2E2E2E228C3C3C3E2BEBEE2E228E2E2E2E228E2E2E2BE28E2E2E2E2BEE2E2E2E2E2E2E2E2E2E2C3C3E2E2E2E2E2E2C3E2E2E2E2E2E2E2C3C3C3E2E2E2E2C3C3C3C3C3C3C3C3C3C3C3C3C3C3C3C3C3C3C3
310
C3C3E2E2E2E2C3C3E2C3E2E2E2E2BEE2E2F5E2F5F5F5E2F5E2E2BEBEBEBEBEBEBEBEBEBEBEBEBEBEBEBEBEBEBEBEBEBEBEBEBEBEBEBEBEBEBEBEBEBEBEBEBEBEBEBEBEBEBEBEBEBEBEBEBEBEBEBEBEBEBEBEBEBEBEBEBEBEBEBEBEBEBEE2E2E2E2E2E2E2E2E2E228E2E2E2E2BEBEE2E2E228C3C328C3C3E2E2BEE228E2E2E2
310
BEE2E2E2E2E2E2E2E2E2E2C3C3C3C3E2C3C3C3C3C3C3C3C3C3C3C3C3E2E2E2E2E2E2C3E2E2E2C3C3E2E2E2C3C3C3C3C3E2E2E2E2C3C3C3C3C3C3C3C3C3E2C3E2E2E2E2BEE2E2F5E2F5F5F5E2F5E2E2BEC3C3C3C3C3C3C3C3C3C3C3C3C3C3C3C3E2C3C3C3C3C3C3C3C3C3C3C3E2BEE2C3C3C3C3C3C3C3E2E2E2E2E2E2E2E2E2
310
BEE2E2E2E2C3C3C3C3C3C3C3E2E2E2E2E2E2BE282828282828282828282828E2E2E2E2BEE2E2E2C3C3C3C3C3C3E2E2BEE228E2E2E2BEE2E2E2E2E2E2E2E2E2E2C3C3C3C3E2E2E2E2C3C3C3C3E2E2E2E2C3E2E2E2E2E2E2C3E2E2E2C3C3E2E2E2C3C3C3C3C3E2E2E2E2C3C3C3C3E2E2E2C3C3E2C3E2E2E2E2BEE2E2F5E2F5F5
310
F5E2F5E2E2BEC3C3C3C3C3C3C3C3C3C3C3C3C3C3C3C3E2C3C3C3E2E2C3C3C3C3C3C3E2BEE2C3C3C3C3C3C3C3E2E2E2E2E2E2E2E2E2BEE2E2E2E2C3C3C3C3C3C3C3E2E2E2E2E2E2BEC3C3C3C3C3C3C3C3C3C3C3C3E2E2E2E2BEE2E2E2E2E2E2E2E2E2E2E2BEE2E228E2E2BEE2E2E2E2E2E2E2E2E2E2C3C3E2E2E2E2E2E2C3E2
310
C3E2E2E2E2E2C3C3C3E2E2E2E2C3C3C3C3C3C3C3C3C3C3C3C3C3C3C3C3C3C3C3C3C3E2E2E2E2C3C3E2C3E2E2E2E2BEE2E2F5E2F5F5F5E2E2E2E2BEBEBEBEBEBEBEBEBEBEBEBEBEBEBEBEBEBEBEBEBEBEBEBEBEBEBEBEBEBEBEBEBEBEBEBEBEBEBEBEBEBEBEBEBEBEBEBEBEBEBEBEBEBEBEBEBEBEBEBEBEBEBEBEBEBEBEC3C3
310
C3C3C3C3C3C3C3C3C3C3E2E2E2E2BEBEBEBEBEBEBEBEBEBEBEBEBEE2E2E228E2BEE2E2E2E2E2E2E2E2E2E2C3C3E2E2E2C3C3C3C3E2C3E2C3C3C3C3C3C3E2E2C3C3C3C3E2E2E2C3E2E2E2E2C3C3C3C3C3E2E2E2E2C3C3E2E2C3C3C3C3E2E2C3E2E2E2E2BEE2E2E2E2F5F5F5E2E2E2E2BEC3C3C3C3C3C3C3C3C3C3C3E2E2E2E2
310
E2E2E2E2E2E2E2E2E2E2E2E2E2E2BEE2C3C3C3C3E2E2E2E2E2E2E2E2E2E2E2E2BEE2E2E2E2C3C3C3C3E2E2E2E2E2E2E2E2E2BEC3C3C3C3C3C3C3C3C3E2E2E2E2E2E2E2E2E2E2E2E2E2E2E2C3C3C3C3C3C3E2282828BEE2E2E2E2E2E2E2E2E2E2C3C3C3C3C3C3C3C3C3C3C3C3C3C3C3C3C3C3C3C3C3C3C3C3C3C3C3C3C3C3C3
310
C3C3C3C3C3C3C3C3C3C3C3C3C3C3C3C3C3C3C3C3C3E2E2E2E2BEE2E2E2E2F5F5F5E2E2E2E2BEC3C3C3C3C3C3C3C3C3C3C3E2E2E2E2E2E2E2E2E2E2E2E2E2E2E2E2E2E2BEE2C3C3C3C3E2E2E2E2E2E2E2E2E2E2E2E2BEE2E2E2E2C3C3C3C3E2E2E2E2E2E2E2E2E2BEC3C3C3C3C3C3C3C3C3E2E2E2E2E2E2E2E2E2E2E2E2E2E2
310
E2C3C3C3C3C3C3E2E2E2E2BEE2E2E2E2E2E2E2E2E2E2C3C3C3C3C3C3C3C3C3C3C3C3C3C3C3C3C3C3C3C3C3C3E2C3C3C3C3C3C3C3C3E2C3E2C3C3C3C3C3E2E2C3E2C3C3C3C3C3C3E2E2C3E2E2E2E2BEE2E2E2E2F5F5F5E2E2E2E2BEBEBEBEBEBEBEBEBEBEBEBEBEBEBEBEBEBEBEBEBEBEBEBEBEBEBEBEBEBEBEBEBEBEBEBEBE
310
BEBEBEBEBEBEBEBEBEBEBEBEBEBEBEBEBEBEBEBEBEBEBEBEBEBEBEBEBEBEC3C3C3C3C3C3C3C3C3C3C3E2E2E2E2E2E2E2E2E2E2E2E2E2E2C3C3C3C3C3E2E2E2E2BEE2E2E2E2E2E2E2E2E2E2C3C3C3C3C3C3C3C3C3C3C3C3C3C3C3C3C3C3C3C3C3C3C3C3C3C3C3C3C3C3C3C3C3E2C3C3C3C3C3E2E2C3E2C3C3C3C3C3C3C3E2C3
310
E2E2E2E2BEE2E2E2E2F5F5F5E2E2E2E2BEC3C3C3C3C3C3C3C3C3C3C3C3E2E2E2E2E2E2E2E2E2E2E2E2E2E2E2E2E2BEE2E2C3C3C3E2E2E2E2E2E2E2E2E2E2E2E2BEE2E2E2E2C3C3C3C3E2E2E2E2E2E2E2E2E2BEC3C3C3C3C3C3C3C3C3C3C3C3E2E2E2E2E2E2E2E2E2E2E2E2E2C3C3C3C3C3E2E2E2E2BEE2E2E2E2E2E2E2E2E2
310
E2C3C3C3C3C3C3C3C3C3E2E2E2E2C3C3C3C3C3C3E2E2E2E2C3C3C3C3C3C3C3C3C3C3E2C3C3C3C3C3E2E2C3E2C3C3C3C3C3C3C3E2C3E2E2E2E2BEE2E2E2E2F5F5F5E2E2E2E2BEC3C3C3C3C3C3C3C3C3C3C3C3E2E2E2E2E2E2E2E2E2E2E2E2E2E2E2E2E2BEE2C3C3C3C3E2E2E2E2E2E2E2E2E2E2E2E2BEE2E2E2E2C3C3C3C3E2
310
E2E2E2E2E2E2E2E2BEE2E2E2E2E2E2E2E2E2E2E2E2E2E2E2E2E2E2E2E2E2E2E2E2E2E2E2E2E2E2E2E2E2E2BEE2E2E2E2E2E2E2E2E2E2C3E2E2E2E2E2E2E2C3E2E2E2E2C3C3C3C3C3C3E2E2E2E2C3C3C3C3C3C3C3C3C3C3E2E2E2E2E2E2E2E2C3E2E2E2E2E2E2E2E2E2C3E2E2E2E2BEE2E2E2E2F5F5F5E2E2E2E2BEBEBEBEBE
310
BEBEBEBEBEBEBEBEBEBEBEBEBEBEBEBEBEBEBEBEBEBEBEBEBEBEBEBEBEBEBEBEBEBEBEBEBEBEBEBEBEBEBEBEBEBEBEBEBEBEBEBEBEBEBEBEBEBEBEBEBEBEE2E2E2E2E2E2E2E2E2E2E2E2E2E2E2E2E2E2E2E2E2E2E2E2E2E2E2E2E2E2E2E2E2E2BEE2E2E2E2E2E2E2E2E2E2C3C3C3C3C3C3C3C3C3C3C3C3C3C3C3C3C3C3C3C3
310
C3C3C3C3C3C3C3C3C3C3C3C3C3C3C3C3C3C3C3C3C3C3C3C3C3C3C3C3C3C3C3C3E2E2E2E2BEE2E2E2E2F5F5F5E2E2E2E2BEC3C3C3C3C3C3C3C3C3C3C3E2E2E2E2E2E2E2E2E2E2E2BEBEBEBEBEE2E2BEC3C3C3C3C3C3C3C3E2C3C3C3C3C3C3E2E2BEE2E2E2E2C3C3C3C3C3E2E2E2E2E2E2E2E2BEE2E2E2E2E2E2E2E2E2E2E2E2
310
E2E2E2E2E2E2E2E2E2E2E2E2E2E2E2E2E2E2E2E2E2E2BEE2E2E2E2E2E2E2E2E2E2C3E2E2E2E2E2E2C3C3C3C3C3C3C3E2E2E2E2E2E2E2E2E2C3E2E2E2E2E2E2E2E2E2E2C3C3C3C3C3E2E2E2E2E2E2E2E2E2E2E2E2C3E2E2E2E2BEE2E2E2E2F5F5F5E2F5E2E2BEC3C3C3C3C3C3C3C3C3C3C3E2E2E2E2E2E2BEBEBEBEBEE2E2E2
310
E2E2E2E2BEC3C3C3C3C3C3E2C3E2C3C3C3C3C3C3E2E2BEE2E2E2E2C3C3C3C3C3E2E2E2E2E2E2E2E2BEC3C3C3C3C3C3C3C3C3C3C3C3E2C3C3C3C3C3C3C3C3C3C3C3C3C3E2C3C3C3C3C3C3E2BEE2E2E2E2E2E2E2E2E2E2C3E2E2C3C3C3C3C3C3C3C3C3C3C3C3C3C3C3C3E2E2E2E2C3E2E2E2E2E2E2E2E2E2E2C3C3C3C3C3E2E2
310
E2E2E2E2E2E2E2E2E2E2C3E2E2E2E2BEE2E2F5E2F5F5F5E2F5E2E2BEE2E2E2E2E2E2E2E2E2E2E2E2BEBEBEBEBEE2C3C3C3C3C3C3C3C3C3C3E2BEE2C3C3C3C3C3C3C3C3C3C3C3E2E2E2E2E2BEE2E2E2E2C3C3E2C3C3C3C3E2E2E2E2E2E2BEC3C3C3C3C3C3C3C3C3C3E2C3E2C3C3C3C3C3C3C3C3C3C3C3C3E2E2C3C3C3C3C3C3
310
E2BEE2E2E2E2E2E2E2E2E2E2C3E2E2C3C3C3C3C3C3C3C3C3C3C3C3C3C3C3C3E2E2E2E2C3E2E2E2E2E2E2E2E2E2E2C3C3C3C3C3E2E2E2E2E2E2E2E2E2E2E2E2C3E2E2E2E2BEE2E2F5E2F5F5F5E2F5E2E2BEE2E2E2E2E2E2E2BEBEBEBEBEE2E2E2E2E2E2C3C3C3C3C3C3C3C3C3C3E2BEE2C3C3C3C3C3C3C3C3C3C3C3E2E2E2E2
310
E2BEE2E2E2E2C3C3C3C3C3C3C3E2E2E2E2E2E2BEC3C3C3C3C3C3C3C3C3C3E2C3E2C3C3C3C3C3C3E2E2C3C3C3C3E2E2C3C3C3C3C3C3E2BEE2E2E2E2E2E2E2E2E2E2C3C3C3C3C3C3C3C3C3C3C3C3C3C3C3C3C3C3C3C3C3C3C3C3C3C3C3C3C3C3C3C3C3C3C3C3C3C3C3C3C3C3C3C3C3C3C3C3C3C3C3C3E2E2E2E2BEE2E2F5E2F5
310
F5F5E2F5E2E2BEE2E2BEBEBEBEBEE2E2E2E2E2E2E2E2E2E2E2C3C3C3C3C3C3C3C3C3C3E2BEE2C3C3C3C3C3C3C3C3E2C3C3E2E2E2E2E2BEE2E2E2E2C3C3C3C3C3C3C3E2E2E2E2E2E2BEE2E2E2E2E2E2E2E2E2E2E2E2E2E2E2E2E2E2E2E2E2E2E2E2E2E2E2E2E2E2E2E2E2E2BEE2E2E2E2E2E2E2E2E2E2E2E2E2E2E2E2E2E2E2
310
E2E2E2E2E2E2E2E2E2E2E2E2E2E2E2E2E2E2E2E2E2E2E2E2E2E2E2E2E2E2E2E2E2E2E2E2E2E2E2E2E2E2E2E2E2E2E2BEE2E2F5E2F5F5F5E2F5E2E2BEBEBEBEBEBEBEBEBEBEBEBEBEBEBEBEBEBEBEBEBEBEBEBEBEBEBEBEBEBEBEBEBEBEBEBEBEBEBEBEBEBEBEBEBEBEBEBEBEBEBEBEBEBEBEBEBEBEBEBEBEBEBEBEBEBEBEBE
310
BEBEBEBEBEBEBEBEBEBEBEBEBEBEBEBEBEBEBEBEBEBEBEBEBEBEBEBEBEBEBEBEBEBEBEBEBEBEBEBEBEBEBEBEBEBEBEBEBEBEBEBEBEBEBEBEBEBEBEBEBEBEBEBEBEBEBEBEBEBEBEBEBEBEBEBEBEBEBEBEBEBEBEBEBEBEBEBEBEBEBEBEBEBEBEBEBEBEBEBEBEE2E2F5E2F5F5F5E2F5E2E2BEE2E2E2E2E2E2E2E2E2E2E2E2E2E2
310
E2E2E2E2E2E2E2E2E2E2E2E2E2E2E2E2E2E2E2E2E2E2E2E2E2E2E2E2E2E2E2E2E2E2E2E2E2E2E2E2E2E2E2E2E2E2E2E2E2E2E2E2E2E2E2E2E2E2E2E2E2E2E2E2E2E2E2E2E2E2E2E2E2E2E2E2E2E2E2E2E2E2E2E2E2E2E2E2E2E2E2E2E2E2E2E2E2E2E2E2E2E2E2E2E2E2E2E2E2E2E2E2E2E2E2E2E2E2E2E2E2E2E2E2E2E2E2
310
E2E2E2E2E2E2E2E2E2E2E2E2E2E2E2E2E2E2E2E2E2E2E2E2E2E2BEE2E2F5E2F5F5F5E2F5E2E2BEE2E2E2E2E2E2E2E2E2E2E2E2E2E2E2E2E2E2E2E2E2E2E2E2E2E2E2E2E2E2E2E2E2E2E2E2E2E2E2E2E2E2E2E2E2E2E2E2E2E2E2E2E2E2E2E2E2E2E2E2E2E2E2E2E2E2E2E2E2E2E2E2E2E2E2E2E2E2E2E2E2E2E2E2E2E2E2E2
310
E2E2E2E2E2E2E2E2E2E2E2E2E2E2E2E2E2E2E2E2E2E2E2E2E2E2E2E2E2E2E2E2E2E2E2E2E2E2E2E2E2E2E2E2E2E2E2E2E2E2E2E2E2E2E2E2E2E2E2E2E2E2E2E2E2E2E2E2E2E2E2E2E2E2E2E2E2E2E2BEE2E2F5E2F5F5F5E2F5E2E2BEE2E2E2E2E2E2E2E2E2E2E2E2E2E2E2E2E2E2E2E2E2E2E2E2E2E2E2E2E2E2E2E2E2E2E2
310
E2E2E2E2E2E2E2E2E2E2E2E2E2E2E2E2E2E2E2E2E2E2E2E2E2E2E2E2E2E2E2E2E2E2E2E2E2E2E2E2E2E2E2E2E2E2E2E2E2E2E2E2E2E2E2E2E2E2E2E2E2E2E2E2E2E2E2E2E2E2E2E2E2E2E2E2E2E2E2E2E2E2E2E2E2E2E2E2E2E2E2E2E2E2E2E2E2E2E2E2E2E2E2E2E2E2E2E2E2E2E2E2E2E2E2E2E2E2E2E2E2E2E2E2E2E2E2
310
E2E2E2E2E2BEE2E2F5E2F5F5F5E2F5E2E2BEE2E2E2E2E2E2E2E2E2E2E2E2E2E2E2E2E2E2E2E2E2E2E2E2E2E2E2E2E2E2E2E2E2E2E2E2E2E2E2E2E2E2E2E2E2E2E2E2E2E2E2E2E2E2E2E2E2E2E2E2E2E2E2E2E2E2E2E2E2E2E2E2E2E2E2E2E2E2E2E2E2E2E2E2E2E2E2E2E2E2C3C3C3C3C3C3C3C3C3E2E2E2E2E2E2E2E2E2E2
310
E2E2E2E2E2E2E2E2E2E2E2E2E2E2E2E2E2E2E2E2E2E2E2E2E2E2E2E2E2E2E2E2E2E2E2E2E2E2E2E2E2E2E2E2E2E2E2E2E2E2E2E2E2E2E2E2E2E2BEE2E2F5E2F5F5F5E2F5E2E2BEE2E2E2E2E2E2E2E2E2E2E2E2E2E2E2E2E2E2E2E2E2E2E2E2E2E2E2E2E2E2E2E2E2E2E2E2E2E2E2E2E2E2E2E2E2E2E2E2E2E2E2E2E2E2E2E2
310
E2E2E2E2E2E2E2E2E2E2E2E2E2E2E2E2E2E2E2E2E2E2E2E2E2E2E2BEBEBEBEBE282828C3C3C3C3C3C3C3C3E2E2E2E2E2E2E2E2E2E2E2E2E2E2E2E2E2E2E2E2E2E2E2E2E2E2E2E2E2E2E2E2E2E2E2E2E2E2E2E2E2E2E2E2E2E2E2E2E2E2E2E2E2E2E2E2E2E2E2E2E2E2E2E2E2E2E2E2BEE2E2F5E2F5F5F5E2F5E2E2BEE2E2E2
310
E2E2E2E2E2E2E2E2E2E2E2E2E2E2E2E2E2E2E2E2E2E2E2E2E2E2E2E2E2E2E2E2E2E2E2E2E2E2E2E2E2E2E2E2E2E2E2E2E2E2E2E2E2E2E2E2E2E2E2E2E2E2E2E2E2E2E2E2E2E2E2C3C3C3C3C3C3E2E2E2BEE2E2E228E2E2E2E2E2E2E2E2E2E2E2E2E2E2E2E2E2E2E2E2E2E2E2E2E2E2E2E2E2E2E2E2E2E2E2E2E2E2E2E2E2E2
310
E2E2E2E2E2E2E2E2E2E2E2E2E2E2E2E2E2E2E2E2E2E2E2E2E2E2E2E2E2E2E2E2E2E2E2E2E2BEE2E2F5E2F5F5F5E2F5E2E2BEE2E2E2E2E2E2E2E2E2E2E2E2E2E2E2E2E2E2E2E2E2E2E2E2E2E2E2E2E2E2E2E2E2E2E2E2E2E2E2E2E2E2E2E2E2E2E2E2E2E2E2E2E2E2E2E2E2E2E2E2E2E2E2E2E2E2E2E2E2E2E2E2E2E2C3C3C3
310
C3C3C3E2E2E2BEE2E228BEE2E2E2E2E2E2E2E2E2E2E2E2E2E2E2E2E2E2E2E2E2E2E2E2E2E2E2E2E2E2E2E2E2E2E2E2E2E2E2E2E2E2E2E2E2E2E2E2E2E2E2E2E2E2E2E2E2E2E2E2E2E2E2E2E2E2E2E2E2E2E2E2E2E2E2E2E2E2E2BEE2E2F5E2F5F5F5E2F5E2E2BEE2E2E2E2E2E2E2E2E2E2E2E2E2E2E2E2E2E2E2E2E2E2E2E2
310
E2E2E2E2E2E2E2E2E2E2E2E2E2E2E2E2E2E2E2E2E2E2E2E2E2E2E2E2E2E2E2E2E2E2E2E2E2E2E2E2E2E2E2E2E2E2E2E2E2E2C3C3C3C3C3C3E2E2E2BEE2E2E2BEE2E2E2E2E2E2E2E2E2E2E2E2E2E2E2E2E2E2E2E2E2E2E2E2E2E2E2E2E2E2E2E2E2E2E2E2E2E2E2E2E2E2E2E2E2E2E2E2E2E2E2E2E2E2E2E2E2E2E2E2E2E2E2
310
E2E2E2E2E2E2E2E2E2E2E2E2E2E2E2E2BEE2E2F5E2F5F5F5E2F5E2E2BEE2E2E2E2E2E2E2E2E2E2E2E2E2E2E2E2E2E2E2E2E2E2E2E2E2E2E2E2E2E2E2E2E2E2E2E2E2E2E2E2E2E2E2E2E2E2E2E2E2E2E2E2E2E2E2E2E2E2E2E2E2E2E2E2E2E2E2E2E2E2E2E2E2E2C3C3C3C3C3C3282828BEBEBEBEBE282828F528E2E2E2E2E2
310
E2E2E2E2E2E2E2E2E2E2E2E2E2E2E2E2E2E2E2E2E2E2E2E2E2E2E2E2E2E2E2E2E2E2E2E2E2E2E2E2E2E2E2E2E2E2E2E2E2E2E2E2E2E2E2E2E2E2E2E2E2E2E2E2E2E2E2E2E2BEE2E2F5E2F5F5F5E2F5E2E2BEE2E2E2E2E2E2E2E2E2E2E2E2E2E2E2E2E2E2E2E2E2E2E2E2E2E2E2E2E2E2E2E2E2E2E2E2E2E2E2E2E2E2E2E2E2
310
E2E2E2E2E2E2E2E2E2E2E2E2E2E2E2E2E2E2E2E2E2E2E2E2E2E2E2E2E2E2E2E2E2E2E2E2E2E228BE28BEE2E2E2E228E2E2E2E2E2E2E2E2E2E2E2E2E2E2E2E2E2E2E2E2E2E2E2E2E2E2E2E2E2E2E2E2E2E2E2E2E2E2E2E2E2E2E2E2E2E2E2E2E2E2E2E2E2E2E2E2E2E2E2E2E2E2E2E2E2E2E2E2E2E2E2E2E2E2E2BEE2E2F5E2
310
F5F5F5E2F5E2E2BEE2E2E2E2E2E2E2E2E2E2E2E2E2E2E2E2E2E2E2E2E2E2E2E2E2E2E2E2E2E2E2E2E2E2E2E2E2E2E2E2E2E2E2E2E2E2E2E2E2E2E2E2E2E2E2E2E2E2E2E2E2E2E2E2E2E2E2E2E2E2E2E2E2E2E2E2E2E2E2E2E2E2E228BE28BEE2E2E2E228E2E2E2E2E2E2E2E2E2E2E2E2E2E2E2E2E2E2E2E2E2E2E2E2E2E2E2
310
E2E2E2E2E2E2E2E2E2E2E2E2E2E2E2E2E2E2E2E2E2E2E2E2E2E2E2E2E2E2E2E2E2E2E2E2E2E2E2E2E2E2E2E2E2E2E2E2BEE2E2F5E2F5F5F5E2E2E2E2BEE2E2E2E2E2E2E2E2E2E2E2E2E2E2E2E2E2E2E2E2E2E2E2E2E2E2E2E2E2E2E2E2E2E2E2E2E2E2E2E2E2E2E2E2E2E2E2E2E2E2E2E2E2E2E2E2E2E2E2E2E2E2E2E2E2E2
310
E2E2E2E2E2E2E2E2E2E2E2E2E2E2E2E2E2E2BE28BEE2E2C3C328E2E2E2E2E2E2E2E2E2E2E2E2E2E2E2E2E2E2E2E2E2E2E2E2E2E2E2E2E2E2E2E2E2E2E2E2E2E2E2E2E2E2E2E2E2E2E2E2E2E2E2E2E2E2E2E2E2E2E2E2E2E2E2E2E2E2E2E2E2E2E2E2E2E2E2BEE2E2E2E2F5F5F5E2E2E2E2BEE2E2E2E2E2E2E2E2E2E2E2E2E2
310
E2E2E2E2E2E2E2E2E2E2E2E2E2E2E2E2E2E2E2E2E2E2E2E2E2E2E2E2E2E2E2E2E2E2E2E2E2E2E2E2E2E2E2E2E2E2E2E2E2E2E2E2E2E2E2E2E2E2E2E2E2E2E2E2E2E2E2E2E2E2E2BE28BEE2E2C3C328E2E2E2E2E2E2E2E2E2E2E2E2E2E2E2E2E2E2E2E2E2E2E2E2E2E2E2E2E2E2E2E2E2E2E2E2E2E2E2E2E2E2E2E2E2E2E2E2
310
E2E2E2E2E2E2E2E2E2E2E2E2E2E2E2E2E2E2E2E2E2E2E2E2E2E2E2BEE2E2E2E2F5F5F5E2E2E2E2BEE2E2E2E2E2E2E2E2E2E2E2E2E2E2E2E2E2E2E2E2E2E2E2E2E2E2E2E2E2E2E2E2E2E2E2E2E2E2E2E2E2E2E2E2E2E2E2E2E2E2E2E2E2E2E2E2E2E2E2E2E2E2E2E2E2E2E2E2E2E2E2E2E2E2E2E2E2E2E2E2E2E2E2E2BE28BE
310
E2E2C3C328E2E2E2E2E2E2E2E2E2E2E2E2E2E2E2E2E2E2E2E2E2E2E2E2E2E2E2E2E2E2E2E2E2E2E2E2E2E2E2E2E2E2E2E2E2E2E2E2E2E2E2E2E2E2E2E2E2E2E2E2E2E2E2E2E2E2E2E2E2E2E2E2E2E2E2BEE2E2E2E2F5F5F5E2E2E2E2BEE2E2E2E2E2E2E2E2E2E2E2E2E2E2E2E2E2E2E2E2E2E2E2E2E2E2E2E2E2E2E2E2E2E2
310
E2282828E2E2E2E2E2E2E2E2E2E2E2E2E2E2E2E2E2E2E2E2E2E2E2E2E2E2E2E2E2E2E2E2E2E2E2E2E2E2E2E2E2E2E2E2E2E2BEBEBEE2E2C3C328E2E2E2E2E2E2E2E2E2E2E2E2E2E2E2E2E2E2E2E2E2E2E2E2E2E2E2E2E2E2E2E2E2E2E2E2282828E2E2E2E2E2E2E2E2E2E2E2E2E2E2E2E2E2E2E2E2E2E2E2E2E2E2E2E2E2E2
310
E2E2E2E2E2E2BEE2E2E2E2F5F5F5E2E2E2E2BEE2E2E2E2E2E2E2E2E2E2E2E2E2E2E2E2E2E2E2E2E2E2E2E2E2E2E2E2E2E2E2E2E2E2E2282828E2E2E2E2E2E2E2E2E2E2E2E2E2E2E2E2E2E2E2E2E2E2E2E2E2E2E2E2E2E2E2E2E2E2E2E2E2E2E2E2E2E2E2E2E2E2BE28BEE2E2C3C328E2E2E2E2E2E2E2E2E2E2E2E2E2E2E2E2
310
E2E2E2E2E2E2E2E2E2E2E2E2E2E2E2E2E2E2E2E2282828E2E2E2E2E2E2E2E2E2E2E2E2E2E2E2E2E2E2E2E2E2E2E2E2E2E2E2E2E2E2E2E2E2E2E2E2BEE2E2E2E2F5F5F5E2E2E2E2BEE2E2E2E2E2E2E2E2E2E2E2E2E2E2E2E2E2E2E22828E2E2E2E2E2E2E2E2E2E2E2E2E2E2282828E2E2E2E2E2E2E2E2E2E2E2E2E2E2E2E2E2
310
E2E2E2E2E2E2E2C3C328E2E2E2E2E2E2E2E2E2E2E2E2E2E2E2E2E2E2E2BE28BEE2E2E2E228E2E2E2E2E2E2E2C3C3C3C3C3C3C3C3C3C3E2E2E2E2E2E2E2E2E2E2E2E2E2E2E2E2E2E2E2282828E2E2E2E2E2E2E2E2E2E2E2E2E2E2E2E2E2E2E2E2E2E2E2E2E2E2E2E2E2E2E2E2E2E2E2E2BEE2E2E2E2F5F5F5E2E2E2E2BEE2E2
310
E2E2E2E2E2E2E2E2E2E2E2E2E2E2E2E2E2C3C32828E2E2E2E2E2E2E2E2E2E2E2E2282828E2E2E2E2E2E2E2E2E2E2E2E2E2E2E2E2E2E2E2E2E2E2E2E2C3C328E2E2E2E2E2E2E2E2E2E2E2E2E2E2E2E2E2E2E2BE28BEE2E2E2E228E2E2E2E2E2E2E2C3C3C3C3C3C3C3C3C3C3E2E2E2E2E2E2E2E2E2E2E2E2E2E2E2E2E2E2E228
310
2828E2E2E2E2E2E2E2E2E2E2E2E2E2E2E2E2E2E2E2E2E2E2E2E2E2E2E2E2E2E2E2E2E2E2E2E2BEE2E2E2E2F5F5F5E2E2E2E2BEE2E2E2E2E2E2E2E2E2E2E2E2E2E2E2E2E2E2C3C3C3C3C3C328E2E2E2E2E2E2E2E2E2E2282828BEE2E2E2E2E2E2E2E2E2E2E2E2E2E2E2E2E2E2E2E2E2E2C3C3C328E2E2E2E2E2E2E2E2E2E2E2
310
E2E2E2E2E2E2E2E2BEBEBEE2E2E2E228E2E2E2E2E2E2E2C3C3C3C3C3C3C3C3C3C3C3C3C3C3C3C3E2E2E2E2E2E2E2E2E2E2E2E2E2282828E2E2E2E2E2E2E2E2E2E2E2E2E2E2E2E2E2E2E2E2E2E2E2E2E2E2E2E2E2E2E2E2E2E2E2E2BEE2E2E2E2F5F5F5E2E2E2E2BEE2E2E2E2E2E2E2E2E2E2E2E2E2E2E2E2E2E2E2E2E2C3C3
310
C3C3C328E2E2E2BEBEBEBEBEBEECBEBEBEBEBEBEBEE2E2E2E2E2E2E2E2E2E2E2E2E2E2E2E2E2E2E2C328E2E2E2E2E2E2E2E2C3C3E2E2BEBEBEBEBEBEBEBEBEBEBEBEF5282828E2E2E2E2E2E2C3C3C3C3C3C3C3C3C3C3C3C3C3C3C3C3E2282828E2E2E2BEBEBEBEBEBEBEBEBEBEBEBEBEBEE2E2E2E2E2E2E2E2E2E2E2E2E2E2
310
E2E2E2E2E2E2E2E2E2E2E2E2E2E2E2E2E2BEE2E2E2E2F5F5F5E2F5E2E2BEE2E2E2E2E2E2E2E2E2E2E2E2E2E2E2E2E2E2E2E2C3C3C3C3C3C3E22828BE2828E2E2E2E2ECE2E2E2E2E22828BEE2E2E2E2E2E2E2E2E2E2E2E2E2E2E2E2E2E2C32828282828282828282828E2E2BEE2E2E2BEE2E2E2BEE2E2E2BEE2E2E2E2E2E2E2
310
E2E2C3C3C3C3C3C3C3C3C3C3C3C3E2E2E2E2E2E2E2E228E2BEE2BEE2E2E2E2E2ECE2E2E2E2E2BEBEE2E2E2E2E2E2E2E2E2E2E2E2E2E2E2E2E2E2E2E2E2E2E2E2E2E2E2E2E2E2BEE2E2F5E2F5F5F5E2F5E2E2BEE2E2E2E2E2E2E2E2E2E2E2E2E2E2E2E2E2E2E2C3C3C3C3C3E2E2E2E2BE282828E2E2E2E2ECE2E2E2E2E22828
310
E2BEE2E2E2E2E2E2E2E2E2E2E2E2E2E2E2E2E2E22828E2C3E2C3C3C328C328282828E2E2BEBEE2E2E2BEBEE2E2BEE2E2E2E2E22828282828C3C3C3C3C3C3C3C3C3C3C3E2E2E2E2E2E2E2E2E228E2BEBEBEE2E2E2E2ECE2E2E2E2BEBEBEBEE2E2E2E2E2E2E2E2E2E2E2E2E2E2E2E2E2E2E2E2E2E2E2E2E2E2E2E2E2BEE2E2F5
310
E2F5F5F5E2F5E2E2BEE2E2E2E2E2E2E2E2E2E2E2E2E2E2E2E2E2E2E2E2E2E2E2E2E2E2E2E2BEE228BE28E2E2E2ECE2E2E2E2E22828E2BEE2E2E2E2E2E2E2E2E2E2E2E2E2E2E2E2E2E22828282828282828282828E2E2BEE2E2BEE2E2E2E2E2BEE2E2BEE2E2E2E228E2E2E2E2C3C3C3C3C3C3C3C3C3C3E2E2E2E2E2E2E2E2E2
310
E2E22828BEBEE2E2E2E2E2ECE2E2E2E2BEBEBEBEE2E2E2E2E2E2E2E2E2E2E2E2E2E2E2E2E2E2E2E2E2E2E2E2E2E2E2E2E2BEE2E2F5E2F5F5F5E2F5E2E2BEE2E2E2E2E2E2E2E2E2E2E2E2E2E2E2E2E2E2E2E2E2E2E2E2E2E2E2E2BEE2E2E2E228E2E2ECBEE2E2E2E2E2E2E2BEE2E2E2E2E2E2E2E2E2E2E2E2E2E228F5282828
310
2828282828282828282828BEBEE2E2BEE2E2E2E2E2BEE2E2BEE2E2E2E228E2E2E2E2C3C3C3C3C3C3C3C3C3C3E2E2E2E2E2E2E2E2E2E2E2BEE228E2E2E2E2E2E2ECE2E2E2E2E2E2E2BEE2E2E2E2E2E2E2E2E2E2E2E2E2E2E2E2E2E2E2E2E2E2E2E2E2E2E2E2E2BEE2E2F5E2F5F5F5E2F5E2E2BEE2E2E2E2E2E2E2E2E2E2E2E2
310
E2E2E2E2E2E2E2E2E2E2E2E2E2E2E2E2BEE2E2E2E2E2BEBEECE2BEBEE2E2E2E2E2BEE2E2E2E2E2E2E2E2E2E2E2E2E2E2E228E2E228E2E2E2E2E2E2E2E2E2E2E2BEBEE2E2BEE2E2E2E2E2BEE2E2BEE2E2E2E228E2E2E228E2E2E2E2E2E2E2E2E2E2E2E2E2E2E2E2E2E2E2E2E2BEE228E2E2E2E2ECECECECECE2E2E2E2E2BEE2
310
E2E2E2E2E2E2E2E2E2E2E2E2E2E2E2E2E2E2E2E2E2E2E2E2E2E2E2E2BEE2E2F5E2F5F5F5E2F5E2E2BEE2E2E2E2E2E2E2E2E2E2E2E2E2E2E2E2E2E2E2E2E2E2E2E2E2E2E2E2BEE2E2E2E2BEE2E2ECE2E2E2BEE2E2E2E2BEE2E2E2E2E2E2E2E2E2E2E2E2C3C3E228E2E228E2E2E2E2E2E2E2E2E2E2E2BEBEE2E2BEE2E2E2E2E2
310
BEE2E2BEE2E2E2E228E2E2E228E2E2E2E2E2E2E2E2E2E2E2E2E2E2E2E2E2E2E2E2E2BEE2E228E2E2ECE2E2ECE2E2ECE2E2E2E2BEE2E2E2E2E2E2E2E2E2E2E2E2E2E2E2E2E2E2E2E2E2E2E2E2E2E2E2E2E2BEE2E2F5E2F5F5F5E2F5E2E2BEE2E2E2E2E2E2E2E2E2E2E2E2E2E2E2E2E2E2E2E2E2E2E2E2E2E2E2E2BEE2E2E2E2
310
BEE2BEBEBEE2E2E2BEE2E2E2BEE2E2E2E2E2E2E2E2E2E2E2E2C3C3E228E2E2F52828BEBEBEBEBEBEBEBEBEBEBEE2E2BEE2E2E2E2E2BEE2E2BEBEBEBE282828282828E2E2E2E2E2E2E2E2E2E2E2E2E2E2E2E2E2E2E2E2E2BEE2E2E228ECECE2BEBEBEE2ECE2E2E2E2BEE2E2E2E2E2E2E2E2E2E2E2E2E2E2E2E2E2E2E2E2E2E2
310
E2E2E2E2E2E2E2BEE2E2F5E2F5F5F5E2F5E2E2BEE2E2E2E2E2E2E2E2E2E2E2E2E2E2E2E2E2E2E2E2E2E2E2E2E2E2E2E2BEECECECBEECECBEBEBEBEECECBEECECECBEE2E2E2E2E2E2E2E2E2E2E2E2C3C3E228E2E228E2ECBEECECECECECECECECBEBEECECBEECECECECECBEECECBEECECEC28BEECE2E228E2E2E2E2E2E2E2E2
310
E2E2E2E2E2E2E2E2E2E2E2ECECBEECECECECBE28BEBEECBEECBEBEECECECBEECECE2E2E2E2E2E2E2E2E2E2E2E2E2E2E2E2E2E2E2E2E2E2E2E2E2E2E2BEE2E2F5E2F5F5F5E2F5E2E2BEE2E2E2E2E2E2E2E2E2E2E2E2E2E2E2E2E2E2E2E2E2E2E2E2E2E2E2E2BEE2E2E2E2BEE2BEBEBEE2E2E2BEE2E2E2BEE2E2E2E2E2E2E2E2
310
E2E2E2E2C3C3C328E2E2282828BEBEBEBEBE282828BEBEBEE2E2BEE2E2E2E2E2BEE2E2BEBEBEBEBE2828282828E2E2E2E2E2E2E2E2E2E2E2E2E2E2E2E2E2E2E2E2E2BEE2E2E2E2BEECE2BEBEBEE2BEBEE2E2E2BEE2E2E2E2E2E2E2E2E2E2E2E2E2E2E2E2E2E2E2E2E2E2E2E2E2E2E2E2E2BEE2E2F5E2F5F5F5E2F5E2E2BEE2
310
E2E2E2E2E2E2E2E2E2E2E2E2E2E2E2E2E2E2E2E2E2E2E2E2E2E2E2BEE2E2E2E2BEE2E2BEE2E2E2BEE2E2E2E2BEE2E2E2E2E2E2E2E2E2E2E2E2E2C3C328E2E228E2E228E2E2E2E2E228E2E2BEBEE2E2BEE2E2E2E2E2BEE2E2BEE2E2E2E228E2E2E228E2E2E2E2E2E2E2E2E2E2E2E2E2E2E2E2E2E2E2E2E2BEE2E2E2E228ECE2
310
E2BEE2E2EC2828E2E2BEE2E2E2E2E2E2E2E2E2E2E2E2E2E2E2E2E2E2E2E2E2E2E2E2E2E2E2E2E2BEE2E2F5E2F5F5F5E2F5E2E2BEE2E2E2E2E2E2E2E2E2E2E2E2E2E2E2E2E2E2E2E2E2E2E2E2E2E2E2E2BEE2E2E2E2E2BEE2ECE2E2E2BEE2E2E2E2BEE2E2E2E2E2E2E2E2E2E2E2E2E2C3C328E2E228E2E228E2E2E2E2E228E2
310
E2BEBEE2E2BEE2E2E2E2E2BEE2E2BEE2E2E2E228E2E2E228E2E2E2E2E2E2E2E2E2E2E2E2E2E2E2E2E2E2E2E2E2BEE2E2E2E228ECECE2ECE2ECEC2828E2E2BEE2E2E2E2E2E2E2E2E2E2E2E2E2E2E2E2E2E2E2E2E2E2E2E2E2E2E2E2E2BEE2E2F5E2F5F5F5E2F5E2E2BEE2E2E2E2E2E2E2E2E2E2E2E2E2E2E2E2E2E2E2E2E2E2
310
E2E2E2E2E2E2BEE2E2E2E2E2BEE2ECE2BEBEE2E2E2E2E2BEE2E2E2E2E2E2E2E2E2E2E2E2E2E2E228E2E228E2E228E2E2E2E2E228E2E2BEBEE2E2BEE2E2E2E2E2BEE2E2BEE2E2E2E228C3C3E228E2E2E2E2E2E2E2E2E2E2E2E2E2E2E2E2E2E2E2E2E2BEE2E2E2E228E2ECECECECECE228E228E2BEE2E2E2E2E2E2E2E2E2E2E2
310
E2E2E2E2E2E2E2E2E2E2E2E2E2E2E2E2E2E2BEE2E2F5E2F5F5F5E2F5E2E2BEE2E2E2E2E2E2E2E2E2E2E2E2E2E2E2E2E2E2E2E2E2E2E2E2E2E2E2E2BEE228E2E2E2E2BEECBEE2E2E2E228E2E2BEE2E2E2E2E2E2E2E2E2E2E2E2282828282828282828282828282828282828BEBEE2E2BEE2E2E2E2E2BEE2E2BEE2E2E2E228C3
310
C3E228E2E2E2E2E2E2E2E2E2E2E2E2E2E2E2E2E2E2E2E2E2BEE2E2E2E228E2E2E2ECE2E2E228E228E2BEE2E2E2E2E2E2E2E2E2E2E2E2E2E2E2E2E2E2E2E2E2E2E2E2E2E2E2E2E2BEE2E2F5E2F5F5F5E2F5E2E2BEE2E2E2E2E2E2E2E2E2E2E2E2E2E2E2E2E2E2E2E2E2E2E2E2E2E2E2E2BEBEBEBEE2E2E2E2ECE2E2E2E2E228
310
28E2BEE2E2E2E2E2E2E2E2E2E2E2E228C3C328E2E228E2E228E2E2E2E228C328E228BEE2E2BEE2E2E2E2E2BEE2E2BEE2E2E2E228C3C3C328E2E2E2E2E2E2E2E2E2E2E2E2E2E2E2E2E2E2E2E2E2BEE2BEBEBE28E2E2E2ECE2E2E228BEBE28BEE2E2E2E2E2E2E2E2E2E2E2E2E2E2E2E2E2E2E2E2E2E2E2E2E2E2E2E2E2BEE2E2
310
F5E2F5F5F5E2F5E2E2BEE2E2E2E2E2E2E2E2E2E2E2E2E2E2E2E2E2E2E2E2E2E2E2E2E2E2E2E2BEE2BEBEE2E2E2E2ECE2E2E2E2E22828E2BEE2E2E2E2E2E2E2E2E2E2E2E228C3C328E2E228E2E228E2E2E2E228E228E228BEE2E2BEBEE2E2E2BEBEE2E2BEE2E2E2E228E2C3C328E2E2E2E2E2E2E2E2E2E2E2E2E2E2E2E2E2E2
310
E2E2E2BEE2BEBEE228E2E2E2ECE2E2E228BEBE28BEE2E2E2E2E2E2E2E2E2E2E2E2E2E2E2E2E2E2E2E2E2E2E2E2E2E2E2E2E2BEE2E2F5E2F5F5F5E2E2E2E2BEE2E2E2E2E2E2E2E2E2E2E2E2E2E2E2E2E2E2E2E2E2E2E2E2E2E2E2E228BE28E2E2E2E2E2ECE2E2E2E2E228E2BE28E2E2E2E2E2E2E2E2E2E2E2E228C3C3282828
310
28E2E228E2E2E2E2282828E228BEE2E2E2BEE2E2E2BEE2E2E2BEE2E2E2E228E2C3C328E2E2E2E2E2E2E2E2E2E2E2E2E2E2E2E2E2E2E2E2E2E2BEE2E2E228E2E2E2ECE2E2E228E2E2BE28C3C3C3C3C3C3C3C3C3C3C3E2E2E2E2E2E2E2E2E2E2E2E2E2E2E2E2E2E2BEE2E2E2E2F5F5F5E2E2E2E2BEE2E2E2E2E2E2E2E2E2E2E2
310
E2E2E2E2E2E2E2E2E2E2E2E2E2E2E2E2E228E2BEBEBEBEBEBEECBEBEBEBEBEBEBEE228E2E2E2E2E2E2E2E2E2E2E2E228C3C32828E228E2E228E2E2E2E2E2E2E2E228F5BEBEBEBEBEBEBEBEBEBEBE28E2E2E2E228E2C3C328E2E2E2E2E2E2E2E2E2E2E2E2E2E2E2E2E2E2E2E2E2E2E2BEBEBE28BEBEBEBEBEBEBE28BEBEE228
310
C3C3C3C3C3C3C3C3C3C3C3E2E2E2E2E2E2E2E2E2E2E2E2E2E2E2E2E2E2BEE2E2E2E2F5F5F5E2E2E2E2BEE2E2E2E2E2E2E2E2E2E2E2E2E2E2E2E2E2E2E2E2E2E2E2E2E2E2E2E228E228282828C3C3ECC3C3C32828F5E2E228E2E2E2E2E2E2E2E2E2E2E2E228C3C32828C328E2E228E2E2E2E2E2E2E2E22828E2C3C3E2E2E2E2
310
E2E2E2E228E2E2E2E228E2E2E228E2E2E2E2E2E2E2E2E2E2E2E2E2E2E2E2E2E2E2E2E2E2E2E2E2E228E2E2E2ECE2E2E228E2E2E2E2C3C3C3C3C3C3C3C3C32828E2E2E2E2E2E2E2E2E2E2E2E2E2E2E2E2E2E2BEE2E2E2E2F5F5F5E2E2E2E2BEE2E2E2E2E2E2E2E2E2E2E2E2E2E2E2E2E2E2E2E2E2E2E2E2E2E2E2E228E2E2E2
310
E2C3C3C3C3C3C3C3E2E2E2E2E228E2E2E2E2E2E2E2E2E2E2E2E228C3C328282828E2E228E2E2E2E2E2E2282828F528C3C328E2E2E2E2E2E2E228E2E2E2E228E2E2E2E2E2E2E2E2E2E2E2E2E2E2E2E2E2E2E2E2E2E2E2E2E2E2E2E2E2E22828E2E2E2E228E228E2E2E2E2C3C3C3C3C3C3C3C3C3E2E2E2E2E2E2E2E2E2E2E2E2
310
E2E2E2E2E2E2E2E2BEE2E2E2E2F5F5F5E2E2E2E2BEE2E2E2E2E2E2E2E2E2E2E2E2E2E2E2E2E2E2E2E2E2E2E2E2E2E2E2E228E2E2E2E2C3C3E2E2E2E2E2E2E2E2E2E228E2E2E2E2E2E2E2E2E2E2E2E228C3C32828C328E2E228E2E2E2E2E2E2E2E2E228E2C3C3E2E2E2E2E2E2E2E228E2E2E2E228E2E2E2E2E2E2E2E2E2E2E2
310
E2E2E2E2E2E2E2E2E2E2E2E2E2E2E2E2E2E2E228C3C3C3C3C3282828E2E2E2E2E2E2E2E2E2E2E2E2E2E2E2E2E2E2E2E2E2E2E2E2E2E2E2E2E2E2E2E2E2BEE2E2E2E2F5F5F5E2E2E2E2BEE2E2E2E2E2E2E2E2E2E2E2E2E2E2E2E2E2E2E2E2E2E2E2E2E2E2E2E2282828282828C3C3C3C3C3282828282828F5E2E2E2E2E2E2E2
310
E2E2E2E2E228C3C32828C328E2E2282828C3C3C3C328282828282828C3C3C32828282828C3C3C3C3C328E2E2E2E2E2E2E2E2E2E2E2E2E2E2E2E2E2E2E2E2E2E2E2E2E2E2E2E2E2E2E2E2E2E2E2E2E2E2E2E2E2E2E2E2E2E2E2E2E2E2E2E2E2E2E2E2E2E2E2E2E2E2E2E2E2E2E2E2E2E2E2E2BEE2E2E2E2F5F5F5E2E2E2E2BE
310
E2E2E2E2E2E2E2E2E2E2E2E2E2E2E2E2E2E2E2E2E2E2E2E2E2E2E2E2E2E2E2E2E2E2C3C3C3C3C3E2E2E2E2E2E2E2E2E2E2E2E2E2E2E2E2E2E2E228C3C32828C328E2E2E2E2E2C3C3C3C3E2E2E2E2E2E2E2C3C3C3E2E2E2E2E2C3C3C3C3C3E2E2E2E2E2E2E2E2E2E2E2E2E2E2E2E2E2E2E2E2E2E2E2E2E2E2E2E2E2E2E2E2E2
310
E2E2E2E2E2E2E2E2E2E2E2E2E2E2E2E2E2E2E2E2E2E2E2E2E2E2E2E2E2E2E2E2E2E2E2E2E2E2E2E2BEE2E2E2E2F5F5F5E2E2E2E2BEE2E2E2E2E2E2E2E2E2E2E2E2E2E2E2E2E2E2E2E2E2E2E2E2E2E2E2E2E2E2E2E2E2E2C3C3E2E2E2E2E2E2E2E2E2E2E2E2E2E2E2E2E2E2E2E2E2E228282828282828E2E2E2E2E2E2E2E2E2
310
E2E2E2E2E2E2E2E2E2E2E2E2E2E2E2E2E2E2E2E2E2E2E2E2E2E2E2E2E2E2E2E2E2E2E2E2E2E2E2E2E2E2E2E2E2E2E2E2E2E2E2E2E2E2E2E2E2E2E2E2E2E2E2E2E2E2E2E2E2E2E2E2E2E2E2E2E2E2E2E2E2E2E2E2E2E2E2E2E2E2E2E2E2BEE2E2E2E2F5F5F5E2E2E2E2BEE2E2E2E2E2E2E2E2E2E2E2E2E2E2E2E2E2E2E2E2E2
310
E2E2E2E2282828282828282828282828282828282828282828E2E2E2E2E2E2E2E2E2E2E2E2E2E2E2E2E2E2E2E2E2E2E2E2E2E2E2E2E2E2E2E2E2E22828282828282828E2E2E2E2E2E2E2E2E2E2E2E2E2E2E2E2E2E2E2E2E2E2E2E2E2E2E2E2E2E2E2E2E2E2E2E22828282828282828E2E2E2E2E2E2E2E2E2E2E2E2E2E2E2E2
310
E2E2E2E2E2E2E2E2E2E2E2E2E2E2E2E2E2E2E2BEE2E2E2E2F5F5F5E2F5E2E2BEE2E2E2E2E2E2E2E2E2E2E2E2E2E2E2E2E2E2E2E2E2E2E2E2E2282828282828282828282828282828282828282828E2E2E2E2E2E2E2E2E2E2E2E2E2E2E2E2E2E2E2E2E2E2E2E2E2E2E2E2E2E2E2E2E2E22828282828282828E2E2E2E2E2E2E2
310
E2E2E2E2E2E2E2E2E2E2E2E2E2E2E2E2E2E2E2E2E2E2E2E2E2E2E2E2E22828282828282828E2E2E2E2E2E2E2E2E2E2E2E2E2E2E2E2E2E2E2E2E2E2E2E2E2E2E2E2E2E2E2E2E2E2E2BEE2E2F5E2F5F5F5E2F5E2E2BEE2E2E2E2E2E2E2E2E2E2E2E2E2E2E2E2E2E2E2E2E2E2E2E2E2E2E2E2E2E2E2E2E2E2E2E2E2E2E2E2E2E2
310
E2E2E2E2E2E2E2E2E2E2E2E2E2E2E2E2E2E2E2E2E2E2E2E2E2E2E2E2E2E2E2E2E2E2E2E2E2E2E2E2E2E2E2E2E2E2E2E2E2E2E2E2E2E2E2E2E2E2E2E2E2E2E2E2E2E2E2E2E2E2E2E2E2E2E2E2E2E2E2E2E2E2E2E2E2E2E2E2E2E2E2E2E2E2E2E2E2E2E2E2E2E2E2E2E2E2E2E2E2E2E2E2E2E2E2E2E2E2E2E2E2E2E2E2E2BEE2
310
E2F5E2F5F5F5E2F5E2E2BEE2E2E2E2E2E2E2E2E2E2E2E2E2E2E2E2E2E2E2E2E2E2E2E2E2E2E2E2E2E2E2E2E2E2E2E2E2E2E2E2E2E2E2E2E2E2E2E2E2E2E2E2E2E2E2E2E2E2E2E2E2E2E2E2E2E2E2E2E2E2E2E2E2E2E2E2E2E2E2E2E2E2E2E2E2E2E2E2E2E2E2E2E2E2E2E2E2E2E2E2E2E2E2E2E2E2E2E2E2E2E2E2E2E2E2E2
310
E2E2E2E2E2E2E2E2E2E2E2E2E2E2E2E2E2E2E2E2E2E2E2E2E2E2E2E2E2E2E2E2E2E2E2E2E2E2E2E2E2E2E2E2E2E2E2E2E2E2E2BEE2E2F5E2F5F5F5E2F5E2E2BEE2E2E2E2E2E2E2E2E2E2E2E2E2E2E2E2E2E2E2E2E2E2E2E2E2E2E2E2E2E2E2E2E2E2E2E2E2E2E2E2E2E2E2E2E2E2E2E2E2E2E2E2E2E2E2E2E2E2E2E2E2E2E2
310
E2E2E2E2E2E2E2E2E2E2E2E2E2E2E2E2E2E2E2E2E2E2E2E2E2E2E2E2E2E2E2E2E2E2E2E2E2E2E2E2E2E2E2E2E2E2E2E2E2E2E2E2E2E2E2E2E2E2E2E2E2E2E2E2E2E2E2E2E2E2E2E2E2E2E2E2E2E2E2E2E2E2E2E2E2E2E2E2E2E2E2E2E2E2E2E2E2E2E2E2E2E2E2E2BEE2E2F5E2F5F5F5E2F5E2E2BEE2E2E2E2E2E2E2E2E2E2
310
E2E2E2E2E2E2E2E2E2E2E2E2E2E2E2E2E2E2E2E2E2E2E2E2E2E2E2E2E2E2E2E2E2E2E2E2E2E2E2E2E2E2E2E2E2E2E2E2E2E2E2E2E2E2E2E2E2E2E2E2E2E2E2E2E2E2E2E2E2E2E2E2E2E2E2E2E2E2E2E2E2E2E2E2E2E2E2E2E2E2E2E2E2E2E2E2E2E2E2E2E2E2E2E2E2E2E2E2E2E2E2E2E2E2E2E2E2E2E2E2E2E2E2E2E2E2E2
310
E2E2E2E2E2E2E2E2E2E2E2E2E2E2E2E2E2E2E2E2E2E2E2E2E2E2E2E2E2E2BEE2E2F5E2F5F5F5E2F5E2E2BEBEBEBEBEBEBEBEBEBEBEBEBEBEBEBEBEBEBEBEBEBEBEBEBEBEBEBEBEBEBEBEBEBEBEBEBEBEBEBEBEBEBEBEBEBEBEBEBEBEBEBEBEBEBEBEBEBEBEBEBEBEBEBEBEBEBEBEBEBEBEBEBEBEBEBEBEBEBEBEBEBEBEBEBE
310
BEBEBEBEBEBEBEBEBEBEBEBEBEBEBEBEBEBEBEBEBEBEBEBEBEBEBEBEBEBEBEBEBEBEBEBEBEBEBEBEBEBEBEBEBEBEBEBEBEBEBEBEBEBEBEBEBEBEBEBEBEBEBEBEBEBEBEBEBEBEBEBEBEBEBEBEBEBEBEBEBEBEBEBEE2E2F5E2F5F5F5E2F5E2E2E2E2E2E2E2E2E2E2E2E2E2E2E2E2E2E2E2E2E2E2E2E2E2E2E2E2E2E2E2E2E2E2
310
E2E2E2E2E2E2E2E2E2E2E2E2E2E2E2E2E2E2E2E2E2E2E2E2E2E2E2E2E2E2E2E2E2E2E2E2E2E2E2E2E2E2E2E2E2E2E2E2E2E2E2E2E2E2E2E2E2E2E2E2E2E2E2E2E2E2E2E2E2E2E2E2E2E2E2E2E2E2E2E2E2E2E2E2E2E2E2E2E2E2E2E2E2E2E2E2E2E2E2E2E2E2E2E2E2E2E2E2E2E2E2E2E2E2E2E2E2E2E2E2E2E2E2E2E2E2E2
310
E2E2E2E2E2E2E2E2E2E2E2E2F5E2F5F5F5E2F5F5F5F5F5F5F5F5E2E2E2E2E2E2E2E2E2F5F5F5F5F5F5F5F5F5F5F5F5F5F5F5F5E2E2E2E2E2E2E2E2E2F5F5F5F5F5F5F5F5F5F5F5F5F5F5F5F5E2E2E2E2E2E2E2E2E2F5F5F5F5F5F5F5F5F5F5F5F5F5F5F5F5E2E2E2E2E2E2E2E2E2F5F5F5F5F5F5F5F5F5F5F5F5F5F5F5F5E2
310
E2E2E2E2E2E2E2E2F5F5F5F5F5F5F5F5F5F5F5F5F5F5F5F5E2E2E2E2E2E2E2E2E2F5F5F5F5F5F5F5F5F5F5F5F5F5F5F5F5E2E2E2E2E2E2E2E2E2F5F5F5F5F5F5F5F5E2F5F5F5E2E2E2E2E2E2E2E2E2E2E2E2E2E2E2E2E2E2E2E2E2E2E2E2E2E2E2E2E2E2E2E2E2E2E2E2E2E2E2E2E2E2E2E2E2E2E2E2E2E2E2E2E2E2E2E2E2
310
E2E2E2E2E2E2E2E2E2E2E2E2E2E2E2E2E2E2E2E2E2E2E2E2E2E2E2E2E2E2E2E2E2E2E2E2E2E2E2E2E2E2E2E2E2E2E2E2E2E2E2E2E2E2E2E2E2E2E2E2E2E2E2E2E2E2E2E2E2E2E2E2E2E2E2E2E2E2E2E2E2E2E2E2E2E2E2E2E2E2E2E2E2E2E2E2E2E2E2E2E2E2E2E2E2E2E2E2E2E2E2E2E2E2E2E2E2E2E2E2F5EFF5F5F5F5F5
310
F5F5F5F5F5F5F5F5F5F5F5F5F5F5F5F5F5F5F5F5F5F5F5F5F5F5F5F5F5F5F5F5F5F5F5F5F5F5F5F5F5F5F5F5F5F5F5F5F5F5F5F5F5F5F5F5F5F5F5F5F5F5F5F5F5F5F5F5F5F5F5F5F5F5F5F5F5F5F5F5F5F5F5F5F5F5F5F5F5F5F5F5F5F5F5F5F5F5F5F5F5F5F5F5F5F5F5F5F5F5F5F5F5F5F5F5F5F5F5F5F5F5F5F5F5F5F5
310
F5F5F5F5F5F5F5F5F5F5F5F5F5F5F5F5F5F5F5F5F5F5F5F5F5F5F5F5F5F5F5F5F5F5F5F5F5F5F5F5F5F5F5F5F5F5F5EF
  0
XRECORD
  5
6435
102
{ACAD_REACTORS
330
6434
102
}
330
6434
100
AcDbXrecord
280
     1
102
SHADEPLOT
 70
     0
102
SHADEPLOTRESLEVEL
 70
     2
102
SHADEPLOTCUSTOMDPI
 70
   300
  0
ENDSEC
  0
EOF
