  0
SECTION
  2
HEADER
  9
$ACADVER
  1
AC1015
  9
$ACADMAINTVER
 70
    20
  9
$DWGCODEPAGE
  3
ANSI_1252
  9
$INSBASE
 10
0.0
 20
0.0
 30
0.0
  9
$EXTMIN
 10
708.9490200898751
 20
561.7546799142708
 30
0.0
  9
$EXTMAX
 10
1058.239792375071
 20
671.7568301737478
 30
0.0
  9
$LIMMIN
 10
0.0
 20
0.0
  9
$LIMMAX
 10
420.0
 20
297.0
  9
$ORTHOMODE
 70
     1
  9
$REGENMODE
 70
     1
  9
$FILLMODE
 70
     1
  9
$QTEXTMODE
 70
     0
  9
$MIRRTEXT
 70
     1
  9
$LTSCALE
 40
1.0
  9
$ATTMODE
 70
     1
  9
$TEXTSIZE
 40
2.399999999999999
  9
$TRACEWID
 40
1.0
  9
$TEXTSTYLE
  7
STANDARD
  9
$CLAYER
  8
DIM
  9
$CELTYPE
  6
ByLayer
  9
$CECOLOR
 62
   256
  9
$CELTSCALE
 40
1.0
  9
$DISPSILH
 70
     0
  9
$DIMSCALE
 40
1.0
  9
$DIMASZ
 40
3.0
  9
$DIMEXO
 40
1.0
  9
$DIMDLI
 40
1.0
  9
$DIMRND
 40
0.0
  9
$DIMDLE
 40
0.0
  9
$DIMEXE
 40
1.0
  9
$DIMTP
 40
0.0
  9
$DIMTM
 40
0.000000001
  9
$DIMTXT
 40
3.0
  9
$DIMCEN
 40
-0.05
  9
$DIMTSZ
 40
0.0
  9
$DIMTOL
 70
     0
  9
$DIMLIM
 70
     0
  9
$DIMTIH
 70
     0
  9
$DIMTOH
 70
     0
  9
$DIMSE1
 70
     0
  9
$DIMSE2
 70
     0
  9
$DIMTAD
 70
     1
  9
$DIMZIN
 70
     8
  9
$DIMBLK
  1

  9
$DIMASO
 70
     1
  9
$DIMSHO
 70
     1
  9
$DIMPOST
  1

  9
$DIMAPOST
  1

  9
$DIMALT
 70
     0
  9
$DIMALTD
 70
     2
  9
$DIMALTF
 40
25.4
  9
$DIMLFAC
 40
1.0
  9
$DIMTOFL
 70
     1
  9
$DIMTVP
 40
5.0
  9
$DIMTIX
 70
     0
  9
$DIMSOXD
 70
     0
  9
$DIMSAH
 70
     0
  9
$DIMBLK1
  1

  9
$DIMBLK2
  1

  9
$DIMSTYLE
  2
STANDARD
  9
$DIMCLRD
 70
     3
  9
$DIMCLRE
 70
     3
  9
$DIMCLRT
 70
     6
  9
$DIMTFAC
 40
0.8
  9
$DIMGAP
 40
1.0
  9
$DIMJUST
 70
     0
  9
$DIMSD1
 70
     0
  9
$DIMSD2
 70
     0
  9
$DIMTOLJ
 70
     1
  9
$DIMTZIN
 70
     8
  9
$DIMALTZ
 70
     0
  9
$DIMALTTZ
 70
     0
  9
$DIMUPT
 70
     0
  9
$DIMDEC
 70
     2
  9
$DIMTDEC
 70
     2
  9
$DIMALTU
 70
     2
  9
$DIMALTTD
 70
     2
  9
$DIMTXSTY
  7
STANDARD
  9
$DIMAUNIT
 70
     0
  9
$DIMADEC
 70
     0
  9
$DIMALTRND
 40
0.0
  9
$DIMAZIN
 70
     0
  9
$DIMDSEP
 70
    46
  9
$DIMATFIT
 70
     3
  9
$DIMFRAC
 70
     0
  9
$DIMLDRBLK
  1

  9
$DIMLUNIT
 70
     2
  9
$DIMLWD
 70
    -1
  9
$DIMLWE
 70
    -2
  9
$DIMTMOVE
 70
     0
  9
$LUNITS
 70
     2
  9
$LUPREC
 70
     2
  9
$SKETCHINC
 40
1.0
  9
$FILLETRAD
 40
5.0
  9
$AUNITS
 70
     0
  9
$AUPREC
 70
     0
  9
$MENU
  1
.
  9
$ELEVATION
 40
0.0
  9
$PELEVATION
 40
0.0
  9
$THICKNESS
 40
0.0
  9
$LIMCHECK
 70
     0
  9
$CHAMFERA
 40
3.0
  9
$CHAMFERB
 40
3.0
  9
$CHAMFERC
 40
3.5
  9
$CHAMFERD
 40
0.7853981633974483
  9
$SKPOLY
 70
     0
  9
$TDCREATE
 40
2453787.394483275
  9
$TDUCREATE
 40
2453787.352816609
  9
$TDUPDATE
 40
2454162.452818472
  9
$TDUUPDATE
 40
2454162.411151806
  9
$TDINDWG
 40
1.5327810301
  9
$TDUSRTIMER
 40
1.5319289468
  9
$USRTIMER
 70
     1
  9
$ANGBASE
 50
0.0
  9
$ANGDIR
 70
     0
  9
$PDMODE
 70
     0
  9
$PDSIZE
 40
0.0
  9
$PLINEWID
 40
0.0
  9
$SPLFRAME
 70
     0
  9
$SPLINETYPE
 70
     6
  9
$SPLINESEGS
 70
     8
  9
$HANDSEED
  5
6BEC
  9
$SURFTAB1
 70
     6
  9
$SURFTAB2
 70
     6
  9
$SURFTYPE
 70
     6
  9
$SURFU
 70
     6
  9
$SURFV
 70
     6
  9
$UCSBASE
  2

  9
$UCSNAME
  2

  9
$UCSORG
 10
0.0
 20
0.0
 30
0.0
  9
$UCSXDIR
 10
1.0
 20
0.0
 30
0.0
  9
$UCSYDIR
 10
0.0
 20
1.0
 30
0.0
  9
$UCSORTHOREF
  2

  9
$UCSORTHOVIEW
 70
     0
  9
$UCSORGTOP
 10
0.0
 20
0.0
 30
0.0
  9
$UCSORGBOTTOM
 10
0.0
 20
0.0
 30
0.0
  9
$UCSORGLEFT
 10
0.0
 20
0.0
 30
0.0
  9
$UCSORGRIGHT
 10
0.0
 20
0.0
 30
0.0
  9
$UCSORGFRONT
 10
0.0
 20
0.0
 30
0.0
  9
$UCSORGBACK
 10
0.0
 20
0.0
 30
0.0
  9
$PUCSBASE
  2

  9
$PUCSNAME
  2

  9
$PUCSORG
 10
0.0
 20
0.0
 30
0.0
  9
$PUCSXDIR
 10
1.0
 20
0.0
 30
0.0
  9
$PUCSYDIR
 10
0.0
 20
1.0
 30
0.0
  9
$PUCSORTHOREF
  2

  9
$PUCSORTHOVIEW
 70
     0
  9
$PUCSORGTOP
 10
0.0
 20
0.0
 30
0.0
  9
$PUCSORGBOTTOM
 10
0.0
 20
0.0
 30
0.0
  9
$PUCSORGLEFT
 10
0.0
 20
0.0
 30
0.0
  9
$PUCSORGRIGHT
 10
0.0
 20
0.0
 30
0.0
  9
$PUCSORGFRONT
 10
0.0
 20
0.0
 30
0.0
  9
$PUCSORGBACK
 10
0.0
 20
0.0
 30
0.0
  9
$USERI1
 70
     0
  9
$USERI2
 70
     0
  9
$USERI3
 70
     0
  9
$USERI4
 70
     0
  9
$USERI5
 70
     0
  9
$USERR1
 40
0.0
  9
$USERR2
 40
0.0
  9
$USERR3
 40
0.0
  9
$USERR4
 40
0.0
  9
$USERR5
 40
0.0
  9
$WORLDVIEW
 70
     1
  9
$SHADEDGE
 70
     3
  9
$SHADEDIF
 70
    70
  9
$TILEMODE
 70
     0
  9
$MAXACTVP
 70
    64
  9
$PINSBASE
 10
0.0
 20
0.0
 30
0.0
  9
$PLIMCHECK
 70
     0
  9
$PEXTMIN
 10
-0.0052910479707862
 20
-0.0001672056502002
 30
-0.0015258207003583
  9
$PEXTMAX
 10
282.0477271469593
 20
196.116667143724
 30
0.0000000349246037
  9
$PLIMMIN
 10
-7.473533618550789
 20
-6.947006962606337
  9
$PLIMMAX
 10
289.5159683345742
 20
203.0474846145421
  9
$UNITMODE
 70
     0
  9
$VISRETAIN
 70
     1
  9
$PLINEGEN
 70
     0
  9
$PSLTSCALE
 70
     1
  9
$TREEDEPTH
 70
  3020
  9
$CMLSTYLE
  2
Standard
  9
$CMLJUST
 70
     0
  9
$CMLSCALE
 40
20.0
  9
$PROXYGRAPHICS
 70
     1
  9
$MEASUREMENT
 70
     1
  9
$CELWEIGHT
370
    -1
  9
$ENDCAPS
280
     0
  9
$JOINSTYLE
280
     0
  9
$LWDISPLAY
290
     0
  9
$INSUNITS
 70
     4
  9
$HYPERLINKBASE
  1

  9
$STYLESHEET
  1
monochrome.ctb
  9
$XEDIT
290
     1
  9
$CEPSNTYPE
380
     0
  9
$PSTYLEMODE
290
     1
  9
$FINGERPRINTGUID
  2
{65A8C6A1-B973-4B90-93E8-5CEEA7DDEAA7}
  9
$VERSIONGUID
  2
{0F5DA77E-5B15-4A91-B7A3-8D18C2082D71}
  9
$EXTNAMES
290
     1
  9
$PSVPSCALE
 40
1.0
  9
$OLESTARTUP
290
     0
  0
ENDSEC
  0
SECTION
  2
CLASSES
  0
CLASS
  1
ACDBDICTIONARYWDFLT
  2
AcDbDictionaryWithDefault
  3
ObjectDBX Classes
 90
        0
280
     0
281
     0
  0
CLASS
  1
ACDBPLACEHOLDER
  2
AcDbPlaceHolder
  3
ObjectDBX Classes
 90
        0
280
     0
281
     0
  0
CLASS
  1
LAYOUT
  2
AcDbLayout
  3
ObjectDBX Classes
 90
        0
280
     0
281
     0
  0
CLASS
  1
ACME_DOCUMENT
  2
AcMeDbDoc
  3
AcMeServices
 90
        0
280
     0
281
     0
  0
CLASS
  1
AMGSETTINGSOBJ
  2
AmgSettingsObj
  3
"AcadM|Product Description: AutoCAD Mechanical 2000|Company: Autodesk"
 90
        0
280
     0
281
     0
  0
CLASS
  1
ACMESCOPE
  2
AcMeScope
  3
AcMeServices
 90
        0
280
     0
281
     0
  0
CLASS
  1
ACMECOMMANDHISTORY
  2
AcMeCommandHistory
  3
AcMeServices
 90
        0
280
     0
281
     0
  0
CLASS
  1
ACIMSYSVARMAN
  2
AcImSysVarManager
  3
AcMeServices
 90
        0
280
     0
281
     0
  0
CLASS
  1
ACIMREALSYSVAR
  2
AcImRealSysVar
  3
AcMeServices
 90
        0
280
     0
281
     0
  0
CLASS
  1
ACIMINTSYSVAR
  2
AcImIntSysVar
  3
AcMeServices
 90
        0
280
     0
281
     0
  0
CLASS
  1
ACMEDRAWINGMAN
  2
AcMeDrawingMan
  3
AcMeServices
 90
        0
280
     0
281
     0
  0
CLASS
  1
ACMEVIEW
  2
AcMeView
  3
AcMeServices
 90
        0
280
     0
281
     0
  0
CLASS
  1
ACDBENTITYCACHE
  2
AcMeEntityCache
  3
AcMeServices
 90
        0
280
     0
281
     0
  0
CLASS
  1
GSMANAGER
  2
AcMeGSManager
  3
AcMeServices
 90
        0
280
     0
281
     0
  0
CLASS
  1
AMDTINTERNALREACTOR
  2
AmdtInternalReactor
  3
AcMeServices
 90
        0
280
     0
281
     0
  0
CLASS
  1
ACMESTATEMGR
  2
AcMeStateMgr
  3
AcMeServices
 90
        0
280
     0
281
     0
  0
CLASS
  1
ACGREFMASTER
  2
AcGrefMaster
  3
AcAttribServices
 90
        0
280
     0
281
     0
  0
CLASS
  1
ACME_DATABASE
  2
AcMeDbDatabase
  3
AcMeServices
 90
        0
280
     0
281
     0
  0
CLASS
  1
ACRFINSADJUSTERMGR
  2
AcRfInsAdjusterMgr
  3
AcMeServices
 90
        0
280
     0
281
     0
  0
CLASS
  1
ACGREFACADMASTER
  2
AcGrefacadMaster
  3
AcGrefServices
 90
        0
280
     0
281
     0
  0
CLASS
  1
AMIMASTER
  2
AmiMaster
  3
AmiServices
 90
        0
280
     0
281
     0
  0
CLASS
  1
ACMDATADICTIONARY
  2
AcmDataDictionary
  3
"AcmSymBB|Product Description: AutoCAD Mechanical 2004 DX|Company: Autodesk"
 90
        0
280
     0
281
     0
  0
CLASS
  1
ACMDATAENTRYBLOCK
  2
AcmDataEntryBlock
  3
"AcmSymBB|Product Description: AutoCAD Mechanical 2004 DX|Company: Autodesk"
 90
        0
280
     0
281
     0
  0
CLASS
  1
ACIMSTRSYSVAR
  2
AcImStrSysVar
  3
AcMeServices
 90
        0
280
     0
281
     0
  0
CLASS
  1
ACMSTANDARDISO
  2
AcmStandardISO
  3
"Amdt_StdImp|Product Description: AutoCAD Mechanical 2004 DX|Company: Autodesk"
 90
        0
280
     0
281
     0
  0
CLASS
  1
AMGOBJPROPCFG
  2
AmgObjPropCfg
  3
"AmgLay|Product Description: AutoCAD Mechanical 2000|Company: Autodesk"
 90
        1
280
     0
281
     0
  0
CLASS
  1
AMDTEDGESTANDARDISO
  2
AmdtEdgeStdISO
  3
"Amdt_StdImp|Product Description: AutoCAD Mechanical 2004 DX|Company: Autodesk"
 90
        0
280
     0
281
     0
  0
CLASS
  1
ACMSURFSTANDARDISO
  2
AcmSurfTextStdISO
  3
"Amdt_StdImp|Product Description: AutoCAD Mechanical 2004 DX|Company: Autodesk"
 90
        0
280
     0
281
     0
  0
CLASS
  1
ACMFCFSTANDARDISO
  2
AcmFCFStdISO
  3
"Amdt_StdImp|Product Description: AutoCAD Mechanical 2004 DX|Company: Autodesk"
 90
        0
280
     0
281
     0
  0
CLASS
  1
ACMWELDSTANDARDISO
  2
AcmWeldingStdISO
  3
"Amdt_StdImp|Product Description: AutoCAD Mechanical 2004 DX|Company: Autodesk"
 90
        0
280
     0
281
     0
  0
CLASS
  1
ACMIDSTANDARDISO
  2
AcmIdStdISO
  3
"Amdt_StdImp|Product Description: AutoCAD Mechanical 2004 DX|Company: Autodesk"
 90
        0
280
     0
281
     0
  0
CLASS
  1
ACMDATUMSTANDARDISO
  2
AcmDatumStdISO
  3
"Amdt_StdImp|Product Description: AutoCAD Mechanical 2004 DX|Company: Autodesk"
 90
        0
280
     0
281
     0
  0
CLASS
  1
ACMBOMSTANDARDISO
  2
AcmBOMStdISO
  3
"Amdt_StdImp|Product Description: AutoCAD Mechanical 2004 DX|Company: Autodesk"
 90
        0
280
     0
281
     0
  0
CLASS
  1
ACMDETAILSTANDARDISO
  2
AmdtDetailSymStdISO
  3
"Amdt_StdImp|Product Description: AutoCAD Mechanical 2004 DX|Company: Autodesk"
 90
        0
280
     0
281
     0
  0
CLASS
  1
ACMSECTIONSTANDARDISO
  2
AmdtSectionSymStdISO
  3
"Amdt_StdImp|Product Description: AutoCAD Mechanical 2004 DX|Company: Autodesk"
 90
        0
280
     0
281
     0
  0
CLASS
  1
ACMCENTERLINESTANDARDISO
  2
AmdtCenterLineStdISO
  3
"Amdt_StdImp|Product Description: AutoCAD Mechanical 2004 DX|Company: Autodesk"
 90
        0
280
     0
281
     0
  0
CLASS
  1
ACMNOTESTANDARDISO
  2
AmdtNoteStdISO
  3
"Amdt_StdImp|Product Description: AutoCAD Mechanical 2004 DX|Company: Autodesk"
 90
        0
280
     0
281
     0
  0
CLASS
  1
ACAMGLAYSTD
  2
AcAmgLayStd
  3
"AcAmgLayStd|Product Description: AutoCAD Mechanical 2000|Company: Autodesk"
 90
        0
280
     0
281
     0
  0
CLASS
  1
ACAMGDIMSTD
  2
AcAmgDimStd
  3
"AcAmgDimStd|Product Description: AutoCAD Mechanical 2000|Company: Autodesk"
 90
        0
280
     0
281
     0
  0
CLASS
  1
ACAMGHOLECHARTSTDISO
  2
AcAmgHoleChartStdISO
  3
ACMSYMBB_MODULE_NAME
 90
        0
280
     0
281
     0
  0
CLASS
  1
ACAMGTITLESTD
  2
AcAmgTitleStd
  3
"TITLEAPP"
 90
        0
280
     0
281
     0
  0
CLASS
  1
LAYER_INDEX
  2
AcDbLayerIndex
  3
ObjectDBX Classes
 90
    32768
280
     0
281
     0
  0
CLASS
  1
IDBUFFER
  2
AcDbIdBuffer
  3
ObjectDBX Classes
 90
    32768
280
     0
281
     0
  0
CLASS
  1
DICTIONARYVAR
  2
AcDbDictionaryVar
  3
ObjectDBX Classes
 90
        0
280
     0
281
     0
  0
CLASS
  1
AM_DRAWING_MGR
  2
AcDmDwgMgr
  3
AcMechDwgViewMgmt
 90
        0
280
     0
281
     0
  0
CLASS
  1
AM_DWG_DOCUMENT
  2
AcDmDwgDocument
  3
AcMechDwgViewMgmt
 90
        0
280
     0
281
     0
  0
CLASS
  1
AM_DWG_SHEET
  2
AcDmSheet
  3
AcMechDwgViewMgmt
 90
        0
280
     0
281
     0
  0
CLASS
  1
AM_VIEWDIMPARMAP
  2
AcDmViewDimParMap
  3
AcMechDwgViewMgmt
 90
        0
280
     0
281
     0
  0
CLASS
  1
AM_DWGMGR_NAME
  2
AcDmDwgMgrName
  3
AcMechDwgViewMgmt
 90
        0
280
     0
281
     0
  0
CLASS
  1
AMDTMENUSTATEMGR
  2
AmdtMenuStateMgr
  3
McadcomServices
 90
        0
280
     0
281
     0
  0
CLASS
  1
AMDTMCOMMENUSTATE
  2
AmdtMcomMenuState
  3
McadcomServices
 90
        0
280
     0
281
     0
  0
CLASS
  1
MAPIAMMOUDLE
  2
MApiAmModule
  3
MApiAmServices
 90
        0
280
     0
281
     0
  0
CLASS
  1
AMDTADMENUSTATE
  2
AmdtAdMenuState
  3
DesignerServices
 90
        0
280
     0
281
     0
  0
CLASS
  1
ADAPPL
  2
AcAdAppl
  3
DesignerServices
 90
        0
280
     0
281
     0
  0
CLASS
  1
DEPMGR
  2
AcAdDepMgr
  3
DesignerServices
 90
        0
280
     0
281
     0
  0
CLASS
  1
PARAMMGR
  2
AcAdParamMgr
  3
DesignerServices
 90
        0
280
     0
281
     0
  0
CLASS
  1
PARAMSCOPE
  2
AcAdParamScope
  3
DesignerServices
 90
        0
280
     0
281
     0
  0
CLASS
  1
NAMEDAPPL
  2
AcAdNamedAppl
  3
DesignerServices
 90
        0
280
     0
281
     0
  0
CLASS
  1
AMDTDMMENUSTATE
  2
AmdtDmMenuState
  3
AcMechDwgViewMgmt
 90
        0
280
     0
281
     0
  0
CLASS
  1
AMDTAMMENUSTATE
  2
AmdtAmMenuState
  3
DesignerAssemblies
 90
        0
280
     0
281
     0
  0
CLASS
  1
ACAMPROJECT
  2
AcAmProject
  3
DesignerAssemblies
 90
        0
280
     0
281
     0
  0
CLASS
  1
ACAMGRCOMPDEF
  2
AcAmGrCompDef
  3
DesignerAssemblies
 90
        0
280
     0
281
     0
  0
CLASS
  1
ACCMCONTEXT
  2
AcCmContext
  3
DesignerAssemblies
 90
        0
280
     0
281
     0
  0
CLASS
  1
ACAMCOMPDEF
  2
AcAmCompDef
  3
DesignerAssemblies
 90
        0
280
     0
281
     0
  0
CLASS
  1
ACAMCOMPDEFMGR
  2
AcAmCompDefMgr
  3
DesignerAssemblies
 90
        0
280
     0
281
     0
  0
CLASS
  1
AMCONTEXTMGR
  2
AcAmContextMgr
  3
DesignerAssemblies
 90
        0
280
     0
281
     0
  0
CLASS
  1
ACAMCONTEXTMODELER
  2
AcAmContextModeler
  3
DesignerAssemblies
 90
        0
280
     0
281
     0
  0
CLASS
  1
ACMTHREADLINESTANDARDISO
  2
AmdtThreadLineStdISO
  3
"Amdt_StdImp|Product Description: AutoCAD Mechanical 2004 DX|Company: Autodesk"
 90
        0
280
     0
281
     0
  0
CLASS
  1
CATALOGSTATE
  2
AcAmCatalogState
  3
DesignerAssemblies
 90
        0
280
     0
281
     0
  0
CLASS
  1
ACAMGRCOMPDEFSET
  2
AcAmGrCompDefSet
  3
DesignerAssemblies
 90
        0
280
     0
281
     0
  0
CLASS
  1
AMDTBROWSERDBTAB
  2
AmdtBrowserDbTab
  3
McadcomServices
 90
        0
280
     0
281
     0
  0
CLASS
  1
CBROWSERAPPOBJECT
  2
CBrowserAppObject
  3
McadcomServices
 90
        0
280
     0
281
     0
  0
CLASS
  1
DM_PLACEHOLDER
  2
AcDmSelsetPlaceholder
  3
AcMechDwgViewMgmt
 90
        0
280
     0
281
     0
  0
CLASS
  1
TABLESTYLE
  2
AcDbTableStyle
  3
ObjectDBX Classes
 90
     2047
280
     0
281
     0
  0
CLASS
  1
VAACXREFPANELOBJECT
  2
VaAcXREFPanelObject
  3
VAAC_ADDIN
 90
    32768
280
     0
281
     0
  0
CLASS
  1
VAACIMAGEINVENTORY
  2
VaAcImageInventory
  3
VAAC_ADDIN
 90
    32768
280
     0
281
     0
  0
CLASS
  1
AMDTNOTETEMPLATEDB
  2
AmdtNoteTemplateDB
  3
AMDT_STDIMP_MODULE_NAME
 90
        0
280
     0
281
     0
  0
CLASS
  1
ACAMGFILTERDAT
  2
AcAmgFilterDat
  3
"AcadM|Product Description: AutoCAD Mechanical 2000|Company: Autodesk"
 90
        0
280
     0
281
     0
  0
CLASS
  1
ACMBOM
  2
AcmBom
  3
"AcmSymBB|Product Description: AutoCAD Mechanical 2004 DX|Company: Autodesk"
 90
    32768
280
     0
281
     0
  0
CLASS
  1
AMDTFORMULAUPDATEDISPATCHER
  2
AmdtFormulaUpdateDispatcher
  3
AcMeServices
 90
    32768
280
     0
281
     0
  0
CLASS
  1
DIMASSOC
  2
AcDbDimAssoc
  3
"AcDbDimAssoc|Product Desc:     AcDim ARX App For Dimension|Company:          Autodesk, Inc.|WEB Address:      www.autodesk.com"
 90
        0
280
     0
281
     0
  0
CLASS
  1
SORTENTSTABLE
  2
AcDbSortentsTable
  3
ObjectDBX Classes
 90
        0
280
     0
281
     0
  0
CLASS
  1
ACMSTANDARDANSI
  2
AcmStandardANSI
  3
"Amdt_StdImp|Product Description: AutoCAD Mechanical 2004 DX|Company: Autodesk"
 90
        0
280
     0
281
     0
  0
CLASS
  1
ACMSURFSTANDARDANSI
  2
AcmSurfTextStdANSI
  3
"Amdt_StdImp|Product Description: AutoCAD Mechanical 2004 DX|Company: Autodesk"
 90
        0
280
     0
281
     0
  0
CLASS
  1
ACMFCFSTANDARDANSI
  2
AcmFCFStdANSI
  3
"Amdt_StdImp|Product Description: AutoCAD Mechanical 2004 DX|Company: Autodesk"
 90
        0
280
     0
281
     0
  0
CLASS
  1
ACMWELDSTANDARDANSI
  2
AcmWeldingStdANSI
  3
"Amdt_StdImp|Product Description: AutoCAD Mechanical 2004 DX|Company: Autodesk"
 90
        0
280
     0
281
     0
  0
CLASS
  1
ACMIDSTANDARDANSI
  2
AcmIdStdANSI
  3
"Amdt_StdImp|Product Description: AutoCAD Mechanical 2004 DX|Company: Autodesk"
 90
        0
280
     0
281
     0
  0
CLASS
  1
ACMDATUMSTANDARDANSI
  2
AcmDatumStdANSI
  3
"Amdt_StdImp|Product Description: AutoCAD Mechanical 2004 DX|Company: Autodesk"
 90
        0
280
     0
281
     0
  0
CLASS
  1
ACMBOMSTANDARDANSI
  2
AcmBOMStdANSI
  3
"Amdt_StdImp|Product Description: AutoCAD Mechanical 2004 DX|Company: Autodesk"
 90
        0
280
     0
281
     0
  0
CLASS
  1
ACMDETAILSTANDARDANSI
  2
AmdtDetailSymStdANSI
  3
"Amdt_StdImp|Product Description: AutoCAD Mechanical 2004 DX|Company: Autodesk"
 90
        0
280
     0
281
     0
  0
CLASS
  1
ACMSECTIONSTANDARDANSI
  2
AmdtSectionSymStdANSI
  3
"Amdt_StdImp|Product Description: AutoCAD Mechanical 2004 DX|Company: Autodesk"
 90
        0
280
     0
281
     0
  0
CLASS
  1
ACMCENTERLINESTANDARDANSI
  2
AmdtCenterLineStdANSI
  3
"Amdt_StdImp|Product Description: AutoCAD Mechanical 2004 DX|Company: Autodesk"
 90
        0
280
     0
281
     0
  0
CLASS
  1
ACMTHREADLINESTANDARDANSI
  2
AmdtThreadLineStdANSI
  3
"Amdt_StdImp|Product Description: AutoCAD Mechanical 2004 DX|Company: Autodesk"
 90
        0
280
     0
281
     0
  0
CLASS
  1
ACMNOTESTANDARDANSI
  2
AmdtNoteStdANSI
  3
"Amdt_StdImp|Product Description: AutoCAD Mechanical 2004 DX|Company: Autodesk"
 90
        0
280
     0
281
     0
  0
CLASS
  1
ACAMGHOLECHARTSTDANSI
  2
AcAmgHoleChartStdANSI
  3
ACMSYMBB_MODULE_NAME
 90
        0
280
     0
281
     0
  0
CLASS
  1
ACRFATTGENMGR
  2
AcRfAttGeneralMgr
  3
AcAttribServices
 90
        0
280
     0
281
     0
  0
ENDSEC
  0
SECTION
  2
TABLES
  0
TABLE
  2
VPORT
  5
8
330
0
100
AcDbSymbolTable
 70
     2
  0
VPORT
  5
6BC0
330
8
100
AcDbSymbolTableRecord
100
AcDbViewportTableRecord
  2
*Active
 70
     0
 10
0.0
 20
0.0
 11
1.0
 21
1.0
 12
899.2649137460528
 22
612.1025839456389
 13
0.0
 23
0.0
 14
2.5
 24
2.5
 15
10.0
 25
10.0
 16
0.0
 26
0.0
 36
1.0
 17
0.0
 27
0.0
 37
0.0
 40
302.0043058365893
 41
1.361675126903553
 42
50.0
 43
0.0
 44
0.0
 50
0.0
 51
0.0
 71
     0
 72
   100
 73
     1
 74
     3
 75
     0
 76
     1
 77
     0
 78
     0
281
     0
 65
     1
110
0.0
120
0.0
130
0.0
111
1.0
121
0.0
131
0.0
112
0.0
122
1.0
132
0.0
 79
     0
146
0.0
  0
ENDTAB
  0
TABLE
  2
LTYPE
  5
5
330
0
100
AcDbSymbolTable
 70
    19
  0
LTYPE
  5
14
330
5
100
AcDbSymbolTableRecord
100
AcDbLinetypeTableRecord
  2
ByBlock
 70
     0
  3

 72
    65
 73
     0
 40
0.0
  0
LTYPE
  5
15
330
5
100
AcDbSymbolTableRecord
100
AcDbLinetypeTableRecord
  2
ByLayer
 70
     0
  3

 72
    65
 73
     0
 40
0.0
  0
LTYPE
  5
16
330
5
100
AcDbSymbolTableRecord
100
AcDbLinetypeTableRecord
  2
Continuous
 70
     0
  3
Solid line
 72
    65
 73
     0
 40
0.0
  0
LTYPE
  5
64
330
5
100
AcDbSymbolTableRecord
100
AcDbLinetypeTableRecord
  2
AM_ISO02W050
 70
     0
  3
__ __ __ __ __ __ __ __ __ __ __ __ __ __ __
 72
    65
 73
     2
 40
7.5
 49
6.0
 74
     0
 49
-1.5
 74
     0
  0
LTYPE
  5
65
330
5
100
AcDbSymbolTableRecord
100
AcDbLinetypeTableRecord
  2
AM_ISO08W050
 70
     0
  3
____ . ____ . ____ . ____ . ____ . ____ . ____
 72
    65
 73
     4
 40
18.0
 49
12.0
 74
     0
 49
-1.5
 74
     0
 49
3.0
 74
     0
 49
-1.5
 74
     0
  0
LTYPE
  5
66
330
5
100
AcDbSymbolTableRecord
100
AcDbLinetypeTableRecord
  2
AM_ISO09W050
 70
     0
  3
_____ . . _____ . . _____ . . ____ .. ____
 72
    65
 73
     6
 40
22.5
 49
12.0
 74
     0
 49
-1.5
 74
     0
 49
3.0
 74
     0
 49
-1.5
 74
     0
 49
3.0
 74
     0
 49
-1.5
 74
     0
  0
LTYPE
  5
67
330
5
100
AcDbSymbolTableRecord
100
AcDbLinetypeTableRecord
  2
Amconstr
 70
     0
  3
_______________________
 72
    65
 73
     2
 40
9999.0
 49
9999.0
 74
     0
 49
0.0
 74
     0
  0
LTYPE
  5
68
330
5
100
AcDbSymbolTableRecord
100
AcDbLinetypeTableRecord
  2
AM_ISO08W050x2
 70
     0
  3
__ . __ . __ . __ . __ . __
 72
    65
 73
     4
 40
9.0
 49
6.0
 74
     0
 49
-0.75
 74
     0
 49
1.5
 74
     0
 49
-0.75
 74
     0
  0
LTYPE
  5
69
330
5
100
AcDbSymbolTableRecord
100
AcDbLinetypeTableRecord
  2
AM_ISO02W050x2
 70
     0
  3
 _ _ _ _ _ _ _ _ _ _ _ _
 72
    65
 73
     2
 40
3.75
 49
3.0
 74
     0
 49
-0.75
 74
     0
  0
LTYPE
  5
6C
330
5
100
AcDbSymbolTableRecord
100
AcDbLinetypeTableRecord
  2
Amzigzag
 70
     0
  3
/\/-/\/-/\/-/\/-/\/-/\/
 72
    65
 73
     2
 40
11.0001
 49
0.0001
 74
     4
 75
   136
340
22C
 46
0.04
 50
0.0
 44
0.0
 45
0.0
 49
-11.0
 74
     0
  0
LTYPE
  5
7A
330
5
100
AcDbSymbolTableRecord
100
AcDbLinetypeTableRecord
  2
ACISOWELD
 70
     0
  3
_ _ _ _ _
 72
    65
 73
     2
 40
2.0
 49
2.0
 74
     0
 49
-1.0
 74
     0
  0
LTYPE
  5
7B
330
5
100
AcDbSymbolTableRecord
100
AcDbLinetypeTableRecord
  2
ACISOTGB
 70
     0
  3
__ . . __ . .
 72
    65
 73
     6
 40
9.0
 49
4.0
 74
     0
 49
-1.0
 74
     0
 49
1.0
 74
     0
 49
-1.0
 74
     0
 49
1.0
 74
     0
 49
-1.0
 74
     0
  0
LTYPE
  5
7C
330
5
100
AcDbSymbolTableRecord
100
AcDbLinetypeTableRecord
  2
ACISOTGL
 70
     0
  3
_ _ _ _ _
 72
    65
 73
     2
 40
3.0
 49
2.0
 74
     0
 49
-1.0
 74
     0
  0
LTYPE
  5
7E
330
5
100
AcDbSymbolTableRecord
100
AcDbLinetypeTableRecord
  2
CENTER
 70
     0
  3
__ . __
 72
    65
 73
     4
 40
7.0
 49
4.0
 74
     0
 49
-1.0
 74
     0
 49
1.0
 74
     0
 49
-1.0
 74
     0
  0
LTYPE
  5
D8
330
5
100
AcDbSymbolTableRecord
100
AcDbLinetypeTableRecord
  2
HIDDEN
 70
     0
  3
Hidden __ __ __ __ __ __ __ __ __ __ __ __ __ _
 72
    65
 73
     2
 40
9.524999999999998
 49
6.349999999999999
 74
     0
 49
-3.174999999999999
 74
     0
  0
LTYPE
  5
D9
330
5
100
AcDbSymbolTableRecord
100
AcDbLinetypeTableRecord
  2
PHANTOM2
 70
     0
  3
Phantom (.5x) ___ _ _ ___ _ _ ___ _ _ ___ _ _
 72
    65
 73
     6
 40
31.75
 49
15.875
 74
     0
 49
-3.174999999999999
 74
     0
 49
3.174999999999999
 74
     0
 49
-3.174999999999999
 74
     0
 49
3.174999999999999
 74
     0
 49
-3.174999999999999
 74
     0
  0
LTYPE
  5
3BD
330
5
100
AcDbSymbolTableRecord
100
AcDbLinetypeTableRecord
  2
CENTER2
 70
     0
  3
___ _ ___ _ ___ _ ___ _ ___ _ ___ _ ___ _ ___ _
 72
    65
 73
     4
 40
1.125
 49
0.75
 74
     0
 49
-0.125
 74
     0
 49
0.125
 74
     0
 49
-0.125
 74
     0
  0
LTYPE
  5
5C31
330
5
100
AcDbSymbolTableRecord
100
AcDbLinetypeTableRecord
  2
HIDDEN2
 70
     0
  3
Hidden (.5x) _ _ _ _ _ _ _ _ _ _ _ _ _ _ _ _ _
 72
    65
 73
     2
 40
0.1875
 49
0.125
 74
     0
 49
-0.0625
 74
     0
  0
LTYPE
  5
5C32
330
5
100
AcDbSymbolTableRecord
100
AcDbLinetypeTableRecord
  2
Amzigzag2
 70
     0
  3
/\/-/\/-/\/-/\/-/\/-/\/
 72
    65
 73
     2
 40
0.4401
 49
0.0001
 74
     4
 75
   136
340
22C
 46
0.0016
 50
0.0
 44
0.0
 45
0.0
 49
-0.4400000000000001
 74
     0
  0
LTYPE
  5
5C33
330
5
100
AcDbSymbolTableRecord
100
AcDbLinetypeTableRecord
  2
ACANSTGB
 70
     0
  3
__ . . __ . .
 72
    65
 73
     6
 40
0.35433070866
 49
0.15748031496
 74
     0
 49
-0.03937007874
 74
     0
 49
0.03937007874
 74
     0
 49
-0.03937007874
 74
     0
 49
0.03937007874
 74
     0
 49
-0.03937007874
 74
     0
  0
LTYPE
  5
5C34
330
5
100
AcDbSymbolTableRecord
100
AcDbLinetypeTableRecord
  2
ACANSTGL
 70
     0
  3
_ _ _ _ _
 72
    65
 73
     2
 40
0.11811023622
 49
0.07874015748
 74
     0
 49
-0.03937007874
 74
     0
  0
ENDTAB
  0
TABLE
  2
LAYER
  5
2
102
{ACAD_XDICTIONARY
360
2F5
102
}
330
0
100
AcDbSymbolTable
 70
    15
  0
LAYER
  5
10
330
2
100
AcDbSymbolTableRecord
100
AcDbLayerTableRecord
  2
0
 70
     0
 62
     7
  6
Continuous
370
    -3
390
F
  0
LAYER
  5
3BE
330
2
100
AcDbSymbolTableRecord
100
AcDbLayerTableRecord
  2
SPEC
 70
     0
 62
     1
  6
Continuous
370
    -3
390
F
  0
LAYER
  5
3BF
330
2
100
AcDbSymbolTableRecord
100
AcDbLayerTableRecord
  2
CENTER
 70
     0
 62
   252
  6
CENTER2
370
    -3
390
F
  0
LAYER
  5
3C0
330
2
100
AcDbSymbolTableRecord
100
AcDbLayerTableRecord
  2
DATA
 70
     0
 62
     6
  6
Continuous
370
    -3
390
F
  0
LAYER
  5
3C1
330
2
100
AcDbSymbolTableRecord
100
AcDbLayerTableRecord
  2
DIM
 70
     0
 62
     3
  6
Continuous
370
    -3
390
F
  0
LAYER
  5
3C2
330
2
100
AcDbSymbolTableRecord
100
AcDbLayerTableRecord
  2
Defpoints
 70
     0
 62
     7
  6
Continuous
290
     0
370
    -3
390
F
  0
LAYER
  5
3C3
330
2
100
AcDbSymbolTableRecord
100
AcDbLayerTableRecord
  2
FRAME
 70
     0
 62
     1
  6
Continuous
370
    -3
390
F
  0
LAYER
  5
3C4
330
2
100
AcDbSymbolTableRecord
100
AcDbLayerTableRecord
  2
CONNECTOR
 70
     0
 62
     2
  6
Continuous
370
    -3
390
F
  0
LAYER
  5
3C5
330
2
100
AcDbSymbolTableRecord
100
AcDbLayerTableRecord
  2
SCHRIFT
 70
     0
 62
     1
  6
Continuous
370
    -3
390
F
  0
LAYER
  5
3E62
330
2
100
AcDbSymbolTableRecord
100
AcDbLayerTableRecord
  2
AM_VIEWS
 70
     0
 62
     1
  6
Continuous
370
    25
390
F
1001
AcAecLayerStandard
1000

1000

  0
LAYER
  5
41F0
330
2
100
AcDbSymbolTableRecord
100
AcDbLayerTableRecord
  2
AM_5
 70
     0
 62
     3
  6
Continuous
370
    25
390
F
1001
AcAecLayerStandard
1000

1000

  0
LAYER
  5
5549
330
2
100
AcDbSymbolTableRecord
100
AcDbLayerTableRecord
  2
AM_0
 70
     0
 62
     7
  6
Continuous
370
    50
390
F
1001
AcAecLayerStandard
1000

1000

  0
LAYER
  5
554B
330
2
100
AcDbSymbolTableRecord
100
AcDbLayerTableRecord
  2
AM_3
 70
     0
 62
     6
  6
AM_ISO02W050
370
    25
390
F
1001
AcAecLayerStandard
1000

1000

  0
LAYER
  5
5C35
330
2
100
AcDbSymbolTableRecord
100
AcDbLayerTableRecord
  2
VIEW
 70
     0
 62
     5
  6
Continuous
370
    -3
390
F
  0
LAYER
  5
5C36
330
2
100
AcDbSymbolTableRecord
100
AcDbLayerTableRecord
  2
DIMENSION
 70
     0
 62
     1
  6
Continuous
370
    -3
390
F
  0
ENDTAB
  0
TABLE
  2
STYLE
  5
3
330
0
100
AcDbSymbolTable
 70
    15
  0
STYLE
  5
11
330
3
100
AcDbSymbolTableRecord
100
AcDbTextStyleTableRecord
  2
STANDARD
 70
     0
 40
0.0
 41
1.0
 50
0.0
 71
     0
 42
2.399999999999999
  3
ARIAL.TTF
  4

1001
ACAD
1000
Arial
1071
       34
  0
STYLE
  5
6B
330
3
100
AcDbSymbolTableRecord
100
AcDbTextStyleTableRecord
  2

 70
     1
 40
0.0
 41
1.0
 50
0.0
 71
     0
 42
2.5
  3
ltypeshp.shx
  4

  0
STYLE
  5
6D
330
3
100
AcDbSymbolTableRecord
100
AcDbTextStyleTableRecord
  2
ACISOTS
 70
     0
 40
1.0
 41
1.0
 50
0.0
 71
     0
 42
2.5
  3
isocp.shx
  4
bigfont.shx
  0
STYLE
  5
79
330
3
100
AcDbSymbolTableRecord
100
AcDbTextStyleTableRecord
  2
ACISOGDT
 70
     0
 40
0.0
 41
1.0
 50
0.0
 71
     0
 42
2.5
  3
AMGDT
  4
bigfont.shx
  0
STYLE
  5
1ED
330
3
100
AcDbSymbolTableRecord
100
AcDbTextStyleTableRecord
  2
USER1
 70
     0
 40
0.0
 41
1.0
 50
0.0
 71
     0
 42
2.5
  3
TXT.SHX
  4
bigfont.shx
  0
STYLE
  5
1EE
330
3
100
AcDbSymbolTableRecord
100
AcDbTextStyleTableRecord
  2
USER2
 70
     0
 40
0.0
 41
1.0
 50
0.0
 71
     0
 42
2.5
  3
SIMPLEX.SHX
  4
bigfont.shx
  0
STYLE
  5
1EF
330
3
100
AcDbSymbolTableRecord
100
AcDbTextStyleTableRecord
  2
USER3
 70
     0
 40
0.0
 41
1.0
 50
0.0
 71
     0
 42
2.5
  3
ITALIC.SHX
  4
bigfont.shx
  0
STYLE
  5
22C
330
3
100
AcDbSymbolTableRecord
100
AcDbTextStyleTableRecord
  2

 70
     1
 40
0.0
 41
1.0
 50
0.0
 71
     0
 42
2.5
  3
genltshp.shx
  4

  0
STYLE
  5
3C6
330
3
100
AcDbSymbolTableRecord
100
AcDbTextStyleTableRecord
  2
ITALICT
 70
     0
 40
2.0
 41
1.0
 50
0.0
 71
     0
 42
2.0
  3
ITALICT.shx
  4

  0
STYLE
  5
3C7
330
3
100
AcDbSymbolTableRecord
100
AcDbTextStyleTableRecord
  2
ROMANS
 70
     0
 40
0.0
 41
0.8
 50
0.0
 71
     0
 42
3.0
  3
romans.shx
  4

  0
STYLE
  5
5C37
330
3
100
AcDbSymbolTableRecord
100
AcDbTextStyleTableRecord
  2
ISO8
 70
     0
 40
0.0
 41
1.0
 50
0.0
 71
     0
 42
2.549999999999999
  3
ISO8.shx
  4

  0
STYLE
  5
5C38
330
3
100
AcDbSymbolTableRecord
100
AcDbTextStyleTableRecord
  2
Ariel
 70
     0
 40
0.0
 41
1.0
 50
0.0
 71
     0
 42
0.12
  3
ARIAL.TTF
  4

1001
ACAD
1000
Arial
1071
       34
  0
STYLE
  5
5C39
330
3
100
AcDbSymbolTableRecord
100
AcDbTextStyleTableRecord
  2
ACANSTS
 70
     0
 40
1.0
 41
1.0
 50
0.0
 71
     0
 42
3.0
  3
romans.shx
  4

  0
STYLE
  5
5C3A
330
3
100
AcDbSymbolTableRecord
100
AcDbTextStyleTableRecord
  2
ACANSGDT
 70
     0
 40
0.0
 41
1.0
 50
0.0
 71
     0
 42
3.0
  3
AMGDT
  4

  0
ENDTAB
  0
TABLE
  2
VIEW
  5
6
330
0
100
AcDbSymbolTable
 70
     4
  0
ENDTAB
  0
TABLE
  2
UCS
  5
7
330
0
100
AcDbSymbolTable
 70
     0
  0
ENDTAB
  0
TABLE
  2
APPID
  5
9
330
0
100
AcDbSymbolTable
 70
    27
  0
APPID
  5
12
330
9
100
AcDbSymbolTableRecord
100
AcDbRegAppTableRecord
  2
ACAD
 70
     0
  0
APPID
  5
46
330
9
100
AcDbSymbolTableRecord
100
AcDbRegAppTableRecord
  2
MCAD_NO_VIS
 70
     0
  0
APPID
  5
47
330
9
100
AcDbSymbolTableRecord
100
AcDbRegAppTableRecord
  2
ACAD_TEMP_GRAPHIC
 70
     0
  0
APPID
  5
58
330
9
100
AcDbSymbolTableRecord
100
AcDbRegAppTableRecord
  2
ACATTRIBSERVICES
 70
     0
  0
APPID
  5
EE
330
9
100
AcDbSymbolTableRecord
100
AcDbRegAppTableRecord
  2
AD_DRAW
 70
     0
  0
APPID
  5
10C
330
9
100
AcDbSymbolTableRecord
100
AcDbRegAppTableRecord
  2
DESIGNERASSEMBLIES
 70
     0
  0
APPID
  5
111
330
9
100
AcDbSymbolTableRecord
100
AcDbRegAppTableRecord
  2
ACADM_DIM_EDIT
 70
     0
  0
APPID
  5
112
330
9
100
AcDbSymbolTableRecord
100
AcDbRegAppTableRecord
  2
AMDT_DM_ADJ
 70
     0
  0
APPID
  5
1A3
330
9
100
AcDbSymbolTableRecord
100
AcDbRegAppTableRecord
  2
ACAD_DSTYLE_DIMARC_LENGTH_SYMBOL
 70
     0
  0
APPID
  5
1A4
330
9
100
AcDbSymbolTableRecord
100
AcDbRegAppTableRecord
  2
ACAD_DSTYLE_DIMJOGGED_JOGANGLE_SYMBOL
 70
     0
  0
APPID
  5
2D9
330
9
100
AcDbSymbolTableRecord
100
AcDbRegAppTableRecord
  2
ACAD_PSEXT
 70
     0
  0
APPID
  5
9AB
330
9
100
AcDbSymbolTableRecord
100
AcDbRegAppTableRecord
  2
ACAD_EXEMPT_FROM_CAD_STANDARDS
 70
     0
  0
APPID
  5
218E
330
9
100
AcDbSymbolTableRecord
100
AcDbRegAppTableRecord
  2
ACAD_DSTYLE_DIMTEXT_FILL
 70
     0
  0
APPID
  5
218F
330
9
100
AcDbSymbolTableRecord
100
AcDbRegAppTableRecord
  2
ACAD_DSTYLE_DIMEXT_LENGTH
 70
     0
  0
APPID
  5
2190
330
9
100
AcDbSymbolTableRecord
100
AcDbRegAppTableRecord
  2
ACAD_DSTYLE_DIMEXT_ENABLED
 70
     0
  0
APPID
  5
2191
330
9
100
AcDbSymbolTableRecord
100
AcDbRegAppTableRecord
  2
ACAD_DSTYLE_DIM_LINETYPE
 70
     0
  0
APPID
  5
2192
330
9
100
AcDbSymbolTableRecord
100
AcDbRegAppTableRecord
  2
ACAD_DSTYLE_DIM_EXT1_LINETYPE
 70
     0
  0
APPID
  5
2193
330
9
100
AcDbSymbolTableRecord
100
AcDbRegAppTableRecord
  2
ACAD_DSTYLE_DIM_EXT2_LINETYPE
 70
     0
  0
APPID
  5
3E63
330
9
100
AcDbSymbolTableRecord
100
AcDbRegAppTableRecord
  2
AcAecLayerStandard
 70
     0
  0
APPID
  5
3E64
330
9
100
AcDbSymbolTableRecord
100
AcDbRegAppTableRecord
  2
GENIUS_GENSCREG_15
 70
     0
  0
APPID
  5
3E65
330
9
100
AcDbSymbolTableRecord
100
AcDbRegAppTableRecord
  2
GENIUS_GENOBJ-N-SDF_13
 70
     0
  0
APPID
  5
3E66
330
9
100
AcDbSymbolTableRecord
100
AcDbRegAppTableRecord
  2
GENIUS_GENODEF_13
 70
     0
  0
APPID
  5
4E53
330
9
100
AcDbSymbolTableRecord
100
AcDbRegAppTableRecord
  2
GENIUS_GENREC_14
 70
     0
  0
APPID
  5
4E54
330
9
100
AcDbSymbolTableRecord
100
AcDbRegAppTableRecord
  2
GENIUS_GENOBJ-N-REC_13
 70
     0
  0
APPID
  5
4EB8
330
9
100
AcDbSymbolTableRecord
100
AcDbRegAppTableRecord
  2
GENIUS_GENDTOL_13
 70
     0
  0
APPID
  5
53A4
330
9
100
AcDbSymbolTableRecord
100
AcDbRegAppTableRecord
  2
GENIUS_GENFIL_13
 70
     0
  0
APPID
  5
53A5
330
9
100
AcDbSymbolTableRecord
100
AcDbRegAppTableRecord
  2
GENIUS_GENOBJ-N-CHA_13
 70
     0
  0
ENDTAB
  0
TABLE
  2
DIMSTYLE
  5
A
330
0
100
AcDbSymbolTable
 70
    17
100
AcDbDimStyleTable
 71
     5
340
3C8
340
5C3C
340
5C3D
340
5C41
340
5C42
  0
DIMSTYLE
105
81
330
A
100
AcDbSymbolTableRecord
100
AcDbDimStyleTableRecord
  2
AM_ISO
 70
     0
  4
"
 41
2.5
 42
1.0
 43
10.0
 44
1.0
 47
0.1
 48
0.1
 73
     0
 74
     0
 77
     1
 78
     8
 79
     2
140
3.5
141
0.0
143
0.0393701
146
0.71
147
1.5
172
     1
176
   256
177
   256
178
     2
271
     2
272
     3
274
     4
283
     0
284
     8
340
11
371
    -1
372
    -1
1001
ACAD_DSTYLE_DIMARC_LENGTH_SYMBOL
1070
   379
1070
     1
1001
ACAD_DSTYLE_DIMJOGGED_JOGANGLE_SYMBOL
1070
   384
1040
0.7853981633974483
  0
DIMSTYLE
105
82
330
A
100
AcDbSymbolTableRecord
100
AcDbDimStyleTableRecord
  2
AM_ISO$3
 70
     0
  4
"
 41
2.5
 42
1.0
 43
10.0
 44
1.0
 47
0.1
 48
0.1
 73
     0
 77
     1
 78
     8
 79
     2
140
3.5
141
0.0
143
0.0393701
146
0.71
147
1.5
176
   256
177
   256
178
     2
271
     2
272
     3
274
     4
283
     0
284
     8
288
     1
289
     0
340
11
371
    -1
372
    -1
1001
ACAD_DSTYLE_DIMARC_LENGTH_SYMBOL
1070
   379
1070
     1
1001
ACAD_DSTYLE_DIMJOGGED_JOGANGLE_SYMBOL
1070
   384
1040
0.7853981633974483
  0
DIMSTYLE
105
83
330
A
100
AcDbSymbolTableRecord
100
AcDbDimStyleTableRecord
  2
AM_ISO$4
 70
     0
  4
"
 41
2.5
 42
1.0
 43
10.0
 44
1.0
 47
0.1
 48
0.1
 73
     0
 77
     1
 78
     8
 79
     2
140
3.5
141
0.0
143
0.0393701
146
0.71
147
1.5
176
   256
177
   256
178
     2
271
     2
272
     3
274
     4
283
     0
284
     8
288
     1
289
     0
340
11
371
    -1
372
    -1
1001
ACAD_DSTYLE_DIMARC_LENGTH_SYMBOL
1070
   379
1070
     1
1001
ACAD_DSTYLE_DIMJOGGED_JOGANGLE_SYMBOL
1070
   384
1040
0.7853981633974483
  0
DIMSTYLE
105
84
330
A
100
AcDbSymbolTableRecord
100
AcDbDimStyleTableRecord
  2
AM_ISO$6
 70
     0
  4
"
 41
2.5
 42
1.0
 43
10.0
 44
1.0
 47
0.1
 48
0.1
 73
     0
 74
     0
 78
     8
 79
     2
140
3.5
141
0.0
143
0.0393701
146
0.71
147
1.5
172
     1
176
   256
177
   256
178
     2
271
     2
272
     3
274
     4
283
     0
284
     8
340
11
371
    -1
372
    -1
1001
ACAD_DSTYLE_DIMARC_LENGTH_SYMBOL
1070
   379
1070
     1
1001
ACAD_DSTYLE_DIMJOGGED_JOGANGLE_SYMBOL
1070
   384
1040
0.7853981633974483
  0
DIMSTYLE
105
85
330
A
100
AcDbSymbolTableRecord
100
AcDbDimStyleTableRecord
  2
AM_ISO$7
 70
     0
  4
"
 41
2.5
 42
1.0
 43
10.0
 44
1.0
 47
0.1
 48
0.1
 73
     0
 74
     0
 77
     1
 78
     8
 79
     2
140
5.0
141
0.0
143
0.0393701
146
0.71
147
1.5
172
     1
176
   256
177
   256
178
     2
271
     2
272
     3
274
     4
283
     0
284
     8
340
11
371
    -1
372
    -1
1001
ACAD_DSTYLE_DIMARC_LENGTH_SYMBOL
1070
   379
1070
     1
1001
ACAD_DSTYLE_DIMJOGGED_JOGANGLE_SYMBOL
1070
   384
1040
0.7853981633974483
  0
DIMSTYLE
105
86
330
A
100
AcDbSymbolTableRecord
100
AcDbDimStyleTableRecord
  2
AM_ISO$SF
 70
     0
  4
"
 41
2.5
 42
1.0
 43
10.0
 44
1.0
 47
0.1
 48
0.1
 73
     0
 74
     0
 75
     1
 76
     1
 77
     1
 78
     8
 79
     2
140
3.5
141
0.0
143
0.0393701
146
0.71
147
1.5
172
     1
176
   256
177
   256
178
     2
271
     2
272
     3
274
     4
283
     0
284
     8
340
11
371
    -1
372
    -1
1001
ACAD_DSTYLE_DIMARC_LENGTH_SYMBOL
1070
   379
1070
     1
1001
ACAD_DSTYLE_DIMJOGGED_JOGANGLE_SYMBOL
1070
   384
1040
0.7853981633974483
  0
DIMSTYLE
105
8B
330
A
100
AcDbSymbolTableRecord
100
AcDbDimStyleTableRecord
  2
AM_ISO$SH
 70
     0
  4
"
 41
2.5
 42
1.0
 43
10.0
 44
1.0
 47
0.1
 48
0.1
 73
     0
 74
     0
 75
     1
 76
     1
 77
     1
 78
     8
 79
     2
140
3.5
141
0.0
143
0.0393701
144
2.0
146
0.71
147
1.5
172
     1
173
     1
176
   256
177
   256
178
     2
271
     2
272
     3
274
     4
283
     0
284
     8
340
11
343
87
371
    -1
372
    -1
1001
ACAD_DSTYLE_DIMARC_LENGTH_SYMBOL
1070
   379
1070
     1
1001
ACAD_DSTYLE_DIMJOGGED_JOGANGLE_SYMBOL
1070
   384
1040
0.7853981633974483
  0
DIMSTYLE
105
3C8
102
{ACAD_REACTORS
330
19C9
330
19F4
330
2E07
330
2E09
330
2E0A
330
2E5C
330
680E
102
}
330
A
100
AcDbSymbolTableRecord
100
AcDbDimStyleTableRecord
  2
STANDARD
 70
     0
 41
3.0
 42
1.0
 43
1.0
 44
1.0
 48
0.000000001
 73
     0
 74
     0
 77
     1
 78
     8
140
3.0
141
-0.05
145
5.0
146
0.8
147
1.0
172
     1
176
     3
177
     3
178
     6
271
     2
272
     2
284
     8
340
11
371
    -1
1001
ACAD_DSTYLE_DIMEXT_LENGTH
1070
   378
1040
1.0
1001
ACAD_DSTYLE_DIMEXT_ENABLED
1070
   383
1070
     0
1001
ACAD_DSTYLE_DIMARC_LENGTH_SYMBOL
1070
   379
1070
     0
1001
ACAD_DSTYLE_DIMJOGGED_JOGANGLE_SYMBOL
1070
   384
1040
1.570796326794896
  0
DIMSTYLE
105
4DBB
102
{ACAD_REACTORS
330
19C9
330
5894
330
66EA
330
6714
102
}
330
A
100
AcDbSymbolTableRecord
100
AcDbDimStyleTableRecord
  2
STANDARD$0
 70
     0
 41
3.0
 42
1.0
 43
1.0
 44
1.0
 48
0.000000001
 73
     0
 74
     0
 77
     1
 78
     8
140
3.0
141
-0.05
145
5.0
146
0.8
147
1.0
172
     1
176
     3
177
     3
178
     6
271
     2
272
     2
284
     8
340
11
371
    -1
1001
ACAD_DSTYLE_DIMEXT_LENGTH
1070
   378
1040
1.0
1001
ACAD_DSTYLE_DIMEXT_ENABLED
1070
   383
1070
     0
1001
ACAD_DSTYLE_DIMARC_LENGTH_SYMBOL
1070
   379
1070
     0
1001
ACAD_DSTYLE_DIMJOGGED_JOGANGLE_SYMBOL
1070
   384
1040
1.570796326794896
  0
DIMSTYLE
105
5C3C
102
{ACAD_REACTORS
330
5CF6
330
5CFC
330
5D02
330
5D18
330
5D25
330
5D26
330
5D2C
330
5D16
330
5D22
330
6A3F
330
6A40
102
}
330
A
100
AcDbSymbolTableRecord
100
AcDbDimStyleTableRecord
  2
YL
 70
     0
 41
3.0
 42
1.0
 43
1.0
 44
1.0
 48
0.000000001
 73
     0
 74
     0
 77
     1
 78
     8
140
3.0
141
0.0
145
0.875
146
0.8
147
1.0
172
     1
176
     3
177
     3
178
     6
271
     2
272
     2
284
     8
340
11
1001
ACAD_DSTYLE_DIMEXT_LENGTH
1070
   378
1040
1.0
1001
ACAD_DSTYLE_DIMEXT_ENABLED
1070
   383
1070
     0
1001
ACAD_DSTYLE_DIMARC_LENGTH_SYMBOL
1070
   379
1070
     0
1001
ACAD_DSTYLE_DIMJOGGED_JOGANGLE_SYMBOL
1070
   384
1040
0.7853981633974483
  0
DIMSTYLE
105
5C3D
330
A
100
AcDbSymbolTableRecord
100
AcDbDimStyleTableRecord
  2
AM_ANSI
 70
     0
  4
mm
 41
0.1
 42
0.05
 43
0.5
 44
0.1
 47
0.1
 48
0.1
 78
     7
 79
     2
140
0.12
141
0.0
146
0.71
147
0.06
176
   256
177
   256
178
     2
274
     4
284
     7
340
11
371
    -1
372
    -1
1001
ACAD_DSTYLE_DIMARC_LENGTH_SYMBOL
1070
   379
1070
     1
1001
ACAD_DSTYLE_DIMJOGGED_JOGANGLE_SYMBOL
1070
   384
1040
0.7853981633974483
  0
DIMSTYLE
105
5C3E
330
A
100
AcDbSymbolTableRecord
100
AcDbDimStyleTableRecord
  2
AM_ANSI$3
 70
     0
  4
mm
 41
0.1
 42
0.05
 43
0.5
 44
0.1
 47
0.1
 48
0.1
 78
     7
 79
     2
140
0.12
141
0.0
146
0.71
147
0.06
176
   256
177
   256
178
     2
274
     4
284
     7
288
     1
289
     0
340
11
371
    -1
372
    -1
1001
ACAD_DSTYLE_DIMARC_LENGTH_SYMBOL
1070
   379
1070
     1
1001
ACAD_DSTYLE_DIMJOGGED_JOGANGLE_SYMBOL
1070
   384
1040
0.7853981633974483
  0
DIMSTYLE
105
5C3F
330
A
100
AcDbSymbolTableRecord
100
AcDbDimStyleTableRecord
  2
AM_ANSI$4
 70
     0
  4
mm
 41
0.1
 42
0.05
 43
0.5
 44
0.1
 47
0.1
 48
0.1
 78
     7
 79
     2
140
0.12
141
0.0
146
0.71
147
0.06
176
   256
177
   256
178
     2
274
     4
284
     7
288
     1
289
     0
340
11
371
    -1
372
    -1
1001
ACAD_DSTYLE_DIMARC_LENGTH_SYMBOL
1070
   379
1070
     1
1001
ACAD_DSTYLE_DIMJOGGED_JOGANGLE_SYMBOL
1070
   384
1040
0.7853981633974483
  0
DIMSTYLE
105
5C40
330
A
100
AcDbSymbolTableRecord
100
AcDbDimStyleTableRecord
  2
AM_ANSI$7
 70
     0
  4
mm
 41
0.1
 42
0.05
 43
0.5
 44
0.1
 47
0.1
 48
0.1
 78
     7
 79
     2
140
0.24
141
0.0
146
0.71
147
0.06
176
   256
177
   256
178
     2
274
     4
284
     7
340
11
371
    -1
372
    -1
1001
ACAD_DSTYLE_DIMARC_LENGTH_SYMBOL
1070
   379
1070
     1
1001
ACAD_DSTYLE_DIMJOGGED_JOGANGLE_SYMBOL
1070
   384
1040
0.7853981633974483
  0
DIMSTYLE
105
5C41
330
A
100
AcDbSymbolTableRecord
100
AcDbDimStyleTableRecord
  2
AM_ANSI$SF
 70
     0
  4
mm
 41
0.1
 42
0.05
 43
0.5
 44
0.1
 47
0.1
 48
0.1
 75
     1
 76
     1
 78
     7
 79
     2
140
0.12
141
0.0
146
0.71
147
0.06
176
   256
177
   256
178
     2
274
     4
284
     7
340
11
371
    -1
372
    -1
1001
ACAD_DSTYLE_DIMARC_LENGTH_SYMBOL
1070
   379
1070
     1
1001
ACAD_DSTYLE_DIMJOGGED_JOGANGLE_SYMBOL
1070
   384
1040
0.7853981633974483
  0
DIMSTYLE
105
5C42
330
A
100
AcDbSymbolTableRecord
100
AcDbDimStyleTableRecord
  2
AM_ANSI$SH
 70
     0
  4
mm
 41
0.1
 42
0.05
 43
0.5
 44
0.1
 47
0.1
 48
0.1
 75
     1
 76
     1
 78
     7
 79
     2
140
0.12
141
0.0
146
0.71
147
0.06
173
     1
176
   256
177
   256
178
     2
274
     4
284
     7
340
11
343
87
371
    -1
372
    -1
1001
ACAD_DSTYLE_DIMARC_LENGTH_SYMBOL
1070
   379
1070
     1
1001
ACAD_DSTYLE_DIMJOGGED_JOGANGLE_SYMBOL
1070
   384
1040
0.7853981633974483
  0
ENDTAB
  0
TABLE
  2
BLOCK_RECORD
  5
1
330
0
100
AcDbSymbolTable
 70
    24
  0
BLOCK_RECORD
  5
1F
102
{ACAD_XDICTIONARY
360
8F
102
}
330
1
100
AcDbSymbolTableRecord
100
AcDbBlockTableRecord
  2
*Model_Space
340
22
  0
BLOCK_RECORD
  5
1B
102
{ACAD_XDICTIONARY
360
2D9F
102
}
330
1
100
AcDbSymbolTableRecord
100
AcDbBlockTableRecord
  2
*Paper_Space
340
1E
  0
BLOCK_RECORD
  5
87
330
1
100
AcDbSymbolTableRecord
100
AcDbBlockTableRecord
  2
GENAXEH
340
0
  0
BLOCK_RECORD
  5
2FB
330
1
100
AcDbSymbolTableRecord
100
AcDbBlockTableRecord
  2
_DatumFilled
340
0
  0
BLOCK_RECORD
  5
2FF
330
1
100
AcDbSymbolTableRecord
100
AcDbBlockTableRecord
  2
_None
340
0
  0
BLOCK_RECORD
  5
125D
102
{ACAD_XDICTIONARY
360
128A
102
}
330
1
100
AcDbSymbolTableRecord
100
AcDbBlockTableRecord
  2
A$C75C560CA
340
0
1001
ACAD
1000
DesignCenter Data
1002
{
1070
     1
1070
     4
1002
}
  0
BLOCK_RECORD
  5
1A4C
330
1
100
AcDbSymbolTableRecord
100
AcDbBlockTableRecord
  2
*D5
340
0
  0
BLOCK_RECORD
  5
2CC0
102
{ACAD_XDICTIONARY
360
2CC2
102
}
330
1
100
AcDbSymbolTableRecord
100
AcDbBlockTableRecord
  2
A$C718C4946
340
0
1001
ACAD
1000
DesignCenter Data
1002
{
1070
     1
1070
     4
1002
}
  0
BLOCK_RECORD
  5
58C7
330
1
100
AcDbSymbolTableRecord
100
AcDbBlockTableRecord
  2
*D7
340
0
  0
BLOCK_RECORD
  5
5D9F
330
1
100
AcDbSymbolTableRecord
100
AcDbBlockTableRecord
  2
*D8
340
0
  0
BLOCK_RECORD
  5
5DAB
330
1
100
AcDbSymbolTableRecord
100
AcDbBlockTableRecord
  2
*D9
340
0
  0
BLOCK_RECORD
  5
5DB7
330
1
100
AcDbSymbolTableRecord
100
AcDbBlockTableRecord
  2
*D10
340
0
  0
BLOCK_RECORD
  5
5DC5
330
1
100
AcDbSymbolTableRecord
100
AcDbBlockTableRecord
  2
*D11
340
0
  0
BLOCK_RECORD
  5
5DD1
330
1
100
AcDbSymbolTableRecord
100
AcDbBlockTableRecord
  2
*D12
340
0
  0
BLOCK_RECORD
  5
5DDD
330
1
100
AcDbSymbolTableRecord
100
AcDbBlockTableRecord
  2
*D13
340
0
  0
BLOCK_RECORD
  5
5DE9
330
1
100
AcDbSymbolTableRecord
100
AcDbBlockTableRecord
  2
*D14
340
0
  0
BLOCK_RECORD
  5
66EB
330
1
100
AcDbSymbolTableRecord
100
AcDbBlockTableRecord
  2
*D15
340
0
  0
BLOCK_RECORD
  5
6715
330
1
100
AcDbSymbolTableRecord
100
AcDbBlockTableRecord
  2
*D16
340
0
  0
BLOCK_RECORD
  5
681A
330
1
100
AcDbSymbolTableRecord
100
AcDbBlockTableRecord
  2
*D17
340
0
  0
BLOCK_RECORD
  5
6A49
330
1
100
AcDbSymbolTableRecord
100
AcDbBlockTableRecord
  2
*D18
340
0
  0
BLOCK_RECORD
  5
6A57
330
1
100
AcDbSymbolTableRecord
100
AcDbBlockTableRecord
  2
*D19
340
0
  0
ENDTAB
  0
ENDSEC
  0
SECTION
  2
BLOCKS
  0
BLOCK
  5
20
330
1F
100
AcDbEntity
  8
0
100
AcDbBlockBegin
  2
*Model_Space
 70
     0
 10
0.0
 20
0.0
 30
0.0
  3
*Model_Space
  1

  0
ENDBLK
  5
21
330
1F
100
AcDbEntity
  8
0
100
AcDbBlockEnd
  0
BLOCK
  5
1C
330
1B
100
AcDbEntity
 67
     1
  8
0
100
AcDbBlockBegin
  2
*Paper_Space
 70
     0
 10
0.0
 20
0.0
 30
0.0
  3
*Paper_Space
  1

  0
ENDBLK
  5
1D
330
1B
100
AcDbEntity
 67
     1
  8
0
100
AcDbBlockEnd
  0
BLOCK
  5
89
330
87
100
AcDbEntity
  8
0
100
AcDbBlockBegin
  2
GENAXEH
 70
     0
 10
0.0
 20
0.0
 30
0.0
  3
GENAXEH
  1

  0
LINE
  5
88
330
87
100
AcDbEntity
  8
0
100
AcDbLine
 10
-1.0
 20
0.0
 30
0.0
 11
1.0
 21
0.0
 31
0.0
  0
ENDBLK
  5
8A
330
87
100
AcDbEntity
  8
0
100
AcDbBlockEnd
  0
BLOCK
  5
2FC
330
2FB
100
AcDbEntity
  8
0
100
AcDbBlockBegin
  2
_DatumFilled
 70
     0
 10
0.0
 20
0.0
 30
0.0
  3
_DatumFilled
  1

  0
SOLID
  5
2FD
330
2FB
100
AcDbEntity
  8
0
  6
ByBlock
 62
     0
100
AcDbTrace
 10
0.0
 20
0.5773502700000001
 30
0.0
 11
-1.0
 21
0.0
 31
0.0
 12
0.0
 22
-0.5773502700000001
 32
0.0
 13
0.0
 23
-0.5773502700000001
 33
0.0
  0
ENDBLK
  5
2FE
330
2FB
100
AcDbEntity
  8
0
100
AcDbBlockEnd
  0
BLOCK
  5
300
330
2FF
100
AcDbEntity
  8
0
100
AcDbBlockBegin
  2
_None
 70
     0
 10
0.0
 20
0.0
 30
0.0
  3
_None
  1

  0
ENDBLK
  5
301
330
2FF
100
AcDbEntity
  8
0
100
AcDbBlockEnd
  0
BLOCK
  5
128B
330
125D
100
AcDbEntity
  8
0
100
AcDbBlockBegin
  2
A$C75C560CA
 70
     0
 10
0.0
 20
0.0
 30
0.0
  3
A$C75C560CA
  1

  0
TEXT
  5
125E
330
125D
100
AcDbEntity
  8
FRAME
100
AcDbText
 10
198.0618690923416
 20
18.19796331725411
 30
0.0
 40
2.6
  1
M 1:1.5
 41
0.7
  7
ROMANS
100
AcDbText
  0
MTEXT
  5
125F
330
125D
100
AcDbEntity
  8
DIM
100
AcDbMText
 10
147.8052230115329
 20
14.75214036007798
 30
0.0
 40
2.0
 41
25.0
 71
     1
 72
     5
  1
X       %%p0.5\P1PL     %%p0.2\P2PL     %%p0.1\PANGLE   %%p30'
  7
ROMANS
 73
     1
 44
1.0
1001
ACAD
1000
MTEXTBEGIN
1070
    73
1070
     1
1070
    44
1040
1.0
1070
    74
1070
     0
1000
MTEXTEND
  0
LWPOLYLINE
  5
1260
330
125D
100
AcDbEntity
  8
SPEC
100
AcDbPolyline
 90
        2
 70
     0
 43
0.0
 10
46.10857599724545
 20
22.43272629327407
 10
107.7609609669623
 20
22.43272629327407
  0
LINE
  5
1261
330
125D
100
AcDbEntity
  8
SPEC
  6
HIDDEN
100
AcDbLine
 10
95.76650416238317
 20
4.962468073120362
 30
0.0
 11
130.435771777227
 21
4.962468073120362
 31
0.0
  0
TEXT
  5
1262
330
125D
100
AcDbEntity
  8
DATA
 62
     1
100
AcDbText
 10
93.21139064254088
 20
5.812552698566491
 30
0.0
 40
4.0
  1
(ST4018M0406-B)
 41
0.7
  7
ROMANS
100
AcDbText
  0
TEXT
  5
1263
330
125D
100
AcDbEntity
  8
DATA
 62
     1
100
AcDbText
 10
231.317878293991
 20
2.415962237127928
 30
0.0
 40
4.0
  1
ST4018M0406
 41
0.7
  7
ROMANS
100
AcDbText
  0
TEXT
  5
1264
330
125D
100
AcDbEntity
  8
DATA
 62
     1
100
AcDbText
 10
93.38807665210561
 20
11.87217307676974
 30
0.0
 40
4.0
  1
ST4018M0406-A
 41
0.7
  7
ROMANS
100
AcDbText
  0
LWPOLYLINE
  5
1265
330
125D
100
AcDbEntity
  8
SPEC
100
AcDbPolyline
 90
        2
 70
     0
 43
0.0
 10
0.0
 20
22.43272629327407
 10
46.20410858955392
 20
22.43272629327407
  0
LINE
  5
1266
330
125D
100
AcDbEntity
  8
DIM
100
AcDbLine
 10
146.5280168612521
 20
16.58038901312318
 30
0.0
 11
213.8442914438065
 21
16.58038901312318
 31
0.0
  0
LINE
  5
1267
330
125D
100
AcDbEntity
  8
DIM
100
AcDbLine
 10
228.8020370376457
 20
12.55466422304016
 30
0.0
 11
228.8020370376457
 21
0.466065179059342
 31
0.0
  0
LINE
  5
1268
330
125D
100
AcDbEntity
  8
DIM
100
AcDbLine
 10
195.7433482585834
 20
22.43272629327407
 30
0.0
 11
195.7433482585834
 21
0.0
 31
0.0
  0
LINE
  5
1269
330
125D
100
AcDbEntity
  8
DIM
100
AcDbLine
 10
178.9743605596215
 20
22.40187586043203
 30
0.0
 11
178.9743605596215
 21
6.730972725647461
 31
0.0
  0
LINE
  5
126A
330
125D
100
AcDbEntity
  8
DIM
100
AcDbLine
 10
167.6954380838244
 20
0.0
 30
0.0
 11
167.6954380838244
 21
22.32683486367228
 31
0.0
  0
LINE
  5
126B
330
125D
100
AcDbEntity
  8
DIM
100
AcDbLine
 10
167.9351755979376
 20
22.43272629327407
 30
0.0
 11
167.9351755979376
 21
0.0
 31
0.0
  0
LINE
  5
126C
330
125D
100
AcDbEntity
  8
DIM
100
AcDbLine
 10
213.8442921475325
 20
22.43272629327407
 30
0.0
 11
213.8442921475325
 21
0.0
 31
0.0
  0
LINE
  5
126D
330
125D
100
AcDbEntity
  8
DIM
100
AcDbLine
 10
74.01093817688343
 20
22.44942325395482
 30
0.0
 11
74.01093817688343
 21
0.0031114061869175
 31
0.0
  0
LINE
  5
126E
330
125D
100
AcDbEntity
  8
DIM
100
AcDbLine
 10
89.1300425376794
 20
22.44942325395482
 30
0.0
 11
89.1300425376794
 21
-0.0380746962764533
 31
0.0
  0
LINE
  5
126F
330
125D
100
AcDbEntity
  8
DIM
100
AcDbLine
 10
52.48454273927814
 20
22.43272629327407
 30
0.0
 11
52.48454273927814
 21
-0.0273489207340845
 31
0.0
  0
LINE
  5
1270
330
125D
100
AcDbEntity
  8
DIM
100
AcDbLine
 10
0.0
 20
22.43272629327407
 30
0.0
 11
292.2263229886494
 21
22.43272629327407
 31
0.0
  0
LINE
  5
1271
330
125D
100
AcDbEntity
  8
DIM
100
AcDbLine
 10
89.1300425376794
 20
17.17069886361321
 30
0.0
 11
0.1625959174562013
 21
17.17069886361321
 31
0.0
  0
LINE
  5
1272
330
125D
100
AcDbEntity
  8
DIM
100
AcDbLine
 10
0.1625959174562013
 20
11.90867143395235
 30
0.0
 11
89.1300425376794
 21
11.90867143395235
 31
0.0
  0
LINE
  5
1273
330
125D
100
AcDbEntity
  8
DIM
100
AcDbLine
 10
0.3324718815085816
 20
6.646644004291488
 30
0.0
 11
89.1300425376794
 21
6.646644004291488
 31
0.0
  0
LINE
  5
1274
330
125D
100
AcDbEntity
  8
DIM
100
AcDbLine
 10
11.37444121259409
 20
22.43272629327407
 30
0.0
 11
11.37444121259409
 21
0.0
 31
0.0
  0
LINE
  5
1275
330
125D
100
AcDbEntity
  8
DIM
100
AcDbLine
 10
213.8442921475325
 20
6.719875644631542
 30
0.0
 11
167.6954380838244
 21
6.719875644631542
 31
0.0
  0
LINE
  5
1276
330
125D
100
AcDbEntity
  8
DIM
100
AcDbLine
 10
167.6954380838244
 20
11.60070934481985
 30
0.0
 11
213.8442921475325
 21
11.60070934481985
 31
0.0
  0
TEXT
  5
1277
330
125D
100
AcDbEntity
  8
DIM
100
AcDbText
 10
149.3843128235895
 20
18.01141814143534
 30
0.0
 40
2.5
  1
SCALE FREE
 41
0.7
  7
ROMANS
 72
     2
 11
165.3009794902561
 21
18.01141814143534
 31
0.0
100
AcDbText
  0
LINE
  5
1278
330
125D
100
AcDbEntity
  8
DIM
100
AcDbLine
 10
146.5280168612521
 20
22.43272629327407
 30
0.0
 11
146.5280168612521
 21
0.0
 31
0.0
  0
TEXT
  5
1279
330
125D
100
AcDbEntity
  8
DIM
100
AcDbText
 10
75.4322038344294
 20
2.370654514404577
 30
0.0
 40
3.0
  1
APVD
 41
0.7
  7
ROMANS
100
AcDbText
  0
TEXT
  5
127A
330
125D
100
AcDbEntity
  8
DIM
100
AcDbText
 10
55.94274150779165
 20
2.370654514404577
 30
0.0
 40
3.0
  1
DATE
 41
0.7
  7
ROMANS
100
AcDbText
  0
TEXT
  5
127B
330
125D
100
AcDbEntity
  8
DIM
100
AcDbText
 10
14.2016707071748
 20
2.370654514404577
 30
0.0
 40
3.0
  1
DESCRIPTION
 41
0.7
  7
ROMANS
100
AcDbText
  0
TEXT
  5
127C
330
125D
100
AcDbEntity
  8
DIM
100
AcDbText
 10
2.706016815254362
 20
2.370654514404577
 30
0.0
 40
3.0
  1
REV
 41
0.7
  7
ROMANS
 72
     2
 11
8.406016815254361
 21
2.370654514404577
 31
0.0
100
AcDbText
  0
TEXT
  5
127D
330
125D
100
AcDbEntity
  8
DIM
100
AcDbText
 10
169.8977377686171
 20
17.46653611070155
 30
0.0
 40
3.0
  1
APVD
 41
0.7
  7
ROMANS
 72
     2
 11
177.3977377686171
 21
17.46653611070155
 31
0.0
100
AcDbText
  0
TEXT
  5
127E
330
125D
100
AcDbEntity
  8
DIM
100
AcDbText
 10
169.0333720135623
 20
12.69433802244657
 30
0.0
 40
3.0
  1
CHKD
 41
0.7
  7
ROMANS
 72
     2
 11
177.2333720135623
 21
12.69433802244657
 31
0.0
100
AcDbText
  0
TEXT
  5
127F
330
125D
100
AcDbEntity
  8
DIM
100
AcDbText
 10
170.0393831475915
 20
7.524456556443624
 30
0.0
 40
3.0
  1
DRN
 41
0.7
  7
ROMANS
 72
     2
 11
176.0393831475915
 21
7.524456556443624
 31
0.0
100
AcDbText
  0
TEXT
  5
1280
330
125D
100
AcDbEntity
  8
DIM
100
AcDbText
 10
172.2752627425855
 20
2.329814948448756
 30
0.0
 40
3.0
  1
SIGNATURE
 41
0.7
  7
ROMANS
 72
     2
 11
188.7752627425855
 21
2.329814948448756
 31
0.0
100
AcDbText
  0
TEXT
  5
1281
330
125D
100
AcDbEntity
  8
DIM
100
AcDbText
 10
201.0406724436551
 20
2.224204435222077
 30
0.0
 40
3.0
  1
DATE
 41
0.7
  7
ROMANS
 72
     2
 11
208.240672443655
 21
2.224204435222077
 31
0.0
100
AcDbText
  0
TEXT
  5
1282
330
125D
100
AcDbEntity
  8
DIM
100
AcDbText
 10
218.9507052575232
 20
15.70268350642743
 30
0.0
 40
3.799999999999999
  1
STEPPING MOTOR
 41
0.8
  7
ITALICT
 72
     2
 11
263.9716576384756
 21
15.70268350642743
 31
0.0
100
AcDbText
  0
LINE
  5
1283
330
125D
100
AcDbEntity
  8
DIM
100
AcDbLine
 10
213.8442921475325
 20
12.57581317811855
 30
0.0
 11
291.9564623227739
 21
12.57581317811855
 31
0.0
  0
TEXT
  5
1284
330
125D
100
AcDbEntity
  8
DIM
100
AcDbText
 10
229.779050611357
 20
8.525813178118596
 30
0.0
 40
2.5
  1
DWG.NO
 41
0.7
  7
ROMANS
 72
     2
 11
239.529050611357
 21
8.525813178118596
 31
0.0
100
AcDbText
  0
TEXT
  5
1285
330
125D
100
AcDbEntity
  8
DATA
 62
     1
100
AcDbText
 10
92.69009844013249
 20
17.14709370037587
 30
0.0
 40
3.0
  1
NANOTEC:
 41
0.7
  7
ROMANS
100
AcDbText
  0
TEXT
  5
1286
330
125D
100
AcDbEntity
  8
FRAME
100
AcDbText
 10
196.2632570647433
 20
7.811243394680104
 30
0.0
 40
2.6
  1
14.02.06
 41
0.7
  7
ROMANS
100
AcDbText
  0
LINE
  5
1287
330
125D
100
AcDbEntity
  8
SPEC
100
AcDbLine
 10
0.0
 20
22.43272629327407
 30
0.0
 11
0.0
 21
124.0795686925671
 31
0.0
  0
TEXT
  5
1288
330
125D
100
AcDbEntity
  8
DIM
100
AcDbText
 10
1.48247182125101
 20
198.3559972407229
 30
0.0
 40
3.0
  1
DIMENSION (UNIT : mm)
 41
0.7
  7
ROMANS
100
AcDbText
  0
LWPOLYLINE
  5
1289
330
125D
100
AcDbEntity
  8
DIM
 62
     4
100
AcDbPolyline
 90
        4
 70
     1
 43
0.6
 10
0.0
 20
202.9639180777265
 10
0.0
 20
0.0
 10
291.9564623227739
 20
0.0
 10
291.9564623227739
 20
202.9639180777265
  0
ENDBLK
  5
128C
330
125D
100
AcDbEntity
  8
0
100
AcDbBlockEnd
  0
BLOCK
  5
1A56
330
1A4C
100
AcDbEntity
  8
0
100
AcDbBlockBegin
  2
*D5
 70
     1
 10
0.0
 20
0.0
 30
0.0
  3
*D5
  1

  0
LINE
  5
5AD2
330
1A4C
100
AcDbEntity
  8
DIM
 62
     3
370
    -2
100
AcDbLine
 10
129.9063688288351
 20
73.09868988223387
 30
0.0
 11
129.9063688288351
 21
54.91119174080847
 31
0.0
  0
LINE
  5
5AD3
330
1A4C
100
AcDbEntity
  8
DIM
 62
     3
370
    -2
100
AcDbLine
 10
139.0972407104071
 20
59.09299455805125
 30
0.0
 11
139.0972407104071
 21
54.91119174080847
 31
0.0
  0
LINE
  5
5AD4
330
1A4C
100
AcDbEntity
  8
DIM
 62
     3
100
AcDbLine
 10
132.3063688288351
 20
55.91119174080848
 30
0.0
 11
139.0972407104071
 21
55.91119174080848
 31
0.0
  0
SOLID
  5
5AD5
330
1A4C
100
AcDbEntity
  8
DIM
 62
     3
100
AcDbTrace
 10
132.3063688288351
 20
56.31119174080847
 30
0.0
 11
132.3063688288351
 21
55.51119174080848
 31
0.0
 12
129.9063688288351
 22
55.91119174080848
 32
0.0
 13
129.9063688288351
 23
55.91119174080848
 33
0.0
  0
MTEXT
  5
5AD6
330
1A4C
100
AcDbEntity
  8
DIM
 62
     6
100
AcDbMText
 10
134.4901433864878
 20
58.11119174080848
 30
0.0
 40
2.399999999999999
 41
0.0
 71
     5
 72
     1
  1
\A1;a
  7
ROMANS
 73
     1
 44
1.0
1001
ACAD
1000
MTEXTBEGIN
1070
    73
1070
     1
1070
    44
1040
1.0
1070
    74
1070
     0
1000
MTEXTEND
  0
POINT
  5
5AD7
330
1A4C
100
AcDbEntity
  8
Defpoints
 62
     0
100
AcDbPoint
 10
129.9063688288351
 20
74.09868988223387
 30
0.0
  0
POINT
  5
5AD8
330
1A4C
100
AcDbEntity
  8
Defpoints
 62
     0
100
AcDbPoint
 10
139.0972407104071
 20
60.09299455805124
 30
0.0
  0
POINT
  5
5AD9
330
1A4C
100
AcDbEntity
  8
Defpoints
 62
     0
100
AcDbPoint
 10
139.0972407104071
 20
55.91119174080848
 30
0.0
  0
ENDBLK
  5
1A57
330
1A4C
100
AcDbEntity
  8
0
100
AcDbBlockEnd
  0
BLOCK
  5
2CC3
330
2CC0
100
AcDbEntity
  8
0
100
AcDbBlockBegin
  2
A$C718C4946
 70
     0
 10
0.0
 20
0.0
 30
0.0
  3
A$C718C4946
  1

  0
TEXT
  5
2CC1
330
2CC0
100
AcDbEntity
  8
DATA
100
AcDbText
 10
-0.3199997827265406
 20
-0.0000001889967507
 30
0.0
 40
2.4
  1
60%%P15%
 41
0.7
  7
ROMANS
100
AcDbText
  0
ENDBLK
  5
2CC4
330
2CC0
100
AcDbEntity
  8
0
100
AcDbBlockEnd
  0
BLOCK
  5
58CE
330
58C7
100
AcDbEntity
  8
0
100
AcDbBlockBegin
  2
*D7
 70
     1
 10
0.0
 20
0.0
 30
0.0
  3
*D7
  1

  0
LINE
  5
58D0
330
58C7
100
AcDbEntity
  8
AM_5
 62
     3
100
AcDbLine
 10
122.7085668857451
 20
75.91139921940916
 30
0.0
 11
116.061486709883
 21
75.91139921940916
 31
0.0
  0
SOLID
  5
58D1
330
58C7
100
AcDbEntity
  8
AM_5
 62
     3
100
AcDbTrace
 10
122.7085668857451
 20
76.41139921940916
 30
0.0
 11
122.7085668857451
 21
75.41139921940916
 31
0.0
 12
125.7085668857451
 22
75.91139921940916
 32
0.0
 13
125.7085668857451
 23
75.91139921940916
 33
0.0
  0
SOLID
  5
58D2
330
58C7
100
AcDbEntity
  8
AM_5
 62
     3
100
AcDbTrace
 10
116.061486709883
 20
76.41139921940916
 30
0.0
 11
116.061486709883
 21
75.41139921940916
 31
0.0
 12
113.061486709883
 22
75.91139921940916
 32
0.0
 13
113.061486709883
 23
75.91139921940916
 33
0.0
  0
POINT
  5
58D3
330
58C7
100
AcDbEntity
  8
Defpoints
 62
     0
100
AcDbPoint
 10
125.7085668857451
 20
75.91139921940919
 30
0.0
  0
POINT
  5
58D4
330
58C7
100
AcDbEntity
  8
Defpoints
 62
     0
100
AcDbPoint
 10
113.061486709883
 20
75.91139921940916
 30
0.0
  0
POINT
  5
58D5
330
58C7
100
AcDbEntity
  8
Defpoints
 62
     0
100
AcDbPoint
 10
113.061486709883
 20
75.91139921940916
 30
0.0
  0
ENDBLK
  5
58CF
330
58C7
100
AcDbEntity
  8
0
100
AcDbBlockEnd
  0
BLOCK
  5
5DA9
330
5D9F
100
AcDbEntity
  8
0
100
AcDbBlockBegin
  2
*D8
 70
     1
 10
0.0
 20
0.0
 30
0.0
  3
*D8
  1

  0
LINE
  5
6A80
330
5D9F
100
AcDbEntity
  8
DIM
 62
     3
370
    -2
100
AcDbLine
 10
844.2248503094655
 20
626.0490727663883
 30
0.0
 11
844.2248503094655
 21
655.1727244502646
 31
0.0
  0
LINE
  5
6A81
330
5D9F
100
AcDbEntity
  8
DIM
 62
     3
370
    -2
100
AcDbLine
 10
868.2248503094653
 20
644.6990727663883
 30
0.0
 11
868.2248503094653
 21
655.1727244502646
 31
0.0
  0
LINE
  5
6A82
330
5D9F
100
AcDbEntity
  8
DIM
 62
     3
370
    -2
100
AcDbLine
 10
847.2248503094654
 20
654.1727244502645
 30
0.0
 11
865.2248503094654
 21
654.1727244502645
 31
0.0
  0
SOLID
  5
6A83
330
5D9F
100
AcDbEntity
  8
DIM
 62
     3
100
AcDbTrace
 10
847.2248503094654
 20
654.6727244502646
 30
0.0
 11
847.2248503094654
 21
653.6727244502645
 31
0.0
 12
844.2248503094655
 22
654.1727244502645
 32
0.0
 13
844.2248503094655
 23
654.1727244502645
 33
0.0
  0
SOLID
  5
6A84
330
5D9F
100
AcDbEntity
  8
DIM
 62
     3
100
AcDbTrace
 10
865.2248503094654
 20
654.6727244502646
 30
0.0
 11
865.2248503094654
 21
653.6727244502645
 31
0.0
 12
868.2248503094653
 22
654.1727244502645
 32
0.0
 13
868.2248503094653
 23
654.1727244502645
 33
0.0
  0
MTEXT
  5
6A85
330
5D9F
100
AcDbEntity
  8
DIM
 62
     6
100
AcDbMText
 10
857.0864300569137
 20
656.6993274516288
 30
0.0
 40
3.0
 41
0.0
 71
     5
 72
     1
  1
\A1;24{\H2.400000;±0.5}
 73
     1
 44
1.0
1001
ACAD
1000
MTEXTBEGIN
1070
    73
1070
     1
1070
    44
1040
1.0
1070
    74
1070
     0
1000
MTEXTEND
  0
POINT
  5
6A86
330
5D9F
100
AcDbEntity
  8
Defpoints
 62
     0
100
AcDbPoint
 10
844.2248503094655
 20
625.0490727663883
 30
0.0
  0
POINT
  5
6A87
330
5D9F
100
AcDbEntity
  8
Defpoints
 62
     0
100
AcDbPoint
 10
868.2248503094653
 20
643.6990727663883
 30
0.0
  0
POINT
  5
6A88
330
5D9F
100
AcDbEntity
  8
Defpoints
 62
     0
100
AcDbPoint
 10
868.2248503094653
 20
654.1727244502645
 30
0.0
  0
ENDBLK
  5
5DAA
330
5D9F
100
AcDbEntity
  8
0
100
AcDbBlockEnd
  0
BLOCK
  5
5DB5
330
5DAB
100
AcDbEntity
  8
0
100
AcDbBlockBegin
  2
*D9
 70
     1
 10
0.0
 20
0.0
 30
0.0
  3
*D9
  1

  0
LINE
  5
6A92
330
5DAB
100
AcDbEntity
  8
DIM
 62
     3
370
    -2
100
AcDbLine
 10
868.2248503094653
 20
644.6990727663883
 30
0.0
 11
868.2248503094653
 21
655.1727244502646
 31
0.0
  0
LINE
  5
6A93
330
5DAB
100
AcDbEntity
  8
DIM
 62
     3
370
    -2
100
AcDbLine
 10
899.2248503094653
 20
644.6990727663882
 30
0.0
 11
899.2248503094653
 21
655.1727244502646
 31
0.0
  0
LINE
  5
6A94
330
5DAB
100
AcDbEntity
  8
DIM
 62
     3
370
    -2
100
AcDbLine
 10
871.2248503094654
 20
654.1727244502645
 30
0.0
 11
896.2248503094652
 21
654.1727244502645
 31
0.0
  0
SOLID
  5
6A95
330
5DAB
100
AcDbEntity
  8
DIM
 62
     3
100
AcDbTrace
 10
871.2248503094654
 20
654.6727244502646
 30
0.0
 11
871.2248503094654
 21
653.6727244502645
 31
0.0
 12
868.2248503094653
 22
654.1727244502645
 32
0.0
 13
868.2248503094653
 23
654.1727244502645
 33
0.0
  0
SOLID
  5
6A96
330
5DAB
100
AcDbEntity
  8
DIM
 62
     3
100
AcDbTrace
 10
896.2248503094652
 20
654.6727244502646
 30
0.0
 11
896.2248503094652
 21
653.6727244502645
 31
0.0
 12
899.2248503094653
 22
654.1727244502645
 32
0.0
 13
899.2248503094653
 23
654.1727244502645
 33
0.0
  0
MTEXT
  5
6A97
330
5DAB
100
AcDbEntity
  8
DIM
 62
     6
100
AcDbMText
 10
880.9369327095005
 20
656.7054666057899
 30
0.0
 40
3.0
 41
0.0
 71
     5
 72
     1
  1
\A1;31{\H2.400000;±1}
 73
     1
 44
1.0
1001
ACAD
1000
MTEXTBEGIN
1070
    73
1070
     1
1070
    44
1040
1.0
1070
    74
1070
     0
1000
MTEXTEND
  0
POINT
  5
6A98
330
5DAB
100
AcDbEntity
  8
Defpoints
 62
     0
100
AcDbPoint
 10
868.2248503094653
 20
643.6990727663883
 30
0.0
  0
POINT
  5
6A99
330
5DAB
100
AcDbEntity
  8
Defpoints
 62
     0
100
AcDbPoint
 10
899.2248503094653
 20
643.6990727663882
 30
0.0
  0
POINT
  5
6A9A
330
5DAB
100
AcDbEntity
  8
Defpoints
 62
     0
100
AcDbPoint
 10
899.2248503094653
 20
654.1727244502645
 30
0.0
  0
ENDBLK
  5
5DB6
330
5DAB
100
AcDbEntity
  8
0
100
AcDbBlockEnd
  0
BLOCK
  5
5DC3
330
5DB7
100
AcDbEntity
  8
0
100
AcDbBlockBegin
  2
*D10
 70
     1
 10
0.0
 20
0.0
 30
0.0
  3
*D10
  1

  0
LINE
  5
6A07
330
5DB7
100
AcDbEntity
  8
DIM
 62
     3
370
    -2
100
AcDbLine
 10
866.2248503094653
 20
634.5490727663883
 30
0.0
 11
866.2248503094653
 21
649.1182620046507
 31
0.0
  0
LINE
  5
6A08
330
5DB7
100
AcDbEntity
  8
DIM
 62
     3
370
    -2
100
AcDbLine
 10
868.2248503094655
 20
644.6990727663883
 30
0.0
 11
868.2248503094655
 21
649.1182620046507
 31
0.0
  0
LINE
  5
6A09
330
5DB7
100
AcDbEntity
  8
DIM
 62
     3
370
    -2
100
AcDbLine
 10
863.2248503094654
 20
648.1182620046507
 30
0.0
 11
860.2248503094655
 21
648.1182620046507
 31
0.0
  0
LINE
  5
6A0A
330
5DB7
100
AcDbEntity
  8
DIM
 62
     3
370
    -2
100
AcDbLine
 10
871.2248503094654
 20
648.1182620046507
 30
0.0
 11
878.2118898729034
 21
648.1182620046507
 31
0.0
  0
LINE
  5
6A0B
330
5DB7
100
AcDbEntity
  8
DIM
 62
     3
370
    -2
100
AcDbLine
 10
866.2248503094653
 20
648.1182620046507
 30
0.0
 11
868.2248503094655
 21
648.1182620046507
 31
0.0
  0
SOLID
  5
6A0C
330
5DB7
100
AcDbEntity
  8
DIM
 62
     3
100
AcDbTrace
 10
863.2248503094654
 20
648.6182620046507
 30
0.0
 11
863.2248503094654
 21
647.6182620046508
 31
0.0
 12
866.2248503094653
 22
648.1182620046507
 32
0.0
 13
866.2248503094653
 23
648.1182620046507
 33
0.0
  0
SOLID
  5
6A0D
330
5DB7
100
AcDbEntity
  8
DIM
 62
     3
100
AcDbTrace
 10
871.2248503094654
 20
648.6182620046507
 30
0.0
 11
871.2248503094654
 21
647.6182620046508
 31
0.0
 12
868.2248503094655
 22
648.1182620046507
 32
0.0
 13
868.2248503094655
 23
648.1182620046507
 33
0.0
  0
MTEXT
  5
6A0E
330
5DB7
100
AcDbEntity
  8
DIM
 62
     6
100
AcDbMText
 10
876.2183700911846
 20
650.6244011588117
 30
0.0
 40
3.0
 41
0.0
 71
     5
 72
     1
  1
\A1;2
 73
     1
 44
1.0
1001
ACAD
1000
MTEXTBEGIN
1070
    73
1070
     1
1070
    44
1040
1.0
1070
    74
1070
     0
1000
MTEXTEND
  0
POINT
  5
6A0F
330
5DB7
100
AcDbEntity
  8
Defpoints
 62
     0
100
AcDbPoint
 10
866.2248503094653
 20
633.5490727663883
 30
0.0
  0
POINT
  5
6A10
330
5DB7
100
AcDbEntity
  8
Defpoints
 62
     0
100
AcDbPoint
 10
868.2248503094655
 20
643.6990727663883
 30
0.0
  0
POINT
  5
6A11
330
5DB7
100
AcDbEntity
  8
Defpoints
 62
     0
100
AcDbPoint
 10
868.2248503094655
 20
648.1182620046507
 30
0.0
  0
ENDBLK
  5
5DC4
330
5DB7
100
AcDbEntity
  8
0
100
AcDbBlockEnd
  0
BLOCK
  5
5DCF
330
5DC5
100
AcDbEntity
  8
0
100
AcDbBlockBegin
  2
*D11
 70
     1
 10
0.0
 20
0.0
 30
0.0
  3
*D11
  1

  0
LINE
  5
6B43
330
5DC5
100
AcDbEntity
  8
DIM
 62
     3
370
    -2
100
AcDbLine
 10
900.2248503094653
 20
601.3990727663882
 30
0.0
 11
908.0921237678127
 21
601.3990727663882
 31
0.0
  0
LINE
  5
6B44
330
5DC5
100
AcDbEntity
  8
DIM
 62
     3
370
    -2
100
AcDbLine
 10
899.6570643226352
 20
573.0265050110812
 30
0.0
 11
908.0921237678127
 21
573.0265050110812
 31
0.0
  0
LINE
  5
6B45
330
5DC5
100
AcDbEntity
  8
DIM
 62
     3
370
    -2
100
AcDbLine
 10
907.0921237678128
 20
598.3990727663882
 30
0.0
 11
907.0921237678128
 21
576.0265050110811
 31
0.0
  0
SOLID
  5
6B46
330
5DC5
100
AcDbEntity
  8
DIM
 62
     3
100
AcDbTrace
 10
906.5921237678129
 20
598.3990727663882
 30
0.0
 11
907.5921237678128
 21
598.3990727663882
 31
0.0
 12
907.0921237678128
 22
601.3990727663882
 32
0.0
 13
907.0921237678128
 23
601.3990727663882
 33
0.0
  0
SOLID
  5
6B47
330
5DC5
100
AcDbEntity
  8
DIM
 62
     3
100
AcDbTrace
 10
906.5921237678129
 20
576.0265050110811
 30
0.0
 11
907.5921237678128
 21
576.0265050110811
 31
0.0
 12
907.0921237678128
 22
573.0265050110812
 32
0.0
 13
907.0921237678128
 23
573.0265050110812
 33
0.0
  0
MTEXT
  5
6B48
330
5DC5
100
AcDbEntity
  8
DIM
 62
     6
100
AcDbMText
 10
904.5593816122874
 20
585.7147910650944
 30
0.0
 40
3.0
 41
0.0
 71
     5
 72
     1
  1
\A1;300Min
 11
0.0000000000000001
 21
1.0
 31
0.0
 73
     1
 44
1.0
1001
ACAD
1000
MTEXTBEGIN
1070
    73
1070
     1
1070
    44
1040
1.0
1070
    74
1070
     0
1000
MTEXTEND
  0
POINT
  5
6B49
330
5DC5
100
AcDbEntity
  8
Defpoints
 62
     0
100
AcDbPoint
 10
899.2248503094653
 20
601.3990727663882
 30
0.0
  0
POINT
  5
6B4A
330
5DC5
100
AcDbEntity
  8
Defpoints
 62
     0
100
AcDbPoint
 10
898.6570643226352
 20
573.0265050110812
 30
0.0
  0
POINT
  5
6B4B
330
5DC5
100
AcDbEntity
  8
Defpoints
 62
     0
100
AcDbPoint
 10
907.0921237678128
 20
573.0265050110812
 30
0.0
  0
ENDBLK
  5
5DD0
330
5DC5
100
AcDbEntity
  8
0
100
AcDbBlockEnd
  0
BLOCK
  5
5DDB
330
5DD1
100
AcDbEntity
  8
0
100
AcDbBlockBegin
  2
*D12
 70
     1
 10
0.0
 20
0.0
 30
0.0
  3
*D12
  1

  0
LINE
  5
68CE
330
5DD1
100
AcDbEntity
  8
DIM
 62
     3
370
    -2
100
AcDbLine
 10
738.7573683635353
 20
639.0490727663883
 30
0.0
 11
738.7573683635353
 21
648.3848396527137
 31
0.0
  0
LINE
  5
68CF
330
5DD1
100
AcDbEntity
  8
DIM
 62
     3
370
    -2
100
AcDbLine
 10
769.7573683635352
 20
639.0490727663883
 30
0.0
 11
769.7573683635352
 21
648.3848396527137
 31
0.0
  0
LINE
  5
68D0
330
5DD1
100
AcDbEntity
  8
DIM
 62
     3
370
    -2
100
AcDbLine
 10
741.7573683635353
 20
647.3848396527137
 30
0.0
 11
766.7573683635353
 21
647.3848396527137
 31
0.0
  0
SOLID
  5
68D1
330
5DD1
100
AcDbEntity
  8
DIM
 62
     3
100
AcDbTrace
 10
741.7573683635353
 20
647.8848396527137
 30
0.0
 11
741.7573683635353
 21
646.8848396527136
 31
0.0
 12
738.7573683635353
 22
647.3848396527137
 32
0.0
 13
738.7573683635353
 23
647.3848396527137
 33
0.0
  0
SOLID
  5
68D2
330
5DD1
100
AcDbEntity
  8
DIM
 62
     3
100
AcDbTrace
 10
766.7573683635353
 20
647.8848396527137
 30
0.0
 11
766.7573683635353
 21
646.8848396527136
 31
0.0
 12
769.7573683635352
 22
647.3848396527137
 32
0.0
 13
769.7573683635352
 23
647.3848396527137
 33
0.0
  0
MTEXT
  5
68D3
330
5DD1
100
AcDbEntity
  8
DIM
 62
     6
100
AcDbMText
 10
754.2573683635353
 20
649.917581808239
 30
0.0
 40
3.0
 41
0.0
 71
     5
 72
     1
  1
\A1;{\Famgdt|c0;o} 31%%P0.2
 73
     1
 44
1.0
1001
ACAD
1000
MTEXTBEGIN
1070
    73
1070
     1
1070
    44
1040
1.0
1070
    74
1070
     0
1000
MTEXTEND
  0
POINT
  5
68D4
330
5DD1
100
AcDbEntity
  8
Defpoints
 62
     0
100
AcDbPoint
 10
738.7573683635353
 20
638.0490727663883
 30
0.0
  0
POINT
  5
68D5
330
5DD1
100
AcDbEntity
  8
Defpoints
 62
     0
100
AcDbPoint
 10
769.7573683635352
 20
638.0490727663883
 30
0.0
  0
POINT
  5
68D6
330
5DD1
100
AcDbEntity
  8
Defpoints
 62
     0
100
AcDbPoint
 10
769.7573683635352
 20
647.3848396527137
 30
0.0
  0
ENDBLK
  5
5DDC
330
5DD1
100
AcDbEntity
  8
0
100
AcDbBlockEnd
  0
BLOCK
  5
5DE7
330
5DDD
100
AcDbEntity
  8
0
100
AcDbBlockBegin
  2
*D13
 70
     1
 10
0.0
 20
0.0
 30
0.0
  3
*D13
  1

  0
LINE
  5
697F
330
5DDD
100
AcDbEntity
  8
DIM
 62
     3
370
    -2
100
AcDbLine
 10
733.1073683635353
 20
640.3323233454628
 30
0.0
 11
733.1073683635353
 21
655.4947430696718
 31
0.0
  0
LINE
  5
6980
330
5DDD
100
AcDbEntity
  8
DIM
 62
     3
370
    -2
100
AcDbLine
 10
775.4073683635354
 20
640.3323233454626
 30
0.0
 11
775.4073683635354
 21
655.4947430696718
 31
0.0
  0
LINE
  5
6981
330
5DDD
100
AcDbEntity
  8
DIM
 62
     3
370
    -2
100
AcDbLine
 10
736.1073683635353
 20
654.4947430696717
 30
0.0
 11
772.4073683635354
 21
654.4947430696717
 31
0.0
  0
SOLID
  5
6982
330
5DDD
100
AcDbEntity
  8
DIM
 62
     3
100
AcDbTrace
 10
736.1073683635353
 20
654.9947430696718
 30
0.0
 11
736.1073683635353
 21
653.9947430696718
 31
0.0
 12
733.1073683635353
 22
654.4947430696717
 32
0.0
 13
733.1073683635353
 23
654.4947430696717
 33
0.0
  0
SOLID
  5
6983
330
5DDD
100
AcDbEntity
  8
DIM
 62
     3
100
AcDbTrace
 10
772.4073683635354
 20
654.9947430696718
 30
0.0
 11
772.4073683635354
 21
653.9947430696718
 31
0.0
 12
775.4073683635354
 22
654.4947430696717
 32
0.0
 13
775.4073683635354
 23
654.4947430696717
 33
0.0
  0
MTEXT
  5
6984
330
5DDD
100
AcDbEntity
  8
DIM
 62
     6
100
AcDbMText
 10
754.2573683635353
 20
657.027485225197
 30
0.0
 40
3.0
 41
0.0
 71
     5
 72
     1
  1
\A1;{\Famgdt|c0;o} 42.3
 73
     1
 44
1.0
1001
ACAD
1000
MTEXTBEGIN
1070
    73
1070
     1
1070
    44
1040
1.0
1070
    74
1070
     0
1000
MTEXTEND
  0
POINT
  5
6985
330
5DDD
100
AcDbEntity
  8
Defpoints
 62
     0
100
AcDbPoint
 10
733.1073683635353
 20
639.3323233454627
 30
0.0
  0
POINT
  5
6986
330
5DDD
100
AcDbEntity
  8
Defpoints
 62
     0
100
AcDbPoint
 10
775.4073683635354
 20
639.3323233454626
 30
0.0
  0
POINT
  5
6987
330
5DDD
100
AcDbEntity
  8
Defpoints
 62
     0
100
AcDbPoint
 10
775.4073683635354
 20
654.4947430696717
 30
0.0
  0
ENDBLK
  5
5DE8
330
5DDD
100
AcDbEntity
  8
0
100
AcDbBlockEnd
  0
BLOCK
  5
5DF2
330
5DE9
100
AcDbEntity
  8
0
100
AcDbBlockBegin
  2
*D14
 70
     1
 10
0.0
 20
0.0
 30
0.0
  3
*D14
  1

  0
LINE
  5
68E0
330
5DE9
100
AcDbEntity
  8
DIM
 62
     3
370
    -2
100
AcDbLine
 10
709.99361927699
 20
594.3320541185719
 30
0.0
 11
733.8067289352352
 21
604.86029780041
 31
0.0
  0
LINE
  5
68E1
330
5DE9
100
AcDbEntity
  8
DIM
 62
     3
370
    -2
100
AcDbLine
 10
743.7080077918349
 20
609.237847732366
 30
0.0
 11
746.4518046402137
 21
610.4509342316838
 31
0.0
  0
MTEXT
  5
68E2
330
5DE9
100
AcDbEntity
  8
DIM
 62
     6
100
AcDbMText
 10
717.5972083966773
 20
603.1953080476364
 30
0.0
 40
3.0
 41
0.0
 71
     5
 72
     1
  1
\A1;4-M3\P DEEP 4.5
 11
0.9145989494595736
 21
0.4043621664392512
 31
0.0
 73
     1
 44
1.0
1001
ACAD
1000
MTEXTBEGIN
1070
    73
1070
     1
1070
    44
1040
1.0
1070
    74
1070
     0
1000
MTEXTEND
  0
LINE
  5
68E3
330
5DE9
100
AcDbEntity
  8
DIM
 62
     3
370
    -2
100
AcDbLine
 10
740.9642109434562
 20
608.0247612330484
 30
0.0
 11
736.5505257836139
 21
606.0733842997278
 31
0.0
  0
SOLID
  5
68E4
330
5DE9
100
AcDbEntity
  8
DIM
 62
     3
100
AcDbTrace
 10
743.5058267086153
 20
609.6951472070958
 30
0.0
 11
743.9101888750546
 21
608.7805482576363
 31
0.0
 12
740.9642109434562
 22
608.0247612330484
 32
0.0
 13
740.9642109434562
 23
608.0247612330484
 33
0.0
  0
SOLID
  5
68E5
330
5DE9
100
AcDbEntity
  8
DIM
 62
     3
100
AcDbTrace
 10
733.6045478520157
 20
605.3175972751398
 30
0.0
 11
734.0089100184549
 21
604.4029983256803
 31
0.0
 12
736.5505257836139
 22
606.0733842997278
 32
0.0
 13
736.5505257836139
 23
606.0733842997278
 33
0.0
  0
POINT
  5
68E6
330
5DE9
100
AcDbEntity
  8
Defpoints
 62
     0
100
AcDbPoint
 10
736.5505257836139
 20
606.0733842997278
 30
0.0
  0
POINT
  5
68E7
330
5DE9
100
AcDbEntity
  8
Defpoints
 62
     0
100
AcDbPoint
 10
740.9642109434562
 20
608.0247612330484
 30
0.0
  0
ENDBLK
  5
5DF3
330
5DE9
100
AcDbEntity
  8
0
100
AcDbBlockEnd
  0
BLOCK
  5
66F5
330
66EB
100
AcDbEntity
  8
0
100
AcDbBlockBegin
  2
*D15
 70
     1
 10
0.0
 20
0.0
 30
0.0
  3
*D15
  1

  0
LINE
  5
6AA4
330
66EB
100
AcDbEntity
  8
AM_5
  6
ACISOTGL
 62
     3
370
    -2
100
AcDbLine
 10
899.2248503094653
 20
644.6990727663883
 30
0.0
 11
899.2248503094653
 21
655.2949952318125
 31
0.0
  0
LINE
  5
6AA5
330
66EB
100
AcDbEntity
  8
AM_5
  6
ACISOTGL
 62
     3
370
    -2
100
AcDbLine
 10
912.7248503094653
 20
626.0490727663883
 30
0.0
 11
912.7248503094653
 21
655.2949952318125
 31
0.0
  0
LINE
  5
6AA6
330
66EB
100
AcDbEntity
  8
AM_5
  6
ACISOTGL
 62
     3
100
AcDbLine
 10
902.2248503094655
 20
654.2949952318125
 30
0.0
 11
909.7248503094654
 21
654.2949952318125
 31
0.0
  0
SOLID
  5
6AA7
330
66EB
100
AcDbEntity
  8
AM_5
  6
ACISOTGL
 62
     3
100
AcDbTrace
 10
902.2248503094655
 20
654.7949952318125
 30
0.0
 11
902.2248503094655
 21
653.7949952318125
 31
0.0
 12
899.2248503094653
 22
654.2949952318125
 32
0.0
 13
899.2248503094653
 23
654.2949952318125
 33
0.0
  0
SOLID
  5
6AA8
330
66EB
100
AcDbEntity
  8
AM_5
  6
ACISOTGL
 62
     3
100
AcDbTrace
 10
909.7248503094654
 20
654.7949952318125
 30
0.0
 11
909.7248503094654
 21
653.7949952318125
 31
0.0
 12
912.7248503094653
 22
654.2949952318125
 32
0.0
 13
912.7248503094653
 23
654.2949952318125
 33
0.0
  0
MTEXT
  5
6AA9
330
66EB
100
AcDbEntity
  8
AM_5
  6
ACISOTGL
 62
     6
100
AcDbMText
 10
906.0105383165025
 20
656.8277373873378
 30
0.0
 40
3.0
 41
0.0
 71
     5
 72
     1
  1
\A1;13.5{\H2.400000;±1}
 73
     1
 44
1.0
1001
ACAD
1000
MTEXTBEGIN
1070
    73
1070
     1
1070
    44
1040
1.0
1070
    74
1070
     0
1000
MTEXTEND
  0
POINT
  5
6AAA
330
66EB
100
AcDbEntity
  8
Defpoints
  6
ACISOTGL
 62
     0
100
AcDbPoint
 10
899.2248503094653
 20
643.6990727663883
 30
0.0
  0
POINT
  5
6AAB
330
66EB
100
AcDbEntity
  8
Defpoints
  6
ACISOTGL
 62
     0
100
AcDbPoint
 10
912.7248503094653
 20
625.0490727663883
 30
0.0
  0
POINT
  5
6AAC
330
66EB
100
AcDbEntity
  8
Defpoints
  6
ACISOTGL
 62
     0
100
AcDbPoint
 10
912.7248503094653
 20
654.2949952318125
 30
0.0
  0
ENDBLK
  5
66F6
330
66EB
100
AcDbEntity
  8
0
100
AcDbBlockEnd
  0
BLOCK
  5
6721
330
6715
100
AcDbEntity
  8
0
100
AcDbBlockBegin
  2
*D16
 70
     1
 10
0.0
 20
0.0
 30
0.0
  3
*D16
  1

  0
LINE
  5
6864
330
6715
100
AcDbEntity
  8
AM_5
  6
ACISOTGL
 62
     3
370
    -2
100
AcDbLine
 10
913.7248503094653
 20
620.0490727663883
 30
0.0
 11
922.842558377436
 21
620.0490727663883
 31
0.0
  0
LINE
  5
6865
330
6715
100
AcDbEntity
  8
AM_5
  6
ACISOTGL
 62
     3
370
    -2
100
AcDbLine
 10
913.7248503094653
 20
625.0490727663883
 30
0.0
 11
922.842558377436
 21
625.0490727663883
 31
0.0
  0
LINE
  5
6866
330
6715
100
AcDbEntity
  8
AM_5
  6
ACISOTGL
 62
     3
100
AcDbLine
 10
921.842558377436
 20
617.0490727663883
 30
0.0
 11
921.842558377436
 21
614.0490727663883
 31
0.0
  0
LINE
  5
6867
330
6715
100
AcDbEntity
  8
AM_5
  6
ACISOTGL
 62
     3
100
AcDbLine
 10
921.842558377436
 20
628.0490727663883
 30
0.0
 11
921.842558377436
 21
647.6934111019954
 31
0.0
  0
LINE
  5
6868
330
6715
100
AcDbEntity
  8
AM_5
  6
ACISOTGL
 62
     3
100
AcDbLine
 10
921.842558377436
 20
620.0490727663883
 30
0.0
 11
921.842558377436
 21
625.0490727663883
 31
0.0
  0
SOLID
  5
6869
330
6715
100
AcDbEntity
  8
AM_5
  6
ACISOTGL
 62
     3
100
AcDbTrace
 10
921.3425583774361
 20
617.0490727663883
 30
0.0
 11
922.3425583774361
 21
617.0490727663883
 31
0.0
 12
921.842558377436
 22
620.0490727663883
 32
0.0
 13
921.842558377436
 23
620.0490727663883
 33
0.0
  0
SOLID
  5
686A
330
6715
100
AcDbEntity
  8
AM_5
  6
ACISOTGL
 62
     3
100
AcDbTrace
 10
921.3425583774361
 20
628.0490727663883
 30
0.0
 11
922.3425583774361
 21
628.0490727663883
 31
0.0
 12
921.842558377436
 22
625.0490727663883
 32
0.0
 13
921.842558377436
 23
625.0490727663883
 33
0.0
  0
MTEXT
  5
686B
330
6715
100
AcDbEntity
  8
AM_5
  6
ACISOTGL
 62
     6
100
AcDbMText
 10
917.9314396871221
 20
639.3712419341921
 30
0.0
 40
3.0
 41
0.0
 71
     5
 72
     1
  1
\A1;%%c5{\H2.400000;\S 0^ -0.012;}
 11
0.0000000000000001
 21
1.0
 31
0.0
 73
     1
 44
1.0
1001
ACAD
1000
MTEXTBEGIN
1070
    73
1070
     1
1070
    44
1040
1.0
1070
    74
1070
     0
1000
MTEXTEND
  0
POINT
  5
686C
330
6715
100
AcDbEntity
  8
Defpoints
  6
ACISOTGL
 62
     0
100
AcDbPoint
 10
912.7248503094653
 20
620.0490727663883
 30
0.0
  0
POINT
  5
686D
330
6715
100
AcDbEntity
  8
Defpoints
  6
ACISOTGL
 62
     0
100
AcDbPoint
 10
912.7248503094653
 20
625.0490727663883
 30
0.0
  0
POINT
  5
686E
330
6715
100
AcDbEntity
  8
Defpoints
  6
ACISOTGL
 62
     0
100
AcDbPoint
 10
921.842558377436
 20
625.0490727663883
 30
0.0
  0
ENDBLK
  5
6722
330
6715
100
AcDbEntity
  8
0
100
AcDbBlockEnd
  0
BLOCK
  5
6824
330
681A
100
AcDbEntity
  8
0
100
AcDbBlockBegin
  2
*D17
 70
     1
 10
0.0
 20
0.0
 30
0.0
  3
*D17
  1

  0
LINE
  5
685B
330
681A
100
AcDbEntity
  8
DIM
  6
ACISOTGL
 62
     3
370
    -2
100
AcDbLine
 10
997.6698711583294
 20
623.5490727663885
 30
0.0
 11
997.6698711583294
 21
648.6542011986746
 31
0.0
  0
LINE
  5
685C
330
681A
100
AcDbEntity
  8
DIM
  6
ACISOTGL
 62
     3
370
    -2
100
AcDbLine
 10
1016.719871158329
 20
623.5490727663882
 30
0.0
 11
1016.719871158329
 21
648.6542011986746
 31
0.0
  0
LINE
  5
685D
330
681A
100
AcDbEntity
  8
DIM
  6
ACISOTGL
 62
     3
100
AcDbLine
 10
1000.669871158329
 20
647.6542011986746
 30
0.0
 11
1013.719871158329
 21
647.6542011986746
 31
0.0
  0
SOLID
  5
685E
330
681A
100
AcDbEntity
  8
DIM
  6
ACISOTGL
 62
     3
100
AcDbTrace
 10
1000.669871158329
 20
648.1542011986746
 30
0.0
 11
1000.669871158329
 21
647.1542011986746
 31
0.0
 12
997.6698711583294
 22
647.6542011986746
 32
0.0
 13
997.6698711583294
 23
647.6542011986746
 33
0.0
  0
SOLID
  5
685F
330
681A
100
AcDbEntity
  8
DIM
  6
ACISOTGL
 62
     3
100
AcDbTrace
 10
1013.719871158329
 20
648.1542011986746
 30
0.0
 11
1013.719871158329
 21
647.1542011986746
 31
0.0
 12
1016.719871158329
 22
647.6542011986746
 32
0.0
 13
1016.719871158329
 23
647.6542011986746
 33
0.0
  0
MTEXT
  5
6860
330
681A
100
AcDbEntity
  8
DIM
  6
ACISOTGL
 62
     6
100
AcDbMText
 10
1007.245987185142
 20
650.1859201618397
 30
0.0
 40
3.0
 41
0.0
 71
     5
 72
     1
  1
\A1;19.05
 73
     1
 44
1.0
1001
ACAD
1000
MTEXTBEGIN
1070
    73
1070
     1
1070
    44
1040
1.0
1070
    74
1070
     0
1000
MTEXTEND
  0
POINT
  5
6861
330
681A
100
AcDbEntity
  8
Defpoints
  6
ACISOTGL
 62
     0
100
AcDbPoint
 10
997.6698711583294
 20
622.5490727663884
 30
0.0
  0
POINT
  5
6862
330
681A
100
AcDbEntity
  8
Defpoints
  6
ACISOTGL
 62
     0
100
AcDbPoint
 10
1016.719871158329
 20
622.5490727663882
 30
0.0
  0
POINT
  5
6863
330
681A
100
AcDbEntity
  8
Defpoints
  6
ACISOTGL
 62
     0
100
AcDbPoint
 10
1016.719871158329
 20
647.6542011986746
 30
0.0
  0
ENDBLK
  5
6825
330
681A
100
AcDbEntity
  8
0
100
AcDbBlockEnd
  0
BLOCK
  5
6A55
330
6A49
100
AcDbEntity
  8
0
100
AcDbBlockBegin
  2
*D18
 70
     1
 10
0.0
 20
0.0
 30
0.0
  3
*D18
  1

  0
LINE
  5
6A63
330
6A49
100
AcDbEntity
  8
DIM
 62
     3
370
    -2
100
AcDbLine
 10
843.2248503094653
 20
625.0490727663883
 30
0.0
 11
835.1463444073633
 21
625.0490727663883
 31
0.0
  0
LINE
  5
6A64
330
6A49
100
AcDbEntity
  8
DIM
 62
     3
370
    -2
100
AcDbLine
 10
843.2248503094653
 20
620.0490727663883
 30
0.0
 11
835.1463444073633
 21
620.0490727663883
 31
0.0
  0
LINE
  5
6A65
330
6A49
100
AcDbEntity
  8
DIM
 62
     3
370
    -2
100
AcDbLine
 10
836.1463444073633
 20
628.0490727663883
 30
0.0
 11
836.1463444073633
 21
631.0490727663883
 31
0.0
  0
LINE
  5
6A66
330
6A49
100
AcDbEntity
  8
DIM
 62
     3
370
    -2
100
AcDbLine
 10
836.1463444073633
 20
617.0490727663883
 30
0.0
 11
836.1463444073633
 21
592.8729710919165
 31
0.0
  0
LINE
  5
6A67
330
6A49
100
AcDbEntity
  8
DIM
 62
     3
370
    -2
100
AcDbLine
 10
836.1463444073633
 20
625.0490727663883
 30
0.0
 11
836.1463444073633
 21
620.0490727663883
 31
0.0
  0
SOLID
  5
6A68
330
6A49
100
AcDbEntity
  8
DIM
 62
     3
100
AcDbTrace
 10
835.6463444073634
 20
628.0490727663883
 30
0.0
 11
836.6463444073634
 21
628.0490727663883
 31
0.0
 12
836.1463444073633
 22
625.0490727663883
 32
0.0
 13
836.1463444073633
 23
625.0490727663883
 33
0.0
  0
SOLID
  5
6A69
330
6A49
100
AcDbEntity
  8
DIM
 62
     3
100
AcDbTrace
 10
835.6463444073634
 20
617.0490727663883
 30
0.0
 11
836.6463444073634
 21
617.0490727663883
 31
0.0
 12
836.1463444073633
 22
620.0490727663883
 32
0.0
 13
836.1463444073633
 23
620.0490727663883
 33
0.0
  0
MTEXT
  5
6A6A
330
6A49
100
AcDbEntity
  8
DIM
 62
     6
100
AcDbMText
 10
832.5915695096824
 20
600.618673684004
 30
0.0
 40
3.0
 41
0.0
 71
     5
 72
     1
  1
\A1;\A1;%%C5{\H0.7x;\S 0^ -0.012;}
 11
0.0000000000000001
 21
1.0
 31
0.0
 73
     1
 44
1.0
1001
ACAD
1000
MTEXTBEGIN
1070
    73
1070
     1
1070
    44
1040
1.0
1070
    74
1070
     0
1000
MTEXTEND
  0
POINT
  5
6A6B
330
6A49
100
AcDbEntity
  8
Defpoints
 62
     0
100
AcDbPoint
 10
844.2248503094655
 20
625.0490727663883
 30
0.0
  0
POINT
  5
6A6C
330
6A49
100
AcDbEntity
  8
Defpoints
 62
     0
100
AcDbPoint
 10
844.2248503094655
 20
620.0490727663883
 30
0.0
  0
POINT
  5
6A6D
330
6A49
100
AcDbEntity
  8
Defpoints
 62
     0
100
AcDbPoint
 10
836.1463444073633
 20
620.0490727663883
 30
0.0
  0
ENDBLK
  5
6A56
330
6A49
100
AcDbEntity
  8
0
100
AcDbBlockEnd
  0
BLOCK
  5
6A61
330
6A57
100
AcDbEntity
  8
0
100
AcDbBlockBegin
  2
*D19
 70
     1
 10
0.0
 20
0.0
 30
0.0
  3
*D19
  1

  0
LINE
  5
6A6E
330
6A57
100
AcDbEntity
  8
DIM
 62
     3
370
    -2
100
AcDbLine
 10
865.2248503094654
 20
633.5490727663883
 30
0.0
 11
826.9044749895321
 21
633.5490727663883
 31
0.0
  0
LINE
  5
6A6F
330
6A57
100
AcDbEntity
  8
DIM
 62
     3
370
    -2
100
AcDbLine
 10
865.2248503094654
 20
611.5490727663883
 30
0.0
 11
826.9044749895321
 21
611.5490727663883
 31
0.0
  0
LINE
  5
6A70
330
6A57
100
AcDbEntity
  8
DIM
 62
     3
370
    -2
100
AcDbLine
 10
827.9044749895321
 20
630.5490727663883
 30
0.0
 11
827.9044749895321
 21
614.5490727663883
 31
0.0
  0
SOLID
  5
6A71
330
6A57
100
AcDbEntity
  8
DIM
 62
     3
100
AcDbTrace
 10
827.4044749895322
 20
630.5490727663883
 30
0.0
 11
828.4044749895322
 21
630.5490727663883
 31
0.0
 12
827.9044749895321
 22
633.5490727663883
 32
0.0
 13
827.9044749895321
 23
633.5490727663883
 33
0.0
  0
SOLID
  5
6A72
330
6A57
100
AcDbEntity
  8
DIM
 62
     3
100
AcDbTrace
 10
827.4044749895322
 20
614.5490727663883
 30
0.0
 11
828.4044749895322
 21
614.5490727663883
 31
0.0
 12
827.9044749895321
 22
611.5490727663883
 32
0.0
 13
827.9044749895321
 23
611.5490727663883
 33
0.0
  0
MTEXT
  5
6A73
330
6A57
100
AcDbEntity
  8
DIM
 62
     6
100
AcDbMText
 10
824.3497000918512
 20
624.3234604989273
 30
0.0
 40
3.0
 41
0.0
 71
     5
 72
     1
  1
\A1;\A1;%%C22{\H0.7x;\S 0^ -0.05;}
 11
0.0000000000000001
 21
1.0
 31
0.0
 73
     1
 44
1.0
1001
ACAD
1000
MTEXTBEGIN
1070
    73
1070
     1
1070
    44
1040
1.0
1070
    74
1070
     0
1000
MTEXTEND
  0
POINT
  5
6A74
330
6A57
100
AcDbEntity
  8
Defpoints
 62
     0
100
AcDbPoint
 10
866.2248503094653
 20
633.5490727663883
 30
0.0
  0
POINT
  5
6A75
330
6A57
100
AcDbEntity
  8
Defpoints
 62
     0
100
AcDbPoint
 10
866.2248503094653
 20
611.5490727663883
 30
0.0
  0
POINT
  5
6A76
330
6A57
100
AcDbEntity
  8
Defpoints
 62
     0
100
AcDbPoint
 10
827.9044749895321
 20
611.5490727663883
 30
0.0
  0
ENDBLK
  5
6A62
330
6A57
100
AcDbEntity
  8
0
100
AcDbBlockEnd
  0
ENDSEC
  0
SECTION
  2
ENTITIES
  0
TEXT
  5
13FA
330
1F
100
AcDbEntity
  8
SPEC
100
AcDbText
 10
1198.0
 20
654.0
 30
0.0
 40
2.4
  1

 41
0.7
  7
ROMANS
100
AcDbText
  0
LINE
  5
5CF3
330
1F
100
AcDbEntity
  8
SPEC
100
AcDbLine
 10
866.2248503094653
 20
620.0490727663883
 30
0.0
 11
844.2248503094655
 21
620.0490727663883
 31
0.0
  0
LINE
  5
5CF4
330
1F
100
AcDbEntity
  8
SPEC
100
AcDbLine
 10
866.2248503094653
 20
625.0490727663883
 30
0.0
 11
844.2248503094655
 21
625.0490727663883
 31
0.0
  0
DIMENSION
  5
5CF6
330
1F
100
AcDbEntity
  8
DIM
 62
     7
100
AcDbDimension
  2
*D8
 10
868.2248503094653
 20
654.1727244502645
 30
0.0
 11
857.0864300569137
 21
654.1727244502645
 31
0.0
 70
   160
  1
<>
 71
     5
 42
24.0
  3
YL
100
AcDbAlignedDimension
 13
844.2248503094655
 23
625.0490727663883
 33
0.0
 14
868.2248503094653
 24
643.6990727663883
 34
0.0
100
AcDbRotatedDimension
1001
ACAD
1000
DSTYLE
1002
{
1070
    47
1040
0.5
1070
    48
1040
0.5
1070
   147
1040
1.0
1070
    72
1070
     0
1070
    71
1070
     1
1002
}
  0
LINE
  5
5CF7
330
1F
100
AcDbEntity
  8
CENTER
  6
AM_ISO08W050x2
100
AcDbLine
 10
842.0418351782462
 20
622.5490727663883
 30
0.0
 11
914.947320345824
 21
622.5490727663883
 31
0.0
  0
LINE
  5
5CF8
330
1F
100
AcDbEntity
  8
SPEC
100
AcDbLine
 10
844.2248503094655
 20
622.5490727663883
 30
0.0
 11
844.2248503094655
 21
625.0490727663883
 31
0.0
  0
LINE
  5
5CF9
330
1F
100
AcDbEntity
  8
SPEC
100
AcDbLine
 10
844.2248503094655
 20
622.5490727663883
 30
0.0
 11
844.2248503094655
 21
620.0490727663883
 31
0.0
  0
DIMENSION
  5
5CFC
330
1F
100
AcDbEntity
  8
DIM
 62
     7
100
AcDbDimension
  2
*D9
 10
899.2248503094653
 20
654.1727244502645
 30
0.0
 11
880.9369327095005
 21
654.1727244502645
 31
0.0
 70
   160
  1
<>
 71
     5
 42
30.99999999999989
  3
YL
100
AcDbAlignedDimension
 13
868.2248503094653
 23
643.6990727663883
 33
0.0
 14
899.2248503094653
 24
643.6990727663882
 34
0.0
100
AcDbRotatedDimension
1001
ACAD
1000
DSTYLE
1002
{
1070
    47
1040
1.0
1070
   147
1040
1.0
1070
    48
1040
1.0
1070
    72
1070
     0
1070
    71
1070
     1
1070
   144
1040
1.0
1002
}
  0
LINE
  5
5CFD
330
1F
100
AcDbEntity
  8
SPEC
100
AcDbLine
 10
868.2248503094653
 20
601.3990727663883
 30
0.0
 11
899.2248503094653
 21
601.3990727663882
 31
0.0
  0
LINE
  5
5CFE
330
1F
100
AcDbEntity
  8
SPEC
100
AcDbLine
 10
868.2248503094655
 20
643.6990727663883
 30
0.0
 11
899.2248503094653
 21
643.6990727663882
 31
0.0
  0
LINE
  5
5CFF
330
1F
100
AcDbEntity
  8
SPEC
100
AcDbLine
 10
866.2248503094653
 20
633.5490727663883
 30
0.0
 11
866.2248503094653
 21
622.5490727663883
 31
0.0
  0
LINE
  5
5D00
330
1F
100
AcDbEntity
  8
SPEC
100
AcDbLine
 10
876.1208504727862
 20
639.3323233454626
 30
0.0
 11
876.1208504727862
 21
622.5490727663883
 31
0.0
  0
LINE
  5
5D01
330
1F
100
AcDbEntity
  8
SPEC
100
AcDbLine
 10
868.2248503094653
 20
643.6990727663883
 30
0.0
 11
868.2248503094653
 21
611.5490727663883
 31
0.0
  0
DIMENSION
  5
5D02
330
1F
100
AcDbEntity
  8
DIM
 62
     7
100
AcDbDimension
  2
*D10
 10
868.2248503094655
 20
648.1182620046507
 30
0.0
 11
876.2183700911846
 21
648.1182620046507
 31
0.0
 70
   160
  1
2
 71
     5
 42
2.000000000000113
  3
YL
100
AcDbAlignedDimension
 13
866.2248503094653
 23
633.5490727663883
 33
0.0
 14
868.2248503094655
 24
643.6990727663883
 34
0.0
100
AcDbRotatedDimension
  0
LINE
  5
5D03
330
1F
100
AcDbEntity
  8
SPEC
100
AcDbLine
 10
868.2248503094653
 20
611.5490727663883
 30
0.0
 11
868.2248503094653
 21
601.3990727663883
 31
0.0
  0
LINE
  5
5D04
330
1F
100
AcDbEntity
  8
SPEC
100
AcDbLine
 10
866.2248503094653
 20
611.5490727663883
 30
0.0
 11
866.2248503094653
 21
622.5490727663883
 31
0.0
  0
LINE
  5
5D05
330
1F
100
AcDbEntity
  8
SPEC
100
AcDbLine
 10
868.2248503094653
 20
611.5490727663883
 30
0.0
 11
866.2248503094653
 21
611.5490727663883
 31
0.0
  0
LINE
  5
5D06
330
1F
100
AcDbEntity
  8
SPEC
100
AcDbLine
 10
878.2248503094654
 20
601.3990727663883
 30
0.0
 11
878.2248503094654
 21
605.7658221873139
 31
0.0
  0
LINE
  5
5D07
330
1F
100
AcDbEntity
  8
SPEC
100
AcDbLine
 10
876.1208504727862
 20
605.765822187314
 30
0.0
 11
876.1208504727862
 21
622.5490727663883
 31
0.0
  0
LINE
  5
5D08
330
1F
100
AcDbEntity
  8
SPEC
100
AcDbLine
 10
878.2248503094654
 20
605.765822187314
 30
0.0
 11
876.1208504727862
 21
605.765822187314
 31
0.0
  0
LINE
  5
5D09
330
1F
100
AcDbEntity
  8
SPEC
100
AcDbLine
 10
868.2248503094653
 20
633.5490727663883
 30
0.0
 11
866.2248503094653
 21
633.5490727663883
 31
0.0
  0
LINE
  5
5D0A
330
1F
100
AcDbEntity
  8
SPEC
100
AcDbLine
 10
878.2248503094654
 20
639.3323233454627
 30
0.0
 11
876.1208504727862
 21
639.3323233454626
 31
0.0
  0
LINE
  5
5D0B
330
1F
100
AcDbEntity
  8
SPEC
100
AcDbLine
 10
878.2248503094654
 20
643.6990727663883
 30
0.0
 11
878.2248503094654
 21
639.3323233454627
 31
0.0
  0
LINE
  5
5D0C
330
1F
100
AcDbEntity
  8
SPEC
100
AcDbLine
 10
891.3288501461446
 20
639.3323233454626
 30
0.0
 11
891.3288501461446
 21
622.5490727663883
 31
0.0
  0
LINE
  5
5D0D
102
{ACAD_REACTORS
330
66F8
102
}
330
1F
100
AcDbEntity
  8
SPEC
100
AcDbLine
 10
899.2248503094653
 20
643.6990727663883
 30
0.0
 11
899.2248503094655
 21
601.3990727663883
 31
0.0
  0
LINE
  5
5D10
330
1F
100
AcDbEntity
  8
SPEC
100
AcDbLine
 10
889.2248503094654
 20
601.3990727663883
 30
0.0
 11
889.2248503094654
 21
605.7658221873139
 31
0.0
  0
LINE
  5
5D11
330
1F
100
AcDbEntity
  8
SPEC
100
AcDbLine
 10
891.3288501461446
 20
605.765822187314
 30
0.0
 11
891.3288501461446
 21
622.5490727663883
 31
0.0
  0
LINE
  5
5D12
330
1F
100
AcDbEntity
  8
SPEC
100
AcDbLine
 10
889.2248503094654
 20
605.765822187314
 30
0.0
 11
891.3288501461446
 21
605.765822187314
 31
0.0
  0
LINE
  5
5D13
330
1F
100
AcDbEntity
  8
SPEC
100
AcDbLine
 10
889.2248503094654
 20
639.3323233454627
 30
0.0
 11
891.3288501461446
 21
639.3323233454626
 31
0.0
  0
LINE
  5
5D14
330
1F
100
AcDbEntity
  8
SPEC
100
AcDbLine
 10
889.2248503094656
 20
643.6990727663883
 30
0.0
 11
889.2248503094654
 21
639.3323233454627
 31
0.0
  0
HATCH
  5
5D15
330
1F
100
AcDbEntity
  8
DIM
100
AcDbHatch
 10
0.0
 20
0.0
 30
0.0
210
0.0
220
0.0
230
1.0
  2
ANSI37
 70
     0
 71
     1
 91
        8
 92
        7
 72
     0
 73
     1
 93
        4
 10
893.1606834054782
 20
600.1025464768019
 10
892.049626137752
 20
600.1025464768019
 10
892.049626137752
 20
589.7059270436569
 10
893.1606834054788
 20
589.7059270436569
 97
        4
330
5D3F
330
5D3B
330
5D3E
330
5D3C
 92
        7
 72
     0
 73
     1
 93
        4
 10
894.1883251880017
 20
600.1025464768018
 10
893.1606834054784
 20
600.1025464768018
 10
893.1606834054784
 20
589.7059270436568
 10
894.1883251880014
 20
589.7059270436569
 97
        4
330
5D3F
330
5D3C
330
5D3E
330
5D39
 92
        7
 72
     0
 73
     1
 93
        4
 10
894.1883251880014
 20
589.7059270436569
 10
895.2159669705251
 20
589.7059270436569
 10
895.2159669705251
 20
600.1025464768019
 10
894.1883251880017
 20
600.1025464768019
 97
        4
330
5D41
330
5D39
330
5D3E
330
5D38
 92
        7
 72
     0
 73
     1
 93
        4
 10
896.3270242382519
 20
600.1025464768018
 10
895.2159669705253
 20
600.1025464768018
 10
895.2159669705251
 20
589.7059270436568
 10
896.3270242382513
 20
589.7059270436568
 97
        4
330
5D41
330
5D38
330
5D3E
330
5D37
 92
        7
 72
     0
 73
     1
 93
        4
 10
896.3270242382515
 20
588.6445093946861
 10
895.2159669705251
 20
588.6445093946861
 10
895.2159669705249
 20
573.0265050110812
 10
896.3270242382511
 20
573.0265050110813
 97
        4
330
5D3D
330
5D1A
330
5D24
330
5D19
 92
        7
 72
     0
 73
     1
 93
        4
 10
894.1883251880012
 20
573.0265050110812
 10
895.2159669705249
 20
573.0265050110812
 10
895.2159669705249
 20
588.6445093946861
 10
894.1883251880017
 20
588.6445093946861
 97
        4
330
5D3D
330
5D1B
330
5D24
330
5D1A
 92
        7
 72
     0
 73
     1
 93
        4
 10
894.1883251880017
 20
588.6445093946861
 10
893.1606834054784
 20
588.6445093946861
 10
893.1606834054786
 20
573.0265050110813
 10
894.1883251880012
 20
573.0265050110813
 97
        4
330
5D3D
330
5D1D
330
5D23
330
5D1B
 92
        7
 72
     0
 73
     1
 93
        4
 10
892.049626137752
 20
573.0265050110813
 10
893.1606834054784
 20
573.0265050110813
 10
893.1606834054788
 20
588.6445093946861
 10
892.049626137752
 20
588.644509394686
 97
        4
330
5D3D
330
5D1E
330
5D23
330
5D1D
 75
     0
 76
     1
 52
0.0
 41
15.0
 77
     0
 78
     2
 53
45.0
 43
880.9916424593065
 44
713.1749723226353
 45
-1.325825214724776
 46
1.325825214724776
 79
     0
 53
135.0
 43
880.9916424593065
 44
713.1749723226353
 45
-1.325825214724776
 46
-1.325825214724776
 79
     0
 47
0.1252913560188824
 98
        8
 10
892.9251522490197
 20
597.7803400573963
 10
893.6772219547027
 20
598.4067967707829
 10
894.5546362114715
 20
598.2815048777673
 10
895.8080865206659
 20
598.6573796395838
 10
896.0587768224215
 20
584.3741643730128
 10
894.6799819621414
 20
587.1305740953605
 10
893.6772219547027
 20
586.3788264061887
 10
892.4237716455083
 20
586.128243537388
  0
LEADER
  5
5D16
330
1F
100
AcDbEntity
  8
DIM
100
AcDbLeader
  3
YL
 73
     0
 40
3.10231923601637
 41
14.4924965893588
 76
     3
 10
893.5518762040329
 20
583.7477076596261
 30
0.0
 10
886.2818670497905
 20
574.3508560415945
 30
0.0
 10
883.4288714469927
 20
574.35
 30
0.0
340
5D17
213
1.037153903960643
223
1.378458051301799
233
0.0
1001
ACAD
1000
DSTYLE
1002
{
1070
   147
1040
1.199999999999999
1070
    77
1070
     0
1002
}
  0
MTEXT
  5
5D17
102
{ACAD_REACTORS
330
5D16
102
}
330
1F
100
AcDbEntity
  8
DATA
100
AcDbMText
 10
881.191717543032
 20
572.993939938991
 30
0.0
 40
3.0
 41
0.0
 71
     9
 72
     1
  1
AWG26
 73
     1
 44
1.0
1001
ACAD
1000
MTEXTBEGIN
1070
    73
1070
     1
1070
    44
1040
1.0
1070
    74
1070
     0
1000
MTEXTEND
  0
DIMENSION
  5
5D18
330
1F
100
AcDbEntity
  8
DIM
 62
     7
100
AcDbDimension
  2
*D11
 10
907.0921237678128
 20
573.0265050110812
 30
0.0
 11
907.0921237678128
 21
585.7147910650944
 31
0.0
 70
   160
  1
300Min
 71
     5
 42
28.37256775530704
  3
YL
100
AcDbAlignedDimension
 13
899.2248503094653
 23
601.3990727663882
 33
0.0
 14
898.6570643226352
 24
573.0265050110812
 34
0.0
 50
90.0
100
AcDbRotatedDimension
  0
LINE
  5
5D19
102
{ACAD_REACTORS
330
5D15
102
}
330
1F
100
AcDbEntity
  8
DIMENSION
100
AcDbLine
 10
896.3270242382515
 20
588.6445093946861
 30
0.0
 11
896.3270242382511
 21
573.0265050110812
 31
0.0
  0
LINE
  5
5D1A
102
{ACAD_REACTORS
330
5D15
102
}
330
1F
100
AcDbEntity
  8
DIM
100
AcDbLine
 10
895.2159669705251
 20
588.6445093946861
 30
0.0
 11
895.2159669705247
 21
573.0265050110813
 31
0.0
  0
LINE
  5
5D1B
102
{ACAD_REACTORS
330
5D15
102
}
330
1F
100
AcDbEntity
  8
DIM
100
AcDbLine
 10
894.1883251880017
 20
588.6445093946861
 30
0.0
 11
894.1883251880012
 21
573.0265050110813
 31
0.0
  0
LINE
  5
5D1D
102
{ACAD_REACTORS
330
5D15
102
}
330
1F
100
AcDbEntity
  8
DIM
100
AcDbLine
 10
893.1606834054784
 20
588.6445093946861
 30
0.0
 11
893.1606834054784
 21
573.0265050110813
 31
0.0
  0
LINE
  5
5D1E
102
{ACAD_REACTORS
330
5D15
102
}
330
1F
100
AcDbEntity
  8
DIMENSION
100
AcDbLine
 10
892.049626137752
 20
588.6445093946861
 30
0.0
 11
892.049626137752
 21
573.0265050110813
 31
0.0
  0
MTEXT
  5
5D1F
330
1F
100
AcDbEntity
  8
DATA
100
AcDbMText
 10
881.191717543032
 20
567.3142789558414
 30
0.0
 40
3.0
 41
0.0
 71
     9
 72
     1
  1
UL1007
 73
     1
 44
1.0
1001
ACAD
1000
MTEXTBEGIN
1070
    73
1070
     1
1070
    44
1040
1.0
1070
    74
1070
     0
1000
MTEXTEND
  0
MTEXT
  5
5D20
330
1F
100
AcDbEntity
  8
DATA
100
AcDbMText
 10
907.6191770596725
 20
565.6939705009011
 30
0.0
 40
3.0
 41
0.0
 71
     1
 72
     1
  1
JST XHP-4
 73
     1
 44
1.0
1001
ACAD
1000
MTEXTBEGIN
1070
    73
1070
     1
1070
    44
1040
1.0
1070
    74
1070
     0
1000
MTEXTEND
  0
LWPOLYLINE
  5
5D21
330
1F
100
AcDbEntity
  8
DIMENSION
100
AcDbPolyline
 90
        4
 70
     1
 43
0.0
 10
889.5185609426631
 20
573.0265050110812
 10
898.6570643226352
 20
573.0265050110812
 10
898.6570643226352
 20
564.1315912031285
 10
889.5185609426631
 20
564.1315912031285
  0
LEADER
  5
5D22
330
1F
100
AcDbEntity
  8
DIM
 62
     7
100
AcDbLeader
  3
YL
 76
     3
 10
896.6172852149108
 20
568.6648234549473
 30
0.0
 10
901.6568299765648
 20
564.758747293916
 30
0.0
 10
906.6963747382185
 20
564.758747293916
 30
0.0
1001
ACAD
1000
DSTYLE
1002
{
1070
   147
1040
1.199999999999999
1070
    77
1070
     0
1002
}
  0
LINE
  5
5D23
102
{ACAD_REACTORS
330
5D15
102
}
330
1F
100
AcDbEntity
  8
DIMENSION
100
AcDbLine
 10
892.049626137752
 20
573.0265050110813
 30
0.0
 11
894.1883251880019
 21
573.0265050110813
 31
0.0
  0
LINE
  5
5D24
102
{ACAD_REACTORS
330
5D15
102
}
330
1F
100
AcDbEntity
  8
DIMENSION
100
AcDbLine
 10
896.3270242382511
 20
573.0265050110812
 30
0.0
 11
894.1883251880012
 21
573.0265050110813
 31
0.0
  0
DIMENSION
  5
5D25
330
1F
100
AcDbEntity
  8
DIM
 62
     7
100
AcDbDimension
  2
*D12
 10
769.7573683635352
 20
647.3848396527137
 30
0.0
 11
754.2573683635353
 21
649.917581808239
 31
0.0
 70
    32
  1
{\Famgdt;o} 31%%P0.2
 71
     5
 42
31.0
  3
YL
100
AcDbAlignedDimension
 13
738.7573683635353
 23
638.0490727663883
 33
0.0
 14
769.7573683635352
 24
638.0490727663883
 34
0.0
100
AcDbRotatedDimension
  0
DIMENSION
  5
5D26
330
1F
100
AcDbEntity
  8
DIM
 62
     7
100
AcDbDimension
  2
*D13
 10
775.4073683635354
 20
654.4947430696717
 30
0.0
 11
754.2573683635353
 21
654.4947430696717
 31
0.0
 70
   160
  1
{\Famgdt;o} 42.3
 71
     5
 42
42.30000000000006
  3
YL
100
AcDbAlignedDimension
 13
733.1073683635353
 23
639.3323233454627
 33
0.0
 14
775.4073683635354
 24
639.3323233454626
 34
0.0
100
AcDbRotatedDimension
  0
LINE
  5
5D27
330
1F
100
AcDbEntity
  8
CENTER
  6
AM_ISO08W050x2
100
AcDbLine
 10
731.9227414488728
 20
622.5490727663883
 30
0.0
 11
777.3052098586422
 21
622.5490727663883
 31
0.0
  0
LINE
  5
5D28
330
1F
100
AcDbEntity
  8
SPEC
100
AcDbLine
 10
737.474117784461
 20
643.6990727663883
 30
0.0
 11
771.0406189426097
 21
643.6990727663883
 31
0.0
  0
LINE
  5
5D29
330
1F
100
AcDbEntity
  8
SPEC
100
AcDbLine
 10
737.474117784461
 20
601.3990727663883
 30
0.0
 11
771.0406189426097
 21
601.3990727663883
 31
0.0
  0
CIRCLE
  5
5D2A
330
1F
100
AcDbEntity
  8
SPEC
100
AcDbCircle
 10
754.2573683635353
 20
622.5490727663883
 30
0.0
 40
11.0
  0
LINE
  5
5D2B
330
1F
100
AcDbEntity
  8
SPEC
100
AcDbLine
 10
733.1073683635353
 20
639.3323233454626
 30
0.0
 11
733.1073683635353
 21
605.765822187314
 31
0.0
  0
DIMENSION
  5
5D2C
330
1F
100
AcDbEntity
  8
DIM
 62
     7
100
AcDbDimension
  2
*D14
 10
740.9642109434562
 20
608.0247612330484
 30
0.0
 11
719.6318451775363
 21
598.5933031699499
 31
0.0
 70
   163
  1
4-M3\P DEEP 4.5
 71
     5
 42
4.825814814734144
  3
YL
100
AcDbDiametricDimension
 15
736.5505257836139
 25
606.0733842997278
 35
0.0
 40
0.0
  0
ARC
  5
5D2D
330
1F
100
AcDbEntity
  8
SPEC
100
AcDbCircle
 10
754.2573683635353
 20
622.5490727663883
 30
0.0
 40
27.0
100
AcDbArc
 50
218.433206340851
 51
231.5667936591487
  0
CIRCLE
  5
5D2E
330
1F
100
AcDbEntity
  8
SPEC
100
AcDbCircle
 10
738.7573683635353
 20
607.0490727663883
 30
0.0
 40
2.0
  0
ARC
  5
5D2F
330
1F
100
AcDbEntity
  8
SPEC
  6
ACISOWELD
 62
     3
100
AcDbCircle
 10
738.7573683635353
 20
607.0490727663883
 30
0.0
 40
2.412907407366787
100
AcDbArc
 50
86.48133521379042
 51
0.264384480827858
  0
ARC
  5
5D30
330
1F
100
AcDbEntity
  8
SPEC
  6
ACISOWELD
 62
     3
100
AcDbCircle
 10
738.7573683635353
 20
638.0490727663883
 30
0.0
 40
2.412907407366787
100
AcDbArc
 50
356.481335213784
 51
270.2643844808278
  0
CIRCLE
  5
5D31
330
1F
100
AcDbEntity
  8
SPEC
100
AcDbCircle
 10
738.7573683635353
 20
638.0490727663883
 30
0.0
 40
2.0
  0
ARC
  5
5D32
330
1F
100
AcDbEntity
  8
SPEC
100
AcDbCircle
 10
754.2573683635353
 20
622.5490727663883
 30
0.0
 40
27.0
100
AcDbArc
 50
128.4332063408512
 51
141.566793659149
  0
LINE
  5
5D33
330
1F
100
AcDbEntity
  8
SPEC
100
AcDbLine
 10
775.4073683635352
 20
639.3323233454627
 30
0.0
 11
775.4073683635354
 21
605.765822187314
 31
0.0
  0
LINE
  5
5D34
330
1F
100
AcDbEntity
  8
CENTER
  6
CENTER
100
AcDbLine
 10
754.2573683635353
 20
646.4652733829766
 30
0.0
 11
754.2573683635353
 21
598.2128611590487
 31
0.0
  0
CIRCLE
  5
5D35
330
1F
100
AcDbEntity
  8
SPEC
100
AcDbCircle
 10
769.7573683635352
 20
607.0490727663883
 30
0.0
 40
2.0
  0
ARC
  5
5D36
330
1F
100
AcDbEntity
  8
SPEC
  6
ACISOWELD
 62
     3
100
AcDbCircle
 10
769.7573683635352
 20
607.0490727663883
 30
0.0
 40
2.412907407366787
100
AcDbArc
 50
176.4813352137839
 51
90.26438448082785
  0
LINE
  5
5D37
102
{ACAD_REACTORS
330
5D15
102
}
330
1F
100
AcDbEntity
  8
DIMENSION
100
AcDbLine
 10
896.3270242382517
 20
600.1025464768019
 30
0.0
 11
896.3270242382515
 21
589.7059270436569
 31
0.0
  0
LINE
  5
5D38
102
{ACAD_REACTORS
330
5D15
102
}
330
1F
100
AcDbEntity
  8
DIM
100
AcDbLine
 10
895.2159669705253
 20
600.1025464768019
 30
0.0
 11
895.2159669705251
 21
589.7059270436569
 31
0.0
  0
LINE
  5
5D39
102
{ACAD_REACTORS
330
5D15
102
}
330
1F
100
AcDbEntity
  8
DIM
100
AcDbLine
 10
894.1883251880017
 20
600.1025464768019
 30
0.0
 11
894.1883251880016
 21
589.7059270436569
 31
0.0
  0
LINE
  5
5D3B
102
{ACAD_REACTORS
330
5D15
102
}
330
1F
100
AcDbEntity
  8
DIMENSION
100
AcDbLine
 10
892.049626137752
 20
600.1025464768019
 30
0.0
 11
892.049626137752
 21
589.7059270436569
 31
0.0
  0
LINE
  5
5D3C
102
{ACAD_REACTORS
330
5D15
102
}
330
1F
100
AcDbEntity
  8
DIM
100
AcDbLine
 10
893.1606834054784
 20
600.1025464768019
 30
0.0
 11
893.1606834054786
 21
589.7059270436569
 31
0.0
  0
LINE
  5
5D3D
102
{ACAD_REACTORS
330
5D15
102
}
330
1F
100
AcDbEntity
  8
DIMENSION
100
AcDbLine
 10
891.2524256760068
 20
588.6445093946861
 30
0.0
 11
896.8517067644821
 21
588.6445093946861
 31
0.0
  0
LINE
  5
5D3E
102
{ACAD_REACTORS
330
5D15
102
}
330
1F
100
AcDbEntity
  8
DIMENSION
100
AcDbLine
 10
891.3291282881321
 20
589.7059270436569
 30
0.0
 11
896.9284093766074
 21
589.7059270436569
 31
0.0
  0
LINE
  5
5D3F
102
{ACAD_REACTORS
330
5D15
102
}
330
1F
100
AcDbEntity
  8
DIMENSION
100
AcDbLine
 10
891.2586803079273
 20
600.1025464768019
 30
0.0
 11
894.1883251880019
 21
600.1025464768019
 31
0.0
  0
LINE
  5
5D40
330
1F
100
AcDbEntity
  8
DIMENSION
100
AcDbLine
 10
891.2586803079273
 20
601.3990727663882
 30
0.0
 11
891.2586803079273
 21
600.1025464768019
 31
0.0
  0
LINE
  5
5D41
102
{ACAD_REACTORS
330
5D15
102
}
330
1F
100
AcDbEntity
  8
DIMENSION
100
AcDbLine
 10
897.1179700680766
 20
600.1025464768018
 30
0.0
 11
894.1883251880017
 21
600.1025464768019
 31
0.0
  0
LINE
  5
5D42
330
1F
100
AcDbEntity
  8
DIMENSION
100
AcDbLine
 10
897.1179700680766
 20
601.3990727663881
 30
0.0
 11
897.1179700680764
 21
600.1025464768018
 31
0.0
  0
CIRCLE
  5
5D43
330
1F
100
AcDbEntity
  8
SPEC
100
AcDbCircle
 10
754.2573683635353
 20
622.5490727663883
 30
0.0
 40
2.5
  0
CIRCLE
  5
5D44
330
1F
100
AcDbEntity
  8
SPEC
100
AcDbCircle
 10
754.2573683635353
 20
622.5490727663883
 30
0.0
 40
3.5
  0
ARC
  5
5D46
330
1F
100
AcDbEntity
  8
SPEC
100
AcDbCircle
 10
754.2573683635353
 20
622.5490727663883
 30
0.0
 40
27.0
100
AcDbArc
 50
308.4332063408512
 51
321.566793659149
  0
CIRCLE
  5
5D47
330
1F
100
AcDbEntity
  8
SPEC
100
AcDbCircle
 10
769.7573683635352
 20
638.0490727663883
 30
0.0
 40
2.0
  0
ARC
  5
5D48
330
1F
100
AcDbEntity
  8
SPEC
  6
ACISOWELD
 62
     3
100
AcDbCircle
 10
769.7573683635352
 20
638.0490727663883
 30
0.0
 40
2.412907407366787
100
AcDbArc
 50
266.4813352137904
 51
180.2643844808343
  0
ARC
  5
5D49
330
1F
100
AcDbEntity
  8
SPEC
100
AcDbCircle
 10
754.2573683635353
 20
622.5490727663883
 30
0.0
 40
27.0
100
AcDbArc
 50
38.43320634085099
 51
51.5667936591488
  0
LINE
  5
5D4A
330
1F
100
AcDbEntity
  8
CENTER
  6
AM_ISO08W050x2
100
AcDbLine
 10
1007.194871158329
 20
646.4652733829766
 30
0.0
 11
1007.194871158329
 21
598.2128611590487
 31
0.0
  0
LINE
  5
5D4C
330
1F
100
AcDbEntity
  8
CENTER
  6
AM_ISO08W050x2
100
AcDbLine
 10
979.8750864339895
 20
622.5490727663883
 30
0.0
 11
1033.417576336458
 21
622.5490727663883
 31
0.0
  0
LINE
  5
5D4D
330
1F
100
AcDbEntity
  8
SPEC
100
AcDbLine
 10
990.4116205792552
 20
643.6990727663883
 30
0.0
 11
1023.978121737404
 21
643.6990727663883
 31
0.0
  0
LINE
  5
5D4E
330
1F
100
AcDbEntity
  8
SPEC
100
AcDbLine
 10
990.4116205792552
 20
601.3990727663883
 30
0.0
 11
1023.978121737404
 21
601.3990727663883
 31
0.0
  0
LINE
  5
5D4F
330
1F
100
AcDbEntity
  8
SPEC
100
AcDbLine
 10
986.0448711583295
 20
639.3323233454626
 30
0.0
 11
986.0448711583295
 21
605.765822187314
 31
0.0
  0
ARC
  5
5D50
330
1F
100
AcDbEntity
  8
SPEC
100
AcDbCircle
 10
1007.194871158329
 20
622.5490727663883
 30
0.0
 40
27.0
100
AcDbArc
 50
218.4332063408498
 51
231.56679365915
  0
LINE
  5
5D51
330
1F
100
AcDbEntity
  8
SPEC
100
AcDbLine
 10
993.3325542144755
 20
608.1971120547459
 30
0.0
 11
991.979326064029
 21
606.8438839042993
 31
0.0
  0
LINE
  5
5D52
330
1F
100
AcDbEntity
  8
SPEC
100
AcDbLine
 10
992.9066046218101
 20
608.6402050718493
 30
0.0
 11
991.5448047591445
 21
607.2784052091837
 31
0.0
  0
LINE
  5
5D53
330
1F
100
AcDbEntity
  8
SPEC
100
AcDbLine
 10
992.7005544907085
 20
605.3203156883189
 30
0.0
 11
991.5781561693783
 21
606.442714009649
 31
0.0
  0
LINE
  5
5D54
330
1F
100
AcDbEntity
  8
SPEC
100
AcDbLine
 10
993.1481622800948
 20
605.6750476882334
 30
0.0
 11
991.979326064029
 21
606.8438839042993
 31
0.0
  0
CIRCLE
  5
5D55
330
1F
100
AcDbEntity
  8
SPEC
100
AcDbCircle
 10
991.6948711583295
 20
607.0490727663883
 30
0.0
 40
2.0
  0
LINE
  5
5D56
330
1F
100
AcDbEntity
  8
SPEC
100
AcDbLine
 10
991.1436348644942
 20
606.8772353145333
 30
0.0
 11
990.1037388528687
 21
605.8373393029078
 31
0.0
  0
LINE
  5
5D57
330
1F
100
AcDbEntity
  8
SPEC
100
AcDbLine
 10
991.5781561693783
 20
606.442714009649
 30
0.0
 11
990.5468318699719
 21
605.4113897102425
 31
0.0
  0
LINE
  5
5D58
330
1F
100
AcDbEntity
  8
SPEC
100
AcDbLine
 10
991.1436348644942
 20
606.8772353145333
 30
0.0
 11
989.9661140802599
 21
608.0547560987674
 31
0.0
  0
LINE
  5
5D59
330
1F
100
AcDbEntity
  8
SPEC
100
AcDbLine
 10
991.5448047591445
 20
607.2784052091837
 30
0.0
 11
990.3208460801748
 21
608.5023638881535
 31
0.0
  0
ARC
  5
5D5A
330
1F
100
AcDbEntity
  8
SPEC
100
AcDbCircle
 10
1007.194871158329
 20
622.5490727663883
 30
0.0
 40
27.0
100
AcDbArc
 50
128.43320634085
 51
141.5667936591501
  0
LINE
  5
5D5B
330
1F
100
AcDbEntity
  8
SPEC
100
AcDbLine
 10
992.9066046218101
 20
636.4579404609274
 30
0.0
 11
991.5448047591445
 21
637.819740323593
 31
0.0
  0
LINE
  5
5D5C
330
1F
100
AcDbEntity
  8
SPEC
100
AcDbLine
 10
993.3325542144755
 20
636.9010334780307
 30
0.0
 11
991.979326064029
 21
638.2542616284773
 31
0.0
  0
LINE
  5
5D5D
330
1F
100
AcDbEntity
  8
SPEC
100
AcDbLine
 10
993.1481622800948
 20
639.4230978445432
 30
0.0
 11
991.979326064029
 21
638.2542616284773
 31
0.0
  0
LINE
  5
5D5E
330
1F
100
AcDbEntity
  8
SPEC
100
AcDbLine
 10
992.7005544907085
 20
639.7778298444578
 30
0.0
 11
991.5781561693783
 21
638.6554315231277
 31
0.0
  0
CIRCLE
  5
5D5F
330
1F
100
AcDbEntity
  8
SPEC
100
AcDbCircle
 10
991.6948711583295
 20
638.0490727663883
 30
0.0
 40
2.0
  0
LINE
  5
5D60
330
1F
100
AcDbEntity
  8
SPEC
100
AcDbLine
 10
991.1436348644942
 20
638.2209102182433
 30
0.0
 11
989.9661140802599
 21
637.0433894340093
 31
0.0
  0
LINE
  5
5D61
330
1F
100
AcDbEntity
  8
SPEC
100
AcDbLine
 10
991.1436348644942
 20
638.2209102182433
 30
0.0
 11
990.1037388528687
 21
639.2608062298688
 31
0.0
  0
LINE
  5
5D62
330
1F
100
AcDbEntity
  8
SPEC
100
AcDbLine
 10
991.5448047591445
 20
637.819740323593
 30
0.0
 11
990.3208460801748
 21
636.5957816446231
 31
0.0
  0
LINE
  5
5D63
330
1F
100
AcDbEntity
  8
SPEC
100
AcDbLine
 10
991.5781561693783
 20
638.6554315231277
 30
0.0
 11
990.5468318699719
 21
639.6867558225342
 31
0.0
  0
CIRCLE
  5
5D65
330
1F
100
AcDbEntity
  8
SPEC
100
AcDbCircle
 10
1007.194871158329
 20
622.5490727663883
 30
0.0
 40
3.5
  0
LINE
  5
5D67
330
1F
100
AcDbEntity
  8
DIMENSION
100
AcDbLine
 10
1010.124516038404
 20
600.1025464768019
 30
0.0
 11
1007.194871158329
 21
600.1025464768019
 31
0.0
  0
LINE
  5
5D68
330
1F
100
AcDbEntity
  8
DIMENSION
100
AcDbLine
 10
1004.265226278255
 20
600.1025464768019
 30
0.0
 11
1007.194871158329
 21
600.1025464768019
 31
0.0
  0
LINE
  5
5D69
330
1F
100
AcDbEntity
  8
DIMENSION
100
AcDbLine
 10
1004.265226278255
 20
601.3990727663883
 30
0.0
 11
1004.265226278255
 21
600.1025464768019
 31
0.0
  0
LINE
  5
5D6A
330
1F
100
AcDbEntity
  8
DIMENSION
100
AcDbLine
 10
1010.124516038404
 20
601.3990727663882
 30
0.0
 11
1010.124516038404
 21
600.1025464768019
 31
0.0
  0
LINE
  5
5D6B
330
1F
100
AcDbEntity
  8
SPEC
100
AcDbLine
 10
1028.34487115833
 20
639.3323233454627
 30
0.0
 11
1028.34487115833
 21
605.765822187314
 31
0.0
  0
ARC
  5
5D6C
330
1F
100
AcDbEntity
  8
SPEC
100
AcDbCircle
 10
1007.194871158329
 20
622.5490727663883
 30
0.0
 40
27.0
100
AcDbArc
 50
308.43320634085
 51
321.5667936591501
  0
LINE
  5
5D6D
330
1F
100
AcDbEntity
  8
SPEC
100
AcDbLine
 10
1021.241580036564
 20
605.6750476882334
 30
0.0
 11
1022.41041625263
 21
606.8438839042993
 31
0.0
  0
LINE
  5
5D6E
330
1F
100
AcDbEntity
  8
SPEC
100
AcDbLine
 10
1021.68918782595
 20
605.3203156883189
 30
0.0
 11
1022.81158614728
 21
606.442714009649
 31
0.0
  0
LINE
  5
5D6F
330
1F
100
AcDbEntity
  8
SPEC
100
AcDbLine
 10
1021.483137694849
 20
608.6402050718493
 30
0.0
 11
1022.844937557515
 21
607.2784052091837
 31
0.0
  0
LINE
  5
5D70
330
1F
100
AcDbEntity
  8
SPEC
100
AcDbLine
 10
1021.057188102183
 20
608.1971120547459
 30
0.0
 11
1022.41041625263
 21
606.8438839042993
 31
0.0
  0
CIRCLE
  5
5D71
330
1F
100
AcDbEntity
  8
SPEC
100
AcDbCircle
 10
1022.694871158329
 20
607.0490727663883
 30
0.0
 40
2.0
  0
LINE
  5
5D72
330
1F
100
AcDbEntity
  8
SPEC
100
AcDbLine
 10
1022.81158614728
 20
606.442714009649
 30
0.0
 11
1023.842910446687
 21
605.4113897102425
 31
0.0
  0
LINE
  5
5D73
330
1F
100
AcDbEntity
  8
SPEC
100
AcDbLine
 10
1023.246107452165
 20
606.8772353145333
 30
0.0
 11
1024.28600346379
 21
605.8373393029078
 31
0.0
  0
LINE
  5
5D74
330
1F
100
AcDbEntity
  8
SPEC
100
AcDbLine
 10
1022.844937557515
 20
607.2784052091837
 30
0.0
 11
1024.068896236484
 21
608.5023638881535
 31
0.0
  0
LINE
  5
5D75
330
1F
100
AcDbEntity
  8
SPEC
100
AcDbLine
 10
1023.246107452165
 20
606.8772353145333
 30
0.0
 11
1024.423628236399
 21
608.0547560987674
 31
0.0
  0
ARC
  5
5D76
330
1F
100
AcDbEntity
  8
SPEC
100
AcDbCircle
 10
1007.194871158329
 20
622.5490727663883
 30
0.0
 40
27.0
100
AcDbArc
 50
38.43320634084983
 51
51.56679365914994
  0
LINE
  5
5D77
330
1F
100
AcDbEntity
  8
SPEC
100
AcDbLine
 10
1021.057188102183
 20
636.9010334780307
 30
0.0
 11
1022.41041625263
 21
638.2542616284773
 31
0.0
  0
LINE
  5
5D78
330
1F
100
AcDbEntity
  8
SPEC
100
AcDbLine
 10
1021.483137694849
 20
636.4579404609274
 30
0.0
 11
1022.844937557515
 21
637.819740323593
 31
0.0
  0
LINE
  5
5D79
330
1F
100
AcDbEntity
  8
SPEC
100
AcDbLine
 10
1021.68918782595
 20
639.7778298444578
 30
0.0
 11
1022.81158614728
 21
638.6554315231277
 31
0.0
  0
LINE
  5
5D7A
330
1F
100
AcDbEntity
  8
SPEC
100
AcDbLine
 10
1021.241580036564
 20
639.4230978445432
 30
0.0
 11
1022.41041625263
 21
638.2542616284773
 31
0.0
  0
CIRCLE
  5
5D7B
330
1F
100
AcDbEntity
  8
SPEC
100
AcDbCircle
 10
1022.694871158329
 20
638.0490727663883
 30
0.0
 40
2.0
  0
LINE
  5
5D7C
330
1F
100
AcDbEntity
  8
SPEC
100
AcDbLine
 10
1023.246107452165
 20
638.2209102182433
 30
0.0
 11
1024.28600346379
 21
639.2608062298688
 31
0.0
  0
LINE
  5
5D7D
330
1F
100
AcDbEntity
  8
SPEC
100
AcDbLine
 10
1023.246107452165
 20
638.2209102182433
 30
0.0
 11
1024.423628236399
 21
637.0433894340093
 31
0.0
  0
LINE
  5
5D7E
330
1F
100
AcDbEntity
  8
SPEC
100
AcDbLine
 10
1022.81158614728
 20
638.6554315231277
 30
0.0
 11
1023.842910446687
 21
639.6867558225342
 31
0.0
  0
LINE
  5
5D7F
330
1F
100
AcDbEntity
  8
SPEC
100
AcDbLine
 10
1022.844937557515
 20
637.819740323593
 30
0.0
 11
1024.068896236484
 21
636.5957816446231
 31
0.0
  0
TEXT
  5
5E54
330
1F
100
AcDbEntity
  8
DIM
100
AcDbText
 10
724.6513114345566
 20
664.0
 30
0.0
 40
3.571428571428572
  1
Front view and mounting
100
AcDbText
  0
TEXT
  5
5E55
330
1F
100
AcDbEntity
  8
DIM
100
AcDbText
 10
875.2838128506581
 20
664.0
 30
0.0
 40
3.571428571428572
  1
Side view
100
AcDbText
  0
TEXT
  5
5E56
330
1F
100
AcDbEntity
  8
DIM
100
AcDbText
 10
994.1743870771652
 20
664.0
 30
0.0
 40
3.571428571428572
  1
Rear view
100
AcDbText
  0
LINE
  5
66AD
330
1F
100
AcDbEntity
  8
SPEC
  6
ACISOTGL
100
AcDbLine
 10
899.2248503094653
 20
620.0490727663883
 30
0.0
 11
912.7248503094653
 21
620.0490727663883
 31
0.0
  0
LINE
  5
66AE
330
1F
100
AcDbEntity
  8
SPEC
  6
ACISOTGL
100
AcDbLine
 10
899.2248503094653
 20
625.0490727663883
 30
0.0
 11
912.7248503094653
 21
625.0490727663883
 31
0.0
  0
LINE
  5
66AF
102
{ACAD_REACTORS
330
66F8
330
6724
102
}
330
1F
100
AcDbEntity
  8
SPEC
  6
ACISOTGL
100
AcDbLine
 10
912.7248503094653
 20
622.5490727663883
 30
0.0
 11
912.7248503094653
 21
625.0490727663883
 31
0.0
  0
LINE
  5
66B0
102
{ACAD_REACTORS
330
6724
102
}
330
1F
100
AcDbEntity
  8
SPEC
  6
ACISOTGL
100
AcDbLine
 10
912.7248503094653
 20
622.5490727663883
 30
0.0
 11
912.7248503094653
 21
620.0490727663883
 31
0.0
  0
DIMENSION
  5
66EA
102
{ACAD_XDICTIONARY
360
66F7
102
}
102
{ACAD_REACTORS
330
66F8
102
}
330
1F
100
AcDbEntity
  8
AM_5
  6
ACISOTGL
100
AcDbDimension
  2
*D15
 10
912.7248503094653
 20
654.2949952318125
 30
0.0
 11
906.0105383165025
 21
654.2949952318125
 31
0.0
 70
   160
 71
     5
 42
13.5
  3
STANDARD$0
100
AcDbAlignedDimension
 13
899.2248503094653
 23
643.6990727663883
 33
0.0
 14
912.7248503094653
 24
625.0490727663883
 34
0.0
100
AcDbRotatedDimension
1001
ACAD
1000
DSTYLE
1002
{
1070
    47
1040
1.0
1070
   147
1040
1.0
1070
    48
1040
1.0
1070
    72
1070
     0
1070
    71
1070
     1
1002
}
  0
DIMENSION
  5
6714
102
{ACAD_XDICTIONARY
360
6723
102
}
102
{ACAD_REACTORS
330
6724
102
}
330
1F
100
AcDbEntity
  8
AM_5
  6
ACISOTGL
100
AcDbDimension
  2
*D16
 10
921.842558377436
 20
625.0490727663883
 30
0.0
 11
917.9314396871221
 21
639.3712419341921
 31
0.0
 70
    32
  1
%%c<>
 71
     5
 42
5.0
  3
STANDARD$0
100
AcDbAlignedDimension
 13
912.7248503094653
 23
620.0490727663883
 33
0.0
 14
912.7248503094653
 24
625.0490727663883
 34
0.0
 50
90.0
100
AcDbRotatedDimension
1001
ACAD
1000
DSTYLE
1002
{
1070
   272
1070
     3
1070
    48
1040
0.012
1070
   147
1040
1.0
1070
    72
1070
     0
1070
    71
1070
     1
1002
}
  0
LEADER
  5
680D
330
1F
100
AcDbEntity
  8
DIM
  6
ACISOTGL
100
AcDbLeader
  3
STANDARD
 76
     3
 10
1016.719871158329
 20
622.5490727663882
 30
0.0
 10
1029.751015869764
 20
647.6561210686175
 30
0.0
 10
1055.13495191678
 20
647.6561210686175
 30
0.0
1001
ACAD
1000
DSTYLE
1002
{
1070
    40
1040
1.0
1070
    77
1070
     0
1002
}
  0
DIMENSION
  5
680E
330
1F
100
AcDbEntity
  8
DIM
  6
ACISOTGL
100
AcDbDimension
  2
*D17
 10
1016.719871158329
 20
647.6542011986746
 30
0.0
 11
1007.245987185142
 21
647.6542011986746
 31
0.0
 70
   160
 71
     5
 42
19.05000000000018
  3
STANDARD
100
AcDbAlignedDimension
 13
997.6698711583294
 23
622.5490727663884
 33
0.0
 14
1016.719871158329
 24
622.5490727663882
 34
0.0
100
AcDbRotatedDimension
1001
ACAD
1000
DSTYLE
1002
{
1070
    40
1040
1.0
1002
}
  0
MTEXT
  5
680F
102
{ACAD_REACTORS
330
6810
102
}
330
1F
100
AcDbEntity
  8
SPEC
  6
HIDDEN
 62
     6
100
AcDbMText
 10
925.3518221109889
 20
612.3890135235828
 30
0.0
 40
3.0
 41
54.2857142857143
 71
     1
 72
     1
  1
(only for type ST4118S1404-B\PReady for encoder + \Pdriver mount)
 73
     1
 44
1.0
1001
ACAD
1000
ACAD_MTEXT_DEFINED_HEIGHT_BEGIN
1070
    46
1040
0.0
1000
ACAD_MTEXT_DEFINED_HEIGHT_END
1000
MTEXTBEGIN
1070
    73
1070
     1
1070
    44
1040
1.0
1070
    74
1070
     0
1000
MTEXTEND
  0
LEADER
  5
6810
330
1F
100
AcDbEntity
  8
SPEC
  6
ACISOTGL
100
AcDbLeader
  3
STANDARD
 73
     0
 40
9.356980445657114
 41
37.73124147339699
 76
     3
 10
908.4063464749995
 20
622.7045844952905
 30
0.0
 10
914.4002372034799
 20
606.7548475905729
 30
0.0
 10
923.9659032185295
 20
606.7548475905729
 30
0.0
213
-2.423850538799245
223
-1.208600593008168
233
0.0
1001
ACAD
1000
DSTYLE
1002
{
1070
    40
1040
1.0
1070
    77
1070
     0
1002
}
  0
CIRCLE
  5
6811
330
1F
100
AcDbEntity
  8
CENTER
  6
CENTER
100
AcDbCircle
 10
1007.194871158329
 20
622.5490727663882
 30
0.0
 40
9.52500000000009
  0
LEADER
  5
6812
330
1F
100
AcDbEntity
  8
DIM
  6
ACISOTGL
100
AcDbLeader
  3
STANDARD
 76
     3
 10
997.6698711583294
 20
622.5490727663882
 30
0.0
 10
980.3206420416408
 20
601.470441140362
 30
0.0
 10
967.0964501500193
 20
601.4497943388059
 30
0.0
1001
ACAD
1000
DSTYLE
1002
{
1070
    40
1040
1.0
1070
    77
1070
     0
1002
}
  0
CIRCLE
  5
6813
330
1F
100
AcDbEntity
  8
AM_5
  6
ACISOTGL
100
AcDbCircle
 10
997.6698711583294
 20
622.5490727663883
 30
0.0
 40
1.190476190476191
  0
CIRCLE
  5
6814
330
1F
100
AcDbEntity
  8
SPEC
  6
ACISOTGL
100
AcDbCircle
 10
997.6698711583294
 20
622.5490727663886
 30
0.0
 40
0.9523809523809527
  0
CIRCLE
  5
6815
330
1F
100
AcDbEntity
  8
AM_5
  6
ACISOTGL
100
AcDbCircle
 10
1016.719871158329
 20
622.5490727663884
 30
0.0
 40
1.190476190476191
  0
CIRCLE
  5
6816
330
1F
100
AcDbEntity
  8
SPEC
  6
ACISOTGL
100
AcDbCircle
 10
1016.719871158329
 20
622.5490727663884
 30
0.0
 40
0.9523809523809527
  0
CIRCLE
  5
6817
330
1F
100
AcDbEntity
  8
SPEC
  6
ACISOTGL
100
AcDbCircle
 10
1007.194871158329
 20
622.5490727663883
 30
0.0
 40
2.5
  0
TEXT
  5
6818
330
1F
100
AcDbEntity
  8
DATA
100
AcDbText
 10
1030.529696877117
 20
648.6902062473639
 30
0.0
 40
3.0
  1
2-M2.5x0.45
100
AcDbText
  0
TEXT
  5
6819
330
1F
100
AcDbEntity
  8
DATA
100
AcDbText
 10
1030.529696877117
 20
643.8709702309928
 30
0.0
 40
3.0
  1
DEPTH 2 MIN.
100
AcDbText
  0
DIMENSION
  5
6A3F
330
1F
100
AcDbEntity
  8
DIM
 62
     7
100
AcDbDimension
  2
*D18
 10
836.1463444073633
 20
620.0490727663883
 30
0.0
 11
836.1463444073631
 21
600.618673684004
 31
0.0
 70
   160
  1
\A1;%%C5{\H0.7x;\S 0^ -0.012;}
 71
     5
 42
5.0
  3
YL
100
AcDbAlignedDimension
 13
844.2248503094655
 23
625.0490727663883
 33
0.0
 14
844.2248503094655
 24
620.0490727663883
 34
0.0
 50
90.0
100
AcDbRotatedDimension
  0
DIMENSION
  5
6A40
330
1F
100
AcDbEntity
  8
DIM
 62
     7
100
AcDbDimension
  2
*D19
 10
827.9044749895321
 20
611.5490727663883
 30
0.0
 11
827.9044749895321
 21
624.3234604989273
 31
0.0
 70
   160
  1
\A1;%%C22{\H0.7x;\S 0^ -0.05;}
 71
     5
 42
22.0
  3
YL
100
AcDbAlignedDimension
 13
866.2248503094653
 23
633.5490727663883
 33
0.0
 14
866.2248503094653
 24
611.5490727663883
 34
0.0
 50
90.0
100
AcDbRotatedDimension
  0
TOLERANCE
  5
6A41
330
1F
100
AcDbEntity
  8
DIM
100
AcDbFcf
  3
STANDARD
 10
824.9111721901339
 20
634.2837865856377
 30
0.0
  1
{\Fgdt;r}%%v0.075%%v%%vA%%v%%v
 11
0.0000000000000001
 21
1.0
 31
0.0
1001
ACAD
1000
DSTYLE
1002
{
1070
   147
1040
0.9523809523809527
1002
}
  0
TOLERANCE
  5
6A42
330
1F
100
AcDbEntity
  8
DIM
100
AcDbFcf
  3
STANDARD
 10
839.285467577441
 20
606.6053325810981
 30
0.0
  1
{\Fgdt;b}%%v0.1%%v%%vA%%v%%v
1001
ACAD
1000
DSTYLE
1002
{
1070
   147
1040
0.9523809523809527
1002
}
  0
TOLERANCE
  5
6A43
330
1F
100
AcDbEntity
  8
DIM
100
AcDbFcf
  3
STANDARD
 10
856.0288688328013
 20
638.4606563177668
 30
0.0
  1
%%v%%v%%vA%%v%%v
1001
ACAD
1000
DSTYLE
1002
{
1070
   147
1040
0.9523809523809527
1002
}
  0
LEADER
  5
6A44
330
1F
100
AcDbEntity
  8
DIM
100
AcDbLeader
  3
STANDARD
 76
     2
 10
859.0497606503854
 20
625.0490727663883
 30
0.0
 10
859.0497606503854
 20
635.4606563177668
 30
0.0
210
0.0
220
0.0
230
-1.0
1001
ACAD
1000
DSTYLE
1002
{
1070
   341
1005
2FB
1070
    40
1040
1.0
1070
    77
1070
     0
1002
}
  0
TOLERANCE
  5
6A45
330
1F
100
AcDbEntity
  8
DIM
100
AcDbFcf
  3
STANDARD
 10
833.1463592393237
 20
642.4579729040941
 30
0.0
  1
{\Fgdt;h}%%v0.05%%v%%v%%v%%v
 11
0.0000000000000001
 21
1.0
 31
0.0
1001
ACAD
1000
DSTYLE
1002
{
1070
   147
1040
0.9523809523809527
1002
}
  0
LEADER
  5
6A46
330
1F
100
AcDbEntity
  8
DIM
100
AcDbLeader
  3
STANDARD
 76
     2
 10
868.2248503094653
 20
606.4740727663883
 30
0.0
 10
861.9757813564316
 20
606.4740727663883
 30
0.0
1001
ACAD
1000
DSTYLE
1002
{
1070
   147
1040
1.0
1070
    77
1070
     0
1070
    47
1040
0.2
1070
    48
1040
-0.2
1070
   272
1070
     1
1002
}
  0
LINE
  5
6A47
330
1F
100
AcDbEntity
  8
DIM
100
AcDbLine
 10
836.1463592393237
 20
630.8969707749075
 30
0.0
 11
836.1463592393237
 21
642.4579729040941
 31
0.0
  0
LINE
  5
6A48
330
1F
100
AcDbEntity
  8
DIM
100
AcDbLine
 10
827.9111721901339
 20
633.551741338818
 30
0.0
 11
827.9111721901339
 21
634.2837865856377
 31
0.0
  0
LINE
  5
6B58
330
1F
100
AcDbEntity
  8
DIMENSION
100
AcDbLine
 10
757.1870132436099
 20
600.1025464768019
 30
0.0
 11
754.2573683635353
 21
600.1025464768019
 31
0.0
  0
LINE
  5
6B59
330
1F
100
AcDbEntity
  8
DIMENSION
100
AcDbLine
 10
751.3277234834606
 20
600.1025464768019
 30
0.0
 11
754.2573683635353
 21
600.1025464768019
 31
0.0
  0
LINE
  5
6B5A
330
1F
100
AcDbEntity
  8
DIMENSION
100
AcDbLine
 10
751.3277234834606
 20
601.3990727663883
 30
0.0
 11
751.3277234834606
 21
600.1025464768019
 31
0.0
  0
LINE
  5
6B5B
330
1F
100
AcDbEntity
  8
DIMENSION
100
AcDbLine
 10
757.1870132436099
 20
601.3990727663882
 30
0.0
 11
757.1870132436099
 21
600.1025464768019
 31
0.0
  0
LINE
  5
6BA9
330
1F
100
AcDbEntity
  8
DIM
100
AcDbLine
 10
756.3960674137852
 20
600.1025464768019
 30
0.0
 11
756.396067413785
 21
589.705927043657
 31
0.0
  0
LINE
  5
6BAA
330
1F
100
AcDbEntity
  8
DIM
100
AcDbLine
 10
755.2850101460587
 20
600.1025464768019
 30
0.0
 11
755.2850101460585
 21
589.705927043657
 31
0.0
  0
LINE
  5
6BAB
330
1F
100
AcDbEntity
  8
DIM
100
AcDbLine
 10
754.2573683635353
 20
600.1025464768019
 30
0.0
 11
754.257368363535
 21
589.705927043657
 31
0.0
  0
LINE
  5
6BAC
330
1F
100
AcDbEntity
  8
DIM
100
AcDbLine
 10
752.1186693132855
 20
600.1025464768019
 30
0.0
 11
752.1186693132855
 21
589.705927043657
 31
0.0
  0
LINE
  5
6BAD
330
1F
100
AcDbEntity
  8
DIM
100
AcDbLine
 10
753.2297265810119
 20
600.1025464768019
 30
0.0
 11
753.2297265810121
 21
589.705927043657
 31
0.0
  0
LINE
  5
6BBB
330
1F
100
AcDbEntity
  8
DIM
100
AcDbLine
 10
1009.333570208579
 20
600.1025464768019
 30
0.0
 11
1009.333570208579
 21
589.705927043657
 31
0.0
  0
LINE
  5
6BBC
330
1F
100
AcDbEntity
  8
DIM
100
AcDbLine
 10
1008.222512940853
 20
600.1025464768019
 30
0.0
 11
1008.222512940853
 21
589.705927043657
 31
0.0
  0
LINE
  5
6BBD
330
1F
100
AcDbEntity
  8
DIM
100
AcDbLine
 10
1007.194871158329
 20
600.1025464768019
 30
0.0
 11
1007.194871158329
 21
589.705927043657
 31
0.0
  0
LINE
  5
6BBE
330
1F
100
AcDbEntity
  8
DIM
100
AcDbLine
 10
1005.056172108079
 20
600.1025464768019
 30
0.0
 11
1005.056172108079
 21
589.705927043657
 31
0.0
  0
LINE
  5
6BBF
330
1F
100
AcDbEntity
  8
DIM
100
AcDbLine
 10
1006.167229375806
 20
600.1025464768019
 30
0.0
 11
1006.167229375806
 21
589.705927043657
 31
0.0
  0
VIEWPORT
  5
2D8
102
{ACAD_XDICTIONARY
360
6BE8
102
}
330
1B
100
AcDbEntity
 67
     1
  8
0
100
AcDbViewport
 10
155.8942509437521
 20
93.08309827589434
 30
0.0
 40
401.2500102182727
 41
294.6738192469701
 68
     1
 69
     1
 12
155.8942509437521
 22
93.08309827589434
 13
0.0
 23
0.0
 14
10.0
 24
10.0
 15
10.0
 25
10.0
 16
0.0
 26
0.0
 36
1.0
 17
0.0
 27
0.0
 37
0.0
 42
50.0
 43
0.0
 44
0.0
 45
294.6738192469701
 50
0.0
 51
0.0
 72
   100
 90
    32768
  1

281
     0
 71
     0
 74
     0
110
0.0
120
0.0
130
0.0
111
1.0
121
0.0
131
0.0
112
0.0
122
1.0
132
0.0
 79
     0
146
0.0
  0
MTEXT
  5
1290
330
1B
100
AcDbEntity
 67
     1
  8
DATA
100
AcDbMText
 10
142.6845396305116
 20
14.24154306217638
 30
0.0
 40
1.930697999999999
 41
24.133725
 71
     1
 72
     5
  1
X       %%p0.5\P1PL     %%p0.2\P2PL     %%p0.1\PANGLE   %%p30'
  7
ROMANS
 73
     1
 44
1.0
1001
ACAD
1000
MTEXTBEGIN
1070
    73
1070
     1
1070
    44
1040
1.0
1070
    74
1070
     0
1000
MTEXTEND
  0
LWPOLYLINE
  5
1291
330
1B
100
AcDbEntity
 67
     1
  8
SPEC
100
AcDbPolyline
 90
        2
 70
     0
 43
0.0
 10
44.51178313191621
 20
21.65598901220129
 10
104.0278513100474
 20
21.65598901220129
  0
TEXT
  5
1294
330
1B
100
AcDbEntity
 67
     1
  8
DATA
100
AcDbText
 10
223.3033978947773
 20
2.332825847364669
 30
0.0
 40
3.861395999999999
  1
ST4118S1404
 41
0.7
  7
ROMANS
100
AcDbText
  0
LWPOLYLINE
  5
1296
330
1B
100
AcDbEntity
 67
     1
  8
SPEC
100
AcDbPolyline
 90
        2
 70
     0
 43
0.0
 10
0.0009154015513104
 20
21.65598901220129
 10
44.6040054243686
 20
21.65598901220129
  0
LINE
  5
1297
330
1B
100
AcDbEntity
 67
     1
  8
DATA
100
AcDbLine
 10
141.4515899505442
 20
16.0064410711449
 30
0.0
 11
206.4352883025385
 21
16.0064410711449
 31
0.0
  0
LINE
  5
1299
330
1B
100
AcDbEntity
 67
     1
  8
DATA
100
AcDbLine
 10
188.9615608996265
 20
21.65598901220129
 30
0.0
 11
188.9615608996265
 21
0.0005791177154606
 31
0.0
  0
LINE
  5
129A
330
1B
100
AcDbEntity
 67
     1
  8
DATA
100
AcDbLine
 10
172.7736353934133
 20
21.65598905905817
 30
0.0
 11
172.7736353934214
 21
6.498316907446511
 31
0.0
  0
LINE
  5
129B
330
1B
100
AcDbEntity
 67
     1
  8
DATA
100
AcDbLine
 10
161.8855388603332
 20
0.0005791177154606
 30
0.0
 11
161.8855388603055
 21
21.65598905610526
 31
0.0
  0
LINE
  5
129D
330
1B
100
AcDbEntity
 67
     1
  8
DATA
100
AcDbLine
 10
206.4352889818797
 20
21.65598901220129
 30
0.0
 11
206.4352889818797
 21
0.0005791177154606
 31
0.0
  0
LINE
  5
129E
330
1B
100
AcDbEntity
 67
     1
  8
DATA
100
AcDbLine
 10
71.44730055967194
 20
21.65598903157794
 30
0.0
 11
71.44730055966755
 21
0.0005791177154606
 31
0.0
  0
LINE
  5
129F
330
1B
100
AcDbEntity
 67
     1
  8
DATA
100
AcDbLine
 10
86.0425128352576
 20
21.65598901220129
 30
0.0
 11
86.0425128352576
 21
0.0005791177154606
 31
0.0
  0
LINE
  5
12A0
330
1B
100
AcDbEntity
 67
     1
  8
DATA
100
AcDbLine
 10
50.66681625037072
 20
21.65598901220129
 30
0.0
 11
50.66681625037072
 21
0.0005791177154606
 31
0.0
  0
LINE
  5
12A2
330
1B
100
AcDbEntity
 67
     1
  8
DATA
100
AcDbLine
 10
86.0425128352576
 20
16.5762960950056
 30
0.0
 11
0.1578772078717369
 21
16.5762960950056
 31
0.0
  0
LINE
  5
12A3
330
1B
100
AcDbEntity
 67
     1
  8
DATA
100
AcDbLine
 10
0.1578772078717369
 20
11.49660317780992
 30
0.0
 11
86.0425128352576
 21
11.49660317780992
 31
0.0
  0
LINE
  5
12A4
330
1B
100
AcDbEntity
 67
     1
  8
DATA
100
AcDbLine
 10
0.3218667998937382
 20
6.416910260614244
 30
0.0
 11
86.0425128352576
 21
6.416910260614244
 31
0.0
  0
LINE
  5
12A5
330
1B
100
AcDbEntity
 67
     1
  8
DATA
100
AcDbLine
 10
10.9812208516878
 20
21.65598901220129
 30
0.0
 11
10.9812208516878
 21
0.0005791177154606
 31
0.0
  0
LINE
  5
12A6
330
1B
100
AcDbEntity
 67
     1
  8
DATA
100
AcDbLine
 10
206.4352889818797
 20
6.487604351384876
 30
0.0
 11
161.8855388603332
 21
6.487604351384876
 31
0.0
  0
LINE
  5
12A7
330
1B
100
AcDbEntity
 67
     1
  8
DATA
100
AcDbLine
 10
161.8855388603332
 20
11.19931228302795
 30
0.0
 11
206.4352889818797
 21
11.19931228302795
 31
0.0
  0
TEXT
  5
12A8
330
1B
100
AcDbEntity
 67
     1
  8
DATA
100
AcDbText
 10
144.2089124014906
 20
17.38788360913192
 30
0.0
 40
2.413372499999999
  1
SCALE FREE
 41
0.7
  7
ROMANS
 72
     2
 11
159.5740506514906
 21
17.38788360913192
 31
0.0
100
AcDbText
  0
LINE
  5
12A9
330
1B
100
AcDbEntity
 67
     1
  8
DATA
100
AcDbLine
 10
141.4515899505442
 20
21.65598901220129
 30
0.0
 11
141.4515899505442
 21
0.0005791177154606
 31
0.0
  0
TEXT
  5
12AA
330
1B
100
AcDbEntity
 67
     1
  8
DATA
100
AcDbText
 10
72.81931794091391
 20
2.289088082541405
 30
0.0
 40
2.896047
  1
APVD
 41
0.7
  7
ROMANS
100
AcDbText
  0
TEXT
  5
12AB
330
1B
100
AcDbEntity
 67
     1
  8
DATA
100
AcDbText
 10
54.00518497335647
 20
2.289088082541405
 30
0.0
 40
2.896047
  1
DATE
 41
0.7
  7
ROMANS
100
AcDbText
  0
TEXT
  5
12AC
330
1B
100
AcDbEntity
 67
     1
  8
DATA
100
AcDbText
 10
13.71048401705179
 20
2.289088082541405
 30
0.0
 40
2.896047
  1
DESCRIPTION
 41
0.7
  7
ROMANS
100
AcDbText
  0
TEXT
  5
12AD
330
1B
100
AcDbEntity
 67
     1
  8
DATA
100
AcDbText
 10
2.61316602814029
 20
2.289088082541405
 30
0.0
 40
2.896047
  1
REV
 41
0.7
  7
ROMANS
 72
     2
 11
8.11565532814029
 21
2.289088082541405
 31
0.0
100
AcDbText
  0
TEXT
  5
12AE
330
1B
100
AcDbEntity
 67
     1
  8
DATA
100
AcDbText
 10
164.0115266587481
 20
16.86188228564509
 30
0.0
 40
2.896047
  1
APVD
 41
0.7
  7
ROMANS
 72
     2
 11
171.2516441587481
 21
16.86188228564509
 31
0.0
100
AcDbText
  0
TEXT
  5
12AF
330
1B
100
AcDbEntity
 67
     1
  8
DATA
100
AcDbText
 10
163.1771120414716
 20
12.25504563334623
 30
0.0
 40
2.896047
  1
CHKD
 41
0.7
  7
ROMANS
 72
     2
 11
171.0929738414716
 21
12.25504563334623
 31
0.0
100
AcDbText
  0
TEXT
  5
12B0
330
1B
100
AcDbEntity
 67
     1
  8
DATA
100
AcDbText
 10
164.1482638836956
 20
7.264305730021757
 30
0.0
 40
2.896047
  1
DRN
 41
0.7
  7
ROMANS
 72
     2
 11
169.9403578836956
 21
7.264305730021757
 31
0.0
100
AcDbText
  0
TEXT
  5
12B1
330
1B
100
AcDbEntity
 67
     1
  8
DATA
100
AcDbText
 10
166.3066680148434
 20
2.249663648385519
 30
0.0
 40
2.896047
  1
SIGNATURE
 41
0.7
  7
ROMANS
 72
     2
 11
182.2349265148434
 21
2.249663648385519
 31
0.0
100
AcDbText
  0
TEXT
  5
12B2
330
1B
100
AcDbEntity
 67
     1
  8
DATA
100
AcDbText
 10
194.0753275043612
 20
2.147712645052658
 30
0.0
 40
2.896047
  1
DATE
 41
0.7
  7
ROMANS
 72
     2
 11
201.0258403043613
 21
2.147712645052658
 31
0.0
100
AcDbText
  0
TEXT
  5
12B3
330
1B
100
AcDbEntity
 67
     1
  8
DATA
100
AcDbText
 10
211.3647597711961
 20
15.15914893796167
 30
0.0
 40
3.668326199999999
  1
STEPPING MOTOR
 41
0.8
  7
ITALICT
 72
     2
 11
254.825691131196
 21
15.15914893796167
 31
0.0
100
AcDbText
  0
LINE
  5
12B4
330
1B
100
AcDbEntity
 67
     1
  8
DATA
100
AcDbLine
 10
206.4352889818797
 20
12.14062779339902
 30
0.0
 11
282.0457513033824
 21
12.14062786989238
 31
0.0
  0
TEXT
  5
12B5
330
1B
100
AcDbEntity
 67
     1
  8
DATA
100
AcDbText
 10
208.2206521091139
 20
8.230964343399071
 30
0.0
 40
2.413372499999999
  1
DWG.NO
 41
0.7
  7
ROMANS
 72
     2
 11
217.6328048591138
 21
8.230964343399071
 31
0.0
100
AcDbText
  0
TEXT
  5
12B6
330
1B
100
AcDbEntity
 67
     1
  8
DATA
100
AcDbText
 10
89.47920924063479
 20
16.55350887427961
 30
0.0
 40
2.896047
  1
NANOTEC:
 41
0.7
  7
ROMANS
100
AcDbText
  0
TEXT
  5
12B7
330
1B
100
AcDbEntity
 67
     1
  8
DATA
100
AcDbText
 10
189.4634543457442
 20
7.541155117526503
 30
0.0
 40
2.509907399999999
  1
16.10.06
 41
0.7
  7
ROMANS
100
AcDbText
  0
LINE
  5
12B8
330
1B
100
AcDbEntity
 67
     1
  8
SPEC
100
AcDbLine
 10
0.0009154015513104
 20
21.65598901220129
 30
0.0
 11
0.0009154015513104
 21
119.7806666755164
 31
0.0
  0
LWPOLYLINE
  5
12BA
330
1B
100
AcDbEntity
 67
     1
  8
SPEC
100
AcDbPolyline
 90
        4
 70
     1
 43
0.0
 10
0.0009154015513104
 20
196.1105791177017
 10
0.0009154015513104
 20
0.0005791177154606
 10
282.0457558342515
 20
0.0005791177154606
 10
282.0456818962882
 20
196.1105791177017
  0
LWPOLYLINE
  5
1708
330
1B
100
AcDbEntity
 67
     1
  8
SPEC
100
AcDbPolyline
 90
        2
 70
     0
 43
0.0
 10
46.10949139879676
 20
21.6559890122013
 10
107.7618763685136
 20
21.6559890122013
  0
TEXT
  5
1948
330
1B
100
AcDbEntity
 67
     1
  8
DATA
100
AcDbText
 10
222.0559120269539
 20
45.3814127047898
 30
0.0
 40
2.4
  1
CCW
 41
0.7
  7
ROMANS
 72
     1
 11
224.7359120269539
 21
45.3814127047898
 31
0.0
100
AcDbText
  0
SOLID
  5
1949
330
1B
100
AcDbEntity
 67
     1
  8
DATA
100
AcDbTrace
 10
224.3297618573704
 20
40.43820172486755
 30
0.0
 11
225.1297618573706
 21
40.43820172486755
 31
0.0
 12
224.7297618573705
 22
42.83820172486741
 32
0.0
 13
224.7297618573705
 23
42.83820172486741
 33
0.0
  0
TEXT
  5
194A
330
1B
100
AcDbEntity
 67
     1
  8
DATA
100
AcDbText
 10
209.8202700920619
 20
45.3814127047898
 30
0.0
 40
2.4
  1
B\
 41
0.7
  7
ROMANS
 72
     1
 11
211.6202700920619
 21
45.3814127047898
 31
0.0
100
AcDbText
  0
TEXT
  5
194B
330
1B
100
AcDbEntity
 67
     1
  8
DATA
100
AcDbText
 10
202.0602700920619
 20
45.3814127047898
 30
0.0
 40
2.4
  1
A\
 41
0.7
  7
ROMANS
 72
     1
 11
203.6202700920619
 21
45.3814127047898
 31
0.0
100
AcDbText
  0
TEXT
  5
194C
330
1B
100
AcDbEntity
 67
     1
  8
DATA
100
AcDbText
 10
210.7228682165457
 20
40.58141270478984
 30
0.0
 40
2.4
  1
-
 41
0.7
  7
ROMANS
 72
     1
 11
211.7628682165457
 21
40.58141270478984
 31
0.0
100
AcDbText
  0
TEXT
  5
194D
330
1B
100
AcDbEntity
 67
     1
  8
DATA
100
AcDbText
 10
210.7228682165457
 20
36.00504105520997
 30
0.0
 40
2.4
  1
-
 41
0.7
  7
ROMANS
 72
     1
 11
211.7628682165457
 21
36.00504105520997
 31
0.0
100
AcDbText
  0
LINE
  5
194E
330
1B
100
AcDbEntity
 67
     1
  8
DATA
100
AcDbLine
 10
218.6387615475084
 20
33.05614067461068
 30
0.0
 11
218.6387615475084
 21
43.50753322399839
 31
0.0
  0
TEXT
  5
194F
330
1B
100
AcDbEntity
 67
     1
  8
DATA
100
AcDbText
 10
202.7228682165457
 20
40.58141270478984
 30
0.0
 40
2.4
  1
-
 41
0.7
  7
ROMANS
 72
     1
 11
203.7628682165457
 21
40.58141270478984
 31
0.0
100
AcDbText
  0
TEXT
  5
1950
330
1B
100
AcDbEntity
 67
     1
  8
DATA
100
AcDbText
 10
202.5802700920619
 20
35.78141270478989
 30
0.0
 40
2.4
  1
+
 41
0.7
  7
ROMANS
 72
     1
 11
203.6202700920619
 21
35.78141270478989
 31
0.0
100
AcDbText
  0
TEXT
  5
1951
330
1B
100
AcDbEntity
 67
     1
  8
DATA
100
AcDbText
 10
194.7402700920619
 20
45.3814127047898
 30
0.0
 40
2.4
  1
B
 41
0.7
  7
ROMANS
 72
     1
 11
195.6202700920619
 21
45.3814127047898
 31
0.0
100
AcDbText
  0
TEXT
  5
1952
330
1B
100
AcDbEntity
 67
     1
  8
DATA
100
AcDbText
 10
186.9002700920619
 20
45.3814127047898
 30
0.0
 40
2.4
  1
A
 41
0.7
  7
ROMANS
 72
     1
 11
187.6202700920619
 21
45.3814127047898
 31
0.0
100
AcDbText
  0
TEXT
  5
1953
330
1B
100
AcDbEntity
 67
     1
  8
DATA
100
AcDbText
 10
194.3512967575834
 20
30.97103195662715
 30
0.0
 40
2.4
  1
-
 41
0.7
  7
ROMANS
 72
     1
 11
195.3912967575834
 21
30.97103195662715
 31
0.0
100
AcDbText
  0
TEXT
  5
1954
330
1B
100
AcDbEntity
 67
     1
  8
DATA
100
AcDbText
 10
186.3512967575834
 20
30.97103195662715
 30
0.0
 40
2.4
  1
-
 41
0.7
  7
ROMANS
 72
     1
 11
187.3912967575834
 21
30.97103195662715
 31
0.0
100
AcDbText
  0
TEXT
  5
1955
330
1B
100
AcDbEntity
 67
     1
  8
DATA
100
AcDbText
 10
210.5802700920619
 20
26.18141270478975
 30
0.0
 40
2.4
  1
+
 41
0.7
  7
ROMANS
 72
     1
 11
211.6202700920619
 21
26.18141270478975
 31
0.0
100
AcDbText
  0
TEXT
  5
1956
330
1B
100
AcDbEntity
 67
     1
  8
DATA
100
AcDbText
 10
202.5943255391937
 20
26.05143211885059
 30
0.0
 40
2.4
  1
-
 41
0.7
  7
ROMANS
 72
     1
 11
203.6343255391937
 21
26.05143211885059
 31
0.0
100
AcDbText
  0
TEXT
  5
1957
330
1B
100
AcDbEntity
 67
     1
  8
DATA
100
AcDbText
 10
194.5943255391937
 20
26.05143211885059
 30
0.0
 40
2.4
  1
-
 41
0.7
  7
ROMANS
 72
     1
 11
195.6343255391937
 21
26.05143211885059
 31
0.0
100
AcDbText
  0
TEXT
  5
1958
330
1B
100
AcDbEntity
 67
     1
  8
DATA
100
AcDbText
 10
186.5802700920619
 20
26.18141270478975
 30
0.0
 40
2.4
  1
+
 41
0.7
  7
ROMANS
 72
     1
 11
187.6202700920619
 21
26.18141270478975
 31
0.0
100
AcDbText
  0
TEXT
  5
1959
330
1B
100
AcDbEntity
 67
     1
  8
DATA
100
AcDbText
 10
217.0288461595641
 20
26.48678758595418
 30
0.0
 40
2.4
  1
CW
 41
0.7
  7
ROMANS
 72
     1
 11
218.8688461595641
 21
26.48678758595418
 31
0.0
100
AcDbText
  0
LINE
  5
195A
330
1B
100
AcDbEntity
 67
     1
  8
DATA
100
AcDbLine
 10
183.6202700920619
 20
48.9814127047897
 30
0.0
 11
183.6202700920619
 21
24.98141270478971
 31
0.0
  0
LINE
  5
195B
330
1B
100
AcDbEntity
 67
     1
  8
DATA
100
AcDbLine
 10
227.8307527739102
 20
48.9814127047897
 30
0.0
 11
227.8307527739102
 21
24.98141270478971
 31
0.0
  0
LINE
  5
195C
330
1B
100
AcDbEntity
 67
     1
  8
DATA
100
AcDbLine
 10
224.7297618573705
 20
40.43820172486755
 30
0.0
 11
224.7297618573705
 21
30.67805494059928
 31
0.0
  0
SOLID
  5
195D
330
1B
100
AcDbEntity
 67
     1
  8
DATA
100
AcDbTrace
 10
219.0387615475085
 20
33.05614067461068
 30
0.0
 11
218.2387615475084
 21
33.05614067461068
 31
0.0
 12
218.6387615475084
 22
30.65614067461059
 32
0.0
 13
218.6387615475084
 23
30.65614067461059
 33
0.0
  0
LINE
  5
195E
330
1B
100
AcDbEntity
 67
     1
  8
DATA
100
AcDbLine
 10
221.4805168944572
 20
48.9814127047897
 30
0.0
 11
221.4805168944572
 21
24.98141270478971
 31
0.0
  0
TEXT
  5
195F
330
1B
100
AcDbEntity
 67
     1
  8
DATA
100
AcDbText
 10
210.5802700920619
 20
30.98141270478971
 30
0.0
 40
2.4
  1
+
 41
0.7
  7
ROMANS
 72
     1
 11
211.6202700920619
 21
30.98141270478971
 31
0.0
100
AcDbText
  0
TEXT
  5
1960
330
1B
100
AcDbEntity
 67
     1
  8
DATA
100
AcDbText
 10
202.5802700920619
 20
30.98141270478971
 30
0.0
 40
2.4
  1
+
 41
0.7
  7
ROMANS
 72
     1
 11
203.6202700920619
 21
30.98141270478971
 31
0.0
100
AcDbText
  0
LINE
  5
1961
330
1B
100
AcDbEntity
 67
     1
  8
DATA
100
AcDbLine
 10
215.6202700920619
 20
48.9814127047897
 30
0.0
 11
215.6202700920619
 21
24.98141270478971
 31
0.0
  0
LINE
  5
1962
330
1B
100
AcDbEntity
 67
     1
  8
DATA
100
AcDbLine
 10
207.6202700920619
 20
48.9814127047897
 30
0.0
 11
207.6202700920619
 21
24.98141270478971
 31
0.0
  0
LINE
  5
1963
330
1B
100
AcDbEntity
 67
     1
  8
DATA
100
AcDbLine
 10
199.6202700920619
 20
48.9814127047897
 30
0.0
 11
199.6202700920619
 21
24.98141270478971
 31
0.0
  0
TEXT
  5
1964
330
1B
100
AcDbEntity
 67
     1
  8
DATA
100
AcDbText
 10
178.9402700920619
 20
40.58141270478984
 30
0.0
 40
2.4
  1
1
 41
0.7
  7
ROMANS
 72
     1
 11
179.6202700920619
 21
40.58141270478984
 31
0.0
100
AcDbText
  0
TEXT
  5
1965
330
1B
100
AcDbEntity
 67
     1
  8
DATA
100
AcDbText
 10
178.8202700920619
 20
35.78141270478989
 30
0.0
 40
2.4
  1
2
 41
0.7
  7
ROMANS
 72
     1
 11
179.6202700920619
 21
35.78141270478989
 31
0.0
100
AcDbText
  0
TEXT
  5
1966
330
1B
100
AcDbEntity
 67
     1
  8
DATA
100
AcDbText
 10
178.7802700920619
 20
26.18141270478975
 30
0.0
 40
2.4
  1
4
 41
0.7
  7
ROMANS
 72
     1
 11
179.6202700920619
 21
26.18141270478975
 31
0.0
100
AcDbText
  0
TEXT
  5
1967
330
1B
100
AcDbEntity
 67
     1
  8
DATA
100
AcDbText
 10
178.8202700920619
 20
30.98141270478971
 30
0.0
 40
2.4
  1
3
 41
0.7
  7
ROMANS
 72
     1
 11
179.6202700920619
 21
30.98141270478971
 31
0.0
100
AcDbText
  0
LINE
  5
1968
330
1B
100
AcDbEntity
 67
     1
  8
DATA
100
AcDbLine
 10
175.6202700920619
 20
48.9814127047897
 30
0.0
 11
175.6202700920619
 21
24.98141270478971
 31
0.0
  0
TEXT
  5
1969
330
1B
100
AcDbEntity
 67
     1
  8
DATA
100
AcDbText
 10
175.6202700920619
 20
50.39093651431369
 30
0.0
 40
2.8
  1
WHEN FACING MOUNTING END (X)
 41
0.7
  7
ROMANS
100
AcDbText
  0
TEXT
  5
196A
330
1B
100
AcDbEntity
 67
     1
  8
DATA
100
AcDbText
 10
175.4533880495009
 20
54.98141270478971
 30
0.0
 40
2.8
  1
FULL STEP 2 PHASE-Ex.,
 41
0.7
  7
ROMANS
100
AcDbText
  0
LINE
  5
196B
330
1B
100
AcDbEntity
 67
     1
  8
DATA
100
AcDbLine
 10
175.6202700920619
 20
44.18141270478975
 30
0.0
 11
215.6202700920619
 21
44.18141270478975
 31
0.0
  0
LINE
  5
196C
330
1B
100
AcDbEntity
 67
     1
  8
DATA
100
AcDbLine
 10
175.6202700920619
 20
29.78141270478989
 30
0.0
 11
215.6202700920619
 21
29.78141270478989
 31
0.0
  0
LINE
  5
196D
330
1B
100
AcDbEntity
 67
     1
  8
DATA
100
AcDbLine
 10
227.8307527739102
 20
48.9814127047897
 30
0.0
 11
175.6202700920619
 21
48.9814127047897
 31
0.0
  0
LINE
  5
196E
330
1B
100
AcDbEntity
 67
     1
  8
DATA
100
AcDbLine
 10
175.6202700920619
 20
24.98141270478971
 30
0.0
 11
227.8307527739102
 21
24.98141270478971
 31
0.0
  0
TEXT
  5
196F
330
1B
100
AcDbEntity
 67
     1
  8
DATA
100
AcDbText
 10
176.5802700920619
 20
45.3814127047898
 30
0.0
 40
2.4
  1
STEP
 41
0.7
  7
ROMANS
 72
     1
 11
179.6202700920619
 21
45.3814127047898
 31
0.0
100
AcDbText
  0
TEXT
  5
1970
330
1B
100
AcDbEntity
 67
     1
  8
DATA
100
AcDbText
 10
194.5802700920619
 20
40.58141270478984
 30
0.0
 40
2.4
  1
+
 41
0.7
  7
ROMANS
 72
     1
 11
195.6202700920619
 21
40.58141270478984
 31
0.0
100
AcDbText
  0
TEXT
  5
1971
330
1B
100
AcDbEntity
 67
     1
  8
DATA
100
AcDbText
 10
194.5802700920619
 20
35.78141270478989
 30
0.0
 40
2.4
  1
+
 41
0.7
  7
ROMANS
 72
     1
 11
195.6202700920619
 21
35.78141270478989
 31
0.0
100
AcDbText
  0
TEXT
  5
1972
330
1B
100
AcDbEntity
 67
     1
  8
DATA
100
AcDbText
 10
186.5802700920619
 20
40.58141270478984
 30
0.0
 40
2.4
  1
+
 41
0.7
  7
ROMANS
 72
     1
 11
187.6202700920619
 21
40.58141270478984
 31
0.0
100
AcDbText
  0
TEXT
  5
1973
330
1B
100
AcDbEntity
 67
     1
  8
DATA
100
AcDbText
 10
186.3512967575834
 20
35.77622212781932
 30
0.0
 40
2.4
  1
-
 41
0.7
  7
ROMANS
 72
     1
 11
187.3912967575834
 21
35.77622212781932
 31
0.0
100
AcDbText
  0
LINE
  5
1974
330
1B
100
AcDbEntity
 67
     1
  8
DATA
100
AcDbLine
 10
191.6202700920619
 20
48.9814127047897
 30
0.0
 11
191.6202700920619
 21
24.98141270478971
 31
0.0
  0
LINE
  5
1975
330
1B
100
AcDbEntity
 67
     1
  8
DATA
100
AcDbLine
 10
175.6202700920619
 20
39.38141270478979
 30
0.0
 11
215.6202700920619
 21
39.38141270478979
 31
0.0
  0
LINE
  5
1976
330
1B
100
AcDbEntity
 67
     1
  8
DATA
100
AcDbLine
 10
175.6202700920619
 20
34.58141270478984
 30
0.0
 11
215.6202700920619
 21
34.58141270478984
 31
0.0
  0
LINE
  5
19BB
330
1B
100
AcDbEntity
 67
     1
  8
SPEC
100
AcDbLine
 10
170.0009154015513
 20
21.6559890122013
 30
0.0
 11
170.0009154015513
 21
111.6559890122013
 31
0.0
  0
TEXT
  5
19BD
330
1B
100
AcDbEntity
 67
     1
  8
DATA
100
AcDbText
 10
1.828349188375568
 20
73.0
 30
0.0
 40
2.4
  1
DETENT TORQUE (Nm) [lb-in]
 41
0.7
  7
ROMANS
100
AcDbText
  0
TEXT
  5
19BF
330
1B
100
AcDbEntity
 67
     1
  8
SPEC
100
AcDbText
 10
153.8283491883755
 20
48.0
 30
0.0
 40
2.4
  1

 41
0.7
  7
ROMANS
100
AcDbText
  0
TEXT
  5
19C0
330
1B
100
AcDbEntity
 67
     1
  8
DATA
  6
HIDDEN
100
AcDbText
 10
111.8283491883755
 20
105.2917072386782
 30
0.0
 40
3.0
  1
PERMISSIBLE RADIAL+AXIAL FORCE
 41
0.7
  7
ROMANS
100
AcDbText
  0
TEXT
  5
19C1
330
1B
100
AcDbEntity
 67
     1
  8
DATA
100
AcDbText
 10
1.828349188375568
 20
43.0
 30
0.0
 40
2.4
  1
AMBIENT TEMPERATURE -10°~ 50°C [14°F ~ 122°F]
 41
0.7
  7
ROMANS
100
AcDbText
  0
TEXT
  5
19C2
330
1B
100
AcDbEntity
 67
     1
  8
DATA
100
AcDbText
 10
110.8283491883755
 20
48.0
 30
0.0
 40
2.4
  1
AXIAL-FORCE Fa (N)
 41
0.7
  7
ROMANS
100
AcDbText
  0
TEXT
  5
19C4
330
1B
100
AcDbEntity
 67
     1
  8
DATA
100
AcDbText
 10
1.828349188375568
 20
28.0
 30
0.0
 40
2.4
  1
DIELECTRIC STRENGTH 500VAC FOR 1 MIN. (BETWEEN THE MOTOR COILS AND THE MOTOR CASE)
 41
0.59
  7
ROMANS
100
AcDbText
  0
TEXT
  5
19C5
330
1B
100
AcDbEntity
 67
     1
  8
DATA
100
AcDbText
 10
1.828349188375568
 20
33.0
 30
0.0
 40
2.4
  1
INSULATION CLASS B 130° [266°F]
 41
0.7
  7
ROMANS
100
AcDbText
  0
TEXT
  5
19C6
330
1B
100
AcDbEntity
 67
     1
  8
DATA
100
AcDbText
 10
1.828349188375568
 20
38.0
 30
0.0
 40
2.4
  1
INSULATION RESISTANCE 100 MOhm (UNDER NORMAL TEMPERATURE AND HUMIDITY)
 41
0.69
  7
ROMANS
100
AcDbText
  0
TEXT
  5
19C7
330
1B
100
AcDbEntity
 67
     1
  8
DATA
100
AcDbText
 10
1.828349188375568
 20
48.0
 30
0.0
 40
2.4
  1
TEMPERATURE RISE: MAX.80°C (MOTOR STANDSTILL; FOR 2 PHASE ENERGIZED)
 41
0.7
  7
ROMANS
100
AcDbText
  0
MTEXT
  5
19C8
330
1B
100
AcDbEntity
 67
     1
  8
DATA
100
AcDbMText
 10
131.290926933951
 20
85.84775216573845
 30
0.0
 40
2.399999999999999
 41
6.509999999999999
 71
     1
 72
     5
  1
F{\H0.8333x;r}
  7
ROMANS
 73
     1
 44
1.0
1001
ACAD
1000
MTEXTBEGIN
1070
    73
1070
     1
1070
    44
1040
1.0
1070
    74
1070
     0
1000
MTEXTEND
  0
DIMENSION
  5
19C9
330
1B
100
AcDbEntity
 67
     1
  8
DIM
100
AcDbDimension
  2
*D5
 10
139.0972407104071
 20
55.91119174080848
 30
0.0
 11
134.4901433864878
 21
55.91119174080848
 31
0.0
 70
   160
  1
a
 71
     5
 42
9.190871881572007
  3
STANDARD
100
AcDbAlignedDimension
 13
129.9063688288351
 23
74.09868988223387
 33
0.0
 14
139.0972407104071
 24
60.09299455805124
 34
0.0
100
AcDbRotatedDimension
1001
ACAD
1000
DSTYLE
1002
{
1070
   344
1005
2FF
1070
   173
1070
     1
1070
   343
1005
0
1070
    41
1040
2.399999999999999
1070
   340
1005
3C7
1070
   140
1040
2.399999999999999
1070
    40
1040
1.0
1002
}
  0
LINE
  5
19D1
330
1B
100
AcDbEntity
 67
     1
  8
CENTER
  6
AM_ISO08W050x2
100
AcDbLine
 10
126.6677412239616
 20
75.98428938777749
 30
0.0
 11
169.0047821176252
 21
75.98428938777749
 31
0.0
  0
TEXT
  5
19DC
330
1B
100
AcDbEntity
 67
     1
  8
DATA
100
AcDbText
 10
110.8283491883755
 20
38.0
 30
0.0
 40
2.4
  1
RADIAL-FORCE Fr (N)
 41
0.7
  7
ROMANS
100
AcDbText
  0
TEXT
  5
19DD
330
1B
100
AcDbEntity
 67
     1
  8
DATA
100
AcDbText
 10
110.8283491883755
 20
43.0
 30
0.0
 40
2.4
  1
DISTANCE a  (mm)
 41
0.7
  7
ROMANS
100
AcDbText
  0
TEXT
  5
19DE
330
1B
100
AcDbEntity
 67
     1
  8
DATA
100
AcDbText
 10
65.0
 20
63.0
 30
0.0
 40
2.4
  1
%%P5%
 41
0.7
  7
ROMANS
100
AcDbText
  0
TEXT
  5
19DF
330
1B
100
AcDbEntity
 67
     1
  8
DATA
100
AcDbText
 10
65.0
 20
68.0
 30
0.0
 40
2.4
  1
1.8
 41
0.7
  7
ROMANS
100
AcDbText
  0
TEXT
  5
19E0
330
1B
100
AcDbEntity
 67
     1
  8
DATA
100
AcDbText
 10
65.0
 20
88.0
 30
0.0
 40
2.4
  1
2.0%%P15%%%
 41
0.7
  7
ROMANS
100
AcDbText
  0
TEXT
  5
19E1
330
1B
100
AcDbEntity
 67
     1
  8
DATA
100
AcDbText
 10
65.0
 20
93.0
 30
0.0
 40
2.4
  1
1.4
 41
0.7
  7
ROMANS
100
AcDbText
  0
TEXT
  5
19E4
330
1B
100
AcDbEntity
 67
     1
  8
DATA
100
AcDbText
 10
31.82834918837557
 20
107.617252115867
 30
0.0
 40
2.4
  1
CONNECTION
 41
0.7
  7
ROMANS
100
AcDbText
  0
TEXT
  5
19E9
330
1B
100
AcDbEntity
 67
     1
  8
DATA
100
AcDbText
 10
1.828349188375568
 20
98.0
 30
0.0
 40
2.4
  1
VOLTAGE (VDC)
 41
0.7
  7
ROMANS
100
AcDbText
  0
TEXT
  5
19EA
330
1B
100
AcDbEntity
 67
     1
  8
DATA
100
AcDbText
 10
1.828349188375568
 20
93.0
 30
0.0
 40
2.4
  1
AMPS/PHASE
 41
0.7
  7
ROMANS
100
AcDbText
  0
TEXT
  5
19EB
330
1B
100
AcDbEntity
 67
     1
  8
DATA
100
AcDbText
 10
1.828349188375568
 20
103.617252115867
 30
0.0
 40
2.4
  1
SPECIFICATION
 41
0.7
  7
ROMANS
100
AcDbText
  0
TEXT
  5
19EC
330
1B
100
AcDbEntity
 67
     1
  8
DATA
100
AcDbText
 10
1.828349188375568
 20
88.0
 30
0.0
 40
2.4
  1
RESISTANCE/PHASE  (Ohms)@25%%DC
 41
0.7
  7
ROMANS
100
AcDbText
  0
TEXT
  5
19ED
330
1B
100
AcDbEntity
 67
     1
  8
DATA
100
AcDbText
 10
1.828349188375568
 20
83.0
 30
0.0
 40
2.4
  1
INDUCTANCE/PHASE (mH) @1KHz
 41
0.7
  7
ROMANS
100
AcDbText
  0
TEXT
  5
19EF
330
1B
100
AcDbEntity
 67
     1
  8
DATA
100
AcDbText
 10
1.828349188375568
 20
78.0
 30
0.0
 40
2.4
  1
HOLDING TORQUE (Nm) [lb-in]
 41
0.7
  7
ROMANS
100
AcDbText
  0
TEXT
  5
19F0
330
1B
100
AcDbEntity
 67
     1
  8
DATA
100
AcDbText
 10
1.828349188375568
 20
53.0
 30
0.0
 40
2.4
  1
WEIGHT (Kg) [lb]
 41
0.7
  7
ROMANS
100
AcDbText
  0
TEXT
  5
19F1
330
1B
100
AcDbEntity
 67
     1
  8
DATA
100
AcDbText
 10
1.828349188375568
 20
68.0
 30
0.0
 40
2.4
  1
STEP ANGLE (°)
 41
0.7
  7
ROMANS
100
AcDbText
  0
TEXT
  5
19F2
330
1B
100
AcDbEntity
 67
     1
  8
DATA
100
AcDbText
 10
1.828349188375568
 20
63.0
 30
0.0
 40
2.4
  1
STEP ACCURACY (NON-ACCUM)
 41
0.7
  7
ROMANS
100
AcDbText
  0
LEADER
  5
19F4
330
1B
100
AcDbEntity
 67
     1
  8
DIM
100
AcDbLeader
  3
STANDARD
 76
     2
 10
130.0606073289473
 20
78.69222240356484
 30
0.0
 10
130.0606073289473
 20
86.51626982104639
 30
0.0
1001
ACAD
1000
DSTYLE
1002
{
1070
    41
1040
2.399999999999999
1070
   341
1005
0
1070
    40
1040
1.0
1070
    77
1070
     0
1002
}
  0
TEXT
  5
19F5
330
1B
100
AcDbEntity
 67
     1
  8
DATA
100
AcDbText
 10
65.0
 20
98.0
 30
0.0
 40
2.4
  1
2.8
 41
0.7
  7
ROMANS
100
AcDbText
  0
TEXT
  5
19F7
330
1B
100
AcDbEntity
 67
     1
  8
DATA
100
AcDbText
 10
75.0
 20
107.617252115867
 30
0.0
 40
2.399999999999999
  1
BIPOLAR
 41
0.7
  7
ROMANS
100
AcDbText
  0
LINE
  5
19F9
330
1B
100
AcDbEntity
 67
     1
  8
SPEC
100
AcDbLine
 10
0.0009154015513104
 20
111.6559890122013
 30
0.0
 11
281.8407943483788
 21
111.6559890122013
 31
0.0
  0
LINE
  5
19FA
330
1B
100
AcDbEntity
 67
     1
  8
SPEC
100
AcDbLine
 10
282.0457477520906
 20
21.65598908869334
 30
0.0
 11
0.0009154015513104
 21
21.6559890122013
 31
0.0
  0
LINE
  5
19FB
330
1B
100
AcDbEntity
 67
     1
  8
SPEC
100
AcDbLine
 10
0.0009154015513104
 20
111.6559890122013
 30
0.0
 11
110.0009154015513
 21
111.6559890122013
 31
0.0
  0
LINE
  5
19FD
330
1B
100
AcDbEntity
 67
     1
  8
SPEC
100
AcDbLine
 10
0.0009154015513104
 20
26.65598901220131
 30
0.0
 11
170.0009154015513
 21
26.65598901220131
 31
0.0
  0
LINE
  5
19FF
330
1B
100
AcDbEntity
 67
     1
  8
SPEC
100
AcDbLine
 10
0.0009154015513104
 20
31.65598901220131
 30
0.0
 11
170.0009154015513
 21
31.65598901220131
 31
0.0
  0
LINE
  5
1A00
330
1B
100
AcDbEntity
 67
     1
  8
SPEC
100
AcDbLine
 10
0.0009154015513104
 20
36.65598901220142
 30
0.0
 11
170.0009154015513
 21
36.65598901220142
 31
0.0
  0
LINE
  5
1A01
330
1B
100
AcDbEntity
 67
     1
  8
SPEC
100
AcDbLine
 10
0.0009154015513104
 20
46.65598901220142
 30
0.0
 11
170.0009154015513
 21
46.65598901220142
 31
0.0
  0
LINE
  5
1A02
330
1B
100
AcDbEntity
 67
     1
  8
SPEC
100
AcDbLine
 10
0.0009154015513104
 20
41.65598901220142
 30
0.0
 11
170.0009154015513
 21
41.65598901220142
 31
0.0
  0
LINE
  5
1A03
330
1B
100
AcDbEntity
 67
     1
  8
SPEC
100
AcDbLine
 10
0.0009154015513104
 20
66.65598901220142
 30
0.0
 11
110.0009154015513
 21
66.65598901220142
 31
0.0
  0
LINE
  5
1A04
330
1B
100
AcDbEntity
 67
     1
  8
SPEC
100
AcDbLine
 10
0.0009154015513104
 20
61.65598901220142
 30
0.0
 11
110.0009154015513
 21
61.65598901220142
 31
0.0
  0
LINE
  5
1A05
330
1B
100
AcDbEntity
 67
     1
  8
SPEC
100
AcDbLine
 10
0.0009154015513104
 20
56.6559890122013
 30
0.0
 11
110.0009154015513
 21
56.6559890122013
 31
0.0
  0
LINE
  5
1A06
330
1B
100
AcDbEntity
 67
     1
  8
SPEC
100
AcDbLine
 10
0.0009154015513104
 20
51.6559890122013
 30
0.0
 11
170.0009154015513
 21
51.6559890122013
 31
0.0
  0
LINE
  5
1A07
330
1B
100
AcDbEntity
 67
     1
  8
SPEC
100
AcDbLine
 10
0.0009154015513104
 20
101.6559890122014
 30
0.0
 11
110.0009154015513
 21
101.6559890122014
 31
0.0
  0
LINE
  5
1A08
330
1B
100
AcDbEntity
 67
     1
  8
SPEC
100
AcDbLine
 10
0.0009154015513104
 20
96.6559890122013
 30
0.0
 11
110.0009154015513
 21
96.6559890122013
 31
0.0
  0
LINE
  5
1A09
330
1B
100
AcDbEntity
 67
     1
  8
SPEC
100
AcDbLine
 10
0.0009154015513104
 20
86.6559890122013
 30
0.0
 11
110.0009154015513
 21
86.6559890122013
 31
0.0
  0
LINE
  5
1A0A
330
1B
100
AcDbEntity
 67
     1
  8
SPEC
100
AcDbLine
 10
0.0009154015513104
 20
91.6559890122013
 30
0.0
 11
110.0009154015513
 21
91.6559890122013
 31
0.0
  0
LINE
  5
1A0B
330
1B
100
AcDbEntity
 67
     1
  8
SPEC
100
AcDbLine
 10
0.0009154015513104
 20
71.6559890122013
 30
0.0
 11
110.0009154015513
 21
71.6559890122013
 31
0.0
  0
LINE
  5
1A0C
330
1B
100
AcDbEntity
 67
     1
  8
SPEC
100
AcDbLine
 10
0.0009154015513104
 20
76.65598901220142
 30
0.0
 11
110.0009154015513
 21
76.65598901220142
 31
0.0
  0
LINE
  5
1A0D
330
1B
100
AcDbEntity
 67
     1
  8
SPEC
100
AcDbLine
 10
0.0009154015513104
 20
81.65598901220141
 30
0.0
 11
110.0009154015513
 21
81.65598901220141
 31
0.0
  0
MTEXT
  5
1A0E
330
1B
100
AcDbEntity
 67
     1
  8
DATA
100
AcDbMText
 10
2.328349188375568
 20
61.11725211586701
 30
0.0
 40
2.399999999999999
 41
110.0
 71
     1
 72
     5
  1
{\W0.7;ROTOR INERTIA (Kg-m²) [lb-in²]}
  7
ROMANS
 73
     1
 44
1.0
1001
ACAD
1000
ACAD_MTEXT_DEFINED_HEIGHT_BEGIN
1070
    46
1040
0.0
1000
ACAD_MTEXT_DEFINED_HEIGHT_END
1000
MTEXTBEGIN
1070
    73
1070
     1
1070
    44
1040
1.0
1070
    74
1070
     0
1000
MTEXTEND
  0
LINE
  5
1A0F
330
1B
100
AcDbEntity
 67
     1
  8
SPEC
100
AcDbLine
 10
0.0009154015513104
 20
91.6559890122013
 30
0.0
 11
50.00091540155131
 21
91.6559890122013
 31
0.0
  0
LINE
  5
1A10
330
1B
100
AcDbEntity
 67
     1
  8
SPEC
100
AcDbLine
 10
50.00091540155131
 20
111.6559890122013
 30
0.0
 11
50.00091540155131
 21
51.6559890122013
 31
0.0
  0
LINE
  5
1A11
330
1B
100
AcDbEntity
 67
     1
  8
SPEC
100
AcDbLine
 10
50.00091540155131
 20
101.6559890122014
 30
0.0
 11
0.0009154015513104
 21
111.6559890122013
 31
0.0
  0
LINE
  5
1A13
330
1B
100
AcDbEntity
 67
     1
  8
SPEC
100
AcDbLine
 10
50.00091540155131
 20
111.6559890122013
 30
0.0
 11
80.0009154015513
 21
111.6559890122013
 31
0.0
  0
LINE
  5
1A15
330
1B
100
AcDbEntity
 67
     1
  8
SPEC
100
AcDbLine
 10
110.0009154015513
 20
111.6559890122013
 30
0.0
 11
170.0009154015513
 21
111.6559890122013
 31
0.0
  0
TEXT
  5
1A16
330
1B
100
AcDbEntity
 67
     1
  8
DATA
100
AcDbText
 10
111.8283491883755
 20
28.0
 30
0.0
 40
2.4
  1
SHAFT PLAY (mm)
 41
0.7
  7
ROMANS
100
AcDbText
  0
LINE
  5
1A17
330
1B
100
AcDbEntity
 67
     1
  8
SPEC
100
AcDbLine
 10
110.0009154015513
 20
31.65598901220131
 30
0.0
 11
140.0009154015513
 21
31.65598901220131
 31
0.0
  0
TEXT
  5
1A18
330
1B
100
AcDbEntity
 67
     1
  8
DATA
100
AcDbText
 10
143.8283491883755
 20
32.61725211586702
 30
0.0
 40
2.5
  1
AXIAL
 41
0.7
  7
ROMANS
100
AcDbText
  0
TEXT
  5
1A19
330
1B
100
AcDbEntity
 67
     1
  8
DATA
100
AcDbText
 10
157.8283491883756
 20
32.61725211586702
 30
0.0
 40
2.5
  1
RADIAL
 41
0.7
  7
ROMANS
100
AcDbText
  0
TEXT
  5
1A1A
330
1B
100
AcDbEntity
 67
     1
  8
DATA
100
AcDbText
 10
142.8283491883755
 20
27.61725211586702
 30
0.0
 40
2.5
  1
0.08
 41
0.7
  7
ROMANS
100
AcDbText
  0
TEXT
  5
1A1B
330
1B
100
AcDbEntity
 67
     1
  8
DATA
100
AcDbText
 10
157.8283491883756
 20
27.61725211586702
 30
0.0
 40
2.5
  1
0.02
 41
0.7
  7
ROMANS
100
AcDbText
  0
TEXT
  5
1A1C
330
1B
100
AcDbEntity
 67
     1
  8
DATA
100
AcDbText
 10
143.8283491883755
 20
22.61725211586702
 30
0.0
 40
2.5
  1
4.5
 41
0.7
  7
ROMANS
100
AcDbText
  0
TEXT
  5
1A1D
330
1B
100
AcDbEntity
 67
     1
  8
DATA
100
AcDbText
 10
157.8283491883756
 20
22.61725211586702
 30
0.0
 40
2.5
  1
4.5
 41
0.7
  7
ROMANS
100
AcDbText
  0
LINE
  5
1A1E
330
1B
100
AcDbEntity
 67
     1
  8
SPEC
100
AcDbLine
 10
110.0009154015513
 20
36.65598901220142
 30
0.0
 11
140.0009154015513
 21
31.65598901220131
 31
0.0
  0
LINE
  5
1A1F
330
1B
100
AcDbEntity
 67
     1
  8
SPEC
100
AcDbLine
 10
140.0009154015513
 20
46.65598901220142
 30
0.0
 11
146.0009154015513
 21
46.65598901220142
 31
0.0
  0
LINE
  5
1A6A
330
1B
100
AcDbEntity
 67
     1
  8
SPEC
100
AcDbLine
 10
110.0009154015513
 20
111.6559890122013
 30
0.0
 11
110.0009154015513
 21
21.6559890122013
 31
0.0
  0
VIEWPORT
  5
1E55
102
{ACAD_XDICTIONARY
360
6BEA
102
}
330
1B
100
AcDbEntity
 67
     1
  8
AM_VIEWS
100
AcDbViewport
 10
141.0232986489197
 20
153.8832840649515
 30
0.0
 40
282.0447664947369
 41
84.45459010550038
 68
     2
 69
     2
 12
-57.58734849245931
 22
-12.09509031949076
 13
0.0
 23
0.0
 14
2.5
 24
2.5
 15
10.0
 25
10.0
 16
0.0
 26
0.0
 36
503.017576584829
 17
937.8833387861368
 27
626.5091020841953
 37
0.0
 42
50.0
 43
0.0
 44
0.0
 45
124.8871036525379
 50
0.0
 51
0.0
 72
   100
 90
    32864
  1

281
     0
 71
     1
 74
     0
110
0.0
120
0.0
130
0.0
111
1.0
121
0.0
131
0.0
112
0.0
122
1.0
132
0.0
 79
     0
146
0.0
1001
GENIUS_GENOBJ-N-SDF_13
1002
{
1000
OWNER
1000
GEN
1002
}
1001
GENIUS_GENODEF_13
1002
{
1000
HIER
1070
     0
1002
}
1002
{
1000
MANEDIT
1070
     0
1002
}
1002
{
1000
NOSEL
1070
     0
1002
}
1002
{
1000
BEHIND
1070
     0
1002
}
1002
{
1000
OTHER
1070
     0
1002
}
1002
{
1000
REACTOR
1002
}
1001
GENIUS_GENSCREG_15
1000
PF
1040
0.0
1000
DF
1040
0.0
1000
MIN
1011
0.0009154015513104
1021
111.6559890122013
1031
0.0
1000
MAX
1011
282.0456818962882
1021
196.1105791177017
1031
0.0
1000
FLAGS
1070
     2
  0
TEXT
  5
2CB7
330
1B
100
AcDbEntity
 67
     1
  8
DATA
100
AcDbText
 10
65.0
 20
53.0
 30
0.0
 40
2.4
  1
0.2 [0.441]
 41
0.7
  7
ROMANS
100
AcDbText
  0
TEXT
  5
2CBF
330
1B
100
AcDbEntity
 67
     1
  8
DATA
100
AcDbText
 10
65.0
 20
83.0
 30
0.0
 40
2.4
  1
3.6%%P20%%%
 41
0.7
  7
ROMANS
100
AcDbText
  0
TEXT
  5
2CCB
330
1B
100
AcDbEntity
 67
     1
  8
DATA
100
AcDbText
 10
65.0
 20
78.0
 30
0.0
 40
2.4
  1
0.2 [1.77]
 41
0.7
  7
ROMANS
100
AcDbText
  0
LWPOLYLINE
  5
2CEB
330
1B
100
AcDbEntity
 67
     1
  8
SPEC
100
AcDbPolyline
 90
        4
 70
     1
 43
0.0
 10
139.0972407104071
 20
91.87558421750372
 10
159.2275531197891
 20
91.87558421750374
 10
159.2275531197891
 20
60.09299455805124
 10
139.0972407104071
 20
60.09299455805124
  0
LWPOLYLINE
  5
2D6D
330
1B
100
AcDbEntity
 67
     1
  8
SPEC
100
AcDbPolyline
 90
        4
 70
     1
 43
0.0
 10
139.0972407104071
 20
87.09730240531003
 10
137.6137908953366
 20
87.09730240531003
 10
137.6137908953366
 20
64.87127637024494
 10
139.0972407104071
 20
64.87127637024494
  0
LINE
  5
2D70
330
1B
100
AcDbEntity
 67
     1
  8
SPEC
100
AcDbLine
 10
168.9451046743791
 20
74.09868988223387
 30
0.0
 11
159.2275531197891
 21
74.09868988223387
 31
0.0
  0
LINE
  5
2D71
330
1B
100
AcDbEntity
 67
     1
  8
SPEC
100
AcDbLine
 10
168.9451046743791
 20
77.86988889332109
 30
0.0
 11
159.2275531197891
 21
77.86988889332109
 31
0.0
  0
LINE
  5
2D72
330
1B
100
AcDbEntity
 67
     1
  8
SPEC
100
AcDbLine
 10
168.9451046743791
 20
74.09868988223387
 30
0.0
 11
168.9451046743791
 21
77.86988889332109
 31
0.0
  0
LWPOLYLINE
  5
2D94
330
1B
100
AcDbEntity
 67
     1
  8
SPEC
100
AcDbPolyline
 90
        4
 70
     1
 43
0.0
 10
157.9302096399492
 20
81.38735029589254
 10
154.6305199228664
 20
81.38735029589254
 10
154.6305199228664
 20
70.58122847966247
 10
157.9302096399492
 20
70.58122847966247
  0
CIRCLE
  5
2D95
330
1B
100
AcDbEntity
 67
     1
  8
SPEC
100
AcDbCircle
 10
156.2803647814078
 20
79.73750543735114
 30
0.0
 40
1.649844858541398
  0
CIRCLE
  5
2D96
330
1B
100
AcDbEntity
 67
     1
  8
SPEC
100
AcDbCircle
 10
156.2803647814078
 20
72.23107333820388
 30
0.0
 40
1.649844858541398
  0
LINE
  5
2D97
330
1B
100
AcDbEntity
 67
     1
  8
SPEC
100
AcDbLine
 10
157.9302096399492
 20
81.38735029589254
 30
0.0
 11
158.5734045934214
 21
80.74081741993238
 31
0.0
  0
LINE
  5
2D98
330
1B
100
AcDbEntity
 67
     1
  8
SPEC
100
AcDbLine
 10
158.6531348075577
 20
77.651473709366
 30
0.0
 11
158.5053768956558
 21
77.48676576983574
 31
0.0
  0
LINE
  5
2D99
330
1B
100
AcDbEntity
 67
     1
  8
SPEC
100
AcDbLine
 10
158.5053768956559
 20
74.48181300571924
 30
0.0
 11
158.6531348075576
 21
74.31710506618914
 31
0.0
  0
LINE
  5
2D9A
330
1B
100
AcDbEntity
 67
     1
  8
SPEC
100
AcDbLine
 10
158.5734045934215
 20
71.2277613556228
 30
0.0
 11
157.9302096399492
 21
70.58122847966247
 31
0.0
  0
ARC
  5
2D9E
330
1B
100
AcDbEntity
 67
     1
  8
SPEC
100
AcDbCircle
 10
156.9783020632643
 20
79.15395009142419
 30
0.0
 40
2.25
100
AcDbArc
 50
318.1050245216237
 51
44.85171410623406
  0
ARC
  5
2DA1
330
1B
100
AcDbEntity
 67
     1
  8
SPEC
100
AcDbCircle
 10
156.9783020632643
 20
72.81462868413088
 30
0.0
 40
2.25
100
AcDbArc
 50
315.1482858937687
 51
41.8949754783788
  0
ARC
  5
2DA2
330
1B
100
AcDbEntity
 67
     1
  8
SPEC
100
AcDbCircle
 10
160.1802096399492
 20
75.98428938777752
 30
0.0
 40
2.25
100
AcDbArc
 50
138.1050245216231
 51
221.8949754783793
  0
LWPOLYLINE
  5
2DA3
330
1B
100
AcDbEntity
 67
     1
  8
SPEC
100
AcDbPolyline
 90
        4
 70
     1
 43
0.0
 10
139.0972407104071
 20
81.38735029589254
 10
142.3969304274899
 20
81.38735029589254
 10
142.3969304274899
 20
70.58122847966247
 10
139.0972407104071
 20
70.58122847966247
  0
CIRCLE
  5
2DA4
330
1B
100
AcDbEntity
 67
     1
  8
SPEC
100
AcDbCircle
 10
140.7470855689485
 20
79.73750543735114
 30
0.0
 40
1.649844858541398
  0
CIRCLE
  5
2DA5
330
1B
100
AcDbEntity
 67
     1
  8
SPEC
100
AcDbCircle
 10
140.7470855689485
 20
72.23107333820388
 30
0.0
 40
1.649844858541398
  0
TEXT
  5
2DC8
330
1B
100
AcDbEntity
 67
     1
  8
DATA
100
AcDbText
 10
1.828349188375568
 20
23.0
 30
0.0
 40
2.4
  1
AMBIENT HUMIDITY MAX. 85% (NO CONDENSATION)
 41
0.7
  7
ROMANS
100
AcDbText
  0
TEXT
  5
2DC9
330
1B
100
AcDbEntity
 67
     1
  8
DATA
100
AcDbText
 10
73.57627054378861
 20
59.66450186175158
 30
0.0
 40
1.399999999999999
  1
-6
 41
0.7
  7
ROMANS
100
AcDbText
  0
TEXT
  5
2DCB
330
1B
100
AcDbEntity
 67
     1
  8
DATA
100
AcDbText
 10
65.0
 20
58.0
 30
0.0
 40
2.4
  1
3.8x10  [1.3X10  ]
 41
0.7
  7
ROMANS
100
AcDbText
  0
LINE
  5
2DD6
330
1B
100
AcDbEntity
 67
     1
  8
SPEC
100
AcDbLine
 10
146.0009154015513
 20
46.65598901220142
 30
0.0
 11
151.0009154015513
 21
46.65598901220142
 31
0.0
  0
LINE
  5
2DD7
330
1B
100
AcDbEntity
 67
     1
  8
SPEC
100
AcDbLine
 10
140.0009154015513
 20
51.6559890122013
 30
0.0
 11
140.0009154015513
 21
21.6559890122013
 31
0.0
  0
LINE
  5
2DD8
330
1B
100
AcDbEntity
 67
     1
  8
SPEC
100
AcDbLine
 10
140.0009154015513
 20
36.65598901220131
 30
0.0
 11
155.0009154015513
 21
36.65598901220136
 31
0.0
  0
LINE
  5
2DD9
330
1B
100
AcDbEntity
 67
     1
  8
SPEC
100
AcDbLine
 10
155.0009154015513
 20
36.65598901220136
 30
0.0
 11
155.0009154015513
 21
21.6559890122013
 31
0.0
  0
TEXT
  5
2DE0
330
1B
100
AcDbEntity
 67
     1
  8
DATA
100
AcDbText
 10
111.8283491883755
 20
23.0
 30
0.0
 40
2.4
  1
AT LOAD MAX: (N)
 41
0.7
  7
ROMANS
100
AcDbText
  0
LINE
  5
2DE5
330
1B
100
AcDbEntity
 67
     1
  8
SPEC
100
AcDbLine
 10
127.8962393407466
 20
74.09868988223387
 30
0.0
 11
137.6137908953366
 21
74.09868988223387
 31
0.0
  0
LINE
  5
2DE6
330
1B
100
AcDbEntity
 67
     1
  8
SPEC
100
AcDbLine
 10
127.8962393407466
 20
77.86988889332109
 30
0.0
 11
137.6137908953366
 21
77.86988889332109
 31
0.0
  0
LINE
  5
2DE7
330
1B
100
AcDbEntity
 67
     1
  8
SPEC
100
AcDbLine
 10
127.8962393407466
 20
74.09868988223387
 30
0.0
 11
127.8962393407466
 21
77.86988889332109
 31
0.0
  0
MTEXT
  5
2E04
330
1B
100
AcDbEntity
 67
     1
  8
SPEC
 62
     6
100
AcDbMText
 10
145.5187721793249
 20
89.62880385942026
 30
0.0
 40
2.0
 41
0.0
 71
     1
 72
     1
  1
BEARING
  7
ROMANS
 73
     1
 44
1.0
1001
ACAD
1000
ACAD_MTEXT_DEFINED_HEIGHT_BEGIN
1070
    46
1040
0.0
1000
ACAD_MTEXT_DEFINED_HEIGHT_END
1000
MTEXTBEGIN
1070
    73
1070
     1
1070
    44
1040
1.0
1070
    74
1070
     0
1000
MTEXTEND
  0
LEADER
  5
2E07
330
1B
100
AcDbEntity
 67
     1
  8
SPEC
100
AcDbLeader
  3
STANDARD
 76
     2
 10
156.2803647814078
 20
79.73750543735114
 30
0.0
 10
150.8271563148611
 20
87.12304269521258
 30
0.0
1001
ACAD
1000
DSTYLE
1002
{
1070
   147
1040
1.0
1070
    77
1070
     0
1002
}
  0
LEADER
  5
2E09
330
1B
100
AcDbEntity
 67
     1
  8
SPEC
100
AcDbLeader
  3
STANDARD
 76
     2
 10
140.7470855689485
 20
79.73750543735114
 30
0.0
 10
146.7956208247884
 20
86.83653569069861
 30
0.0
1001
ACAD
1000
DSTYLE
1002
{
1070
   147
1040
1.0
1070
    77
1070
     0
1002
}
  0
LEADER
  5
2E0A
330
1B
100
AcDbEntity
 67
     1
  8
SPEC
100
AcDbLeader
  3
STANDARD
 73
     0
 75
     1
 40
5.333333333333333
 41
9.066666666666666
 76
     3
 10
158.5734045934214
 20
80.74081741993238
 30
0.0
 10
167.5136123890166
 20
94.46023307290511
 30
0.0
 10
164.5136123890166
 20
94.46023307290511
 30
0.0
340
2E0B
213
1.589802987236566
223
-4.427990251304436
233
0.0
1001
ACAD
1000
DSTYLE
1002
{
1070
   147
1040
1.0
1070
    77
1070
     0
1002
}
  0
MTEXT
  5
2E0B
102
{ACAD_REACTORS
330
2E0A
102
}
330
1B
100
AcDbEntity
 67
     1
  8
SPEC
 62
     6
100
AcDbMText
 10
161.9238094017801
 20
98.88822332420955
 30
0.0
 40
2.0
 41
0.0
 71
     3
 72
     1
  1
SPRING\PWASHER
  7
ROMANS
 73
     1
 44
1.0
1001
ACAD
1000
ACAD_MTEXT_DEFINED_HEIGHT_BEGIN
1070
    46
1040
0.0
1000
ACAD_MTEXT_DEFINED_HEIGHT_END
1000
MTEXTBEGIN
1070
    73
1070
     1
1070
    44
1040
1.0
1070
    74
1070
     0
1000
MTEXTEND
  0
MTEXT
  5
2E48
330
1B
100
AcDbEntity
 67
     1
  8
SPEC
 62
     6
100
AcDbMText
 10
111.8786983663672
 20
99.27994356100203
 30
0.0
 40
2.0
 41
0.0
 71
     1
 72
     1
  1
ROTOR SPRING-\PMOUNTED IN\PAXIAL DIRECTION
  7
ROMANS
 73
     1
 44
1.0
1001
ACAD
1000
ACAD_MTEXT_DEFINED_HEIGHT_BEGIN
1070
    46
1040
0.0
1000
ACAD_MTEXT_DEFINED_HEIGHT_END
1000
MTEXTBEGIN
1070
    73
1070
     1
1070
    44
1040
1.0
1070
    74
1070
     0
1000
MTEXTEND
  0
LEADER
  5
2E5C
330
1B
100
AcDbEntity
 67
     1
  8
DIM
100
AcDbLeader
  3
STANDARD
 76
     2
 10
131.5179864032658
 20
89.06775256840445
 30
0.0
 10
112.2566843209139
 20
89.06775256840445
 30
0.0
1001
ACAD
1000
DSTYLE
1002
{
1070
   147
1040
1.0
1070
    77
1070
     0
1002
}
  0
TEXT
  5
557C
330
1B
100
AcDbEntity
 67
     1
  8
DATA
100
AcDbText
 10
93.89192211744653
 20
7.009168510583744
 30
0.0
 40
3.861395999999999
  1
ST4118S1404
 41
0.7
  7
ROMANS
100
AcDbText
  0
TEXT
  5
5688
330
1B
100
AcDbEntity
 67
     1
  8
DATA
100
AcDbText
 10
87.00553642395664
 20
59.65678292658179
 30
0.0
 40
1.399999999999999
  1
-2
 41
0.7
  7
ROMANS
100
AcDbText
  0
LINE
  5
57BA
330
1B
100
AcDbEntity
 67
     1
  8
DATA
100
AcDbLine
 10
250.0496750135958
 20
58.19407841709472
 30
0.0
 11
255.4402250126973
 21
58.19407841709472
 31
0.0
  0
LINE
  5
57BB
330
1B
100
AcDbEntity
 67
     1
  8
DATA
100
AcDbLine
 10
255.4402250126973
 20
44.28174984798458
 30
0.0
 11
250.0496750135958
 21
44.28174984798458
 31
0.0
  0
TEXT
  5
57BC
330
1B
100
AcDbEntity
 67
     1
  8
DATA
100
AcDbText
 10
236.68000000172
 20
43.00000007649203
 30
0.0
 40
2.399999999599999
  1
(A\)ORG
 41
0.7
  7
ROMANS
 72
     2
 11
247.0
 21
43.00000007649203
 31
0.0
100
AcDbText
  0
CIRCLE
  5
57BD
330
1B
100
AcDbEntity
 67
     1
  8
DATA
100
AcDbCircle
 10
249.5787178708172
 20
44.28174984798458
 30
0.0
 40
0.4709571427786491
  0
TEXT
  5
57BE
330
1B
100
AcDbEntity
 67
     1
  8
DATA
100
AcDbText
 10
238.5200000014133
 20
57.00000007649204
 30
0.0
 40
2.399999999599999
  1
(A)BRN
 41
0.7
  7
ROMANS
 72
     2
 11
247.0
 21
57.00000007649204
 31
0.0
100
AcDbText
  0
CIRCLE
  5
57BF
330
1B
100
AcDbEntity
 67
     1
  8
DATA
100
AcDbCircle
 10
249.5787178708172
 20
58.19407841709472
 30
0.0
 40
0.4709571427786491
  0
TEXT
  5
57C0
330
1B
100
AcDbEntity
 67
     1
  8
DATA
100
AcDbText
 10
259.3999999996
 20
25.44000007791871
 30
0.0
 40
2.399999999599999
  1
(B)RED
 50
90.0
 41
0.7
  7
ROMANS
 72
     2
 11
257.0
 21
34.00000007649204
 31
0.0
100
AcDbText
 73
     3
  0
TEXT
  5
57C1
330
1B
100
AcDbEntity
 67
     1
  8
DATA
100
AcDbText
 10
272.3999999996
 20
24.08000007814537
 30
0.0
 40
2.399999999599999
  1
(B\)YEL
 50
90.0
 41
0.7
  7
ROMANS
 72
     2
 11
270.0
 21
34.00000007649204
 31
0.0
100
AcDbText
 73
     3
  0
LINE
  5
57C2
330
1B
100
AcDbEntity
 67
     1
  8
DATA
100
AcDbLine
 10
255.4402250126973
 20
45.67552841918078
 30
0.0
 11
255.4402250126973
 21
44.28174984798458
 31
0.0
  0
ARC
  5
57C3
330
1B
100
AcDbEntity
 67
     1
  8
DATA
100
AcDbCircle
 10
263.9282750112825
 20
42.03833913407289
 30
0.0
 40
0.7032535713113561
100
AcDbArc
 50
180.0
 51
0.0
  0
LINE
  5
57C4
330
1B
100
AcDbEntity
 67
     1
  8
DATA
100
AcDbLine
 10
257.6985285837495
 20
36.6477891349714
 30
0.0
 11
257.6985285837495
 21
42.03833913407289
 31
0.0
  0
CIRCLE
  5
57C5
330
1B
100
AcDbEntity
 67
     1
  8
DATA
100
AcDbCircle
 10
257.6985285837495
 20
36.17683199219278
 30
0.0
 40
0.4709571427786491
  0
LINE
  5
57C6
330
1B
100
AcDbEntity
 67
     1
  8
DATA
100
AcDbLine
 10
257.6985285837495
 20
42.03833913407289
 30
0.0
 11
258.9650214406816
 21
42.03833913407289
 31
0.0
  0
ARC
  5
57C7
330
1B
100
AcDbEntity
 67
     1
  8
DATA
100
AcDbCircle
 10
261.0747821546154
 20
42.03833913407289
 30
0.0
 40
0.7032535713113561
100
AcDbArc
 50
180.0
 51
0.0
  0
ARC
  5
57C8
330
1B
100
AcDbEntity
 67
     1
  8
DATA
100
AcDbCircle
 10
259.6682750119928
 20
42.03833913407289
 30
0.0
 40
0.7032535713113561
100
AcDbArc
 50
180.0
 51
0.0
  0
ARC
  5
57C9
330
1B
100
AcDbEntity
 67
     1
  8
DATA
100
AcDbCircle
 10
262.4812892972379
 20
42.03833913407289
 30
0.0
 40
0.7032535713113561
100
AcDbArc
 50
180.0
 51
0.0
  0
LINE
  5
57CA
330
1B
100
AcDbEntity
 67
     1
  8
DATA
100
AcDbLine
 10
271.6532428671383
 20
42.03833913407289
 30
0.0
 11
271.6532428671383
 21
36.6477891349714
 31
0.0
  0
CIRCLE
  5
57CB
330
1B
100
AcDbEntity
 67
     1
  8
DATA
100
AcDbCircle
 10
271.6532428671383
 20
36.17683199219278
 30
0.0
 40
0.4709571427786491
  0
ARC
  5
57CC
330
1B
100
AcDbEntity
 67
     1
  8
DATA
100
AcDbCircle
 10
269.5562107246303
 20
42.03833913407289
 30
0.0
 40
0.7032535713113561
100
AcDbArc
 50
180.0
 51
0.0
  0
ARC
  5
57CD
330
1B
100
AcDbEntity
 67
     1
  8
DATA
100
AcDbCircle
 10
266.743196439385
 20
42.03833913407289
 30
0.0
 40
0.7032535713113561
100
AcDbArc
 50
180.0
 51
0.0
  0
ARC
  5
57CE
330
1B
100
AcDbEntity
 67
     1
  8
DATA
100
AcDbCircle
 10
265.3347821539053
 20
42.03833913407289
 30
0.0
 40
0.7032535713113561
100
AcDbArc
 50
180.0
 51
0.0
  0
ARC
  5
57CF
330
1B
100
AcDbEntity
 67
     1
  8
DATA
100
AcDbCircle
 10
268.1497035820078
 20
42.03833913407289
 30
0.0
 40
0.7032535713113561
100
AcDbArc
 50
180.0
 51
0.0
  0
LINE
  5
57D0
330
1B
100
AcDbEntity
 67
     1
  8
DATA
100
AcDbLine
 10
270.2594642959423
 20
42.03833913407289
 30
0.0
 11
271.6532428671383
 21
42.03833913407289
 31
0.0
  0
CIRCLE
  5
57D1
330
1B
100
AcDbEntity
 67
     1
  8
DATA
100
AcDbCircle
 10
264.4502150111957
 20
51.02372056114678
 30
0.0
 40
6.338828570372099
  0
ARC
  5
57D2
330
1B
100
AcDbEntity
 67
     1
  8
DATA
100
AcDbCircle
 10
255.4402250126973
 20
52.00481056098336
 30
0.0
 40
0.7032535713113561
100
AcDbArc
 50
90.0
 51
270.0
  0
ARC
  5
57D3
330
1B
100
AcDbEntity
 67
     1
  8
DATA
100
AcDbCircle
 10
255.4402250126973
 20
49.19179627573786
 30
0.0
 40
0.7032535713113561
100
AcDbArc
 50
90.0
 51
270.0
  0
ARC
  5
57D4
330
1B
100
AcDbEntity
 67
     1
  8
DATA
100
AcDbCircle
 10
255.4402250126973
 20
46.37878199049229
 30
0.0
 40
0.7032535713113561
100
AcDbArc
 50
90.0
 51
270.0
  0
ARC
  5
57D5
330
1B
100
AcDbEntity
 67
     1
  8
DATA
100
AcDbCircle
 10
255.4402250126973
 20
47.78528913311507
 30
0.0
 40
0.7032535713113561
100
AcDbArc
 50
90.0
 51
270.0
  0
ARC
  5
57D6
330
1B
100
AcDbEntity
 67
     1
  8
DATA
100
AcDbCircle
 10
255.4402250126973
 20
50.59830341836057
 30
0.0
 40
0.7032535713113561
100
AcDbArc
 50
90.0
 51
270.0
  0
ARC
  5
57D7
330
1B
100
AcDbEntity
 67
     1
  8
DATA
100
AcDbCircle
 10
255.4402250126973
 20
56.22433198885143
 30
0.0
 40
0.7032535713113561
100
AcDbArc
 50
90.0
 51
270.0
  0
ARC
  5
57D8
330
1B
100
AcDbEntity
 67
     1
  8
DATA
100
AcDbCircle
 10
255.4402250126973
 20
53.41131770360608
 30
0.0
 40
0.7032535713113561
100
AcDbArc
 50
90.0
 51
270.0
  0
ARC
  5
57D9
330
1B
100
AcDbEntity
 67
     1
  8
DATA
100
AcDbCircle
 10
255.4402250126973
 20
54.81782484622886
 30
0.0
 40
0.7032535713113561
100
AcDbArc
 50
90.0
 51
270.0
  0
LINE
  5
57DA
330
1B
100
AcDbEntity
 67
     1
  8
DATA
100
AcDbLine
 10
255.4402250126973
 20
58.19407841709472
 30
0.0
 11
255.4402250126973
 21
56.92758556016293
 31
0.0
  0
TEXT
  5
57DB
330
1B
100
AcDbEntity
 67
     1
  8
DATA
100
AcDbText
 10
251.7194819043975
 20
61.34556070180179
 30
0.0
 40
2.5
  1
WIRING DIAGRAM
 41
0.7
  7
ROMANS
100
AcDbText
  0
MTEXT
  5
5893
330
1B
100
AcDbEntity
 67
     1
  8
DATA
100
AcDbMText
 10
119.1685098101224
 20
79.47901405200159
 30
0.0
 40
2.399999999999999
 41
6.509999999999999
 71
     1
 72
     5
  1
F{\H0.8333x;a}
  7
ROMANS
 73
     1
 44
1.0
1001
ACAD
1000
ACAD_MTEXT_DEFINED_HEIGHT_BEGIN
1070
    46
1040
0.0
1000
ACAD_MTEXT_DEFINED_HEIGHT_END
1000
MTEXTBEGIN
1070
    73
1070
     1
1070
    44
1040
1.0
1070
    74
1070
     0
1000
MTEXTEND
  0
DIMENSION
  5
5894
330
1B
100
AcDbEntity
 67
     1
  8
AM_5
100
AcDbDimension
  2
*D7
 10
113.061486709883
 20
75.91139921940916
 30
0.0
 11
119.3850267978141
 21
75.91139921940916
 31
0.0
 70
    32
  1
 
 71
     5
 42
12.64708017586213
  3
STANDARD$0
100
AcDbAlignedDimension
 13
125.7085668857451
 23
75.91139921940919
 33
0.0
 14
113.061486709883
 24
75.91139921940916
 34
0.0
100
AcDbRotatedDimension
1001
ACAD
1000
DSTYLE
1002
{
1070
   281
1070
     0
1070
    76
1070
     1
1070
    75
1070
     1
1070
    47
1040
0.2
1070
    48
1040
-0.2
1070
   272
1070
     1
1002
}
  0
LINE
  5
5895
102
{ACAD_REACTORS
330
5899
102
}
330
1B
100
AcDbEntity
 67
     1
  8
DATA
100
AcDbLine
 10
247.6431145682346
 20
76.63083283262858
 30
0.0
 11
245.7231145682347
 21
76.63083283262858
 31
0.0
  0
LINE
  5
5896
102
{ACAD_REACTORS
330
5899
102
}
330
1B
100
AcDbEntity
 67
     1
  8
DATA
100
AcDbLine
 10
245.7231145682347
 20
72.15083283262856
 30
0.0
 11
247.6431145682346
 21
72.15083283262856
 31
0.0
  0
LINE
  5
5897
102
{ACAD_REACTORS
330
5899
102
}
330
1B
100
AcDbEntity
 67
     1
  8
DATA
100
AcDbLine
 10
247.6431145682346
 20
72.15083283262856
 30
0.0
 11
247.6431145682346
 21
76.63083283262858
 31
0.0
  0
LINE
  5
5898
102
{ACAD_REACTORS
330
5899
102
}
330
1B
100
AcDbEntity
 67
     1
  8
DATA
100
AcDbLine
 10
245.7231145682347
 20
76.63083283262858
 30
0.0
 11
245.7231145682347
 21
72.15083283262856
 31
0.0
  0
HATCH
  5
5899
330
1B
100
AcDbEntity
 67
     1
  8
DATA
100
AcDbHatch
 10
0.0
 20
0.0
 30
0.0
210
0.0
220
0.0
230
1.0
  2
SOLID
 70
     1
 71
     1
 91
        1
 92
        1
 93
        4
 72
     1
 10
247.6431145682346
 20
76.63083283262858
 11
245.7231145682347
 21
76.63083283262858
 72
     1
 10
245.7231145682347
 20
76.63083283262858
 11
245.7231145682347
 21
72.15083283262856
 72
     1
 10
245.7231145682347
 20
72.15083283262856
 11
247.6431145682346
 21
72.15083283262856
 72
     1
 10
247.6431145682346
 20
72.15083283262856
 11
247.6431145682346
 21
76.63083283262858
 97
        4
330
5895
330
5898
330
5896
330
5897
 75
     0
 76
     1
 98
        1
 10
98.52311456823466
 20
-36.32916716737146
  0
LWPOLYLINE
  5
589A
330
1B
100
AcDbEntity
 67
     1
  8
DATA
100
AcDbPolyline
 90
        3
 70
     0
 43
0.0
 10
211.6399442906844
 20
77.09200028582007
 10
211.6399442906844
 20
77.09200028582007
 10
215.7138217612454
 20
77.09200028092357
  0
LWPOLYLINE
  5
589B
330
1B
100
AcDbEntity
 67
     1
  8
DATA
100
AcDbPolyline
 90
        3
 70
     0
 43
0.0
 10
211.6399443259423
 20
89.04067650044112
 10
211.6399443259423
 20
89.04067650044112
 10
215.7138217612454
 20
89.04067649497688
  0
MTEXT
  5
589C
330
1B
100
AcDbEntity
 67
     1
  8
DATA
100
AcDbMText
 10
236.2096137588406
 20
72.86791897515354
 30
0.0
 40
2.4
 41
5.0
 71
     1
 72
     1
  1
B\\
  7
ROMANS
 73
     1
 44
1.0
1001
ACAD
1000
MTEXTBEGIN
1070
    73
1070
     1
1070
    44
1040
1.0
1070
    74
1070
     0
1000
MTEXTEND
  0
MTEXT
  5
589D
330
1B
100
AcDbEntity
 67
     1
  8
DATA
100
AcDbMText
 10
236.1727646098907
 20
79.02214318718143
 30
0.0
 40
2.4
 41
4.0
 71
     1
 72
     1
  1
B
  7
ROMANS
 73
     1
 44
1.0
1001
ACAD
1000
MTEXTBEGIN
1070
    73
1070
     1
1070
    44
1040
1.0
1070
    74
1070
     0
1000
MTEXTEND
  0
MTEXT
  5
589E
330
1B
100
AcDbEntity
 67
     1
  8
DATA
100
AcDbMText
 10
235.8209178200716
 20
84.02530783887005
 30
0.0
 40
2.4
 41
5.0
 71
     1
 72
     1
  1
A\\
  7
ROMANS
 73
     1
 44
1.0
1001
ACAD
1000
MTEXTBEGIN
1070
    73
1070
     1
1070
    44
1040
1.0
1070
    74
1070
     0
1000
MTEXTEND
  0
MTEXT
  5
589F
330
1B
100
AcDbEntity
 67
     1
  8
DATA
100
AcDbMText
 10
236.0470238111286
 20
90.46556365615561
 30
0.0
 40
2.4
 41
4.0
 71
     1
 72
     1
  1
A
  7
ROMANS
 73
     1
 44
1.0
1001
ACAD
1000
MTEXTBEGIN
1070
    73
1070
     1
1070
    44
1040
1.0
1070
    74
1070
     0
1000
MTEXTEND
  0
TEXT
  5
58A0
330
1B
100
AcDbEntity
 67
     1
  8
DATA
100
AcDbText
 10
197.9999999175752
 20
100.6064744390815
 30
0.0
 40
2.4
  1
(EXTERN)
 41
0.65
  7
ROMANS
100
AcDbText
  0
TEXT
  5
58A1
330
1B
100
AcDbEntity
 67
     1
  8
DATA
100
AcDbText
 10
236.3782321686522
 20
102.1502571750892
 30
0.0
 40
2.4
  1
MOTOR
 41
0.65
  7
ROMANS
100
AcDbText
  0
TEXT
  5
58A2
330
1B
100
AcDbEntity
 67
     1
  8
DATA
100
AcDbText
 10
191.9999999175752
 20
103.968660409642
 30
0.0
 40
2.4
  1
TYPE OF CONNECTION
 41
0.65
  7
ROMANS
100
AcDbText
  0
LWPOLYLINE
  5
58A3
330
1B
100
AcDbEntity
 67
     1
  8
DATA
100
AcDbPolyline
 90
        4
 70
     1
 43
0.0
 10
189.9999999175752
 20
99.48463138333602
 10
251.8262992651144
 20
99.48463076220958
 10
251.8262992651144
 20
107.6531444291646
 10
189.9999999175752
 20
107.6531444291646
  0
MLINE
  5
58A4
330
1B
100
AcDbEntity
 67
     1
  8
DATA
100
AcDbMline
  2
STANDARD
340
18
 40
0.3
 70
     0
 71
     1
 72
     2
 73
     2
 10
218.9648025763581
 20
107.6531444291646
 30
0.0
210
0.0
220
0.0
230
1.0
 11
218.9648025763581
 21
107.6531444291646
 31
0.0
 12
-1.135098967989524E-08
 22
-1.0
 32
0.0
 13
1.0
 23
-1.135098972660561E-08
 33
0.0
 74
     2
 41
0.0
 41
0.0
 75
     0
 74
     2
 41
-0.3
 41
0.0
 75
     0
 11
218.9648021304806
 21
68.37220050739495
 31
0.0
 12
-1.135098967989524E-08
 22
-1.0
 32
0.0
 13
1.0
 23
-1.135098972660561E-08
 33
0.0
 74
     2
 41
0.0
 41
0.0
 75
     0
 74
     2
 41
-0.3
 41
0.0
 75
     0
  0
TEXT
  5
58A5
330
1B
100
AcDbEntity
 67
     1
  8
DATA
100
AcDbText
 10
221.9547198212251
 20
94.34912243201939
 30
0.0
 40
2.4
  1
LEADS
 41
0.7
  7
ROMANS
100
AcDbText
  0
LINE
  5
58A6
330
1B
100
AcDbEntity
 67
     1
  8
DATA
100
AcDbLine
 10
189.9999999175752
 20
99.48463137847097
 30
0.0
 11
189.9999999175752
 21
68.37220061722513
 31
0.0
  0
LINE
  5
58A7
330
1B
100
AcDbEntity
 67
     1
  8
DATA
100
AcDbLine
 10
251.8262992651144
 20
91.67164438347493
 30
0.0
 11
189.9999999175752
 21
91.67164440466223
 31
0.0
  0
TEXT
  5
58A8
330
1B
100
AcDbEntity
 67
     1
  8
DATA
100
AcDbText
 10
237.7034915463405
 20
94.43058219039562
 30
0.0
 40
2.4
  1
WINDING
 41
0.7
  7
ROMANS
100
AcDbText
  0
LWPOLYLINE
  5
58A9
330
1B
100
AcDbEntity
 67
     1
  8
DATA
100
AcDbPolyline
 90
        4
 70
     1
 43
0.0
 10
234.9359717552757
 20
99.48463092739439
 10
251.8262992651144
 20
99.48463092739439
 10
251.8262992651144
 20
68.37220066411624
 10
234.9359717574035
 20
68.37220066411624
  0
LWPOLYLINE
  5
58AA
330
1B
100
AcDbEntity
 67
     1
  8
DATA
100
AcDbPolyline
 90
        2
 70
     0
 43
0.0
 10
215.7138217612454
 20
83.14187857768866
 10
211.6399443036929
 20
83.14187858315291
  0
MTEXT
  5
58AB
330
1B
100
AcDbEntity
 67
     1
  8
DATA
100
AcDbMText
 10
208.1447567905033
 20
75.02416432762164
 30
0.0
 40
2.4
 41
4.0
 71
     9
 72
     1
  1
B
  7
ROMANS
 73
     1
 44
1.0
1001
ACAD
1000
MTEXTBEGIN
1070
    73
1070
     1
1070
    44
1040
1.0
1070
    74
1070
     0
1000
MTEXTEND
  0
LWPOLYLINE
  5
58AC
330
1B
100
AcDbEntity
 67
     1
  8
DATA
100
AcDbPolyline
 90
        2
 70
     0
 43
0.0
 10
215.7138218041913
 20
71.40070753081284
 10
211.6399442683847
 20
71.4007075636531
  0
MTEXT
  5
58AD
330
1B
100
AcDbEntity
 67
     1
  8
DATA
100
AcDbMText
 10
210.0880405692518
 20
80.91911836896498
 30
0.0
 40
2.4
 41
4.0
 71
     9
 72
     1
  1
A\\
  7
ROMANS
 73
     1
 44
1.0
1001
ACAD
1000
MTEXTBEGIN
1070
    73
1070
     1
1070
    44
1040
1.0
1070
    74
1070
     0
1000
MTEXTEND
  0
MTEXT
  5
58AE
330
1B
100
AcDbEntity
 67
     1
  8
DATA
100
AcDbMText
 10
208.1222708296585
 20
87.84067649497684
 30
0.0
 40
2.4
 41
4.0
 71
     9
 72
     1
  1
\A1;A
  7
ROMANS
 73
     1
 44
1.0
1001
ACAD
1000
MTEXTBEGIN
1070
    73
1070
     1
1070
    44
1040
1.0
1070
    74
1070
     0
1000
MTEXTEND
  0
MTEXT
  5
58AF
330
1B
100
AcDbEntity
 67
     1
  8
DATA
100
AcDbMText
 10
210.113498374135
 20
69.6924250178721
 30
0.0
 40
2.4
 41
4.0
 71
     9
 72
     1
  1
B\\
  7
ROMANS
 73
     1
 44
1.0
1001
ACAD
1000
MTEXTBEGIN
1070
    73
1070
     1
1070
    44
1040
1.0
1070
    74
1070
     0
1000
MTEXTEND
  0
LINE
  5
58B0
330
1B
100
AcDbEntity
 67
     1
  8
DATA
100
AcDbLine
 10
246.6831145682347
 20
76.63083283262858
 30
0.0
 11
246.6831145682345
 21
78.2929192582983
 31
0.0
  0
LINE
  5
58B1
330
1B
100
AcDbEntity
 67
     1
  8
DATA
100
AcDbLine
 10
246.6831145682347
 20
72.15083283262856
 30
0.0
 11
246.6831145682345
 21
70.2929192582983
 31
0.0
  0
LINE
  5
58B2
330
1B
100
AcDbEntity
 67
     1
  8
DATA
100
AcDbLine
 10
246.6831145682345
 20
78.2929192582983
 30
0.0
 11
241.4133068366059
 21
78.2929192582983
 31
0.0
  0
LINE
  5
58B3
330
1B
100
AcDbEntity
 67
     1
  8
DATA
100
AcDbLine
 10
246.6831145682345
 20
70.2929192582983
 30
0.0
 11
241.4133068366059
 21
70.2929192582983
 31
0.0
  0
LINE
  5
58B4
330
1B
100
AcDbEntity
 67
     1
  8
DATA
100
AcDbLine
 10
246.6831145682347
 20
87.97839165027061
 30
0.0
 11
246.6831145682347
 21
89.67557829284396
 31
0.0
  0
LINE
  5
58B5
330
1B
100
AcDbEntity
 67
     1
  8
DATA
100
AcDbLine
 10
246.6831145682347
 20
89.67557829284396
 30
0.0
 11
241.4133068366059
 21
89.67557829284396
 31
0.0
  0
LINE
  5
58B6
102
{ACAD_REACTORS
330
58BA
102
}
330
1B
100
AcDbEntity
 67
     1
  8
DATA
100
AcDbLine
 10
247.6431145682346
 20
87.97839165027061
 30
0.0
 11
245.7231145682347
 21
87.97839165027061
 31
0.0
  0
LINE
  5
58B7
330
1B
100
AcDbEntity
 67
     1
  8
DATA
100
AcDbLine
 10
246.6831145682347
 20
83.49839165027061
 30
0.0
 11
246.6831145682347
 21
81.67557829284396
 31
0.0
  0
LINE
  5
58B8
330
1B
100
AcDbEntity
 67
     1
  8
DATA
100
AcDbLine
 10
246.6831145682347
 20
81.67557829284396
 30
0.0
 11
241.4133068366059
 21
81.67557829284396
 31
0.0
  0
LINE
  5
58B9
102
{ACAD_REACTORS
330
58BA
102
}
330
1B
100
AcDbEntity
 67
     1
  8
DATA
100
AcDbLine
 10
245.7231145682347
 20
83.49839165027061
 30
0.0
 11
247.6431145682346
 21
83.49839165027061
 31
0.0
  0
HATCH
  5
58BA
330
1B
100
AcDbEntity
 67
     1
  8
DATA
100
AcDbHatch
 10
0.0
 20
0.0
 30
0.0
210
0.0
220
0.0
230
1.0
  2
SOLID
 70
     1
 71
     1
 91
        1
 92
        1
 93
        4
 72
     1
 10
247.6431145682346
 20
87.97839165027061
 11
245.7231145682347
 21
87.97839165027061
 72
     1
 10
245.7231145682347
 20
87.97839165027061
 11
245.7231145682347
 21
83.49839165027061
 72
     1
 10
245.7231145682347
 20
83.49839165027061
 11
247.6431145682346
 21
83.49839165027061
 72
     1
 10
247.6431145682346
 20
83.49839165027061
 11
247.6431145682346
 21
87.97839165027061
 97
        4
330
58B6
330
58BC
330
58B9
330
58BB
 75
     0
 76
     1
 98
        1
 10
98.52311456823466
 20
-24.98160834972931
  0
LINE
  5
58BB
102
{ACAD_REACTORS
330
58BA
102
}
330
1B
100
AcDbEntity
 67
     1
  8
DATA
100
AcDbLine
 10
247.6431145682346
 20
83.49839165027061
 30
0.0
 11
247.6431145682346
 21
87.97839165027061
 31
0.0
  0
LINE
  5
58BC
102
{ACAD_REACTORS
330
58BA
102
}
330
1B
100
AcDbEntity
 67
     1
  8
DATA
100
AcDbLine
 10
245.7231145682347
 20
87.97839165027061
 30
0.0
 11
245.7231145682347
 21
83.49839165027061
 31
0.0
  0
TEXT
  5
58BD
330
1B
100
AcDbEntity
 67
     1
  8
DATA
100
AcDbText
 10
204.7942219697386
 20
94.35
 30
0.0
 40
2.4
  1
BIPOLAR
 41
0.65
  7
ROMANS
100
AcDbText
  0
LWPOLYLINE
  5
58BE
330
1B
100
AcDbEntity
 67
     1
  8
DATA
100
AcDbPolyline
 90
        4
 70
     1
 43
0.0
 10
218.9648024836374
 20
99.48463114595121
 10
234.9359717552757
 20
99.48463092739439
 10
234.9359717552757
 20
68.37220066411624
 10
218.9648024454086
 20
68.37220066540794
  0
TEXT
  5
58BF
330
1B
100
AcDbEntity
 67
     1
  8
DATA
100
AcDbText
 10
221.4751966971933
 20
81.65780521010209
 30
0.0
 40
2.4
  1
ORG
 41
0.7
  7
ROMANS
100
AcDbText
  0
LINE
  5
58C0
330
1B
100
AcDbEntity
 67
     1
  8
DATA
100
AcDbLine
 10
218.964802557175
 20
80.02192233476183
 30
0.0
 11
234.9359717552757
 21
80.02192233100926
 31
0.0
  0
LINE
  5
58C1
330
1B
100
AcDbEntity
 67
     1
  8
DATA
100
AcDbLine
 10
218.9648025653049
 20
85.84678336458097
 30
0.0
 11
234.9359717552757
 21
85.84678336015253
 31
0.0
  0
TEXT
  5
58C2
330
1B
100
AcDbEntity
 67
     1
  8
DATA
100
AcDbText
 10
221.4751966971933
 20
87.85864648287713
 30
0.0
 40
2.4
  1
BRN
 41
0.7
  7
ROMANS
100
AcDbText
  0
LINE
  5
58C3
330
1B
100
AcDbEntity
 67
     1
  8
DATA
100
AcDbLine
 10
218.9648025475263
 20
74.19706130555849
 30
0.0
 11
234.9359717552757
 21
74.19706130180592
 31
0.0
  0
TEXT
  5
58C4
330
1B
100
AcDbEntity
 67
     1
  8
DATA
100
AcDbText
 10
221.4751966971933
 20
70.11284775296463
 30
0.0
 40
2.4
  1
YEL
 41
0.7
  7
ROMANS
100
AcDbText
  0
TEXT
  5
58C5
330
1B
100
AcDbEntity
 67
     1
  8
DATA
100
AcDbText
 10
221.4751966971933
 20
76.08931891751399
 30
0.0
 40
2.4
  1
RED
 41
0.7
  7
ROMANS
100
AcDbText
  0
LINE
  5
58C6
330
1B
100
AcDbEntity
 67
     1
  8
DATA
100
AcDbLine
 10
233.5172646182348
 20
68.37220050022313
 30
0.0
 11
189.9999999175752
 21
68.37220050022313
 31
0.0
  0
TEXT
  5
5907
330
1B
100
AcDbEntity
 67
     1
  8
DATA
100
AcDbText
 10
73.72427182185913
 20
74.92159360026612
 30
0.0
 40
1.399999999999999
  1
-3
 41
0.7
  7
ROMANS
100
AcDbText
  0
TEXT
  5
5911
330
1B
100
AcDbEntity
 67
     1
  8
DATA
100
AcDbText
 10
88.70885918273723
 20
74.64900107907014
 30
0.0
 40
1.399999999999999
  1
-2
 41
0.7
  7
ROMANS
100
AcDbText
  0
TEXT
  5
59EB
330
1B
100
AcDbEntity
 67
     1
  8
DATA
100
AcDbText
 10
175.6829051118027
 20
7.348353290222588
 30
0.0
 40
3.0
  1
J.W.
  7
ITALICT
100
AcDbText
  0
LINE
  5
659C
330
1B
100
AcDbEntity
 67
     1
  8
DATA
100
AcDbLine
 10
199.7014219678645
 20
99.48463128587249
 30
0.0
 11
199.7014218893728
 21
68.37220050022313
 31
0.0
  0
TEXT
  5
65A6
330
1B
100
AcDbEntity
 67
     1
  8
DATA
100
AcDbText
 10
191.0
 20
94.35
 30
0.0
 40
2.4
  1
PIN NO
 41
0.65
  7
ROMANS
100
AcDbText
  0
TEXT
  5
65B6
330
1B
100
AcDbEntity
 67
     1
  8
DATA
100
AcDbText
 10
192.5103941407311
 20
81.65780521010209
 30
0.0
 40
2.4
  1
2
 41
0.7
  7
ROMANS
100
AcDbText
  0
LINE
  5
65B7
330
1B
100
AcDbEntity
 67
     1
  8
DATA
100
AcDbLine
 10
190.0000000007129
 20
80.02192233476183
 30
0.0
 11
218.964802557175
 21
80.02192233476183
 31
0.0
  0
LINE
  5
65B8
330
1B
100
AcDbEntity
 67
     1
  8
DATA
100
AcDbLine
 10
190.0000000088427
 20
85.84678336458097
 30
0.0
 11
218.9648025653049
 21
85.84678336458097
 31
0.0
  0
TEXT
  5
65B9
330
1B
100
AcDbEntity
 67
     1
  8
DATA
100
AcDbText
 10
192.5103941407311
 20
87.85864648287713
 30
0.0
 40
2.4
  1
1
 41
0.7
  7
ROMANS
100
AcDbText
  0
LINE
  5
65BA
330
1B
100
AcDbEntity
 67
     1
  8
DATA
100
AcDbLine
 10
189.9999999910641
 20
74.19706130555849
 30
0.0
 11
218.9648025475263
 21
74.19706130555849
 31
0.0
  0
TEXT
  5
65BB
330
1B
100
AcDbEntity
 67
     1
  8
DATA
100
AcDbText
 10
192.5103941407311
 20
70.11284775296463
 30
0.0
 40
2.4
  1
4
 41
0.7
  7
ROMANS
100
AcDbText
  0
TEXT
  5
65BC
330
1B
100
AcDbEntity
 67
     1
  8
DATA
100
AcDbText
 10
192.5103941407311
 20
76.08931891751399
 30
0.0
 40
2.4
  1
3
 41
0.7
  7
ROMANS
100
AcDbText
  0
TEXT
  5
6973
330
1B
100
AcDbEntity
 67
     1
  8
DATA
100
AcDbText
 10
65.0
 20
73.0
 30
0.0
 40
2.4
  1
6.0x10  [5.31X10  ]
 41
0.7
  7
ROMANS
100
AcDbText
  0
TEXT
  5
69D0
330
1B
100
AcDbEntity
 67
     1
  8
DATA
100
AcDbText
 10
164.5
 20
43.0
 30
0.0
 40
2.4
  1
20
 41
0.7
  7
ROMANS
100
AcDbText
  0
TEXT
  5
69D1
330
1B
100
AcDbEntity
 67
     1
  8
DATA
100
AcDbText
 10
164.5
 20
38.0
 30
0.0
 40
2.4
  1
20
 41
0.7
  7
ROMANS
100
AcDbText
  0
TEXT
  5
69D2
330
1B
100
AcDbEntity
 67
     1
  8
DATA
100
AcDbText
 10
157.0
 20
38.0
 30
0.0
 40
2.4
  1
26
 41
0.7
  7
ROMANS
100
AcDbText
  0
TEXT
  5
69D3
330
1B
100
AcDbEntity
 67
     1
  8
DATA
100
AcDbText
 10
157.0
 20
43.0
 30
0.0
 40
2.4
  1
15
 41
0.7
  7
ROMANS
100
AcDbText
  0
TEXT
  5
69D4
330
1B
100
AcDbEntity
 67
     1
  8
DATA
100
AcDbText
 10
149.5
 20
43.0
 30
0.0
 40
2.4
  1
10
 41
0.7
  7
ROMANS
100
AcDbText
  0
TEXT
  5
69D5
330
1B
100
AcDbEntity
 67
     1
  8
DATA
100
AcDbText
 10
149.5
 20
38.0
 30
0.0
 40
2.4
  1
36
 41
0.7
  7
ROMANS
100
AcDbText
  0
TEXT
  5
69D6
330
1B
100
AcDbEntity
 67
     1
  8
DATA
100
AcDbText
 10
143.3283491883756
 20
43.0
 30
0.0
 40
2.4
  1
5
 41
0.7
  7
ROMANS
100
AcDbText
  0
TEXT
  5
69D7
330
1B
100
AcDbEntity
 67
     1
  8
DATA
100
AcDbText
 10
142.0
 20
38.0
 30
0.0
 40
2.4
  1
58
 41
0.7
  7
ROMANS
100
AcDbText
  0
LINE
  5
69D8
330
1B
100
AcDbEntity
 67
     1
  8
SPEC
100
AcDbLine
 10
147.5009154015513
 20
46.65598901220142
 30
0.0
 11
147.5009154015513
 21
36.65598901220142
 31
0.0
  0
LINE
  5
69D9
330
1B
100
AcDbEntity
 67
     1
  8
SPEC
100
AcDbLine
 10
155.0009154015513
 20
46.65598901220142
 30
0.0
 11
155.0009154015513
 21
36.65598901220142
 31
0.0
  0
LINE
  5
69DA
330
1B
100
AcDbEntity
 67
     1
  8
SPEC
100
AcDbLine
 10
162.5009154015513
 20
46.65598901220142
 30
0.0
 11
162.5009154015513
 21
36.65598901220142
 31
0.0
  0
MTEXT
  5
69DB
330
1B
100
AcDbEntity
 67
     1
  8
DATA
100
AcDbMText
 10
148.4983559025127
 20
50.13711884239956
 30
0.0
 40
2.399999999999999
 41
110.0
 71
     1
 72
     5
  1
{\W0.7;F\H0.8333x;a\H1.2x;=7}
  7
ROMANS
 73
     1
 44
1.0
1001
ACAD
1000
ACAD_MTEXT_DEFINED_HEIGHT_BEGIN
1070
    46
1040
0.0
1000
ACAD_MTEXT_DEFINED_HEIGHT_END
1000
MTEXTBEGIN
1070
    73
1070
     1
1070
    44
1040
1.0
1070
    74
1070
     0
1000
MTEXTEND
  0
TEXT
  5
6B95
330
1B
100
AcDbEntity
 67
     1
  8
DATA
100
AcDbText
 10
189.4634543457442
 20
17.05999183728654
 30
0.0
 40
2.509907399999999
  1
26.02.07
 41
0.7
  7
ROMANS
100
AcDbText
  0
TEXT
  5
6B96
330
1B
100
AcDbEntity
 67
     1
  8
DATA
100
AcDbText
 10
175.6829051118027
 20
16.86719000998262
 30
0.0
 40
3.0
  1
S.Ha.
  7
ITALICT
100
AcDbText
  0
ENDSEC
  0
SECTION
  2
OBJECTS
  0
DICTIONARY
  5
C
330
0
100
AcDbDictionary
281
     1
  3
ACAD_COLOR
350
BE
  3
ACAD_GROUP
350
D
  3
ACAD_LAYOUT
350
1A
  3
ACAD_MATERIAL
350
BD
  3
ACAD_MLINESTYLE
350
17
  3
ACAD_PLOTSETTINGS
350
19
  3
ACAD_PLOTSTYLENAME
350
E
  3
ACAD_TABLESTYLE
350
11A
  3
AcadDim
350
2E5B
  3
ACDBHEADERROUNDTRIPXREC
350
6BE4
  3
AcDbVariableDictionary
350
94
  3
AcmDictionary
350
5B
  3
AMG
350
41
  3
AMGSNAPSETTINGS
350
26B
  3
DWGPROPS
350
6BE3
  0
DICTIONARY
  5
2F5
330
2
100
AcDbDictionary
280
     1
281
     1
  3
ACAD_LAYERSTATES
360
2F6
  3
AMLAYER_GROUPCOLORS
360
554A
  0
DICTIONARY
  5
8F
330
1F
100
AcDbDictionary
280
     1
281
     1
  3
ACAD_SORTENTS
360
53A3
  0
DICTIONARY
  5
2D9F
330
1B
100
AcDbDictionary
280
     1
281
     1
  3
ACAD_SORTENTS
360
2DA0
  0
DICTIONARY
  5
128A
330
125D
100
AcDbDictionary
280
     1
281
     1
  0
DICTIONARY
  5
2CC2
330
2CC0
100
AcDbDictionary
280
     1
281
     1
  0
DICTIONARY
  5
66F7
330
66EA
100
AcDbDictionary
280
     1
281
     1
  3
ACAD_DIMASSOC
360
66F8
  0
DICTIONARY
  5
6723
330
6714
100
AcDbDictionary
280
     1
281
     1
  3
ACAD_DIMASSOC
360
6724
  0
DICTIONARY
  5
6BE8
330
2D8
100
AcDbDictionary
280
     1
281
     1
  3
ACAD_XREC_ROUNDTRIP
360
6BE9
  0
DICTIONARY
  5
6BEA
330
1E55
100
AcDbDictionary
280
     1
281
     1
  3
ACAD_XREC_ROUNDTRIP
360
6BEB
  0
DICTIONARY
  5
BE
102
{ACAD_REACTORS
330
C
102
}
330
C
100
AcDbDictionary
281
     1
  0
DICTIONARY
  5
D
102
{ACAD_REACTORS
330
C
102
}
330
C
100
AcDbDictionary
281
     1
  0
DICTIONARY
  5
1A
102
{ACAD_REACTORS
330
C
102
}
330
C
100
AcDbDictionary
281
     1
  3
Layout1
350
1E
  3
Model
350
22
  0
DICTIONARY
  5
BD
102
{ACAD_REACTORS
330
C
102
}
330
C
100
AcDbDictionary
281
     1
  0
DICTIONARY
  5
17
102
{ACAD_REACTORS
330
C
102
}
330
C
100
AcDbDictionary
281
     1
  3
Standard
350
18
  0
DICTIONARY
  5
19
102
{ACAD_REACTORS
330
C
102
}
330
C
100
AcDbDictionary
281
     1
  0
ACDBDICTIONARYWDFLT
  5
E
102
{ACAD_REACTORS
330
C
102
}
330
C
100
AcDbDictionary
281
     1
  3
Normal
350
F
100
AcDbDictionaryWithDefault
340
F
  0
DICTIONARY
  5
11A
102
{ACAD_REACTORS
330
C
102
}
330
C
100
AcDbDictionary
281
     1
  3
Standard
350
11B
  0
XRECORD
  5
2E5B
102
{ACAD_REACTORS
330
C
102
}
330
C
100
AcDbXrecord
280
     1
 90
   990106
  3

 60
     0
 61
     0
 62
     1
 63
     3
 64
     0
 65
     0
 66
     0
 67
     3
 68
     1
 69
     0
 70
     0
 71
     0
 72
     0
 40
0.0
170
     0
340
2E0B
  0
DICTIONARY
  5
6BE4
102
{ACAD_REACTORS
330
C
102
}
330
C
100
AcDbDictionary
281
     1
  0
DICTIONARY
  5
94
102
{ACAD_REACTORS
330
C
102
}
330
C
100
AcDbDictionary
281
     1
  3
CTABLESTYLE
350
138
  3
DIMASSOC
350
96
  3
INDEXCTL
350
95
  3
PROJECTNAME
350
1B03
  0
DICTIONARY
  5
5B
102
{ACAD_REACTORS
330
C
102
}
330
C
100
AcDbDictionary
281
     1
  3
AcmBOM
350
272
  3
AcmStdDictionary
350
61
  3
AMDTSECTSYM_ARROWCOLOR
350
123
  0
DICTIONARY
  5
41
102
{ACAD_REACTORS
330
C
102
}
330
C
100
AcDbDictionary
281
     1
  0
DICTIONARY
  5
26B
102
{ACAD_REACTORS
330
C
102
}
330
C
100
AcDbDictionary
281
     1
  0
XRECORD
  5
6BE3
102
{ACAD_REACTORS
330
C
102
}
330
C
100
AcDbXrecord
280
     1
  1
DWGPROPS COOKIE
  2

  3

  4

  6

  7

  8

  9

300
AmdtFileType=84
301
=
302
=
303
=
304
=
305
=
306
=
307
=
308
=
309
=
 40
1.532780671296296
 41
2453787.394483275
 42
2454162.452818472
  1

 90
        1
  0
DICTIONARY
  5
2F6
102
{ACAD_REACTORS
330
2F5
102
}
330
2F5
100
AcDbDictionary
281
     1
  0
DICTIONARY
  5
554A
102
{ACAD_REACTORS
330
2F5
102
}
330
2F5
100
AcDbDictionary
280
     1
281
     1
  0
SORTENTSTABLE
  5
53A3
102
{ACAD_REACTORS
330
8F
102
}
330
8F
100
AcDbSortentsTable
330
1F
331
13FA
  5
13FA
  0
SORTENTSTABLE
  5
2DA0
102
{ACAD_REACTORS
330
2D9F
102
}
330
2D9F
100
AcDbSortentsTable
330
1B
331
2D8
  5
2D8
331
1296
  5
1296
331
19C4
  5
19C4
331
194D
  5
194D
331
129E
  5
129E
331
1955
  5
1955
331
12A6
  5
12A6
331
1A6A
  5
1A6A
331
19FB
  5
19FB
331
1A03
  5
1A03
331
1A0B
  5
1A0B
331
195D
  5
195D
331
12AE
  5
12AE
331
19DC
  5
19DC
331
1965
  5
1965
331
12B6
  5
12B6
331
19E4
  5
19E4
331
196D
  5
196D
331
19EC
  5
19EC
331
1975
  5
1975
331
1A13
  5
1A13
331
2D71
  5
2D71
331
1A1B
  5
1A1B
331
2D99
  5
2D9A
331
2DA1
  5
2DA2
331
19BD
  5
19BD
331
1297
  5
1297
331
19C5
  5
19C5
331
194E
  5
194E
331
129F
  5
129F
331
1956
  5
1956
331
12A7
  5
12A7
331
19F4
  5
19F4
331
1A04
  5
1A04
331
1A0C
  5
1A0C
331
19DD
  5
19DD
331
12AF
  5
12AF
331
195E
  5
195E
331
12B7
  5
12B7
331
1966
  5
1966
331
19ED
  5
19ED
331
196E
  5
196E
331
1976
  5
1976
331
2D72
  5
2D72
331
1A1C
  5
1A1C
331
2D9A
  5
2DA1
331
2DA2
  5
2D9E
331
1290
  5
1290
331
19C6
  5
19C6
331
194F
  5
194F
331
12A0
  5
12A0
331
1957
  5
1957
331
19F5
  5
19F5
331
19FD
  5
19FD
331
2CCB
  5
2CCB
331
1A05
  5
1A05
331
2CEB
  5
2CEB
331
1A0D
  5
1A0D
331
12A8
  5
12A8
331
195F
  5
195F
331
12B0
  5
12B0
331
19DE
  5
19DE
331
1967
  5
1967
331
12B8
  5
12B8
331
196F
  5
196F
331
1A15
  5
1A15
331
1A1D
  5
1A1D
331
1708
  5
1708
331
1291
  5
1291
331
19BF
  5
19BF
331
1948
  5
1948
331
1299
  5
1299
331
19C7
  5
19C7
331
1950
  5
1950
331
1A06
  5
1A06
331
1E55
  5
1E55
331
1A0E
  5
1A0E
331
1958
  5
1958
331
12A9
  5
12A9
331
1960
  5
1960
331
12B1
  5
12B1
331
19DF
  5
19DF
331
1968
  5
1968
331
1970
  5
1970
331
19EF
  5
19EF
331
1A16
  5
1A16
331
1A1E
  5
1A1E
331
2D94
  5
2D94
331
19C0
  5
19C0
331
1949
  5
1949
331
129A
  5
129A
331
19C8
  5
19C8
331
1951
  5
1951
331
12A2
  5
12A2
331
19F7
  5
19F7
331
19FF
  5
19FF
331
1A07
  5
1A07
331
1A0F
  5
1A0F
331
2D6D
  5
2D6D
331
1959
  5
1959
331
12AA
  5
12AA
331
1961
  5
1961
331
12B2
  5
12B2
331
19E0
  5
19E0
331
1969
  5
1969
331
12BA
  5
12BA
331
1971
  5
1971
331
1A17
  5
1A17
331
1A1F
  5
1A1F
331
2D95
  5
2D95
331
19C1
  5
19C1
331
194A
  5
194A
331
129B
  5
129B
331
19C9
  5
19C9
331
1952
  5
1952
331
12A3
  5
12A3
331
19D1
  5
19D1
331
19F0
  5
19F0
331
1A00
  5
1A00
331
1A08
  5
1A08
331
195A
  5
195A
331
12AB
  5
12AB
331
1962
  5
1962
331
12B3
  5
12B3
331
19E1
  5
19E1
331
196A
  5
196A
331
19E9
  5
19E9
331
1972
  5
1972
331
1A10
  5
1A10
331
1A18
  5
1A18
331
2D96
  5
2D96
331
2CB7
  5
2CB7
331
2D9E
  5
2D99
331
2CBF
  5
2CBF
331
1294
  5
1294
331
19C2
  5
19C2
331
194B
  5
194B
331
1953
  5
1953
331
12A4
  5
12A4
331
19F1
  5
19F1
331
19F9
  5
19F9
331
1A01
  5
1A01
331
1A09
  5
1A09
331
195B
  5
195B
331
12AC
  5
12AC
331
1963
  5
1963
331
12B4
  5
12B4
331
196B
  5
196B
331
19EA
  5
19EA
331
1973
  5
1973
331
1A11
  5
1A11
331
1A19
  5
1A19
331
2D97
  5
2D97
331
19BB
  5
19BB
331
194C
  5
194C
331
129D
  5
129D
331
1954
  5
1954
331
12A5
  5
12A5
331
19F2
  5
19F2
331
19FA
  5
19FA
331
1A02
  5
1A02
331
1A0A
  5
1A0A
331
195C
  5
195C
331
12AD
  5
12AD
331
1964
  5
1964
331
12B5
  5
12B5
331
196C
  5
196C
331
19EB
  5
19EB
331
1974
  5
1974
331
2D70
  5
2D70
331
1A1A
  5
1A1A
331
2D98
  5
2D98
  0
DIMASSOC
  5
66F8
102
{ACAD_REACTORS
330
66F7
102
}
330
66F7
100
AcDbDimAssoc
330
66EA
 90
        3
 70
     0
 71
     0
  1
AcDbOsnapPointRef
 72
    13
331
5D0D
 73
     0
 91
        0
 40
0.0
 10
0.0
 20
0.0
 30
2.000000000000000E+50
 75
     0
  1
AcDbOsnapPointRef
 72
     1
331
66AF
 73
     0
 91
        0
 40
0.0
 10
0.0
 20
0.0
 30
2.000000000000000E+50
 75
     0
  0
DIMASSOC
  5
6724
102
{ACAD_REACTORS
330
6723
102
}
330
6723
100
AcDbDimAssoc
330
6714
 90
        3
 70
     0
 71
     0
  1
AcDbOsnapPointRef
 72
     1
331
66B0
 73
     0
 91
        0
 40
0.0
 10
0.0
 20
0.0
 30
2.000000000000000E+50
 75
     0
  1
AcDbOsnapPointRef
 72
     1
331
66AF
 73
     0
 91
        0
 40
0.0
 10
0.0
 20
0.0
 30
2.000000000000000E+50
 75
     0
  0
XRECORD
  5
6BE9
102
{ACAD_REACTORS
330
6BE8
102
}
330
6BE8
100
AcDbXrecord
280
     1
102
SHADEPLOT
 70
     0
  0
XRECORD
  5
6BEB
102
{ACAD_REACTORS
330
6BEA
102
}
330
6BEA
100
AcDbXrecord
280
     1
102
SHADEPLOT
 70
     0
  0
LAYOUT
  5
1E
102
{ACAD_XDICTIONARY
360
2F8
102
}
102
{ACAD_REACTORS
330
1A
102
}
330
1A
100
AcDbPlotSettings
  1

  2
Win2PDF.pc3
  4
A4
  6

 40
3.174999952316284
 41
3.174999952316284
 42
3.17498779296875
 43
3.175003051757812
 44
296.989501953125
 45
209.9944915771484
 46
4.278097255413115
 47
3.757690070339151
 48
0.0
 49
0.0
140
0.0
141
0.0
142
1.0
143
1.0
 70
   692
 72
     1
 73
     0
 74
     1
  7
monochrome.ctb
 75
    16
147
1.0
148
0.0204364108213895
149
0.014316939950902
100
AcDbLayout
  1
Layout1
 70
     1
 71
     1
 10
-7.473533618550789
 20
-6.947006962606337
 11
289.5159683345742
 21
203.0474846145421
 12
0.0
 22
0.0
 32
0.0
 14
-0.0052910479707862
 24
-0.0001672056502002
 34
-0.0015258207003583
 15
282.0477271469593
 25
196.116667143724
 35
0.0000000349246037
146
0.0
 13
0.0
 23
0.0
 33
0.0
 16
1.0
 26
0.0
 36
0.0
 17
0.0
 27
1.0
 37
0.0
 76
     0
330
1B
331
2D8
1001
ACAD_PSEXT
1000
Win2PDF.pc3
1000
Win2PDF
1000
PDFFILE:
1000

1070
     0
  0
LAYOUT
  5
22
102
{ACAD_XDICTIONARY
360
6BE6
102
}
102
{ACAD_REACTORS
330
1A
102
}
330
1A
100
AcDbPlotSettings
  1

  2
Win2PDF.pc3
  4
A4
  6

 40
3.174999952316284
 41
3.174999952316284
 42
3.17498779296875
 43
3.175003051757812
 44
296.989501953125
 45
209.9944915771484
 46
1.328704577503771
 47
0.0
 48
0.0
 49
0.0
140
0.0
141
0.0
142
1.0
143
1.458423952845778
 70
 11956
 72
     1
 73
     0
 74
     2
  7
monochrome.ctb
 75
     0
147
0.68567167869722
148
0.0
149
0.0
100
AcDbLayout
  1
Model
 70
     1
 71
     0
 10
0.0
 20
0.0
 11
12.0
 21
9.0
 12
0.0
 22
0.0
 32
0.0
 14
0.0
 24
0.0
 34
0.0
 15
0.0
 25
0.0
 35
0.0
146
0.0
 13
0.0
 23
0.0
 33
0.0
 16
1.0
 26
0.0
 36
0.0
 17
0.0
 27
1.0
 37
0.0
 76
     0
330
1F
1001
ACAD_PSEXT
1000
Win2PDF.pc3
1000
Win2PDF
1000
PDFFILE:
1000

1070
     0
  0
MLINESTYLE
  5
18
102
{ACAD_REACTORS
330
17
102
}
330
17
100
AcDbMlineStyle
  2
STANDARD
 70
     0
  3

 62
   256
 51
90.0
 52
90.0
 71
     2
 49
0.5
 62
   256
  6
BYLAYER
 49
-0.5
 62
   256
  6
BYLAYER
  0
ACDBPLACEHOLDER
  5
F
102
{ACAD_REACTORS
330
E
102
}
330
E
  0
TABLESTYLE
  5
11B
102
{ACAD_REACTORS
330
11A
102
}
330
11A
100
AcDbTableStyle
  3
Standard
 70
     0
 71
     0
 40
1.5
 41
1.5
280
     0
281
     0
  7
STANDARD
140
4.5
170
     2
 62
     0
 63
     7
283
     0
274
    -2
284
     1
 64
     0
275
    -2
285
     1
 65
     0
276
    -2
286
     1
 66
     0
277
    -2
287
     1
 67
     0
278
    -2
288
     1
 68
     0
279
    -2
289
     1
 69
     0
  7
STANDARD
140
6.0
170
     5
 62
     0
 63
     7
283
     0
274
    -2
284
     1
 64
     0
275
    -2
285
     1
 65
     0
276
    -2
286
     1
 66
     0
277
    -2
287
     1
 67
     0
278
    -2
288
     1
 68
     0
279
    -2
289
     1
 69
     0
  7
STANDARD
140
4.5
170
     5
 62
     0
 63
     7
283
     0
274
    -2
284
     1
 64
     0
275
    -2
285
     1
 65
     0
276
    -2
286
     1
 66
     0
277
    -2
287
     1
 67
     0
278
    -2
288
     1
 68
     0
279
    -2
289
     1
 69
     0
  0
DICTIONARYVAR
  5
138
102
{ACAD_REACTORS
330
94
102
}
330
94
100
DictionaryVariables
280
     0
  1
STANDARD
  0
DICTIONARYVAR
  5
96
102
{ACAD_REACTORS
330
94
102
}
330
94
100
DictionaryVariables
280
     0
  1
2
  0
DICTIONARYVAR
  5
95
102
{ACAD_REACTORS
330
94
102
}
330
94
100
DictionaryVariables
280
     0
  1
0
  0
DICTIONARYVAR
  5
1B03
102
{ACAD_REACTORS
330
94
102
}
330
94
100
DictionaryVariables
280
     0
  1

  0
DICTIONARY
  5
272
102
{ACAD_REACTORS
330
5B
102
}
330
5B
100
AcDbDictionary
281
     1
  0
DICTIONARY
  5
61
102
{ACAD_REACTORS
330
5B
102
}
330
5B
100
AcDbDictionary
281
     1
  0
XRECORD
  5
123
102
{ACAD_REACTORS
330
5B
102
}
330
5B
100
AcDbXrecord
280
     1
 90
-1023410169
  0
DICTIONARY
  5
2F8
330
1E
100
AcDbDictionary
280
     1
281
     1
  3
ACAD_XREC_ROUNDTRIP
360
6BE5
  3
ADSK_XREC_LAYOUTTHUMBNAIL
360
2F9
  0
DICTIONARY
  5
6BE6
330
22
100
AcDbDictionary
280
     1
281
     1
  3
ACAD_XREC_ROUNDTRIP
360
6BE7
  0
XRECORD
  5
6BE5
102
{ACAD_REACTORS
330
2F8
102
}
330
2F8
100
AcDbXrecord
280
     1
102
SHADEPLOT
 70
     0
102
SHADEPLOTRESLEVEL
 70
     2
102
SHADEPLOTCUSTOMDPI
 70
   300
  0
XRECORD
  5
2F9
102
{ACAD_REACTORS
330
2F8
102
}
330
2F8
100
AcDbXrecord
280
     1
310
28000000B40000007F00000001000800000000004C590000000000000000000000010000000000000000000000000000FFFFFF000000000000000000000000000000000000000000000000000000000000000000330000006600000099000000CC000000FF00000000330000333300006633000099330000CC330000FF3300
310
0000660000336600006666000099660000CC660000FF66000000990000339900006699000099990000CC990000FF99000000CC000033CC000066CC000099CC0000CCCC0000FFCC000000FF000033FF000066FF000099FF0000CCFF0000FFFF000000003300330033006600330099003300CC003300FF003300003333003333
310
33006633330099333300CC333300FF33330000663300336633006666330099663300CC663300FF66330000993300339933006699330099993300CC993300FF99330000CC330033CC330066CC330099CC3300CCCC3300FFCC330000FF330033FF330066FF330099FF3300CCFF3300FFFF330000006600330066006600660099
310
006600CC006600FF00660000336600333366006633660099336600CC336600FF33660000666600336666006666660099666600CC666600FF66660000996600339966006699660099996600CC996600FF99660000CC660033CC660066CC660099CC6600CCCC6600FFCC660000FF660033FF660066FF660099FF6600CCFF6600
310
FFFF660000009900330099006600990099009900CC009900FF00990000339900333399006633990099339900CC339900FF33990000669900336699006666990099669900CC669900FF66990000999900339999006699990099999900CC999900FF99990000CC990033CC990066CC990099CC9900CCCC9900FFCC990000FF99
310
0033FF990066FF990099FF9900CCFF9900FFFF99000000CC003300CC006600CC009900CC00CC00CC00FF00CC000033CC003333CC006633CC009933CC00CC33CC00FF33CC000066CC003366CC006666CC009966CC00CC66CC00FF66CC000099CC003399CC006699CC009999CC00CC99CC00FF99CC0000CCCC0033CCCC0066CC
310
CC0099CCCC00CCCCCC00FFCCCC0000FFCC0033FFCC0066FFCC0099FFCC00CCFFCC00FFFFCC000000FF003300FF006600FF009900FF00CC00FF00FF00FF000033FF003333FF006633FF009933FF00CC33FF00FF33FF000066FF003366FF006666FF009966FF00CC66FF00FF66FF000099FF003399FF006699FF009999FF00CC
310
99FF00FF99FF0000CCFF0033CCFF0066CCFF0099CCFF00CCCCFF00FFCCFF0000FFFF0033FFFF0066FFFF0099FFFF00CCFFFF00FFFFFF00000000000D0D0D001A1A1A00282828003535350043434300505050005D5D5D006B6B6B00787878008686860093939300A1A1A100AEAEAE00BBBBBB00C9C9C900D6D6D600E4E4E400
310
F1F1F100FFFFFF0000000000000000000000000000000000000000000000000000000000000000000000000000000000EFEFF5F5F5F5F5F5F5F5F5F5F5F5F5F5F5F5F5F5F5F5F5F5F5F5F5F5F5F5F5F5F5F5F5F5F5F5F5F5F5F5F5F5F5F5F5F5F5F5F5F5F5F5F5F5F5F5F5F5F5F5F5F5F5F5F5F5F5F5F5F5F5F5F5F5F5F5F5
310
F5F5F5F5F5F5F5F5F5F5F5F5F5F5F5F5F5F5F5F5F5F5F5F5F5F5F5F5F5F5F5F5F5F5F5F5F5F5F5F5F5F5F5F5F5F5F5F5F5F5F5F5F5F5F5F5F5F5F5F5F5F5F5F5F5F5F5F5F5F5F5F5F5F5F5F5F5F5F5F5F5F5F5F5F5F5F5F5F5F5F5F5F5F5F5F5F5F5F5F5F5F5F5F5F5F5F5F5F5F5F5F5F5F5F5F5F5F5F5F5F5F5F5F5F5F5F5
310
F5F5F5F5F5F5F5F5F5F5F5F5F5F5F5F5F5F5F5F5F5F5F5F5F5F5F5F5F5F5F5F5F5F5F5F5F5F5F5F5F5F5F5F5F5F5F5F5F5F5F5F5F5F5F5F5F5F5F5F5F5F5F5F5F5F5F5F5F5F5F5F5F5F5F5F5F5F5F5F5F5F5F5F5F5F5F5F5F5F5F5F5F5F5F5F5F5F5F5F5F5F5F5F5F5F5F5F5F5F5F5F5F5F5F5F5F5F5F5F5F5F5F5F5F5F5F5
310
F5F5F5F5F5F5F5F5F5F5F5F5F5F5F5F5F5F5F5F5F5F5F5F5F5F5F5F5E2E2E2E2E2E2E2E2E2E2E2E2E2E2E2E2E2E2E2E2E2E2E2E2E2E2E2E2E2E2E2E2E2E2E2E2E2E2E2E2E2E2E2E2E2E2E2E2E2E2E2E2E2E2E2E2E2E2E2E2E2E2E2E2E2E2E2E2E2E2E2E2E2E2E2E2E2E2E2E2E2E2E2E2E2E2E2E2E2E2E2E2E2E2E2E2E2E2E2
310
E2E2E2E2E2E2E2E2E2E2E2E2E2E2E2E2E2E2E2E2E2E2E2E2E2E2E2E2E2E2E2E2E2E2E2E2E2E2E2E2E2E2E2E2E2E2E2E2E2E2E2E2E2E2E2E2E2E2E2E2E2E2E2E2E2E2E2E2E2E2E2E2E2E2E2E2E2E2F5F5F5E2F5F5F5F5F5F5F5F5E2E2E2E2E2E2E2E2E2F5F5F5F5F5F5F5F5F5F5F5F5F5F5F5F5E2E2E2E2E2E2E2E2E2F5F5F5
310
F5F5F5F5F5F5F5F5F5F5F5F5F5E2E2E2E2E2E2E2E2E2F5F5F5F5F5F5F5F5F5F5F5F5F5F5F5F5E2E2E2E2E2E2E2E2E2F5F5F5F5F5F5F5F5F5F5F5F5F5F5F5F5E2E2E2E2E2E2E2E2E2F5F5F5F5F5F5F5F5F5F5F5F5F5F5F5F5E2E2E2E2E2E2E2E2E2F5F5F5F5F5F5F5F5F5F5F5F5F5F5F5F5E2E2E2E2E2E2E2E2E2F5F5F5F5F5
310
F5F5F5E2F5F5F5E2F5E2E2E2E2E2E2E2E2E2E2E2E2E2E2E2E2E2E2E2E2E2E2E2E2E2E2E2E2E2E2E2E2E2E2E2E2E2E2E2E2E2E2E2E2E2E2E2E2E2E2E2E2E2E2E2E2E2E2E2E2E2E2E2E2E2E2E2E2E2E2E2E2E2E2E2E2E2E2E2E2E2E2E2E2E2E2E2E2E2E2E2E2E2E2E2E2E2E2E2E2E2E2E2E2E2E2E2E2E2E2E2E2E2E2E2E2E2E2
310
E2E2E2E2E2E2E2E2E2E2E2E2E2E2E2E2E2E2E2E2E2E2E2E2E2E2E2E2E2E2E2E2E2E2E2E2E2E2E2E2E2E2E2E2E2E2E2E2E2E2E2E2E2E2E2F5E2F5F5F5E2F5E2E2BEBEBEBEBEBEBEBEBEBEBEBEBEBEBEBEBEBEBEBEBEBEBEBEBEBEBEBEBEBEBEBEBEBEBEBEBEBEBEBEBEBEBEBEBEBEBEBEBEBEBEBEBEBEBEBEBEBEBEBEBEBEBE
310
BEBEBEBEBEBEBEBEBEBEBEBEBEBEBEBEBEBEBEBEBEBEBEBEBEBEBEBEBEBEBEBEBEBEBEBEBEBEBEBEBEBEBEBEBEBEBEBEBEBEBEBEBEBEBEBEBEBEBEBEBEBEBEBEBEBEBEBEBEBEBEBEBEBEBEBEBEBEBEBEBEBEBEBEBEBEBEBEBEBEBEBEBEBEBEBEBEBEBEBEBEBEBEBEBEBEE2E2F5E2F5F5F5E2F5E2E2BEE2C3C3C3E2C3E2C3C3
310
C3C3C3C3C3C3C3C3C3C3E2E2E2E2E2E2E2E2E2E2C3E2C3C3C3C3C3E2E2E2E2E2E2C3C3C3C3C3C3E2E2C3E2E2E2E2E2E2E2E2E2E2E2E2E2E2E2E2E2E2E2E2E2E2E2E2E2E2E2E2E2E2E2E2C3C3C3C3C3C3E2E2C3C3C3C3C3E2E2C3C3C3C3C3C3C3C3C3C3C3E2E2E2C3E2E2C3C3C3C3C3E2E2C3E2E2E2E2E2E2E2E2E2C3C3C3E2
310
C3C3E2C3C3C3C3C3E2C3C3C3C3E2E2E2E2E2E2E2E2E2E2E2E2E2E2E2E2E2E2BEE2E2F5E2F5F5F5E2F5E2E2BEE2C3C3C3C3C3E2C3C3C3C3C3C3C3C3C3C3C3C3E2E2E2E2E2E2E2E2E2E2C3E2C3C3C3C3C3E2E2E2E2E2E2C3C3C3C3C3C3E2E2C3E2E2E2E2E2E2E2E2E2E2E2E2E2E2E2E2E2E2E2E2E2E2E2E2E2E2E2E2E2E2E2E2
310
C3C3C3C3C3C3E2E2C3C3C3C3C3E2E2C3C3C3C3C3C3C3C3C3C3E2E2E2E2C3E2E2C3C3C3C3E2E2E2C3E2E2E2E2E2E2E2E2E2C3C3C3C3C3C3E2C3C3C3C3C3C3C3C3C3C3E2E2E2E2E2E2E2E2E2E2E2E2E2E2E2E2E2E2BEE2E2F5E2F5F5F5E2F5E2E2BEE2C3C3C3C3C3E2C3C3C3C3C3C3C3C3C3C3C3C3E2E2E2E2E2E2E2E2E2E2C3
310
E2C3C3C3C3C3E2E2E2E2E2E2C3C3C3C3C3C3E2E2C3E2E2E2E2E2E2E2E2E2E2E2E2E2E2E2E2E2E2E2E2E2E2E2E2E2E2E2E2E2E2E2E2C3C3C3C3E2E2E2E2C3C3C3C3C3E2E2C3C3C3C3C3C3C3C3C3C3C3E2E2E2C3E2E2C3C3C3C3C3E2E2C3E2E2E2E2E2E2E2E2E2C3C3C3E2C3C3C3C3C3C3C3C3E2C3C3C3C3E2E2E2E2E2E2E2E2
310
E2E2E2E2E2E2E2E2E2E2BEE2E2F5E2F5F5F5E2F5E2E2BEC3C3C3C3C3C3C3C3C3C3C3C3C3C3C3C3C3C3C3C3C3C3C3C3C3C3C3C3C3C3C3C3C3C3C3C3C3C3C3C3C3C3C3C3C3C3C3C3C3C3C3E2E2E2E2C3C3C3E2C3C3E2C3C3C3C3C3E2C3C3C3C3E2E2E2E2E2E2E2E2E2E2E2C3C3C3C3E2E2E2E2C3C3C3C3C3C3C3C3C3C3C3C3C3
310
C3C3C3C3C3C3C3C3C3C3C3C3C3C3C3C3C3C3C3E2E2E2E2E2E2E2E2E2E2C3C3C3C3C3E2C3C3E2C3C3E2C3C3E2C3E2E2E2E2E2E2E2E2E2E2E2E2E2E2E2E2E2E2BEE2E2F5E2F5F5F5E2F5E2E2BEE2E2E2E2E2C3E2E2E2E2E2E2E2E2E2E2E2E2E2E2E2E2E2E2E2E2E2E2E2C3E2E2E2E2E2E2E2E2E2E2E2E2C3E2E2E2E2E2E2E2C3
310
E2E2E2E2C3C3C3C3C3C3E2C3C3C3C3C3C3C3C3C3C3E2E2E2E2E2E2E2E2E2E2E2C3C3C3C3E2E2E2E2C3C3C3C3C3E2C3C3C3C3E2C3E2C3C3C3C3C3C3E2E2C3C3C3C3C3C3C3C3E2E2C3C3C3C3C3C3C3C3E2E2E2E2E2E2E2E2E2E2E2E2E2E2E2E2E2E2E2E2E2E2E2E2E2E2E2E2E2E2E2E2E2E2E2E2E2BEE2E2F5E2F5F5F5E2E2E2
310
E2BEE2E2E2E2E2C3E2E2E2E2E2E2E2E2E2E2E2E2E2E2E2E2E2E2E2E2E2E2E2C3E2E2E2E2E2E2E2E2E2E2E2E2C3E2E2E2E2E2E2E2C3E2E2E2E2C3C3C3C3C3C3C3C3C3C3C3C3E2C3C3C3C3E2E2E2E2E2E2E2E2E2E2E2C3C3C3C3E2E2E2E2C3C3C3C3C3E2C3C3C3C3E2C3E2E2C3E2C3C3C3E2E2C3C3C3C3C3C3C3C3E2E2C3C3C3
310
C3C3C3C3C3E2E2E2E2E2E2E2E2E2E2E2E2E2E2E2E2E2E2E2E2E2E2E2E2E2E2E2E2E2E2E2E2E2E2E2E2E2BEE2E2E2E2F5F5F5E2E2E2E2BEC3C3C3C3C3C3C3C3C3C3C3C3C3C3C3C3C3C3C3C3C3C3C3C3C3C3C3C3C3C3C3C3C3C3C3C3C3C3C3C3C3C3C3C3C3C3C3C3C3C3C3E2E2E2E2E2E2E2E2E2E2E2E2E2E2E2E2E2E2E2E2E2
310
E2E2E2E2E2E2E2E2E2E2E2C3C3C3E2E2E2E2E2C3C3C3C3C3C3C3C3C3C3C3C3C3C3C3C3C3C3C3C3C3C3C3C3C3C3C3C3C3C3C3C3C3C3C3C3C3C3C3C3C3C3C3C3C3C3C3C3C3C3C3C3C3C3C3C3C3C3C3C3C3C3C3C3C3C3C3C3C3C3C3C3C3C3C3C3BEE2E2E2E2F5F5F5E2E2E2E2BEE2E2E2E2E2C3E2E2E2E2E2E2E2E2E2E2E2E2E2
310
E2E2E2E2E2E2E2E2E2E2C3E2E2E2E2E2E2E2E2E2E2E2E2C3E2E2E2E2E2E2E2C3E2E2E2E2E2E2E2E2E2E2E2E2E2E2E2E2E2E2E2E2E2E2E2E2E2E2E2E2E2E2E2E2C3C3C3E2E2E2E2E2C3C3C3C3C3C3C3C3C3C3C3C3E2E2E2E2E2E2E2E2E2C3E2E2E2E2E2E2E2E2E2C3E2E2E2E2E2E2E2E2E2E2E2E2E2E2E2E2E2E2E2E2E2E2E2
310
E2E2E2E2E2E2E2E2E2E2E2E2E2E2E2E2E2E2E2E2E2BEE2E2E2E2F5F5F5E2E2E2E2BEE2E2E2E2E2C3E2E2E2E2E2E2E2E2E2E2E2E2E2E2E2E2E2E2E2E2E2E2E2C3E2E2E2E2E2E2E2E2E2E2E2E2C3E2E2E2E2E2E2E2C3E2E2E2E2E2E2E2E2E2E2E2E2E2E2E2E2E2E2E2E2E2E2E2E2E2E2E2E2E2E2E2E2C3C3C3C3C3C3C3C3C3C3
310
C3C3C3C3C3C3C3C3C3C3C3C3C3C3C3C3C3C3C3C3C3C3C3C3C3C3C3C3C3C3E2E2C3C3C3C3C3C3C3E2C3C3C3C3C3C3C3E2C3C3C3C3C3C3E2C3C3C3C3E2E2E2E2E2E2E2E2E2E2E2E2E2E2E2BEE2E2E2E2F5F5F5E2E2E2E2BEC3C3C3C3C3C3C3C3C3C3C3C3C3C3C3C3C3C3C3C3C3C3C3C3C3C3C3C3C3C3C3C3C3C3C3C3C3C3C3C3
310
C3C3C3C3C3C3C3C3C3C3C3E2C3C3C3C3C3C3C3C3C3C3E2E2E2E2E2E2E2E2E2E2E2E2E2E2E2E2E2E2E2E2E2C3E2C3C3C3C3C3E2C3C3C3C3C3E2C3C3C3C3C3C3E2C3C3C3C3C3C3C3C3C3C3C3C3C3C3C3E2E2E2C3E2E2C3C3C3C3C3C3C3C3C3C3C3C3C3C3C3E2E2C3C3C3C3C3C3C3C3C3C3E2E2E2E2E2E2E2E2E2E2E2E2E2E2E2
310
BEE2E2E2E2F5F5F5E2E2E2E2BEE2E2E2E2E2C3E2E2E2E2E2E2E2E2E2E2E2E2E2E2E2E2E2E2E2E2E2E2E2C3E2E2E2E2E2E2E2E2E2E2E2E2C3E2E2E2E2E2E2E2C3E2C3C3C3C3C3C3C3C3C3C3E2E2E2E2E2E2E2E2E2E2E2E2E2E2E2E2E2E2E2E2E2C3E2C3C3C3C3C3E2C3C3C3C3C3E2C3C3C3C3C3C3E2C3C3E2C3C3C3C3E2C3C3
310
C3C3C3C3C3C3E2E2C3E2E2C3C3C3C3C3C3C3C3C3C3C3C3C3C3C3E2E2C3C3C3C3C3C3C3C3C3C3E2E2E2E2E2E2E2E2E2E2E2E2E2E2E2BEE2E2E2E2F5F5F5E2E2E2E2BEE2E2E2E2E2C3E2E2E2E2E2E2E2E2E2E2E2E2E2E2E2E2E2E2E2E2E2E2E2C3E2E2E2E2E2E2E2E2E2E2E2E2C3E2E2E2E2E2E2E2C3E2E2E2E2E2E2E2E2E2E2
310
E2E2E2E2E2E2E2E2E2E2E2E2E2E2E2E2E2E2E2E2E2E2C3E2C3C3C3C3C3E2C3C3C3C3C3E2C3C3C3C3C3C3E2C3C3E2C3C3C3E2E2C3C3E2C3C3C3C3C3E2E2C3E2E2E2E2E2E2E2E2E2E2E2E2E2E2E2E2E2E2E2E2E2E2E2E2E2E2E2E2E2E2E2E2E2E2E2E2E2E2E2E2E2E2E2E2BEE2E2E2E2F5F5F5E2E2E2E2BEBEBEBEBEBEBEBEBE
310
BEBEBEBEBEBEBEBEBEBEBEBEBEBEBEBEC3BEBEBEBEBEBEBEBEBEBEBEBEBEC3BEBEBEBEBEBEBEBEBEBEBEBEBEBEBEBEBEBEBEBEBEBEBEBEBEBEBEBEBEBEBEBEBEBEBEBEBEBEBEC3C3BEBEBEBEBEC3C3C3BEBEBEBEBEBEC3C3BEBEBEBEBEBEBEBEBEBEBEBEBEBEBEBEBEBEBEBEBEBEBEBEBEBEBEBEBEBEBEBEBEBEBEBEBEBEBE
310
BEBEBEBEBEBEBEBEBEBEBEBEBEBEBEBEBEBEBEBEBEBEBEBEBEBEBEBEBEBEBEBEBEE2E2E2E2F5F5F5E2E2E2E2BEC3C3C3C3C3C3C3C3C3C3C3C3C3C3E2C3C3C3C3C3C3C3C3C3C3C3C3C3C3C3C3C3C3C3C3C3C3C3C3C3E2E2E2E2E2E2E2E2E2E2E2E2E2E2E2E2E2E2E2E2E2E2E2E2E2BEC3C3C3C3C3C3C3C3C3C3C3E2C3C3C3E2
310
BEE2E2C3C3C3E2E2E2BEE2C3C3C3E2E2E2E2BEE2E2E2E2E2E2E2E2E2E2E2E2E2E2E2E2E2E2E2E2E2E2E2E2E2E2E2E2E2E2E2E2E2E2E2E2E2E2E2E2E2E2E2E2E2E2E2E2E2E2E2E2E2E2E2E2E2E2E2E2C3E2E2E2E2E2BEE2E2E2E2F5F5F5E2F5E2E2BEC3C3C3C3C3C3C3C3C3C3C3C3C3C3C3C3C3C3C3C3C3C3C3C3C3C3C3C3C3
310
C3C3C3C3C3C3C3C3C3C3C3E2E2E2E2E2E2E2E2E2E2E2E2E2E2E2E2E2E2E2E2E2E2E2E2E2BEC3C3C3C3C3C3C3C3C3C3C3E2C3C3C3E2BEE2E2C3C3C3E2E2E2BEE2E2C3C3E2E2E2E2BEE2E2E2C3C3C3C3C3C3C3C3C3C3C3C3C3C3C3C3C3C3C3C3C3C3C3C3C3C3C3C3C3C3C3C3E2E2E2E2E2E2E2E2E2E2E2E2E2E2E2E2C3C3C3E2
310
E2E2E2E2C3C3C3E2E2E2E2BEE2E2F5E2F5F5F5E2F5E2E2BEBEBEBEBEBEBEBEBEBEBEBEBEBEBEBEBEBEBEBEBEBEBEBEBEBEBEBEBEBEBEBEBEBEBEBEBEBEBEBEBEBEBEBEBEBEBEBEBEBEBEBEBEBEBEBEBEBEBEBEBEBEBEBEBEBEBEBEBEBEBEBEBEBEBEBEBEC3BEBEC3BEBEBEBEC3C3C3C3BEBEBEBEBEC3C3C3C3BEBEBEBEE2E2
310
E2C3E2C3E2C3E2C3C3E2C3E2C3C3E2C3E2C3C3E2C3E2C3C3C3C3C3C3C3E2E2E2C3E2E2E2E2E2E2E2E2E2E2E2E2E2E2E2E2C3C3C3E2E2E2E2E2C3C3E2E2E2E2E2BEE2E2F5E2F5F5F5E2F5E2E2BEC3C3C3C3C3C3C3C3C3C3C3C3C3C3C3C3C3C3C3C3E2C3C3C3C3E2C3C3C3C3C3C3C3C3C3C3C3C3C3C3C3C3C3C3C3C3C3C3C3C3
310
C3C3C3C3C3C3C3C3C3C3C3C3C3C3E2BEC3C3C3C3C3C3C3C3C3E2C3C3C3C3C3E2BEE2C3C3C3C3E2E2E2BEE2C3C3C3C3E2E2E2BEE2E2E2C3E2C3E2C3E2E2C3E2C3E2E2E2E2C3E2E2E2E2C3E2C3E2C3C3C3C3C3E2E2E2C3E2E2E2E2E2E2E2E2E2E2E2E2E2E2E2E2C3C3C3E2E2E2E2E2C3C3C3E2E2E2E2BEE2E2F5E2F5F5F5E2F5
310
E2E2BEC3C3C3C3C3C3C3C3C3C3C3C3C3C3C3C3C3C3C3C3E2C3C3C3C3E2C3C3E2C3C3C3C3C3C3C3C3C3C3C3C3C3C3C3C3C3C3C3E2C3C3C3C3C3C3C3C3C3C3C3C3C3C3C3E2BEC3C3C3C3C3C3C3C3C3C3C3C3C3C3C3E2BEE2C3C3C3C3E2E2E2BEE2C3C3C3C3E2E2E2BEE2E2E2C3C3C3C3C3C3C3C3C3C3C3C3C3C3C3C3C3C3C3C3
310
C3C3C3C3E2C3E2C3E2C3E2C3E2E2E2E2E2E2E2E2E2E2E2E2E2E2E2E2C3C3C3E2E2E2E2E2C3C3E2E2E2E2E2BEE2E2F5E2F5F5F5E2F5E2E2BEBEBEBEBEBEBEBEBEBEBEBEBEBEBEBEBEBEBEBEBEBEBEBEBEBEBEBEBEBEBEBEBEBEBEBEBEBEBEBEBEBEBEBEBEBEBEBEBEBEBEBEBEBEBEBEBEBEBEBEBEBEBEBEBEBEBEBEBEBEBEBE
310
BEBEBEBEBEBEBEBEBEBEBEBEBEBEC3C3C3C3C3BEBEBEC3C3C3C3C3C3BEBEE2E2E2C3E2C3E2C3E2C3C3E2C3E2C3C3E2C3E2C3C3E2C3E2C3C3C3E2C3C3C3E2C3E2C3E2E2E2E2E2E2E2E2E2E2E2E2E2E2E2E2C3C3C3E2E2E2E2E2C3C3E2E2E2E2E2BEE2E2F5E2F5F5F5E2F5E2E2BEC3C3C3C3C3C3C3C3C3C3C3C3C3C3C3C3C3C3
310
C3C3C3C3C3C3C3C3C3E2E2E2E2E2E2E2E2E2E2E2E2E2E2E2E2E2E2E2E2E2E2E2E2E2E2E2E2E2E2E2E2E2E2E2E2E2E2BEE2E2E2E2E2E2E2E2BEBEBEBEBEBEE2E2BEE2E2C3C3C3C3E2E2BEE2C3C3C3C3C3E2E2BEE2E2E2C3E2C3E2C3E2E2E2E2C3E2E2E2E2C3E2C3E2E2C3E2C3E2C3E2C3C3C3E2C3E2C3E2E2E2E2E2E2E2E2E2
310
E2E2E2E2E2E2E2C3C3C3E2E2E2E2E2C3C3E2E2E2E2E2BEE2E2F5E2F5F5F5E2F5E2E2BEC3C3C3C3C3C3C3C3C3E2C3C3C3C3C3C3C3C3C3C3C3C3C3C3C3C3C3E2E2E2E2E2E2E2E2E2E2E2E2E2E2E2E2E2E2E2E2E2E2E2E2E2E2E2E2E2E2E2E2E2E2E2E2E2E2BEE2E2BEBEBEBEBEBEE2E2E2E2E2E2E2E2BEE2E2C3C3C3C3E2E2BE
310
E2C3C3C3C3C3E2E2BEE2E2E2C3C3C3C3C3C3C3C3C3C3C3C3C3C3C3C3C3C3C3C3C3C3C3C3E2C3E2C3E2C3E2C3E2E2E2E2E2E2E2E2E2E2E2E2E2E2E2E2C3C3E2E2E2E2E2E2E2C3E2E2E2E2E2BEE2E2F5E2F5F5F5E2F5E2E2BEBEBEBEBEBEBEBEBEBEBEBEBEBEBEBEBEBEBEBEBEBEBEBEBEBEBEBEBEBEBEBEBEBEBEBEBEBEBEBE
310
BEBEBEBEBEBEBEBEBEBEBEBEBEBEBEBEBEBEBEBEBEBEBEBEBEBEBEBEBEBEBEBEBEBEBEBEBEBEBEBEBEBEBEBEBEBEBEBEBEBEBEBEBEBEBEBEBEBEBEBEBEBEE2E2E2C3E2C3E2C3E2C3C3E2C3E2C3C3E2C3E2C3C3E2C3E2C3C3C3E2C3E2C3E2C3E2C3E2E2E2E2E2E2E2E2E2E2E2E2E2E2E2E2C3C3E2E2E2E2E2E2E2C3E2E2E2E2
310
E2BEE2E2F5E2F5F5F5E2F5E2E2BEC3C3C3C3C3C3C3C3C3C3C3C3C3C3C3C3C3C3C3C3C3C3C3C3C3C3C3C3C3C3C3C3C3C3C3C3C3C3C3C3C3E2C3C3C3C3C3C3C3C3C3C3C3C3C3C3E2C3C3C3C3C3C3C3C3BEC3C3C3C3C3C3C3C3C3C3C3C3C3E2C3C3BEE2C3C3E2BEC3C3C3BEE2C3C3E2BEC3C3C3BEE2E2E2C3C3C3C3C3C3C3C3C3
310
C3C3C3C3C3C3C3C3C3C3C3C3C3C3C3E2C3E2C3E2C3E2C3E2E2E2E2E2E2E2E2E2E2E2E2E2E2E2E2E2C3E2E2E2E2E2E2E2C3E2E2E2E2E2BEE2E2F5E2F5F5F5E2F5E2E2BEC3C3C3C3C3C3C3C3C3C3C3C3C3C3C3C3C3C3C3C3C3C3E2C3C3C3C3C3C3C3C3C3C3C3C3C3C3C3C3C3C3E2C3C3C3C3C3C3C3C3C3C3C3C3C3C3E2C3C3C3
310
C3C3C3C3E2BEC3C3C3C3E2C3C3C3C3C3C3C3C3E2C3C3BEE2C3C3E2BEC3C3C3BEE2C3C3E2BEC3C3C3BEE2E2E2C3E2C3E2C3E2E2C3E2C3E2E2C3E2C3E2E2E2E2C3E2E2E2C3E2C3E2C3E2C3E2C3E2E2E2E2E2E2E2E2E2E2E2E2E2E2E2E2E2C3E2E2E2E2E2E2E2C3E2E2E2E2E2BEE2E2F5E2F5F5F5E2F5E2E2BEBEBEBEBEBEBEBE
310
BEBEBEBEBEBEBEBEBEBEBEBEBEBEBEBEBEBEBEBEBEBEBEBEBEBEBEBEBEBEBEBEBEBEBEBEBEBEBEBEBEBEBEBEBEBEBEBEBEBEBEBEBEBEBEBEBEBEBEBEBEBEBEBEBEBEBEBEBEBEBEBEBEBEBEBEBEBEBEBEBEBEBEBEBEBEBEBEBEBEBEBEBEBEE2E2E2C3E2C3E2C3E2C3C3E2C3E2C3C3E2C3E2C3C3E2C3E2C3C3C3E2C3E2C3E2C3
310
E2C3E2E2E2E2C3C3E2C3E2E2E2E2E2E2E2E2E2C3C3C3C3C3C3C3C3C3E2E2E2E2E2BEE2E2F5E2F5F5F5E2F5E2E2BEC3C3C3C3C3C3C3C3C3C3C3C3C3C3C3C3C3C3E2C3C3C3C3C3C3C3C3C3E2C3C3C3C3E2C3E2C3C3C3C3C3E2E2E2E2E2E2E2E2E2E2E2E2E2E2E2E2E2E2E2E2E2E2E2E2BEC3C3C3C3C3C3C3C3C3E2C3C3C3C3C3
310
E2BEE2E2C3E2BEE2C3C3BEE2C3C3E2BEC3C3C3BEE2E2E2C3C3C3C3C3C3C3C3C3C3C3C3C3C3C3C3C3C3C3C3C3C3C3C3E2C3E2C3E2E2E2C3E2E2E2E2C3C3C3C3C3C3C3C3C3C3C3C3E2E2E2E2E2E2E2E2E2E2E2E2E2E2E2BEE2E2F5E2F5F5F5E2F5E2E2BEC3C3C3C3C3C3C3C3C3C3C3C3C3C3C3C3C3C3E2E2C3C3C3E2C3C3C3C3
310
E2C3C3C3C3E2E2E2C3C3C3C3C3E2E2E2E2E2E2E2E2E2E2E2E2E2E2E2E2E2E2E2E2E2E2E2E2BEC3C3C3C3C3C3C3C3C3E2C3C3C3C3C3E2BEE2E2C3E2BEC3C3C3BEE2C3C3E2BEC3C3C3BEE2E2E2C3C3C3C3C3E2C3C3E2C3E2C3C3E2C3C3C3C3E2C3C3C3C3C3E2E2E2C3C3C3C3C3E2E2E2E2C3C3C3C3C3C3C3E2C3E2E2C3E2E2E2
310
C3C3C3C3E2E2E2E2E2E2E2E2BEE2E2F5E2F5F5F5E2F5E2E2BEBEBEBEBEBEBEBEBEBEBEBEBEBEBEBEBEBEBEBEBEBEBEBEBEBEBEBEBEBEBEBEBEBEBEBEBEBEBEBEBEBEBEBEBEBEBEBEBEBEBEBEBEBEBEBEBEBEBEBEBEBEBEBEBEBEBEBEBEBEBEBEBEBEBEBEBEBEBEBEBEBEBEBEBEBEBEBEC3C3C3C3BEBEBEBEBEBEBEBEBEBEE2
310
E2E2C3C3C3C3C3E2E2C3E2C3E2C3C3E2C3E2C3C3E2C3C3C3C3C3E2E2E2C3C3C3C3C3E2E2E2E2E2E2E2E2E2E2E2E2E2E2E2C3E2C3C3E2E2E2E2C3C3E2E2E2E2E2E2BEE2E2F5E2F5F5F5E2F5E2E2BEC3C3C3C3C3C3C3C3C3C3C3E2C3C3C3C3C3C3C3C3C3C3C3C3C3C3C3C3C3C3E2C3C3C3C3C3C3C3C3C3E2C3C3C3C3C3C3C3C3
310
C3C3C3C3C3C3C3C3C3C3C3C3C3E2E2E2BEC3C3C3C3C3C3C3C3C3C3C3C3E2C3C3C3BEE2E2E2E2C3C3C3C3C3E2E2E2E2E2E2E2E2BEE2E2E2C3C3C3C3C3C3C3C3C3C3C3C3C3C3C3C3C3C3C3C3C3C3C3C3C3C3C3C3C3C3C3C3E2E2E2E2E2E2E2E2E2E2E2E2E2E2E2C3E2C3E2E2E2E2E2E2C3E2E2E2E2E2E2BEE2E2F5E2F5F5F5E2
310
E2E2E2BEC3C3C3C3C3C3C3C3C3C3C3E2C3C3C3C3C3C3C3C3C3C3C3C3C3C3C3C3C3C3E2C3C3C3C3C3C3C3C3C3E2C3C3C3C3C3C3C3C3C3C3C3C3C3C3C3C3C3C3C3C3E2E2E2E2BEC3C3C3E2C3C3C3C3C3C3C3C3E2C3C3C3BEE2E2E2E2C3C3E2C3C3E2E2E2E2E2E2E2E2BEE2E2E2C3C3C3C3C3E2C3C3C3C3C3C3E2C3C3C3C3C3C3
310
C3C3C3E2C3C3C3C3E2C3C3C3E2E2E2E2E2E2E2E2E2E2E2E2E2E2E2E2C3E2C3E2E2E2E2E2E2C3E2E2E2E2E2E2BEE2E2E2E2F5F5F5E2E2E2E2BEBEBEBEBEBEBEBEBEBEBEBEBEBEBEBEBEBEBEBEBEBEBEBEBEBEBEBEBEBEBEBEBEBEBEBEBEBEBEBEBEBEC3C3BEBEBEC3BEBEBEBEBEBEBEBEBEBEBEBEBEBEBEBEBEBEBEBEBEBEBE
310
BEBEBEBEBEBEBEBEBEBEBEBEBEBEBEBEBEBEBEBEBEBEBEBEBEBEBEBEBEBEBEE2E2E2C3C3C3C3C3E2C3C3C3C3C3C3E2C3C3C3C3C3C3C3C3C3E2C3C3C3C3E2C3C3C3E2E2E2E2E2E2E2E2E2E2E2E2E2E2E2E2C3E2C3E2E2E2E2E2E2C3E2E2E2E2E2E2BEE2E2E2E2F5F5F5E2E2E2E2BEC3C3C3C3C3C3C3C3C3C3E2C3C3C3E2E2E2
310
E2E2E2E2E2E2E2E2E2E2E2E2BEE2E2E2E2E2E2E2E2C3C3C3C3C3C3C3C3C3E2E2E2E2E2E2E2E2E2E2E2E2E2E2E2E2E2E2BEE2E2E2E2E2E2E2E2E2E2E2E2E2E2E2E2E2E2E2E2E2E2E2E2E2E2E2E2E2E2E2E2E2E2BEE2E2E2C3C3C3C3C3E2C3C3C3C3C3C3E2C3C3C3C3C3C3C3C3C3C3C3C3C3C3E2C3C3C3E2E2E2E2E2E2E2E2E2
310
E2E2E2E2E2E2E2C3E2C3E2E2E2E2E2E2C3E2E2E2E2E2E2BEE2E2E2E2F5F5F5E2E2E2E2BEC3C3C3C3C3C3C3C3C3C3E2C3C3C3E2E2E2E2E2E2E2E2E2E2E2E2E2E2E2BEE2E2E2E2E2E2E2E2C3C3C3C3C3E2C3C3C3E2E2E2E2E2E2E2E2E2E2E2E2E2E2E2E2E2E2BEE2E2E2E2E2E2E2E2E2E228282828282828E2E2E2E2E2E2E2E2
310
E2E2E2E2E2E2E2E2E2BEE2E2E2C3C3C3C3C3C3C3C3C3E2C3C3E2C3C3C3C3C3C3C3C3C3C3E2E2E2E2E2E2E2E2E2E2E2E2E2E2E2C3C3E2E2E2E2E2E2E2C3E2E2C3E2E2E2E2C3E2E2E2E2E2E2E2BEE2E2E2E2F5F5F5E2E2E2E2BEBEBEBEBEBEBEBEBEBEBEBEBEBEC3C3C3BEBEC3BEC3BEBEBEBEC3BEBEBEBEBEBEBEBEBEBEBEBE
310
BEBEBEBEBEBEBEC3BEBEBEBEBEBEBEC3BEBEBEBEBEBEBEBEBEBEBEBEE2E2E2E2E2E2E2E2E2E2282828C3E2E228E2E2E2E2E2E2E2E2E2E2E2E2E2E2E2E2E2BEE2E2E2C3C3C3C3E2C3C3C3C3C3C3C3E2C3C3C3C3C3C3E2C3C3E2E2E2E2E2E2E2E2E2E2E2E2E2E2E2C3C3C3C3C3C3E2C3E2E2C3E2E2E2C3C3C3C3E2E2E2E2E2E2
310
E2E2BEE2E2E2E2F5F5F5E2E2E2E2BEC3C3C3C3C3C3C3C3C3C3C3C3E2C3C3C3C3C3E2C3C3C3C3C3C3C3E2E2E2BEE2E2E2E2E2E2E2E2C3C3C3C3C3C3E2C3C3C3C3C3C3C3E2C3E2E2E2E2E2E2E2E2E2E2E2BEE2E2E2E2E2E2E2E2E2E228E2E2C3E2E228E2E2E2E2E2E2E2E2E2E2E2E2E2E2E2E2E2BEE2E2E2E2E2E2E2E2E2E2E2
310
E2E2E2E2E2E2E2E2E2E2E2E2E2E2E2E2E2E2E2E2E2E2E2E2E2E2E2E2E2C3C3C3C3C3C3C3C3C3C3C3E2E2E2E2E2E2E2E2E2E2E2E2E2E2E2BEE2E2E2E2F5F5F5E2E2E2E2BEC3C3C3C3C3C3C3C3C3C3C3C3E2C3C3C3C3C3C3C3C3C3E2C3C3C3E2E2E2BEE2E2E2E2E2E2E2E2C3C3C3C3C3C3C3C3C3C3C3C3C3C3C3C3E2E2E2E2E2
310
E2E2E2E2E2E2BEE2E2E2E2E2E2E2E2E2E228E2E2E2E2E2BEBEBEBEBEBEBEBEBEBEBEBEBEE2E2E2E2E2BEE2E2E2E2E2E2E2E2E2E2E2E2E2E2E2E2E2E2E2E2E2E2E2E2E2E2E2E2E2E2E2E2E2E2E2E2E2E2E2E2E2C3C3E2E2E2E2E2E2E2E2E2E2E2E2E2E2E2E2E2E2E2E2E2E2E2BEE2E2E2E2F5F5F5E2E2E2E2BEBEBEBEBEBEBE
310
BEBEBEBEBEBEBEBEBEBEBEBEBEBEBEBEBEBEBEBEBEBEBEBEBEBEBEBEBEBEBEBEBEBEBEBEBEBEBEBEBEBEBEBEBEBEBEBEBEBEBEBEBEBEBEBEBEBEBEBEE2E2E2E2E2E2E2E2E2E228E2E2E2E2E2BEE2E2E2E2E2E2E2E2E2E2E2BEE2E2E2E2E2BEE2E2E2E2E2E2E2E2E2E2E2E2E2E2E2E2E2E2E2E2E2E2E2E2E2E2E2E2E2E2E2E2
310
E2E2E2E2E2E2E2E2E2E2E2E2E2E2E2E2C3C3C3C3C3C3C3C3C3C3C3C3C3C3E2E2E2E2BEE2E2E2E2F5F5F5E2E2E2E2BEC3C3C3C3E2C3C3C3C3C3C3C3C3C3C3C3C3C3C3C3C3C3C3C3C3E2E2E2E2BEE2E2E2E2E2E2E2E2C3C3C3C3E2E2E2E2E2E2E2E2E2E2E2E2E2E2E2E2E2E2E2E2E2E2E2BEE2E2E2E2E2E2E2E2E2E228E2E2E2
310
E2E2BEE2E2E2E2E2E2E2E2E2E2E2BEE2E2E2E2E2BEE2E2E2E2E2E2E2E2E2E2E2E2E2E2E2E2E2E2E2E2E2E2E2E2E2E2E2E2E2E2E2E2E2E2E2E2E2E2E2E2E2E2E2E2E2E2E2E2C3C3C3C3C3C3C3C3C3C3C3C3C3C3E2E2E2E2BEE2E2E2E2F5F5F5E2F5E2E2BEC3C3C3C3E2C3C3C3C3C3C3C3C3E2C3C3C3C3E2C3C3C3C3C3C3E2E2
310
E2E2BEE2E2E2E2E2E2E2E2C3C3C3C3E2E2E2E2E2E2E2E2E2E2E2E2E2E2E2E2E2E2E2E2E2E2E2BEE2E2E2E2E2E2E2E2E2E228E2E2E2E2BEBEE2E2E2E2E2E2E2E2E2E2E2BEE2E2E2E2E2BEE2E2E2E2E2E2E2E2E2E2E2E2E2E2E2E2E2E2E2E2E2E2E2E2E2E2E2E2E2E2E2E2E2E2E2E2E2E2E2E2E2E2E2E2E2E2E2E2E2E2E2E2E2
310
E2E2E2E2E2E2E2E2E2E2E2E2E2BEE2E2F5E2F5F5F5E2F5E2E2BEBEBEBEBEBEBEBEBEBEBEBEBEBEBEBEBEBEBEBEBEBEBEBEBEBEBEBEBEBEBEBEBEBEBEBEBEBEBEBEBEBEBEBEBEBEBEBEBEBEBEBEBEBEBEBEBEBEBEBEBEBEBEBEBEBEBEE2E2E2E2E2E2E2E2E2E228E2E2E2E2BEBEE2E2E2E2E2E2E2E2E2E2E2BEE2E2E2E2E2BE
310
E2E2E2E2E2E2E2E2E2E2E2E2E2E2E2E2E2E2E2E2E2E2E2E2E2E2E2E2E2E2E2E2E2E2E2E2E2E2E2E2E2E2E2E2E2E2E2E2E2E2E2E2E2E2E2E2E2E2E2E2E2E2E2E2E2E2BEE2E2F5E2F5F5F5E2F5E2E2BEC3C3C3C3E2C3C3C3C3C3C3E2C3E2E2E2E2E2E2E2E2E2E2E2E2E2E2E2E2BEE2E2E2E2E2E2E2E2C3C3C3E2E2E2E2E2E2E2
310
E2E2E2E2E2E2E2E2E2E2E2E2E2E2E2E2E2BEE2E2E2E2E2E2E2E2E2E228E2E2E2E2BEBEE2E2E2E2E2E2E2E2E2E2E2BEE2E2E2E2E2BEE2E2E2E2E2E2E2E2E2E2E2C3C3C3C3C3C3C3C3C3C3C3C3C3C3C3C3C3C3C3C3C3C3C3C3C3C3C3C3C3C3C3C3C3C3C3C3C3C3E2E2E2E2E2E2E2E2E2E2E2E2E2E2E2E2E2BEE2E2F5E2F5F5F5
310
E2F5E2E2BEC3C3C3C3E2C3C3C3C3C3C3C3C3E2E2E2E2E2E2E2E2E2E2E2E2E2E2E2E2BEE2E2E2E2E2E2E2E2C3C3C3E2E2E2E2E2E2E2E2E2E2E2E2E2E2E2E2E2E2E2E2E2E2E2E2BEE2E2E2E2E2E2E2E2E2E228E2E2E2E2BEBEBEBEE2E2E2E2E2E2BEBEBEBEE2E2E2E2E2BEE2E2E2E2E2E2E2E2E2E2E2C3E2C3C3E2E2C3E2E2E2
310
C3C3C3E2E2E2E2C3E2C3C3C3E2E2E2E2E2C3C3C3C3C3C3C3C3E2E2C3E2E2E2E2E2E2E2E2E2E2E2E2E2E2E2E2E2BEE2E2F5E2F5F5F5E2F5E2E2BEBEBEBEBEBEBEBEBEBEBEBEBEBEBEBEBEBEBEBEBEBEBEBEBEBEBEBEBEBEBEBEBEBEBEBEBEBEBEBEBEBEBEBEBEBEC3BEBEBEBEBEBEBEBEC3BEBEBEBEBEBEBEBEBEBEBEE2E2E2
310
E2E2E2E2E2E2E228E2E2E2E2BEBEE2BEE2E2E2E2E2E2BEE2BEBEE2E2E2E2E2BEE2E2E2E2E2E2E2E2E2E2E2C3E2C3E2E2E2C3E2E2E2C3C3C3C3C3C3C3C3E2C3C3C3E2E2E2E2E2C3C3C3E2E2E2C3C3C3E2C3E2E2E2E2E2E2E2E2E2E2E2E2E2E2E2E2E2BEE2E2F5E2F5F5F5E2F5E2E2BEC3C3C3C3C3C3E2C3C3C3C3C3C3C3C3C3
310
C3C3C3C3C3C3C3C3E2E2E2E2E2BEE2E2E2E2E2E2E2E2C3C3C3C3C3C3E2C3C3C3C3C3C3C3C3E2C3E2E2E2E2E2E2E2E2E2E2BEE2E2E2E2E2E2E2E2E2BEBEBEBEBEBEBEBEBEBEE2E2E2E2E2E2BEBEBEBEBEBEBEBEBEBEE2E2E2E2E2E2E2E2E2E2E2C3C3C3C3C3C3C3C3C3C3C3C3C3C3C3C3C3C3C3C3C3C3C3C3C3C3C3C3E2E2E2
310
E2E2C3C3C3E2C3E2E2E2E2E2E2E2E2E2E2E2E2E2E2E2E2E2BEE2E2F5E2F5F5F5E2F5E2E2BEC3C3C3C3C3C3C3C3C3C3C3C3C3C3C3C3E2C3C3C3E2C3E2C3E2E2E2E2E2BEE2E2E2E2E2E2E2E2C3C3C3C3C3C3C3C3C3C3C3C3C3C3C3C3C3E2E2E2E2E2E2E2E2E2E2BE282828282828282828BEECECECECECBEBEECBEECECECECEC
310
ECBEECBEBEECECECECECBEE2E2E2E2E2E2E2E2E2E2E2C3E2C3E2E2E2C3E2E2E2C3C3E2E2E2E2E2C3E2C3C3C3C3E2E2E2E2C3E2E2E2E2E2C3C3C3E2C3E2E2E2E2E2E2E2E2E2E2E2E2E2E2E2E2E2BEE2E2F5E2F5F5F5E2F5E2E2BEBEBEBEBEBEBEBEBEBEBEBEBEBEBEBEBEBEBEBEBEBEBEBEBEBEBEBEBEBEBEBEBEBEBEBEBEBE
310
BEBEBEBEC3C3BEC3C3BEBEBEBEBEBEBEBEBEBEBEBEBEBEBEBEBEBEBEBEE22828E2C3C32828E2BEBEBEBEBEBEBEBEE2BEE2E2E2E2E2E2BEE2BEBEBEBEBEBEBEBEE2E2E2E2E2E2E2E2E2E2E2C3E2C3C3E2E2C3E2E2E2C3C3E2C3C3C3C3C3E2C3C3C3C3E2E2E2E2C3C3E2E2E2E2C3C3C3E2C3E2E2E2E2E2E2E2E2E2E2E2E2E2E2
310
E2E2E2BEE2E2F5E2F5F5F5E2F5E2E2BEC3C3C3C3C3C3C3E2C3C3C3C3C3C3C3C3C3C3C3C3C3C3C3C3C3E2E2E2E2BEE2E2E2E2E2E2E2E2C3C3C3C3C3C3C3C3E2E2E2E2E2E2E2E2E2E2E2E2E2E2E2E2E2E2E2BEE2E2E2E2C3C3E2E2E2E228E2E2E2E2BEBEBEBEE2E2E2E2E2E2BEBEBEBEE2E2E2E2E2BEE2E2E2E2E2E2E2E2E2E2
310
E2C3E2C3E2E2E2C3E2E2E2E2E2E2E2E2E2E2C3E2C3C3C3C3E2E2E2E2C3C3E2E2C3C3C3C3E2E2C3E2E2E2E2E2E2E2E2E2E2E2E2E2E2E2E2E2BEE2E2F5E2F5F5F5E2F5E2E2BEC3C3C3C3C3C3C3C3C3C3C3C3C3C3C3C3C3C3C3C3C3E2C3E2C3E2E2E2E2BEE2E2E2E2E2E2E2E2C3C3C3C3C3C3C3C3E2E2E2E2E2E2E2E2E2E2E2E2
310
E2E2E2E2E2E2E2BEE2E2E2E2E2E2E2E2E2E22828E2E2E2BEBE28BEE2E2E2E2E2E2BE2828BEE2E2E2E2E2BEE2E2E2E2E2E2E2E2E2E2E2C3C3C3C3C3C3C3C3C3C3C3C3C3C3C3C3C3C3C3C3C3C3C3C3C3C3C3C3C3E2C3E2E2E2E2E2E2C3E2E2E2E2E2E2E2E2E2E2E2E2E2E2E2E2E2BEE2E2F5E2F5F5F5E2F5E2E2BEBEBEBEBEBE
310
BEBEBEBEBEBEBEBEBEBEBEBEBEBEBEBEBEBEBEBEBEBEBEBEBEBEBEBEBEBEBEBEBEC3C3C3C3C3C3C3BEBEBEBEBEBEBEBEBEBEBEBEBEBEBEBEBEBEBEBEBEE2E2E2E2E2E2E2E2E2E228E2E2E2E2BEBEBE28E2E2E2E2E2E228BEBE2828E2E2E2E2BEE2E2E2E2E2E2E2E2E2E2E2C3E2C3C3E2E2C3E2E2E2C3C3C3E2E2E2E2C3E2C3
310
C3C3C3E2E2E2E2C3C3E2C3C3C3C3C3E2E2C3E2E2E2E2E2E2E2E2E2E2E2E2E2E2E2E2E2BEE2E2F5E2F5F5F5E2F5E2E2BEC3C3C3C3C3C3C3C3C3C3C3C3C3C3C3C3C3C3C3C3C3C3C3C3C3C3C3E2E2BEE2E2E2E2E2E2E2E2C3C3C3C3C3C3C3E2E2E2E2E2E2E2E2E2E2E2E2E2E2E2E2E2E2E2E2BEE2E2E2E2E2E2E2E2E2E228C3C3
310
E2E2BEBEE2E228E2E2E2E228E2E2E228E2E2E2E2E2BEE2E2E2E2E2E2E2E2E2E2E2C3E2C3E2E2E2C3E2E2E2E2C3E2C3C3C3C3C3E2C3C3C3C3E2E2E2E2C3C3C3E2E2E2C3C3C3E2C3E2E2E2E2E2E2E2E2E2E2E2E2E2E2E2E2E2BEE2E2F5E2F5F5F5E2F5E2E2BEC3C3C3C3C3C3C3C3C3C3C3C3C3C3C3C3C3E2C3C3E2C3C3C3C3C3
310
E2E2E2BEE2E2E2E2E2E2E2E2C3C3C3C3C3C3C3E2E2E2E2E2E2E2E2E2E2E2E2E2E2E2E2E2E2E2E2BEE2E2E2E2E2E2E2E2E2E228C3C3C3E2BEBEE2E228E2E2E2E228E2E2E2BE28E2E2E2E2BEE2E2E2E2E2E2E2E2E2E2E2C3C3C3C3C3C3C3C3C3C3C3C3C3C3C3C3C3C3C3C3C3C3C3C3C3C3C3C3E2E2E2E2E2C3C3C3E2C3E2E2E2
310
E2E2E2E2E2E2E2E2E2E2E2E2E2E2BEE2E2F5E2F5F5F5E2F5E2E2BEBEBEBEBEBEBEBEBEBEBEBEBEBEBEBEBEBEBEBEBEBEBEBEBEBEBEBEBEBEBEBEBEBEBEBEBEBEBEBEBEBEBEBEBEBEBEBEBEBEBEBEBEBEBEBEBEBEBEBEBEBEBEBEBEBEBEE2E2E2E2E2E2E2E2E2E228E2E2E2E2BEBEE2E2E228C3C328C3C3E2E2BEE228E2E2E2
310
BEE2E2E2E2E2E2E2E2E2E2E2C3E2C3E2E2E2C3E2E2E2C3C3E2E2E2E2E2C3E2C3C3C3C3E2E2E2E2C3E2E2E2E2E2C3C3C3E2C3E2E2E2E2E2E2E2E2E2E2E2E2E2E2E2E2E2BEE2E2F5E2F5F5F5E2F5E2E2BEC3C3C3C3C3C3C3C3C3E2C3C3C3C3C3E2E2C3C3C3C3C3C3C3C3C3C3C3E2BEE2E2E2E2E2E2E2E2C3C3C3C3C3C3C3E2E2
310
E2E2E2E2E2E2E2E2E2E2E2E2E2E2E2E2E2E2BE282828282828282828282828E2E2E2E2BEE2E2E2C3C3C3C3C3C3E2E2BEE228E2E2E2BEE2E2E2E2E2E2E2E2E2E2E2C3E2C3E2E2E2C3E2E2E2C3C3E2C3C3C3C3C3E2C3C3C3C3E2E2E2E2C3C3C3E2C3C3C3C3E2E2C3E2E2E2E2E2E2E2E2E2E2E2E2E2E2E2E2E2BEE2E2F5E2F5F5
310
F5E2F5E2E2BEC3C3C3C3C3C3C3C3C3C3C3C3C3C3C3C3E2C3C3C3E2E2C3C3C3C3C3C3E2BEE2E2E2E2E2E2E2E2C3C3C3C3C3C3C3E2E2E2E2E2E2E2E2E2E2E2E2E2E2E2E2E2E2E2E2BEC3C3C3C3C3C3C3C3C3C3C3C3E2E2E2E2BEE2E2E2E2E2E2E2E2E2E2E2BEE2E228E2E2BEE2E2E2E2E2E2E2E2E2E2E2C3E2C3E2E2E2C3E2E2
310
E2E2C3E2E2E2E2E2C3E2C3C3C3C3E2E2E2E2C3C3E2E2E2E2E2E2E2E2C3E2E2E2E2E2E2E2E2E2E2E2E2E2E2E2E2E2BEE2E2F5E2F5F5F5E2E2E2E2BEBEBEBEBEBEBEBEBEBEBEBEBEBEBEBEBEBEBEBEBEBEBEBEBEBEBEBEBEBEBEBEBEBEBEBEBEBEBEBEBEBEBEBEBEBEBEBEBEBEBEBEBEBEBEBEBEBEBEBEBEBEBEBEBEBEBEC3C3
310
C3C3C3C3C3C3C3C3C3C3E2E2E2E2BEBEBEBEBEBEBEBEBEBEBEBEBEE2E2E228E2BEE2E2E2E2E2E2E2E2E2E2E2C3C3C3C3C3C3C3C3C3C3C3C3C3C3C3C3C3C3C3C3C3C3C3C3C3C3C3C3C3C3C3C3C3C3C3C3C3C3E2E2E2E2E2E2E2E2E2E2E2E2E2E2E2E2E2BEE2E2E2E2F5F5F5E2E2E2E2BEC3C3C3C3C3C3C3C3C3C3E2E2E2E2E2
310
E2E2E2E2E2E2E2E2E2E2E2E2E2E2BEE2E2E2E2E2E2E2E2C3C3C3E2E2E2E2E2E2E2E2E2E2E2E2E2E2E2E2E2E2E2E2E2E2E2E2BEC3C3C3C3C3C3C3C3C3E2E2E2E2E2E2E2E2E2E2E2E2E2E2E2C3C3C3C3C3C3E2282828BEE2E2E2E2E2E2E2E2E2E2E2C3C3C3C3C3C3C3E2E2C3C3C3C3C3C3C3E2C3E2C3C3C3C3C3C3E2E2C3E2C3
310
C3C3C3C3C3E2E2C3E2E2E2E2E2E2E2E2E2E2E2E2E2E2E2E2E2BEE2E2E2E2F5F5F5E2E2E2E2BEC3C3C3C3C3C3C3C3C3C3C3E2E2E2E2E2E2E2E2E2E2E2E2E2E2E2E2E2E2BEE2E2E2E2E2E2E2E2C3E2C3E2E2E2E2E2E2E2E2E2E2E2E2E2E2E2E2E2E2E2E2E2E2E2E2BEC3C3C3C3C3C3C3C3C3E2E2E2E2E2E2E2E2E2E2E2E2E2E2
310
E2C3C3C3C3C3C3E2E2E2E2BEE2E2E2E2E2E2E2E2E2E2E2C3C3C3C3C3C3C3E2E2C3C3C3C3C3C3C3E2C3E2C3C3C3C3C3C3E2E2C3E2C3C3C3C3C3C3C3E2C3E2E2E2E2E2E2E2E2E2E2E2E2E2E2E2E2E2BEE2E2E2E2F5F5F5E2E2E2E2BEBEBEBEBEBEBEBEBEBEBEBEBEBEBEBEBEBEBEBEBEBEBEBEBEBEBEBEBEBEBEBEBEBEBEBEBE
310
BEBEBEBEBEBEBEBEBEBEBEBEBEBEBEBEBEBEBEBEBEBEBEBEBEBEBEBEBEBEC3C3C3C3C3C3C3C3C3C3C3E2E2E2E2E2E2E2E2E2E2E2E2E2E2C3C3C3C3C3E2E2E2E2BEE2E2E2E2E2E2E2E2E2E2E2C3C3C3C3C3C3C3E2E2C3C3C3C3C3C3C3E2C3E2C3C3C3C3C3C3E2E2C3E2C3C3C3C3C3C3E2E2C3E2E2E2E2E2E2E2E2E2E2E2E2E2
310
E2E2E2E2BEE2E2E2E2F5F5F5E2E2E2E2BEC3C3C3C3C3C3C3C3C3C3C3C3E2E2E2E2E2E2E2E2E2E2E2E2E2E2E2E2E2BEE2E2E2E2E2E2E2E2C3C3C3E2E2E2E2E2E2E2E2E2E2E2E2E2E2E2E2E2E2E2E2E2E2E2E2BEC3C3C3C3C3C3C3C3C3C3C3C3E2E2E2E2E2E2E2E2E2E2E2E2E2C3C3C3C3C3E2E2E2E2BEE2E2E2E2E2E2E2E2E2
310
E2E2C3C3C3C3C3C3C3C3C3C3C3C3C3C3C3C3C3C3C3C3C3C3C3C3C3C3C3C3C3C3C3C3C3C3C3C3C3C3E2E2E2E2E2E2E2E2E2E2E2E2E2E2E2E2E2BEE2E2E2E2F5F5F5E2E2E2E2BEC3C3C3C3C3C3C3C3C3C3C3C3E2E2E2E2E2E2E2E2E2E2E2E2E2E2E2E2E2BEE2E2E2E2E2E2E2E2C3C3C3E2E2E2E2E2E2E2E2E2E2E2E2E2E2E2E2
310
E2E2E2E2E2E2E2E2BEE2E2E2E2E2E2E2E2E2E2E2E2E2E2E2E2E2E2E2E2E2E2E2E2E2E2E2E2E2E2E2E2E2E2BEE2E2E2E2E2E2E2E2E2E2E2C3E2E2E2E2C3C3C3C3C3C3C3E2E2E2E2E2C3E2E2E2E2E2E2E2E2E2E2E2E2E2E2E2E2E2E2E2C3E2E2E2E2E2E2E2E2E2E2E2E2E2E2E2E2E2BEE2E2E2E2F5F5F5E2E2E2E2BEBEBEBEBE
310
BEBEBEBEBEBEBEBEBEBEBEBEBEBEBEBEBEBEBEBEBEBEBEBEBEBEBEBEBEBEBEBEBEBEBEBEBEBEBEBEBEBEBEBEBEBEBEBEBEBEBEBEBEBEBEBEBEBEBEBEBEBEE2E2E2E2E2E2E2E2E2E2E2E2E2E2E2E2E2E2E2E2E2E2E2E2E2E2E2E2E2E2E2E2E2E2BEE2E2E2E2E2E2E2E2E2E2E2C3E2E2E2E2C3C3C3C3C3C3C3E2E2E2E2E2C3E2
310
E2E2E2E2E2E2E2E2E2C3C3C3C3C3E2E2E2E2C3E2E2E2E2E2E2E2E2E2E2E2E2E2E2E2E2E2BEE2E2E2E2F5F5F5E2E2E2E2BEC3C3C3C3C3C3C3C3C3C3C3E2E2E2E2E2E2E2E2E2E2E2BEBEBEBEBEE2E2BEE2E2E2E2E2E2E2E2E2E2E2E2E2E2E2E2E2E2E2E2E2E2E2E2E2E2E2E2E2E2E2E2E2E2E2BEE2E2E2E2E2E2E2E2E2E2E2E2
310
E2E2E2E2E2E2E2E2E2E2E2E2E2E2E2E2E2E2E2E2E2E2BEE2E2E2E2E2E2E2E2E2E2E2C3E2C3C3C3C3C3C3C3C3C3C3C3C3C3C3C3C3E2E2E2E2E2E2E2E2E2E2C3C3C3C3C3E2E2E2E2C3E2E2E2E2E2E2E2E2E2E2E2E2E2E2E2E2E2BEE2E2E2E2F5F5F5E2F5E2E2BEC3C3C3C3C3C3C3C3C3C3C3E2E2E2E2E2E2BEBEBEBEBEE2E2E2
310
E2E2E2E2BEE2E2E2E2E2E2E2E2E2E2E2E2E2E2E2E2E2E2E2E2E2E2E2E2E2E2E2E2E2E2E2E2E2E2E2BEC3C3C3C3C3C3C3C3C3C3C3C3E2C3C3C3C3C3C3C3C3C3C3C3C3C3E2C3C3C3C3C3C3E2BEE2E2E2E2E2E2E2E2E2E2E2C3C3C3C3C3C3C3C3C3C3C3C3C3C3C3C3C3C3E2E2E2E2E2E2E2E2E2E2E2E2E2E2E2E2E2E2E2C3E2E2
310
E2E2E2E2E2E2E2E2E2E2E2E2E2E2E2BEE2E2F5E2F5F5F5E2F5E2E2BEE2E2E2E2E2E2E2E2E2E2E2E2BEBEBEBEBEE2C3C3C3C3C3C3C3C3C3C3E2BEE2E2E2E2E2E2E2E2E2E2E2E2E2E2C3C3C3C3C3C3C3E2E2E2E2E2E2E2E2E2E2E2E2E2E2BEC3C3C3C3C3C3C3C3C3C3E2C3E2C3C3C3C3C3C3C3C3C3C3C3C3E2E2C3C3C3C3C3C3
310
E2BEE2E2E2E2E2E2E2E2E2E2E2C3C3C3C3C3C3C3C3C3C3C3C3C3C3C3C3C3C3C3C3C3C3C3C3C3C3C3C3C3C3C3C3C3C3C3C3C3C3E2E2E2E2E2E2E2E2E2E2E2E2E2E2E2E2E2BEE2E2F5E2F5F5F5E2F5E2E2BEE2E2E2E2E2E2E2BEBEBEBEBEE2E2E2E2E2E2C3C3C3C3C3C3C3C3C3C3E2BEE2E2E2E2E2E2E2E2E2E2E2E2E2E2C3C3
310
C3C3C3C3C3E2E2E2E2E2E2E2E2E2E2E2E2E2E2BEC3C3C3C3C3C3C3C3C3C3E2C3E2C3C3C3C3C3C3E2E2C3C3C3C3E2E2C3C3C3C3C3C3E2BEE2E2E2E2E2E2E2E2E2E2E2E2E2E2E2E2E2E2E2E2E2E2E2E2E2E2E2E2E2E2E2E2E2E2E2E2E2E2E2E2E2E2E2E2E2E2E2E2E2E2E2E2E2E2E2E2E2E2E2E2E2E2E2E2E2E2BEE2E2F5E2F5
310
F5F5E2F5E2E2BEE2E2BEBEBEBEBEE2E2E2E2E2E2E2E2E2E2E2C3C3C3C3C3C3C3C3C3C3E2BEE2E2E2E2E2E2E2E2E2E2E2E2E2E2C3C3C3C3C3C3C3E2E2E2E2E2E2E2E2E2E2E2E2E2E2BEE2E2E2E2E2E2E2E2E2E2E2E2E2E2E2E2E2E2E2E2E2E2E2E2E2E2E2E2E2E2E2E2E2E2BEE2E2E2E2E2E2E2E2E2E2E2E2E2E2E2E2E2E2E2
310
E2E2E2E2E2E2E2E2E2E2E2E2E2E2E2E2E2E2E2E2E2E2E2E2E2E2E2E2E2E2E2E2E2E2E2E2E2E2E2E2E2E2E2E2E2E2E2BEE2E2F5E2F5F5F5E2F5E2E2BEBEBEBEBEBEBEBEBEBEBEBEBEBEBEBEBEBEBEBEBEBEBEBEBEBEBEBEBEBEBEBEBEBEBEBEBEBEBEBEBEBEBEBEBEBEBEBEBEBEBEBEBEBEBEBEBEBEBEBEBEBEBEBEBEBEBEBE
310
BEBEBEBEBEBEBEBEBEBEBEBEBEBEBEBEBEBEBEBEBEBEBEBEBEBEBEBEBEBEBEBEBEBEBEBEBEBEBEBEBEBEBEBEBEBEBEBEBEBEBEBEBEBEBEBEBEBEBEBEBEBEBEBEBEBEBEBEBEBEBEBEBEBEBEBEBEBEBEBEBEBEBEBEBEBEBEBEBEBEBEBEBEBEBEBEBEBEBEBEBEE2E2F5E2F5F5F5E2F5E2E2BEE2E2E2E2E2E2E2E2E2E2E2E2E2E2
310
E2E2E2E2E2E2E2E2E2E2E2E2E2E2E2E2E2E2E2E2E2E2E2E2E2E2E2E2E2E2E2E2E2E2E2E2E2E2E2E2E2E2E2E2E2E2E2E2E2E2E2E2E2E2E2E2E2E2E2E2E2E2E2E2E2E2E2E2E2E2E2E2E2E2E2E2E2E2E2E2E2E2E2E2E2E2E2E2E2E2E2E2E2E2E2E2E2E2E2E2E2E2E2E2E2E2E2E2E2E2E2E2E2E2E2E2E2E2E2E2E2E2E2E2E2E2E2
310
E2E2E2E2E2E2E2E2E2E2E2E2E2E2E2E2E2E2E2E2E2E2E2E2E2E2BEE2E2F5E2F5F5F5E2F5E2E2BEE2E2E2E2E2E2E2E2E2E2E2E2E2E2E2E2E2E2E2E2E2E2E2E2E2E2E2E2E2E2E2E2E2E2E2E2E2E2E2E2E2E2E2E2E2E2E2E2E2E2E2E2E2E2E2E2E2E2E2E2E2E2E2E2E2E2E2E2E2E2E2E2E2E2E2E2E2E2E2E2E2E2E2E2E2E2E2E2
310
E2E2E2E2E2E2E2E2E2E2E2E2E2E2E2E2E2E2E2E2E2E2E2E2E2E2E2E2E2E2E2E2E2E2E2E2E2E2E2E2E2E2E2E2E2E2E2E2E2E2E2E2E2E2E2E2E2E2E2E2E2E2E2E2E2E2E2E2E2E2E2E2E2E2E2E2E2E2E2BEE2E2F5E2F5F5F5E2F5E2E2BEE2E2E2E2E2E2E2E2E2E2E2E2E2E2E2E2E2E2E2E2E2E2E2E2E2E2E2E2E2E2E2E2E2E2E2
310
E2E2E2E2E2E2E2E2E2E2E2E2E2E2E2E2E2E2E2E2E2E2E2E2E2E2E2E2E2E2E2E2E2E2E2E2E2E2E2E2E2E2E2E2E2E2E2E2E2E2E2E2E2E2E2E2E2E2E2E2E2E2E2E2E2E2E2E2E2E2E2E2E2E2E2E2E2E2E2E2E2E2E2E2E2E2E2E2E2E2E2E2E2E2E2E2E2E2E2E2E2E2E2E2E2E2E2E2E2E2E2E2E2E2E2E2E2E2E2E2E2E2E2E2E2E2E2
310
E2E2E2E2E2BEE2E2F5E2F5F5F5E2F5E2E2BEE2E2E2E2E2E2E2E2E2E2E2E2E2E2E2E2E2E2E2E2E2E2E2E2E2E2E2E2E2E2E2E2E2E2E2E2E2E2E2E2E2E2E2E2E2E2E2E2E2E2E2E2E2E2E2E2E2E2E2E2E2E2E2E2E2E2E2E2E2E2E2E2E2E2E2E2E2E2E2E2E2E2E2E2E2E2E2E2E2E2E2E2E2E2C3C3C3C3C3C3C3C3E2E2E2E2E2E2E2
310
E2E2E2E2E2E2E2E2E2E2E2E2E2E2E2E2E2E2E2E2E2E2E2E2E2E2E2E2E2E2E2E2E2E2E2E2E2E2E2E2E2E2E2E2E2E2E2E2E2E2E2E2E2E2E2E2E2E2BEE2E2F5E2F5F5F5E2F5E2E2BEE2E2E2E2E2E2E2E2E2E2E2E2E2E2E2E2E2E2E2E2E2E2E2E2E2E2E2E2E2E2E2E2E2E2E2E2E2E2E2E2E2E2E2E2E2E2E2E2E2E2E2E2E2E2E2E2
310
E2E2E2E2E2E2E2E2E2E2E2E2E2E2E2E2E2E2E2E2E2E2E2E2E2E2E2E2E2E2E2BEBEBEBEE2282828C3C3C3C3C3C3C3E2E2E2E2E2E2E2E2E2E2E2E2E2E2E2E2E2E2E2E2E2E2E2E2E2E2E2E2E2E2E2E2E2E2E2E2E2E2E2E2E2E2E2E2E2E2E2E2E2E2E2E2E2E2E2E2E2E2E2E2E2E2E2E2E2BEE2E2F5E2F5F5F5E2F5E2E2BEE2E2E2
310
E2E2E2E2E2E2E2E2E2E2E2E2E2E2E2E2E2E2E2E2E2E2E2E2E2E2E2E2E2E2E2E2E2E2E2E2E2E2E2E2E2E2E2E2E2E2E2E2E2E2E2E2E2E2E2E2E2E2E2E2E2E2E2E2E2E2E2E2E2E2E2E2E2E2E2C3C3C3C3C3E2E2E2E2BEE2E22828E2E2E2E2E2E2E2E2E2E2E2E2E2E2E2E2E2E2E2E2E2E2E2E2E2E2E2E2E2E2E2E2E2E2E2E2E2E2
310
E2E2E2E2E2E2E2E2E2E2E2E2E2E2E2E2E2E2E2E2E2E2E2E2E2E2E2E2E2E2E2E2E2E2E2E2E2BEE2E2F5E2F5F5F5E2F5E2E2BEE2E2E2E2E2E2E2E2E2E2E2E2E2E2E2E2E2E2E2E2E2E2E2E2E2E2E2E2E2E2E2E2E2E2E2E2E2E2E2E2E2E2E2E2E2E2E2E2E2E2E2E2E2E2E2E2E2E2E2E2E2E2E2E2E2E2E2E2E2E2E2E2E2E2E2E2E2
310
E2C3C3C3C3C3E2E2E2E2BEE2E228E2E2E2E2E2E2E2E2E2E2E2E2E2E2E2E2E2E2E2E2E2E2E2E2E2E2E2E2E2E2E2E2E2E2E2E2E2E2E2E2E2E2E2E2E2E2E2E2E2E2E2E2E2E2E2E2E2E2E2E2E2E2E2E2E2E2E2E2E2E2E2E2E2E2E2E2BEE2E2F5E2F5F5F5E2F5E2E2BEE2E2E2E2E2E2E2E2E2E2E2E2E2E2E2E2E2E2E2E2E2E2E2E2
310
E2E2E2E2E2E2E2E2E2E2E2E2E2E2E2E2E2E2E2E2E2E2E2E2E2E2E2E2E2E2E2E2E2E2E2E2E2E2E2E2E2E2E2E2E2E2E2E2E2E2E2E2E2E2C3C3C3C3C3E2E2E2E2BEBEBEBE282828F5E2E2E2E2E2E2E2E2E2E2E2E2E2E2E2E2E2E2E2E2E2E2E2E2E2E2E2E2E2E2E2E2E2E2E2E2E2E2E2E2E2E2E2E2E2E2E2E2E2E2E2E2E2E2E2E2
310
E2E2E2E2E2E2E2E2E2E2E2E2E2E2E2E2BEE2E2F5E2F5F5F5E2F5E2E2BEE2E2E2E2E2E2E2E2E2E2E2E2E2E2E2E2E2E2E2E2E2E2E2E2E2E2E2E2E2E2E2E2E2E2E2E2E2E2E2E2E2E2E2E2E2E2E2E2E2E2E2E2E2E2E2E2E2E2E2E2E2E2E2E2E2E2E2E2E2E2E2E2E2E2E2E2E2E2C3C3C3C3C3E22828E2E2BE28E2E2E2E228E2E2E2
310
E2E2E2E2E2E2E2E2E2E2E2E2E2E2E2E2E2E2E2E2E2E2E2E2E2E2E2E2E2E2E2E2E2E2E2E2E2E2E2E2E2E2E2E2E2E2E2E2E2E2E2E2E2E2E2E2E2E2E2E2E2E2E2E2E2E2E2E2E2BEE2E2F5E2F5F5F5E2F5E2E2BEE2E2E2E2E2E2E2E2E2E2E2E2E2E2E2E2E2E2E2E2E2E2E2E2E2E2E2E2E2E2E2E2E2E2E2E2E2E2E2E2E2E2E2E2E2
310
E2E2E2E2E2E2E2E2E2E2E2E2E2E2E2E2E2E2E2E2E2E2E2E2E2E2E2E2E2E2E2E2E2E2E2E2E2E2E2E2E228E2BE28E2E2E2E228E2E2E2E2E2E2E2E2E2E2E2E2E2E2E2E2E2E2E2E2E2E2E2E2E2E2E2E2E2E2E2E2E2E2E2E2E2E2E2E2E2E2E2E2E2E2E2E2E2E2E2E2E2E2E2E2E2E2E2E2E2E2E2E2E2E2E2E2E2E2E2E2BEE2E2F5E2
310
F5F5F5E2F5E2E2BEE2E2E2E2E2E2E2E2E2E2E2E2E2E2E2E2E2E2E2E2E2E2E2E2E2E2E2E2E2E2E2E2E2E2E2E2E2E2E2E2E2E2E2E2E2E2E2E2E2E2E2E2E2E2E2E2E2E2E2E2E2E2E2E2E2E2E2E2E2E2E2E2E2E2E2E2E2E2E2E2E2E2E2E2E2E2E228BE28E2E2C3C328E2E2E2E2E2E2E2E2E2E2E2E2E2E2E2E2E2E2E2E2E2E2E2E2
310
E2E2E2E2E2E2E2E2E2E2E2E2E2E2E2E2E2E2E2E2E2E2E2E2E2E2E2E2E2E2E2E2E2E2E2E2E2E2E2E2E2E2E2E2E2E2E2E2BEE2E2F5E2F5F5F5E2E2E2E2BEE2E2E2E2E2E2E2E2E2E2E2E2E2E2E2E2E2E2E2E2E2E2E2E2E2E2E2E2E2E2E2E2E2E2E2E2E2E2E2E2E2E2E2E2E2E2E2E2E2E2E2E2E2E2E2E2E2E2E2E2E2E2E2E2E2E2
310
E2E2E2E2E2E2E2E2E2E2E2E2E2E2E2E2E2E2E2E2E228BE28E2E2C3C328E2E2E2E2E2E2E2E2E2E2E2E2E2E2E2E2E2E2E2E2E2E2E2E2E2E2E2E2E2E2E2E2E2E2E2E2E2E2E2E2E2E2E2E2E2E2E2E2E2E2E2E2E2E2E2E2E2E2E2E2E2E2E2E2E2E2E2E2E2E2E2E2BEE2E2E2E2F5F5F5E2E2E2E2BEE2E2E2E2E2E2E2E2E2E2E2E2E2
310
E2E2E2E2E2E2E2E2E2E2E2E2E2E2E2E2E2E2E2E2E2E2E2E2E2E2E2E2E2E2E2E2E2E2E2E2E2E2E2E2E2E2E2E2E2E2E2E2E2E2E2E2E2E2E2E2E2E2E2E2E2E2E2E2E2E2E2E2E2E2E2E2E2E2E2BE28E2E2C3C328E2E2E2E2E2E2E2E2E2E2E2E2E2E2E2E2E2E2E2E2E2E2E2E2E2E2E2E2E2E2E2E2E2E2E2E2E2E2E2E2E2E2E2E2E2
310
E2E2E2E2E2E2E2E2E2E2E2E2E2E2E2E2E2E2E2E2E2E2E2E2E2E2E2BEE2E2E2E2F5F5F5E2E2E2E2BEE2E2E2E2E2E2E2E2E2E2E2E2E2E2E2E2E2E2E2E2E2E2E2E2E2E2E2E2E2E2E2E2E2E2E2E2E2E2E2E2E2E2E2E2E2E2E2E2E2E2E2E2E2E2E2E2E2E2E2E2E2E2E2E2E2E2E2E2E2E2E2E2E2E2E2E2E2E2E2E2E2E2E2E2E2E2E2
310
E2BE28E2E2C3C328E2E2E2E2E2E2E2E2E2E2E2E2E2E2E2E2E2E2E2E2E2E2E2E2E2E2E2E2E2E2E2E2E2E2E2E2E2E2E2E2E2E2E2E2E2E2E2E2E2E2E2E2E2E2E2E2E2E2E2E2E2E2E2E2E2E2E2E2E2E2E2E2BEE2E2E2E2F5F5F5E2E2E2E2BEE2E2E2E2E2E2E2E2E2E2E2E2E2E2E2E2E2E2E2E2E2E2E2E2E2E2E2E2E2E2E2282828
310
E2E2E2E2E2E2E2E2E2E2E2E2E2E2E2E2E2E2E2E2E2E2E2E2E2E2E2E2E2E2E2E2E2E2E2E2E2E2E2E2E2E2E2E2E2E2E2E2E2E2E2E2E2BEBEBEBEE2C3C328E2E2E2E2E2E2E2E2E2E2E2E2E2E2E2E2E2E2E2E2E2E2E2E2E2E2E2E2E2E2E2E2E2E2E2E2E2E2282828E2E2E2E2E2E2E2E2E2E2E2E2E2E2E2E2E2E2E2E2E2E2E2E2E2
310
E2E2E2E2E2E2BEE2E2E2E2F5F5F5E2E2E2E2BEE2E2E2E2E2E2E2E2E2E2E2E2E2E2E2E2E2E2E2E2E2E2E2E2E2E2E2E2E2E2E2282828E2E2E2E2E2E2E2E2E2E2E2E2E2E2E2E2E2E2E2E2E2E2E2E2E2E2E2E2E2E2E228E2E2E2E2E2E2E2E2E2E2E2E2E2E2E2E2E2E2E2E2E2E22828E2E2E2E228E2E2E2E2E2E2C3C3C3C3C3C3C3
310
C3C3C3E2E2E2E2E2E2E2E2E2E2E2E2E2E2E2E2E2E2E2E2E2E2282828E2E2E2E2E2E2E2E2E2E2E2E2E2E2E2E2E2E2E2E2E2E2E2E2E2E2E2E2E2E2E2BEE2E2E2E2F5F5F5E2E2E2E2BEE2E2E2E2E2E2E2E2E2E2E2E2E2E22828E2E2E2E2E2E2E2E2E2E2E2E2E2E2E2282828E2E2E2E2E2E2E2E2E2E2E2E2E2E2E2E2E2E2E2E2E2
310
E2E2E2E2E2E2E2E2C3C328E2E2E2E2E2E2E2E2E2E2E2E2E2E2E2E2E2E2E2E2E2E22828E2E2E2E228E2E2E2E2E2E2C3C3C3C3C3C3C3C3C3C3E2E2E2E2E2E2E2E2E2E2E2E2E2E2E2E2E2E2E2E2E2E2282828E2E2E2E2E2E2E2E2E2E2E2E2E2E2E2E2E2E2E2E2E2E2E2E2E2E2E2E2E2E2E2BEE2E2E2E2F5F5F5E2E2E2E2BEE2E2
310
E2E2E2E2E2E2E2E2E2E2E2E2E2C3C328E2E2E2E2E2E2E2E2E2E2E2E2E2282828E2E2E2E2E2E2E2E2E2E2E2E2E2E2E2E2E2E2E2E2E2E2E2E2E2E2E2E2E2C3C328E2E2E2E2E2E2E2E2E2E2E2E2E2E2E2E2E2E2E2E2E2E22828E2E2E2E228E2E2E2E2E2E2E2E2E2E2E2E2E2E2E2E2E2E2E2E2E2E2E2E2E2E2E2E2E2E2E2E2E2E2
310
E2E2E2E2282828E2E2E2E2E2E2E2E2E2E2E2E2E2E2E2E2E2E2E2E2E2E2E2E2E2E2E2E2E2E2E2BEE2E2E2E2F5F5F5E2E2E2E2BEE2E2E2E2E2E2E2E2E2E2E2E2E2E2C3C3C3C3C3C328E2E2E2E2E2E2E2E2E2E2282828E2E2E2E2E2E2E2E2E2E2E2E2E2E2E2E2E2E2E2E2E2E2E2E2E2E2E2E2E2C3C328E2E2E2E2E2E2E2E2E2E2
310
E2E2E2E2E2E2E2E2E2E2E2BEBEBEBEE2E2E228E2E2E2E2E2E2C3C3C3C3C3C3C3C3C3C3C3C3C3C3C3C3E2E2E2E2E2E2E2E2E2E2E2E2E2E2E2E2282828E2E2E2E2E2E2E2E2E2E2E2E2E2E2E2E2E2E2E2E2E2E2E2E2E2E2E2E2E2E2E2BEE2E2E2E2F5F5F5E2E2E2E2BEE2E2E2E2E2E2E2E2E2E2E2E2E2E2E2E2C3C3C3C3C3C328
310
E2E2BEBEBEBEBEBEBEECBEBEBEBEBEBEBEE2E2E2E2E2E2E2E2E2E2E2E2E2E2E2E2E2E2E2E2E2E2E2E2C328E2E2E2E2E2E2E2E2C3C3E2E2BEBEBEBEBEBEBEBEBEBEBEBEBEF5282828E2E2E2E2E2E2E2E2E2E2E2E2E2E2E2E2E2E2E2E2E2E2E2282828282828E2E2E2BEBEBEBEBEBEBEBEBEBEBEBEBEBEBEE2E2E2E2E2E2E2E2
310
E2E2E2E2E2E2E2E2E2E2E2E2E2E2E2E2E2BEE2E2E2E2F5F5F5E2F5E2E2BEE2E2E2E2E2E2E2E2E2E2E2E2E2E2E2C3C3C3C3C3C3C3E22828282828E2E2E2E2ECE2E2E2E2E22828BEE2E2E2E2E2E2E2E2E2E2E2E2E2E2E2E2E2E2E2E2E2E2E2C3282828282828282828282828E2BEE2E2E2BEE2E2E2E2BEE2E2E2BEE2E2E2E2E2
310
E2E2E2E2C3C3C3C3C3C3C3C3C3C3C3C3C3E2E2E2E2E2E2E2E2E2E22828E2BEBEBEE2E2E2E2ECE2E2E2E2E2BEBEBEE2E2E2E2E2E2E2E2E2E2E2E2E2E2E2E2E2E2E2E2E2E2E2E2BEE2E2F5E2F5F5F5E2F5E2E2BEE2E2E2E2E2E2E2E2E2E2E2E2E2E2E2E2E2C3C3E2E2E2E2E2BE282828E2E2E2E2ECE2E2E2E228BE28E2BEE2E2
310
E2E2E2E2E2E2E2E2E2E2E2E2E2E2E2E2E2E2E2E2E22828E2C3E228C3C328C3C3282828E2E2BEBEE2E2E2E2BEE2E2E2BEE2E2E2E2E22828282828E2E2E2E2E2E2E2E2E2E2E2E2E2E2E2E2E2E2E2E2E2E2E2E228BEBEBEE2E2E2E2ECE2E2E2E2E2BEBEE2BEE2E2E2E2E2E2E2E2E2E2E2E2E2E2E2E2E2E2E2E2E2E2E2BEE2E2F5
310
E2F5F5F5E2F5E2E2BEE2E2E2E2E2E2E2E2E2E2E2E2E2E2E2E2E2E2E2E2E2E2E2E2BE2828E22828E2E2ECE2E2E2E2E22828E2BEE2E2E2E2E2E2E2E2E2E2E2E2E2E2E2E2E2E2E2E2E2E2E2282828282828282828282828E2BEE2E2BEE2E2E2E2E2BEE2E2E2BEE2E2E2E228E2E2E2E2C3C3C3C3C3C3C3C3C3C3E2E2E2E2E2E2E2
310
E2E2E2E2E2E2E2E228BEBEBEE2E2E2E2ECE2E2E2E2E2BEBEE2BEE2E2E2E2E2E2E2E2E2E2E2E2E2E2E2E2E2E2E2E2E2E2E2BEE2E2F5E2F5F5F5E2F5E2E2BEE2E2E2E2E2E2E2E2E2E2E2E2E2E2E2E2E2E2E2E2E2E2E2E2BEE2E2E2E2E2BEBEECBEBEE2E2E2E2E2E2BEE2E2E2E2E2E2E2E2E2E2E2E2E2E2E2E2E2E2E228F52828
310
282828282828282828282828F5BEE2E2BEE2E2E2E2E2BEE2E2E2BEE2E2E2E228E2E2E2E2E2E2E2E2E2E2E2E2E2E2E2E2E2E2E2E2E2E2E2E2E2E2E2E2E2BE28E2E2E2E2E2E2ECE2E2E2E2E2E2E2E2BEE2E2E2E2E2E2E2E2E2E2E2E2E2E2E2E2E2E2E2E2E2E2E2BEE2E2F5E2F5F5F5E2F5E2E2BEE2E2E2E2E2E2E2E2E2E2E2E2
310
E2E2E2E2E2E2E2E2E2E2E2E2BEE2E2E2E2BEE2E2ECE2E2BEE2E2E2E2E2BEE2E2E2E2E2E2E2E2E2E2E2E2E2E2E2E2E2E2E2E228E2E228E2E2E2E2E2E2E2E2E2E2E2BEBEE2E2BEE2E2E2E2E2BEE2E2E2BEE2E2E2E228E2E2E228E2E2E2E2E2E2E2E2E2E2E2E2E2E2E2E2E2E2E2E2E2E2E2E2E2BE28E2E2E2E2ECECECECECE2E2
310
E2E2E2E2BEE2E2E2E2E2E2E2E2E2E2E2E2E2E2E2E2E2E2E2E2E2E2E2BEE2E2F5E2F5F5F5E2F5E2E2BEE2E2E2E2E2E2E2E2E2E2E2E2E2E2E2E2E2E2E2E2E2E2E2E2BEE2E2E2E2BEE2E2ECE2E2E2BEE2E2E2E2BEE2E2E2E2E2E2E2E2E2E2E2E2E2E2E2E2E2C3C3E228E2E228E2E2E2E2E2E2E2E2E2E2E2BEBEE2E2BEE2E2E2E2
310
E2BEE2E2E2BEE2E2E228E2E2E2E228E2E2E2E2E2E2E2E2E2E2E2E2E2E2E2E2E2E2E2E2E2E2E2E2E2BEE22828E2ECE2E2ECE2E2ECECE2E2E2E2BEE2E2E2E2E2E2E2E2E2E2E2E2E2E2E2E2E2E2E2E2E2E2E2BEE2E2F5E2F5F5F5E2F5E2E2BEE2E2E2E2E2E2E2E2E2E2E2E2E2E2E2E2E2E2E2E2E2E2E2E2BEE2E2E2BEE2E2BEBE
310
BEE2E2BEE2E2E2E2BEE2E2E2E2E2E2E2E2E2E2E2E2E2E2E2E2E2C3C3E228E2E2F52828F5BEBEBEBEBEBEBEBEBEBEE2E2BEE2E2E2E2E2BEE2E2E2BEBEBEBE282828282828E2E2E2E2E2E2E2E2E2E2E2E2E2E2E2E2E2E2E2E2E2E2E2E2E2BEE2E22828ECE2BEBEBEE2E2ECE2E2E2E2BEE2E2E2E2E2E2E2E2E2E2E2E2E2E2E2E2
310
E2E2E2E2E2E2E2BEE2E2F5E2F5F5F5E2F5E2E2BEE2E2E2E2E2E2E2E2E2E2E2E2E2E2E2E2E2E2E2E2E2E2E2ECBEECECECBEECECBEECBEBEECECBEECECECBEE2E2E2E2E2E2E2E2E2E2E2E2E2E2E2E2E2C3C3E228E2E228E2E2BEECECECECECECECECBEBEECECBEECECECECECBEECECECBEECEC28ECBEECE2E228E2E2E2E2E2E2
310
E2E2E2E2E2E2E2E2E2E2E2E2E2E2E2E2ECECECBEECECECBEBEECBEECBEBEECBE28ECECECBEECECE2E2E2E2E2E2E2E2E2E2E2E2E2E2E2E2E2E2E2E2E2BEE2E2F5E2F5F5F5E2F5E2E2BEE2E2E2E2E2E2E2E2E2E2E2E2E2E2E2E2E2E2E2E2E2E2E2E2BEE2E2E2BEE2E2BEBEBEE2E2E2BEE2E2E2BEE2E2E2E2E2E2E2E2E2E2E2E2
310
E2E2E2E2E2C3C3C328E2E2282828F5BEBEBEBEBE2828BEBEBEE2E2BEE2E2E2E2E2BEE2E2E2BEBEBEBEBE2828282828E2E2E2E2E2E2E2E2E2E2E2E2E2E2E2E2E2E2E2E2E2E2E2E2E2BEE2E2E2BEBEE2BEBEBEE2E2BE28E2E2E2BEE2E2E2E2E2E2E2E2E2E2E2E2E2E2E2E2E2E2E2E2E2E2E2BEE2E2F5E2F5F5F5E2F5E2E2BEE2
310
E2E2E2E2E2E2E2E2E2E2E2E2E2E2E2E2E2E2E2E2E2E2E2BEE2E2E2BEE2E2E2BEE2E2E2BEE2E2E2E2BEE2E2E2E2E2E2E2E2E2E2E2E2E2E2E2E2E2E2C3C328E2E228E2E228E2E2E2E2E228E2E2BEBEE2E2BEE2E2E2E2E2BEE2E2E2BEE2E2E2E228E2E2E228E2E2E2E2E2E2E2E2E2E2E2E2E2E2E2E2E2E2E2E2E2E2E2E2E2BEE2
310
E2E228ECE2E2BEE2E2E2EC28E2E2E2BEE2E2E2E2E2E2E2E2E2E2E2E2E2E2E2E2E2E2E2E2E2E2E2BEE2E2F5E2F5F5F5E2F5E2E2BEE2E2E2E2E2E2E2E2E2E2E2E2E2E2E2E2E2E2E2E2E2E2E2E2BEE2E2E2E2BEE2E2ECE2E2BEE2E2E2E2E2BEE2E2E2E2E2E2E2E2E2E2E2E2E2E2E2E2E2E2C3C328E2E228E2E228E2E2E2E2E228
310
E2E2BEBEE2E2BEE2E2E2E2E2BEE2E2E2BEE2E2E2E228E2E2E228E2E2E2E2E2E2E2E2E2E2E2E2E2E2E2E2E2E2E2E2E2E2E2E2E2BEE2E2E228E2ECE2ECE2E2EC2828E2E2E2BEE2E2E2E2E2E2E2E2E2E2E2E2E2E2E2E2E2E2E2E2E2E2E2BEE2E2F5E2F5F5F5E2F5E2E2BEE2E2E2E2E2E2E2E2E2E2E2E2E2E2E2E2E2E2E2E2E2E2
310
E2E2BEE2E2E2E2E2BEE2ECE2BEE2E2E2E2E2E2BEE2E2E2E2E2E2E2E2E2E2E2E2E2E2E2E2E2E2E2E228E2E228E2E228E2E2E2E2E228E2E2BEBEE2E2BEE2E2E2E2E2BEE2E2E2BEE2E2E2E228C3C3E228E2E2E2E2E2E2E2E2E2E2E2E2E2E2E2E2E2E2E2E2E2E2E2E2E2BEE2E2E228E2E2ECECECECE228E228E2E2BEE2E2E2E2E2
310
E2E2E2E2E2E2E2E2E2E2E2E2E2E2E2E2E2E2BEE2E2F5E2F5F5F5E2F5E2E2BEE2E2E2E2E2E2E2E2E2E2E2E2E2E2E2E2E2E2E2E2E2E2E2E2BEE2E2E2E2E2E2BEECBEE2E2E2E2E2E2E2BEE2E2E2E2E2E2E2E2E2E2E2E2E2E2E2E2E2282828282828282828282828282828282828F5BEE2E2BEE2E2E2E2E2BEE2E2E2BEE2E2E2E2
310
28C3C3E228E2E2E2E2E2E2E2E2E2E2E2E2E2E2E2E2E2E2E2E2E2E2E2E2E2BEE2E2E228E2E2E2ECE2E2E228E2E228E2BEE2E2E2E2E2E2E2E2E2E2E2E2E2E2E2E2E2E2E2E2E2E2E2BEE2E2F5E2F5F5F5E2F5E2E2BEE2E2E2E2E2E2E2E2E2E2E2E2E2E2E2E2E2E2E2E2E2E2E2E2BEBEBE28E2E2E2E2ECE2E2E2E2E22828E2BEE2
310
E2E2E2E2E2E2E2E2E2E2E2E2E2E2E2E228C3C328E2E228E2E228E2E2E2E228C3C32828BEE2E2BEE2E2E2E2E2BEE2E2E2BEE2E2E2E228C3C3C328E2E2E2E2E2E2E2E2E2E2E2E2E2E2E2E2E2E2E2E2E2E2E2E2E2BEBEBEBE28E2E2E2ECE2E2E228E2BE28E2BEE2E2E2E2E2E2E2E2E2E2E2E2E2E2E2E2E2E2E2E2E2E2E2BEE2E2
310
F5E2F5F5F5E2F5E2E2BEE2E2E2E2E2E2E2E2E2E2E2E2E2E2E2E2E2E2E2E2E2E2E2E2BEBEBEBEE2E2E2E2ECE2E2E2E2282828E2BEE2E2E2E2E2E2E2E2E2E2E2E2E2E2E2E2E228C3C328E2E228E2E228E2E2E2E228C3C32828BEE2E2BEBEE2E2E2E2BEE2E2E2BEE2E2E2E228E2C3C328E2E2E2E2E2E2E2E2E2E2E2E2E2E2E2E2
310
E2E2E2E2E2E2E2E2E2BEBEBEBE28E2E2E2ECE2E2E228E2BEBE28BEE2E2E2E2E2E2E2E2E2E2E2E2E2E2E2E2E2E2E2E2E2E2E2BEE2E2F5E2F5F5F5E2E2E2E2BEE2E2E2E2E2E2E2E2E2E2E2E2E2E2E2E2E2E2E2E2E2E2E2E228BE28E2E2E2E2E2ECE2E2E2E2E228E2BE28E2E2E2E2E2E2E2E2E2E2E2E2E2E2E2E2E22828282828
310
2828E2E228E2E2E2E22828282828BEE2E2E2BEE2E2E2E2BEE2E2E2BEE2E2E2E228E2C3C328E2E2E2E2E2E2E2E2E2E2E2E2E2E2E2E2E2E2E2E2E2E2E2E2E2E2BEE2E228E2E2E2ECE2E2E228E2E2E228E2E2E2E2E2E2E2E2E2E2E2E2E2E2E2E2E2E2E2E2E2E2E2E2BEE2E2E2E2F5F5F5E2E2E2E2BEE2E2E2E2E2E2E2E2E2E2E2
310
E2E2E2E2E2E2E2E2E2E2E2E2E228BEBEBEBEBEBEBEECBEBEBEBEBEBEBEE228E2E2E2E2E2E2E2E2E2E2E2E2E2E2E2E2E228C3C32828E228E2E228E2E2E2E2E2E2E2E228F5BEBEBEBEBEBEBEBEBEBEBEBE28E2E2E2E228E2C3C328E2E2E2E2E2E2E2E2E2E2E2E2E2E2E2E2E2E2E2E2E2E2E2E2E2E2BEBEBE28BEBEBEBEBEBEBE
310
28BEBEBEE228C3C3C3C3C3C3C3C3C3C3C3E2E2E2E2E2E2E2E2E2E2E2E2BEE2E2E2E2F5F5F5E2E2E2E2BEE2E2E2E2E2E2E2E2E2E2E2E2E2E2E2E2E2E2E2E2E2E2E2E228E228282828C3C3ECC3C3C32828F5E2E228E2E2E2E2E2E2E2E2E2E2E2E2E2E2E2E2E228C3C32828C328E2E228E2E2E2E2E2E2E228282828E2C3C3E2E2
310
E2E2E2E2E2E228E2E2E2E228E2E2E228E2E2E2E2E2E2E2E2E2E2E2E2E2E2E2E2E2E2E2E2E2E2E2E2E2E2E2E2E22828C3C3C3C3282828E2E2E2E228C3C3C3C3C3C3C3C3C32828E2E2E2E2E2E2E2E2E2E2E2E2BEE2E2E2E2F5F5F5E2E2E2E2BEE2E2E2E2E2E2E2E2E2E2E2E2E2E2E2E2E2E2E2E2E2E2E2E228E228E2E2C3C3C3
310
C3C3C3C3E2E228E2E228E2E2E2E2E2E2E2E2E2E2E2E2E2E2E2E2E228C3C328282828E2E228E2E2E2E2E2E2282828F52828C3C3E2E2E2E2E2E2E2E228E2E2E2E228E2E2E2E2E2E2E2E2E2E2E2E2E2E2E2E2E2E2E2E2E2E2E2E2E2E2E2E2E2E2E2E2E22828C3C3C3C3E22828E2E2E2E2E2C3C3C3C3C3C3C3C3C3E2E2E2E2E2E2
310
E2E2E2E2E2E2E2E2BEE2E2E2E2F5F5F5E2E2E2E2BEE2E2E2E2E2E2E2E2E2E2E2E2E2E2E2E2E2E2E2E2E2E2E2E228E2E2E2E2C3C3E2E2E2E2E2E2E2E2E2E228E2E2E2E2E2E2E2E2E2E2E2E2E2E2E2E2E228C3C32828C328E2E228E2E2E2E2E2E2E2E2E228E2E2E2E2E2E2E2E2E2E2E2E228E2E2E2E228E2E2E2E2E2E2E2E2E2
310
E2E2E2E2E2E2E2E2E2E2E2E2E2E2E2E2E2E2E2E2E2E2E2E2E2E2E2E2E2E2E2E2E2E2E2E2E2E2E2E2E2E2E2E2E2E2E2E2E2E2E2E2E2E2E2E2E2E2E2E2E2BEE2E2E2E2F5F5F5E2E2E2E2BEE2E2E2E2E2E2E2E2E2E2E2E2E2E2E2E2E2E2E2E2E2E2E2E228282828282828C3C3C3C3282828282828F5E2E2E2E2E2E2E2E2E2E2E2
310
E2E2E2E2E2E228C3C32828C328E2E2282828C3C3C3C3C3282828282828C3C3C3282828282828C3C3C3C3C328E2E2E2E2E2E2E2E2E2E2E2E2E2E2E2E2E2E2E2E2E2E2E2E2E2E2E2E2E2E2E2E2E2E2E2E2E2E2E2E2E2E2E2E2E2E2E2E2E2E2E2E2E2E2E2E2E2E2E2E2E2E2E2E2E2E2E2E2E2E2BEE2E2E2E2F5F5F5E2E2E2E2BE
310
E2E2E2E2E2E2E2E2E2E2E2E2E2E2E2E2E2E2E2E2E2E2E2E228E2E2E2E2E2C3C3C3C3C3E2E2E2E2E2E228E2E2E2E2E2E2E2E2E2E2E2E2E2E2E2E2E228C3C32828C328E2E2E2E2E2C3C3C3C3C3E2E2E2E2E2E2C3C3C3E2E2E2E2E2E2C3C3C3C3C3E2E2E2E2E2E2E2E2E2E2E2E2E2E2E2E2E2E2E2E2E2E2E2E2E2E2E2E2E2E2E2
310
E2E2E2E2E2E2E2E2E2E2E2E2E2E2E2E2E2E2E2E2E2E2E2E2E2E2E2E2E2E2E2E2E2E2E2E2E2E2E2E2BEE2E2E2E2F5F5F5E2E2E2E2BEE2E2E2E2E2E2E2E2E2E2E2E2E2E2E2E2E2E2E2E2E2E2E2E2E2E2E2E2E2E2C3C3E2E2E2E2E2E2E2E2E2E2E2E2E2E2E2E2E2E2E2E2E2E2E2E2E2E2E228E2E22828E228E2E2E2E2E2E2E2E2
310
E2E2E2E2E2E2E2E2E2E2E2E2E2E2E2E2E2E2E2E2E2E2E2E2E2E2E2E2E2E2E2E2E2E2E2E2E2E2E2E2E2E2E2E2E2E2E2E2E2E2E2E2E2E2E2E2E2E2E2E2E2E2E2E2E2E2E2E2E2E2E2E2E2E2E2E2E2E2E2E2E2E2E2E2E2E2E2E2E2E2E2E2E2BEE2E2E2E2F5F5F5E2E2E2E2BEE2E2E2E2E2E2E2E2E2E2E2E2E2E2E2E2E2E2E2E2E2
310
E2E2E2E2E2E2E2E2E2E2E2E2E2E2E2E2E2E2E2E2E2E2E2E2E2E2E2E2E2E2E2E2E2E2E2E2E2E228282828282828E2E2E2E2E2E2E2E2E2E2E2E2E2E2E2E2E2E2E2E2E2E2E2E2E2E2E2E2E2E2E2E2E2E2E2E2E2E2E2E2E2E2E2E2E2E2E2E2E2E2E2E2E2E2E2E2E2E2E2E2E2E2E2E2E2E2E2E2E2E2E2E2E2E2E2E2E2E2E2E2E2E2
310
E2E2E2E2E2E2E2E2E2E2E2E2E2E2E2E2E2E2E2BEE2E2E2E2F5F5F5E2F5E2E2BEE2E2E2E2E2E2E2E2E2E2E2E2E2E2E2E2E2E2E2E228282828282828282828282828282828282828282828E2E2E2E2E2E2E2E2E2E2E2E2E2E2E2E2E2E2E2E2E2E2E2E2E2E2E2E2E2E2E2E2E2E2E2E2E2E2E2282828282828282828E2E2E2E2E2
310
E2E2E2E2E2E2E2E2E2E2E2E2E2E2E2E2E2E2E2E2E2E2E2E2E2E2E2E2E2E2E2E2E2E2282828282828282828E2E2E2E2E2E2E2E2E2E2E2E2E2E2E2E2E2E2E2E2E2E2E2E2E2E2E2E2E2BEE2E2F5E2F5F5F5E2F5E2E2BEE2E2E2E2E2E2E2E2E2E2E2E2E2E2E2E2E2E2E2E228282828282828282828282828282828282828282828
310
E2E2E2E2E2E2E2E2E2E2E2E2E2E2E2E2E2E2E2E2E2E2E2E2E2E2E2E2E2E2E2E2E2E2E2E2E2E2E2282828282828282828E2E2E2E2E2E2E2E2E2E2E2E2E2E2E2E2E2E2E2E2E2E2E2E2E2E2E2E2E2E2E2E2E2E2E2E2E2E2E2282828282828282828E2E2E2E2E2E2E2E2E2E2E2E2E2E2E2E2E2E2E2E2E2E2E2E2E2E2E2E2E2BEE2
310
E2F5E2F5F5F5E2F5E2E2BEE2E2E2E2E2E2E2E2E2E2E2E2E2E2E2E2E2E2E2E2E2E2E2E2E2E2E2E2E2E2E2E2E2E2E2E2E2E2E2E2E2E2E2E2E2E2E2E2E2E2E2E2E2E2E2E2E2E2E2E2E2E2E2E2E2E2E2E2E2E2E2E2E2E2E2E2E2E2E2E2E2E2E2E2E2E2E2E2E2E2E2E2E2E2E2E2E2E2E2E2E2E2E2E2E2E2E2E2E2E2E2E2E2E2E2E2
310
E2E2E2E2E2E2E2E2E2E2E2E2E2E2E2E2E2E2E2E2E2E2E2E2E2E2E2E2E2E2E2E2E2E2E2E2E2E2E2E2E2E2E2E2E2E2E2E2E2E2E2BEE2E2F5E2F5F5F5E2F5E2E2BEE2E2E2E2E2E2E2E2E2E2E2E2E2E2E2E2E2E2E2E2E2E2E2E2E2E2E2E2E2E2E2E2E2E2E2E2E2E2E2E2E2E2E2E2E2E2E2E2E2E2E2E2E2E2E2E2E2E2E2E2E2E2E2
310
E2E2E2E2E2E2E2E2E2E2E2E2E2E2E2E2E2E2E2E2E2E2E2E2E2E2E2E2E2E2E2E2E2E2E2E2E2E2E2E2E2E2E2E2E2E2E2E2E2E2E2E2E2E2E2E2E2E2E2E2E2E2E2E2E2E2E2E2E2E2E2E2E2E2E2E2E2E2E2E2E2E2E2E2E2E2E2E2E2E2E2E2E2E2E2E2E2E2E2E2E2E2E2E2BEE2E2F5E2F5F5F5E2F5E2E2BEE2E2E2E2E2E2E2E2E2E2
310
E2E2E2E2E2E2E2E2E2E2E2E2E2E2E2E2E2E2E2E2E2E2E2E2E2E2E2E2E2E2E2E2E2E2E2E2E2E2E2E2E2E2E2E2E2E2E2E2E2E2E2E2E2E2E2E2E2E2E2E2E2E2E2E2E2E2E2E2E2E2E2E2E2E2E2E2E2E2E2E2E2E2E2E2E2E2E2E2E2E2E2E2E2E2E2E2E2E2E2E2E2E2E2E2E2E2E2E2E2E2E2E2E2E2E2E2E2E2E2E2E2E2E2E2E2E2E2
310
E2E2E2E2E2E2E2E2E2E2E2E2E2E2E2E2E2E2E2E2E2E2E2E2E2E2E2E2E2E2BEE2E2F5E2F5F5F5E2F5E2E2BEBEBEBEBEBEBEBEBEBEBEBEBEBEBEBEBEBEBEBEBEBEBEBEBEBEBEBEBEBEBEBEBEBEBEBEBEBEBEBEBEBEBEBEBEBEBEBEBEBEBEBEBEBEBEBEBEBEBEBEBEBEBEBEBEBEBEBEBEBEBEBEBEBEBEBEBEBEBEBEBEBEBEBEBE
310
BEBEBEBEBEBEBEBEBEBEBEBEBEBEBEBEBEBEBEBEBEBEBEBEBEBEBEBEBEBEBEBEBEBEBEBEBEBEBEBEBEBEBEBEBEBEBEBEBEBEBEBEBEBEBEBEBEBEBEBEBEBEBEBEBEBEBEBEBEBEBEBEBEBEBEBEBEBEBEBEBEBEBEBEE2E2F5E2F5F5F5E2F5E2E2E2E2E2E2E2E2E2E2E2E2E2E2E2E2E2E2E2E2E2E2E2E2E2E2E2E2E2E2E2E2E2E2
310
E2E2E2E2E2E2E2E2E2E2E2E2E2E2E2E2E2E2E2E2E2E2E2E2E2E2E2E2E2E2E2E2E2E2E2E2E2E2E2E2E2E2E2E2E2E2E2E2E2E2E2E2E2E2E2E2E2E2E2E2E2E2E2E2E2E2E2E2E2E2E2E2E2E2E2E2E2E2E2E2E2E2E2E2E2E2E2E2E2E2E2E2E2E2E2E2E2E2E2E2E2E2E2E2E2E2E2E2E2E2E2E2E2E2E2E2E2E2E2E2E2E2E2E2E2E2E2
310
E2E2E2E2E2E2E2E2E2E2E2E2F5E2F5F5F5E2F5F5F5F5F5F5F5F5E2E2E2E2E2E2E2E2E2F5F5F5F5F5F5F5F5F5F5F5F5F5F5F5F5E2E2E2E2E2E2E2E2E2F5F5F5F5F5F5F5F5F5F5F5F5F5F5F5F5E2E2E2E2E2E2E2E2E2F5F5F5F5F5F5F5F5F5F5F5F5F5F5F5F5E2E2E2E2E2E2E2E2E2F5F5F5F5F5F5F5F5F5F5F5F5F5F5F5F5E2
310
E2E2E2E2E2E2E2E2F5F5F5F5F5F5F5F5F5F5F5F5F5F5F5F5E2E2E2E2E2E2E2E2E2F5F5F5F5F5F5F5F5F5F5F5F5F5F5F5F5E2E2E2E2E2E2E2E2E2F5F5F5F5F5F5F5F5E2F5F5F5E2E2E2E2E2E2E2E2E2E2E2E2E2E2E2E2E2E2E2E2E2E2E2E2E2E2E2E2E2E2E2E2E2E2E2E2E2E2E2E2E2E2E2E2E2E2E2E2E2E2E2E2E2E2E2E2E2
310
E2E2E2E2E2E2E2E2E2E2E2E2E2E2E2E2E2E2E2E2E2E2E2E2E2E2E2E2E2E2E2E2E2E2E2E2E2E2E2E2E2E2E2E2E2E2E2E2E2E2E2E2E2E2E2E2E2E2E2E2E2E2E2E2E2E2E2E2E2E2E2E2E2E2E2E2E2E2E2E2E2E2E2E2E2E2E2E2E2E2E2E2E2E2E2E2E2E2E2E2E2E2E2E2E2E2E2E2E2E2E2E2E2E2E2E2E2E2E2E2F5EFF5F5F5F5F5
310
F5F5F5F5F5F5F5F5F5F5F5F5F5F5F5F5F5F5F5F5F5F5F5F5F5F5F5F5F5F5F5F5F5F5F5F5F5F5F5F5F5F5F5F5F5F5F5F5F5F5F5F5F5F5F5F5F5F5F5F5F5F5F5F5F5F5F5F5F5F5F5F5F5F5F5F5F5F5F5F5F5F5F5F5F5F5F5F5F5F5F5F5F5F5F5F5F5F5F5F5F5F5F5F5F5F5F5F5F5F5F5F5F5F5F5F5F5F5F5F5F5F5F5F5F5F5F5
310
F5F5F5F5F5F5F5F5F5F5F5F5F5F5F5F5F5F5F5F5F5F5F5F5F5F5F5F5F5F5F5F5F5F5F5F5F5F5F5F5F5F5F5F5F5F5F5EF
  0
XRECORD
  5
6BE7
102
{ACAD_REACTORS
330
6BE6
102
}
330
6BE6
100
AcDbXrecord
280
     1
102
SHADEPLOT
 70
     0
102
SHADEPLOTRESLEVEL
 70
     2
102
SHADEPLOTCUSTOMDPI
 70
   300
  0
ENDSEC
  0
EOF
