  0
SECTION
  2
HEADER
  9
$ACADVER
  1
AC1015
  9
$ACADMAINTVER
 70
    20
  9
$DWGCODEPAGE
  3
ANSI_1252
  9
$INSBASE
 10
0.0
 20
0.0
 30
0.0
  9
$EXTMIN
 10
809.0796395085884
 20
566.0899750133961
 30
0.0
  9
$EXTMAX
 10
1095.920121342456
 20
668.5166634184369
 30
0.0
  9
$LIMMIN
 10
0.0
 20
0.0
  9
$LIMMAX
 10
420.0
 20
297.0
  9
$ORTHOMODE
 70
     0
  9
$REGENMODE
 70
     1
  9
$FILLMODE
 70
     1
  9
$QTEXTMODE
 70
     0
  9
$MIRRTEXT
 70
     1
  9
$LTSCALE
 40
1.0
  9
$ATTMODE
 70
     1
  9
$TEXTSIZE
 40
2.399999999999999
  9
$TRACEWID
 40
1.0
  9
$TEXTSTYLE
  7
STANDARD
  9
$CLAYER
  8
DATA
  9
$CELTYPE
  6
ByLayer
  9
$CECOLOR
 62
   256
  9
$CELTSCALE
 40
1.0
  9
$DISPSILH
 70
     0
  9
$DIMSCALE
 40
1.0
  9
$DIMASZ
 40
3.0
  9
$DIMEXO
 40
1.0
  9
$DIMDLI
 40
1.0
  9
$DIMRND
 40
0.0
  9
$DIMDLE
 40
0.0
  9
$DIMEXE
 40
1.0
  9
$DIMTP
 40
0.2
  9
$DIMTM
 40
-0.2
  9
$DIMTXT
 40
3.0
  9
$DIMCEN
 40
-0.05
  9
$DIMTSZ
 40
0.0
  9
$DIMTOL
 70
     0
  9
$DIMLIM
 70
     0
  9
$DIMTIH
 70
     0
  9
$DIMTOH
 70
     0
  9
$DIMSE1
 70
     0
  9
$DIMSE2
 70
     0
  9
$DIMTAD
 70
     1
  9
$DIMZIN
 70
     8
  9
$DIMBLK
  1

  9
$DIMASO
 70
     1
  9
$DIMSHO
 70
     1
  9
$DIMPOST
  1

  9
$DIMAPOST
  1

  9
$DIMALT
 70
     0
  9
$DIMALTD
 70
     2
  9
$DIMALTF
 40
25.4
  9
$DIMLFAC
 40
1.0
  9
$DIMTOFL
 70
     1
  9
$DIMTVP
 40
5.0
  9
$DIMTIX
 70
     0
  9
$DIMSOXD
 70
     0
  9
$DIMSAH
 70
     0
  9
$DIMBLK1
  1

  9
$DIMBLK2
  1

  9
$DIMSTYLE
  2
STANDARD
  9
$DIMCLRD
 70
     3
  9
$DIMCLRE
 70
     3
  9
$DIMCLRT
 70
     6
  9
$DIMTFAC
 40
0.8
  9
$DIMGAP
 40
1.0
  9
$DIMJUST
 70
     0
  9
$DIMSD1
 70
     0
  9
$DIMSD2
 70
     0
  9
$DIMTOLJ
 70
     1
  9
$DIMTZIN
 70
     8
  9
$DIMALTZ
 70
     0
  9
$DIMALTTZ
 70
     0
  9
$DIMUPT
 70
     0
  9
$DIMDEC
 70
     2
  9
$DIMTDEC
 70
     1
  9
$DIMALTU
 70
     2
  9
$DIMALTTD
 70
     2
  9
$DIMTXSTY
  7
STANDARD
  9
$DIMAUNIT
 70
     0
  9
$DIMADEC
 70
     0
  9
$DIMALTRND
 40
0.0
  9
$DIMAZIN
 70
     0
  9
$DIMDSEP
 70
    46
  9
$DIMATFIT
 70
     3
  9
$DIMFRAC
 70
     0
  9
$DIMLDRBLK
  1

  9
$DIMLUNIT
 70
     2
  9
$DIMLWD
 70
    -1
  9
$DIMLWE
 70
    -2
  9
$DIMTMOVE
 70
     0
  9
$LUNITS
 70
     2
  9
$LUPREC
 70
     2
  9
$SKETCHINC
 40
1.0
  9
$FILLETRAD
 40
5.0
  9
$AUNITS
 70
     0
  9
$AUPREC
 70
     0
  9
$MENU
  1
.
  9
$ELEVATION
 40
0.0
  9
$PELEVATION
 40
0.0
  9
$THICKNESS
 40
0.0
  9
$LIMCHECK
 70
     0
  9
$CHAMFERA
 40
3.0
  9
$CHAMFERB
 40
3.0
  9
$CHAMFERC
 40
3.5
  9
$CHAMFERD
 40
0.7853981633974483
  9
$SKPOLY
 70
     0
  9
$TDCREATE
 40
2453787.436149942
  9
$TDUCREATE
 40
2453787.352816609
  9
$TDUPDATE
 40
2454587.453290810
  9
$TDUUPDATE
 40
2454587.369957477
  9
$TDINDWG
 40
1.7100343056
  9
$TDUSRTIMER
 40
1.7091822222
  9
$USRTIMER
 70
     1
  9
$ANGBASE
 50
0.0
  9
$ANGDIR
 70
     0
  9
$PDMODE
 70
     0
  9
$PDSIZE
 40
0.0
  9
$PLINEWID
 40
0.0
  9
$SPLFRAME
 70
     0
  9
$SPLINETYPE
 70
     6
  9
$SPLINESEGS
 70
     8
  9
$HANDSEED
  5
6612
  9
$SURFTAB1
 70
     6
  9
$SURFTAB2
 70
     6
  9
$SURFTYPE
 70
     6
  9
$SURFU
 70
     6
  9
$SURFV
 70
     6
  9
$UCSBASE
  2

  9
$UCSNAME
  2

  9
$UCSORG
 10
0.0
 20
0.0
 30
0.0
  9
$UCSXDIR
 10
1.0
 20
0.0
 30
0.0
  9
$UCSYDIR
 10
0.0
 20
1.0
 30
0.0
  9
$UCSORTHOREF
  2

  9
$UCSORTHOVIEW
 70
     0
  9
$UCSORGTOP
 10
0.0
 20
0.0
 30
0.0
  9
$UCSORGBOTTOM
 10
0.0
 20
0.0
 30
0.0
  9
$UCSORGLEFT
 10
0.0
 20
0.0
 30
0.0
  9
$UCSORGRIGHT
 10
0.0
 20
0.0
 30
0.0
  9
$UCSORGFRONT
 10
0.0
 20
0.0
 30
0.0
  9
$UCSORGBACK
 10
0.0
 20
0.0
 30
0.0
  9
$PUCSBASE
  2

  9
$PUCSNAME
  2

  9
$PUCSORG
 10
0.0
 20
0.0
 30
0.0
  9
$PUCSXDIR
 10
1.0
 20
0.0
 30
0.0
  9
$PUCSYDIR
 10
0.0
 20
1.0
 30
0.0
  9
$PUCSORTHOREF
  2

  9
$PUCSORTHOVIEW
 70
     0
  9
$PUCSORGTOP
 10
0.0
 20
0.0
 30
0.0
  9
$PUCSORGBOTTOM
 10
0.0
 20
0.0
 30
0.0
  9
$PUCSORGLEFT
 10
0.0
 20
0.0
 30
0.0
  9
$PUCSORGRIGHT
 10
0.0
 20
0.0
 30
0.0
  9
$PUCSORGFRONT
 10
0.0
 20
0.0
 30
0.0
  9
$PUCSORGBACK
 10
0.0
 20
0.0
 30
0.0
  9
$USERI1
 70
     0
  9
$USERI2
 70
     0
  9
$USERI3
 70
     0
  9
$USERI4
 70
     0
  9
$USERI5
 70
     0
  9
$USERR1
 40
0.0
  9
$USERR2
 40
0.0
  9
$USERR3
 40
0.0
  9
$USERR4
 40
0.0
  9
$USERR5
 40
0.0
  9
$WORLDVIEW
 70
     1
  9
$SHADEDGE
 70
     3
  9
$SHADEDIF
 70
    70
  9
$TILEMODE
 70
     0
  9
$MAXACTVP
 70
    64
  9
$PINSBASE
 10
0.0
 20
0.0
 30
0.0
  9
$PLIMCHECK
 70
     0
  9
$PEXTMIN
 10
0.0009154015513104
 20
0.0005791177154606
 30
0.0
  9
$PEXTMAX
 10
371.6110365672757
 20
196.250579117687
 30
0.0
  9
$PLIMMIN
 10
-8.49142403195816
 20
-6.874641627233899
  9
$PLIMMAX
 10
288.4980779211669
 20
203.1198499499145
  9
$UNITMODE
 70
     0
  9
$VISRETAIN
 70
     1
  9
$PLINEGEN
 70
     0
  9
$PSLTSCALE
 70
     1
  9
$TREEDEPTH
 70
  3020
  9
$CMLSTYLE
  2
Standard
  9
$CMLJUST
 70
     0
  9
$CMLSCALE
 40
20.0
  9
$PROXYGRAPHICS
 70
     1
  9
$MEASUREMENT
 70
     1
  9
$CELWEIGHT
370
    -1
  9
$ENDCAPS
280
     0
  9
$JOINSTYLE
280
     0
  9
$LWDISPLAY
290
     0
  9
$INSUNITS
 70
     4
  9
$HYPERLINKBASE
  1

  9
$STYLESHEET
  1

  9
$XEDIT
290
     1
  9
$CEPSNTYPE
380
     0
  9
$PSTYLEMODE
290
     1
  9
$FINGERPRINTGUID
  2
{65A8C6A1-B973-4B90-93E8-5CEEA7DDEAA7}
  9
$VERSIONGUID
  2
{2BB0ECCC-6038-40DE-ABB6-97EC2CCE7EB8}
  9
$EXTNAMES
290
     1
  9
$PSVPSCALE
 40
1.0
  9
$OLESTARTUP
290
     0
  0
ENDSEC
  0
SECTION
  2
CLASSES
  0
CLASS
  1
ACDBDICTIONARYWDFLT
  2
AcDbDictionaryWithDefault
  3
ObjectDBX Classes
 90
        0
280
     0
281
     0
  0
CLASS
  1
ACDBPLACEHOLDER
  2
AcDbPlaceHolder
  3
ObjectDBX Classes
 90
        0
280
     0
281
     0
  0
CLASS
  1
LAYOUT
  2
AcDbLayout
  3
ObjectDBX Classes
 90
        0
280
     0
281
     0
  0
CLASS
  1
ACME_DOCUMENT
  2
AcMeDbDoc
  3
AcMeServices
 90
    32768
280
     0
281
     0
  0
CLASS
  1
AMGSETTINGSOBJ
  2
AmgSettingsObj
  3
"AcadM|Product Description: AutoCAD Mechanical 2000|Company: Autodesk"
 90
        0
280
     0
281
     0
  0
CLASS
  1
ACMESCOPE
  2
AcMeScope
  3
AcMeServices
 90
        0
280
     0
281
     0
  0
CLASS
  1
ACMECOMMANDHISTORY
  2
AcMeCommandHistory
  3
AcMeServices
 90
        0
280
     0
281
     0
  0
CLASS
  1
ACIMSYSVARMAN
  2
AcImSysVarManager
  3
AcMeServices
 90
        0
280
     0
281
     0
  0
CLASS
  1
ACIMREALSYSVAR
  2
AcImRealSysVar
  3
AcMeServices
 90
        0
280
     0
281
     0
  0
CLASS
  1
ACIMINTSYSVAR
  2
AcImIntSysVar
  3
AcMeServices
 90
        0
280
     0
281
     0
  0
CLASS
  1
ACMEDRAWINGMAN
  2
AcMeDrawingMan
  3
AcMeServices
 90
        0
280
     0
281
     0
  0
CLASS
  1
ACMEVIEW
  2
AcMeView
  3
AcMeServices
 90
        0
280
     0
281
     0
  0
CLASS
  1
ACDBENTITYCACHE
  2
AcMeEntityCache
  3
AcMeServices
 90
    32768
280
     0
281
     0
  0
CLASS
  1
GSMANAGER
  2
AcMeGSManager
  3
AcMeServices
 90
    32768
280
     0
281
     0
  0
CLASS
  1
AMDTINTERNALREACTOR
  2
AmdtInternalReactor
  3
AcMeServices
 90
    32768
280
     0
281
     0
  0
CLASS
  1
ACMESTATEMGR
  2
AcMeStateMgr
  3
AcMeServices
 90
        0
280
     0
281
     0
  0
CLASS
  1
ACGREFMASTER
  2
AcGrefMaster
  3
AcAttribServices
 90
        0
280
     0
281
     0
  0
CLASS
  1
ACME_DATABASE
  2
AcMeDbDatabase
  3
AcMeServices
 90
    32768
280
     0
281
     0
  0
CLASS
  1
ACRFINSADJUSTERMGR
  2
AcRfInsAdjusterMgr
  3
AcMeServices
 90
    32768
280
     0
281
     0
  0
CLASS
  1
ACGREFACADMASTER
  2
AcGrefacadMaster
  3
AcGrefServices
 90
        0
280
     0
281
     0
  0
CLASS
  1
AMIMASTER
  2
AmiMaster
  3
AmiServices
 90
        0
280
     0
281
     0
  0
CLASS
  1
ACMDATADICTIONARY
  2
AcmDataDictionary
  3
"AcmSymBB|Product Description: AutoCAD Mechanical 2004 DX|Company: Autodesk"
 90
        0
280
     0
281
     0
  0
CLASS
  1
ACMDATAENTRYBLOCK
  2
AcmDataEntryBlock
  3
"AcmSymBB|Product Description: AutoCAD Mechanical 2004 DX|Company: Autodesk"
 90
        0
280
     0
281
     0
  0
CLASS
  1
ACIMSTRSYSVAR
  2
AcImStrSysVar
  3
AcMeServices
 90
        0
280
     0
281
     0
  0
CLASS
  1
ACMSTANDARDISO
  2
AcmStandardISO
  3
"Amdt_StdImp|Product Description: AutoCAD Mechanical 2004 DX|Company: Autodesk"
 90
        0
280
     0
281
     0
  0
CLASS
  1
AMGOBJPROPCFG
  2
AmgObjPropCfg
  3
"AmgLay|Product Description: AutoCAD Mechanical 2000|Company: Autodesk"
 90
        1
280
     0
281
     0
  0
CLASS
  1
AMDTEDGESTANDARDISO
  2
AmdtEdgeStdISO
  3
"Amdt_StdImp|Product Description: AutoCAD Mechanical 2004 DX|Company: Autodesk"
 90
        0
280
     0
281
     0
  0
CLASS
  1
ACMSURFSTANDARDISO
  2
AcmSurfTextStdISO
  3
"Amdt_StdImp|Product Description: AutoCAD Mechanical 2004 DX|Company: Autodesk"
 90
        0
280
     0
281
     0
  0
CLASS
  1
ACMFCFSTANDARDISO
  2
AcmFCFStdISO
  3
"Amdt_StdImp|Product Description: AutoCAD Mechanical 2004 DX|Company: Autodesk"
 90
        0
280
     0
281
     0
  0
CLASS
  1
ACMWELDSTANDARDISO
  2
AcmWeldingStdISO
  3
"Amdt_StdImp|Product Description: AutoCAD Mechanical 2004 DX|Company: Autodesk"
 90
        0
280
     0
281
     0
  0
CLASS
  1
ACMIDSTANDARDISO
  2
AcmIdStdISO
  3
"Amdt_StdImp|Product Description: AutoCAD Mechanical 2004 DX|Company: Autodesk"
 90
        0
280
     0
281
     0
  0
CLASS
  1
ACMDATUMSTANDARDISO
  2
AcmDatumStdISO
  3
"Amdt_StdImp|Product Description: AutoCAD Mechanical 2004 DX|Company: Autodesk"
 90
        0
280
     0
281
     0
  0
CLASS
  1
ACMBOMSTANDARDISO
  2
AcmBOMStdISO
  3
"Amdt_StdImp|Product Description: AutoCAD Mechanical 2004 DX|Company: Autodesk"
 90
        0
280
     0
281
     0
  0
CLASS
  1
ACMDETAILSTANDARDISO
  2
AmdtDetailSymStdISO
  3
"Amdt_StdImp|Product Description: AutoCAD Mechanical 2004 DX|Company: Autodesk"
 90
        0
280
     0
281
     0
  0
CLASS
  1
ACMSECTIONSTANDARDISO
  2
AmdtSectionSymStdISO
  3
"Amdt_StdImp|Product Description: AutoCAD Mechanical 2004 DX|Company: Autodesk"
 90
        0
280
     0
281
     0
  0
CLASS
  1
ACMCENTERLINESTANDARDISO
  2
AmdtCenterLineStdISO
  3
"Amdt_StdImp|Product Description: AutoCAD Mechanical 2004 DX|Company: Autodesk"
 90
        0
280
     0
281
     0
  0
CLASS
  1
ACMNOTESTANDARDISO
  2
AmdtNoteStdISO
  3
"Amdt_StdImp|Product Description: AutoCAD Mechanical 2004 DX|Company: Autodesk"
 90
        0
280
     0
281
     0
  0
CLASS
  1
ACAMGLAYSTD
  2
AcAmgLayStd
  3
"AcAmgLayStd|Product Description: AutoCAD Mechanical 2000|Company: Autodesk"
 90
        0
280
     0
281
     0
  0
CLASS
  1
ACAMGDIMSTD
  2
AcAmgDimStd
  3
"AcAmgDimStd|Product Description: AutoCAD Mechanical 2000|Company: Autodesk"
 90
        0
280
     0
281
     0
  0
CLASS
  1
ACAMGHOLECHARTSTDISO
  2
AcAmgHoleChartStdISO
  3
ACMSYMBB_MODULE_NAME
 90
        0
280
     0
281
     0
  0
CLASS
  1
ACAMGTITLESTD
  2
AcAmgTitleStd
  3
"TITLEAPP"
 90
        0
280
     0
281
     0
  0
CLASS
  1
LAYER_INDEX
  2
AcDbLayerIndex
  3
ObjectDBX Classes
 90
    32768
280
     0
281
     0
  0
CLASS
  1
IDBUFFER
  2
AcDbIdBuffer
  3
ObjectDBX Classes
 90
    32768
280
     0
281
     0
  0
CLASS
  1
DICTIONARYVAR
  2
AcDbDictionaryVar
  3
ObjectDBX Classes
 90
        0
280
     0
281
     0
  0
CLASS
  1
AM_DRAWING_MGR
  2
AcDmDwgMgr
  3
AcMechDwgViewMgmt
 90
        0
280
     0
281
     0
  0
CLASS
  1
AM_DWG_DOCUMENT
  2
AcDmDwgDocument
  3
AcMechDwgViewMgmt
 90
        0
280
     0
281
     0
  0
CLASS
  1
AM_DWG_SHEET
  2
AcDmSheet
  3
AcMechDwgViewMgmt
 90
        0
280
     0
281
     0
  0
CLASS
  1
AM_VIEWDIMPARMAP
  2
AcDmViewDimParMap
  3
AcMechDwgViewMgmt
 90
        0
280
     0
281
     0
  0
CLASS
  1
AM_DWGMGR_NAME
  2
AcDmDwgMgrName
  3
AcMechDwgViewMgmt
 90
        0
280
     0
281
     0
  0
CLASS
  1
AMDTMENUSTATEMGR
  2
AmdtMenuStateMgr
  3
McadcomServices
 90
    32768
280
     0
281
     0
  0
CLASS
  1
AMDTMCOMMENUSTATE
  2
AmdtMcomMenuState
  3
McadcomServices
 90
    32768
280
     0
281
     0
  0
CLASS
  1
MAPIAMMOUDLE
  2
MApiAmModule
  3
MApiAmServices
 90
        0
280
     0
281
     0
  0
CLASS
  1
AMDTADMENUSTATE
  2
AmdtAdMenuState
  3
DesignerServices
 90
    32768
280
     0
281
     0
  0
CLASS
  1
ADAPPL
  2
AcAdAppl
  3
DesignerServices
 90
        0
280
     0
281
     0
  0
CLASS
  1
DEPMGR
  2
AcAdDepMgr
  3
DesignerServices
 90
        0
280
     0
281
     0
  0
CLASS
  1
PARAMMGR
  2
AcAdParamMgr
  3
DesignerServices
 90
        0
280
     0
281
     0
  0
CLASS
  1
PARAMSCOPE
  2
AcAdParamScope
  3
DesignerServices
 90
        0
280
     0
281
     0
  0
CLASS
  1
NAMEDAPPL
  2
AcAdNamedAppl
  3
DesignerServices
 90
        0
280
     0
281
     0
  0
CLASS
  1
AMDTDMMENUSTATE
  2
AmdtDmMenuState
  3
AcMechDwgViewMgmt
 90
    32768
280
     0
281
     0
  0
CLASS
  1
AMDTAMMENUSTATE
  2
AmdtAmMenuState
  3
DesignerAssemblies
 90
    32768
280
     0
281
     0
  0
CLASS
  1
ACAMPROJECT
  2
AcAmProject
  3
DesignerAssemblies
 90
        0
280
     0
281
     0
  0
CLASS
  1
ACAMGRCOMPDEF
  2
AcAmGrCompDef
  3
DesignerAssemblies
 90
        0
280
     0
281
     0
  0
CLASS
  1
ACCMCONTEXT
  2
AcCmContext
  3
DesignerAssemblies
 90
        0
280
     0
281
     0
  0
CLASS
  1
ACAMCOMPDEF
  2
AcAmCompDef
  3
DesignerAssemblies
 90
        0
280
     0
281
     0
  0
CLASS
  1
ACAMCOMPDEFMGR
  2
AcAmCompDefMgr
  3
DesignerAssemblies
 90
        0
280
     0
281
     0
  0
CLASS
  1
AMCONTEXTMGR
  2
AcAmContextMgr
  3
DesignerAssemblies
 90
        0
280
     0
281
     0
  0
CLASS
  1
ACAMCONTEXTMODELER
  2
AcAmContextModeler
  3
DesignerAssemblies
 90
        0
280
     0
281
     0
  0
CLASS
  1
ACMTHREADLINESTANDARDISO
  2
AmdtThreadLineStdISO
  3
"Amdt_StdImp|Product Description: AutoCAD Mechanical 2004 DX|Company: Autodesk"
 90
        0
280
     0
281
     0
  0
CLASS
  1
CATALOGSTATE
  2
AcAmCatalogState
  3
DesignerAssemblies
 90
        0
280
     0
281
     0
  0
CLASS
  1
ACAMGRCOMPDEFSET
  2
AcAmGrCompDefSet
  3
DesignerAssemblies
 90
    32768
280
     0
281
     0
  0
CLASS
  1
AMDTBROWSERDBTAB
  2
AmdtBrowserDbTab
  3
McadcomServices
 90
    32768
280
     0
281
     0
  0
CLASS
  1
CBROWSERAPPOBJECT
  2
CBrowserAppObject
  3
McadcomServices
 90
    32768
280
     0
281
     0
  0
CLASS
  1
DM_PLACEHOLDER
  2
AcDmSelsetPlaceholder
  3
AcMechDwgViewMgmt
 90
    32768
280
     0
281
     0
  0
CLASS
  1
TABLESTYLE
  2
AcDbTableStyle
  3
ObjectDBX Classes
 90
     4095
280
     0
281
     0
  0
CLASS
  1
VAACXREFPANELOBJECT
  2
VaAcXREFPanelObject
  3
VAAC_ADDIN
 90
    32768
280
     0
281
     0
  0
CLASS
  1
VAACIMAGEINVENTORY
  2
VaAcImageInventory
  3
VAAC_ADDIN
 90
    32768
280
     0
281
     0
  0
CLASS
  1
AMDTNOTETEMPLATEDB
  2
AmdtNoteTemplateDB
  3
AMDT_STDIMP_MODULE_NAME
 90
        0
280
     0
281
     0
  0
CLASS
  1
ACAMGFILTERDAT
  2
AcAmgFilterDat
  3
"AcadM|Product Description: AutoCAD Mechanical 2000|Company: Autodesk"
 90
        0
280
     0
281
     0
  0
CLASS
  1
ACMBOM
  2
AcmBom
  3
"AcmSymBB|Product Description: AutoCAD Mechanical 2004 DX|Company: Autodesk"
 90
    32768
280
     0
281
     0
  0
CLASS
  1
AMDTFORMULAUPDATEDISPATCHER
  2
AmdtFormulaUpdateDispatcher
  3
AcMeServices
 90
    32768
280
     0
281
     0
  0
CLASS
  1
DIMASSOC
  2
AcDbDimAssoc
  3
"AcDbDimAssoc|Product Desc:     AcDim ARX App For Dimension|Company:          Autodesk, Inc.|WEB Address:      www.autodesk.com"
 90
        0
280
     0
281
     0
  0
CLASS
  1
SORTENTSTABLE
  2
AcDbSortentsTable
  3
ObjectDBX Classes
 90
        0
280
     0
281
     0
  0
CLASS
  1
MATERIAL
  2
AcDbMaterial
  3
ObjectDBX Classes
 90
     1153
280
     0
281
     0
  0
CLASS
  1
VISUALSTYLE
  2
AcDbVisualStyle
  3
ObjectDBX Classes
 90
     4095
280
     0
281
     0
  0
CLASS
  1
SCALE
  2
AcDbScale
  3
ObjectDBX Classes
 90
     1153
280
     0
281
     0
  0
CLASS
  1
MLEADERSTYLE
  2
AcDbMLeaderStyle
  3
ACDB_MLEADERSTYLE_CLASS
 90
     4095
280
     0
281
     0
  0
CLASS
  1
ACDB_BLKREFOBJECTCONTEXTDATA_CLASS
  2
AcDbBlkRefObjectContextData
  3
ObjectDBX Classes
 90
     1153
280
     0
281
     0
  0
CLASS
  1
ACAD_EVALUATION_GRAPH
  2
AcDbEvalGraph
  3
ObjectDBX Classes
 90
     1153
280
     0
281
     0
  0
CLASS
  1
ACAECUSTOBJ
  2
AcAeEditorObj
  3
AcAeEditorObj
 90
     1024
280
     0
281
     0
  0
CLASS
  1
ACDB_DYNAMICBLOCKPURGEPREVENTER_VERSION
  2
AcDbDynamicBlockPurgePreventer
  3
ObjectDBX Classes
 90
     1153
280
     0
281
     0
  0
CLASS
  1
CELLSTYLEMAP
  2
AcDbCellStyleMap
  3
ObjectDBX Classes
 90
     1152
280
     0
281
     0
  0
ENDSEC
  0
SECTION
  2
TABLES
  0
TABLE
  2
VPORT
  5
8
330
0
100
AcDbSymbolTable
 70
     1
  0
VPORT
  5
611B
330
8
100
AcDbSymbolTableRecord
100
AcDbViewportTableRecord
  2
*Active
 70
     0
 10
0.0
 20
0.0
 11
1.0
 21
1.0
 12
945.6240155237749
 22
626.9660681518804
 13
0.0
 23
0.0
 14
2.5
 24
2.5
 15
10.0
 25
10.0
 16
0.0
 26
0.0
 36
1.0
 17
0.0
 27
0.0
 37
0.0
 40
260.775105445896
 41
1.608748481166464
 42
50.0
 43
0.0
 44
0.0
 50
0.0
 51
0.0
 71
     0
 72
   100
 73
     1
 74
     3
 75
     0
 76
     0
 77
     0
 78
     0
281
     0
 65
     1
110
0.0
120
0.0
130
0.0
111
1.0
121
0.0
131
0.0
112
0.0
122
1.0
132
0.0
 79
     0
146
0.0
  0
ENDTAB
  0
TABLE
  2
LTYPE
  5
5
330
0
100
AcDbSymbolTable
 70
    16
  0
LTYPE
  5
14
330
5
100
AcDbSymbolTableRecord
100
AcDbLinetypeTableRecord
  2
ByBlock
 70
     0
  3

 72
    65
 73
     0
 40
0.0
  0
LTYPE
  5
15
330
5
100
AcDbSymbolTableRecord
100
AcDbLinetypeTableRecord
  2
ByLayer
 70
     0
  3

 72
    65
 73
     0
 40
0.0
  0
LTYPE
  5
16
330
5
100
AcDbSymbolTableRecord
100
AcDbLinetypeTableRecord
  2
Continuous
 70
     0
  3
Solid line
 72
    65
 73
     0
 40
0.0
  0
LTYPE
  5
64
330
5
100
AcDbSymbolTableRecord
100
AcDbLinetypeTableRecord
  2
AM_ISO02W050
 70
     0
  3
__ __ __ __ __ __ __ __ __ __ __ __ __ __ __
 72
    65
 73
     2
 40
7.5
 49
6.0
 74
     0
 49
-1.5
 74
     0
  0
LTYPE
  5
65
330
5
100
AcDbSymbolTableRecord
100
AcDbLinetypeTableRecord
  2
AM_ISO08W050
 70
     0
  3
____ . ____ . ____ . ____ . ____ . ____ . ____
 72
    65
 73
     4
 40
18.0
 49
12.0
 74
     0
 49
-1.5
 74
     0
 49
3.0
 74
     0
 49
-1.5
 74
     0
  0
LTYPE
  5
66
330
5
100
AcDbSymbolTableRecord
100
AcDbLinetypeTableRecord
  2
AM_ISO09W050
 70
     0
  3
_____ . . _____ . . _____ . . ____ .. ____
 72
    65
 73
     6
 40
22.5
 49
12.0
 74
     0
 49
-1.5
 74
     0
 49
3.0
 74
     0
 49
-1.5
 74
     0
 49
3.0
 74
     0
 49
-1.5
 74
     0
  0
LTYPE
  5
67
330
5
100
AcDbSymbolTableRecord
100
AcDbLinetypeTableRecord
  2
Amconstr
 70
     0
  3
_______________________
 72
    65
 73
     2
 40
9999.0
 49
9999.0
 74
     0
 49
0.0
 74
     0
  0
LTYPE
  5
68
330
5
100
AcDbSymbolTableRecord
100
AcDbLinetypeTableRecord
  2
AM_ISO08W050x2
 70
     0
  3
__ . __ . __ . __ . __ . __
 72
    65
 73
     4
 40
9.0
 49
6.0
 74
     0
 49
-0.75
 74
     0
 49
1.5
 74
     0
 49
-0.75
 74
     0
  0
LTYPE
  5
69
330
5
100
AcDbSymbolTableRecord
100
AcDbLinetypeTableRecord
  2
AM_ISO02W050x2
 70
     0
  3
 _ _ _ _ _ _ _ _ _ _ _ _
 72
    65
 73
     2
 40
3.75
 49
3.0
 74
     0
 49
-0.75
 74
     0
  0
LTYPE
  5
6C
330
5
100
AcDbSymbolTableRecord
100
AcDbLinetypeTableRecord
  2
Amzigzag
 70
     0
  3
/\/-/\/-/\/-/\/-/\/-/\/
 72
    65
 73
     2
 40
11.0001
 49
0.0001
 74
     4
 75
   136
340
22C
 46
0.04
 50
0.0
 44
0.0
 45
0.0
 49
-11.0
 74
     0
  0
LTYPE
  5
7A
330
5
100
AcDbSymbolTableRecord
100
AcDbLinetypeTableRecord
  2
ACISOWELD
 70
     0
  3
_ _ _ _ _
 72
    65
 73
     2
 40
2.0
 49
2.0
 74
     0
 49
-1.0
 74
     0
  0
LTYPE
  5
7B
330
5
100
AcDbSymbolTableRecord
100
AcDbLinetypeTableRecord
  2
ACISOTGB
 70
     0
  3
__ . . __ . .
 72
    65
 73
     6
 40
9.0
 49
4.0
 74
     0
 49
-1.0
 74
     0
 49
1.0
 74
     0
 49
-1.0
 74
     0
 49
1.0
 74
     0
 49
-1.0
 74
     0
  0
LTYPE
  5
7C
330
5
100
AcDbSymbolTableRecord
100
AcDbLinetypeTableRecord
  2
ACISOTGL
 70
     0
  3
_ _ _ _ _
 72
    65
 73
     2
 40
3.0
 49
2.0
 74
     0
 49
-1.0
 74
     0
  0
LTYPE
  5
7E
330
5
100
AcDbSymbolTableRecord
100
AcDbLinetypeTableRecord
  2
CENTER
 70
     0
  3
__ . __
 72
    65
 73
     4
 40
7.0
 49
4.0
 74
     0
 49
-1.0
 74
     0
 49
1.0
 74
     0
 49
-1.0
 74
     0
  0
LTYPE
  5
D8
330
5
100
AcDbSymbolTableRecord
100
AcDbLinetypeTableRecord
  2
HIDDEN
 70
     0
  3
Hidden __ __ __ __ __ __ __ __ __ __ __ __ __ _
 72
    65
 73
     2
 40
9.524999999999998
 49
6.349999999999999
 74
     0
 49
-3.174999999999999
 74
     0
  0
ENDTAB
  0
TABLE
  2
LAYER
  5
2
102
{ACAD_XDICTIONARY
360
2F5
102
}
330
0
100
AcDbSymbolTable
 70
    16
  0
LAYER
  5
10
102
{ACAD_XDICTIONARY
360
656F
102
}
330
2
100
AcDbSymbolTableRecord
100
AcDbLayerTableRecord
  2
0
 70
     0
 62
     7
  6
Continuous
370
    -3
390
F
  0
LAYER
  5
3BE
102
{ACAD_XDICTIONARY
360
6571
102
}
330
2
100
AcDbSymbolTableRecord
100
AcDbLayerTableRecord
  2
SPEC
 70
     0
 62
     1
  6
Continuous
370
    30
390
F
  0
LAYER
  5
3BF
102
{ACAD_XDICTIONARY
360
6573
102
}
330
2
100
AcDbSymbolTableRecord
100
AcDbLayerTableRecord
  2
CENTER
 70
     0
 62
   252
  6
CENTER
370
    18
390
F
  0
LAYER
  5
3C0
102
{ACAD_XDICTIONARY
360
6575
102
}
330
2
100
AcDbSymbolTableRecord
100
AcDbLayerTableRecord
  2
DATA
 70
     0
 62
     6
  6
Continuous
370
    -3
390
F
  0
LAYER
  5
3C1
102
{ACAD_XDICTIONARY
360
6577
102
}
330
2
100
AcDbSymbolTableRecord
100
AcDbLayerTableRecord
  2
DIM
 70
     0
 62
     3
  6
Continuous
370
    18
390
F
  0
LAYER
  5
3C2
330
2
100
AcDbSymbolTableRecord
100
AcDbLayerTableRecord
  2
Defpoints
 70
     0
 62
     7
  6
Continuous
290
     0
370
    -3
390
F
  0
LAYER
  5
3C3
102
{ACAD_XDICTIONARY
360
6579
102
}
330
2
100
AcDbSymbolTableRecord
100
AcDbLayerTableRecord
  2
Gewinde
 70
     0
 62
     3
  6
Continuous
370
    18
390
F
  0
LAYER
  5
61DC
102
{ACAD_XDICTIONARY
360
657B
102
}
330
2
100
AcDbSymbolTableRecord
100
AcDbLayerTableRecord
  2
FRAME
 70
     0
 62
     1
  6
Continuous
370
    -3
390
F
  0
LAYER
  5
65E7
102
{ACAD_XDICTIONARY
360
65E9
102
}
330
2
100
AcDbSymbolTableRecord
100
AcDbLayerTableRecord
  2
0 @ 1
 70
     0
 62
     7
  6
Continuous
370
    -3
390
F
1001
AcadAnnotativeDecomposition
1000
AnnotativeData
1002
{
1070
     1
1070
     1
1002
}
  0
ENDTAB
  0
TABLE
  2
STYLE
  5
3
330
0
100
AcDbSymbolTable
 70
    10
  0
STYLE
  5
11
330
3
100
AcDbSymbolTableRecord
100
AcDbTextStyleTableRecord
  2
STANDARD
 70
     0
 40
0.0
 41
1.0
 50
0.0
 71
     0
 42
2.399999999999999
  3
ARIAL.TTF
  4

1001
ACAD
1000
Arial
1071
       34
  0
STYLE
  5
6D
330
3
100
AcDbSymbolTableRecord
100
AcDbTextStyleTableRecord
  2
ACISOTS
 70
     0
 40
1.0
 41
1.0
 50
0.0
 71
     0
 42
2.5
  3
isocp.shx
  4
bigfont.shx
  0
STYLE
  5
79
330
3
100
AcDbSymbolTableRecord
100
AcDbTextStyleTableRecord
  2
ACISOGDT
 70
     0
 40
0.0
 41
1.0
 50
0.0
 71
     0
 42
2.5
  3
AMGDT
  4
bigfont.shx
  0
STYLE
  5
22C
330
3
100
AcDbSymbolTableRecord
100
AcDbTextStyleTableRecord
  2

 70
     1
 40
0.0
 41
1.0
 50
0.0
 71
     0
 42
2.5
  3
genltshp.shx
  4

  0
STYLE
  5
3C6
330
3
100
AcDbSymbolTableRecord
100
AcDbTextStyleTableRecord
  2
ITALICT
 70
     0
 40
2.0
 41
1.0
 50
0.0
 71
     0
 42
2.0
  3
ITALICT.shx
  4

  0
STYLE
  5
3C7
330
3
100
AcDbSymbolTableRecord
100
AcDbTextStyleTableRecord
  2
ROMANS
 70
     0
 40
0.0
 41
0.8
 50
0.0
 71
     0
 42
3.0
  3
romans.shx
  4

  0
ENDTAB
  0
TABLE
  2
VIEW
  5
6
330
0
100
AcDbSymbolTable
 70
     6
  0
ENDTAB
  0
TABLE
  2
UCS
  5
7
330
0
100
AcDbSymbolTable
 70
     0
  0
ENDTAB
  0
TABLE
  2
APPID
  5
9
330
0
100
AcDbSymbolTable
 70
    37
  0
APPID
  5
12
330
9
100
AcDbSymbolTableRecord
100
AcDbRegAppTableRecord
  2
ACAD
 70
     0
  0
APPID
  5
46
330
9
100
AcDbSymbolTableRecord
100
AcDbRegAppTableRecord
  2
MCAD_NO_VIS
 70
     0
  0
APPID
  5
47
330
9
100
AcDbSymbolTableRecord
100
AcDbRegAppTableRecord
  2
ACAD_TEMP_GRAPHIC
 70
     0
  0
APPID
  5
58
330
9
100
AcDbSymbolTableRecord
100
AcDbRegAppTableRecord
  2
ACATTRIBSERVICES
 70
     0
  0
APPID
  5
EE
330
9
100
AcDbSymbolTableRecord
100
AcDbRegAppTableRecord
  2
AD_DRAW
 70
     0
  0
APPID
  5
10C
330
9
100
AcDbSymbolTableRecord
100
AcDbRegAppTableRecord
  2
DESIGNERASSEMBLIES
 70
     0
  0
APPID
  5
111
330
9
100
AcDbSymbolTableRecord
100
AcDbRegAppTableRecord
  2
ACADM_DIM_EDIT
 70
     0
  0
APPID
  5
112
330
9
100
AcDbSymbolTableRecord
100
AcDbRegAppTableRecord
  2
AMDT_DM_ADJ
 70
     0
  0
APPID
  5
1A3
330
9
100
AcDbSymbolTableRecord
100
AcDbRegAppTableRecord
  2
ACAD_DSTYLE_DIMARC_LENGTH_SYMBOL
 70
     0
  0
APPID
  5
1A4
330
9
100
AcDbSymbolTableRecord
100
AcDbRegAppTableRecord
  2
ACAD_DSTYLE_DIMJOGGED_JOGANGLE_SYMBOL
 70
     0
  0
APPID
  5
2D9
330
9
100
AcDbSymbolTableRecord
100
AcDbRegAppTableRecord
  2
ACAD_PSEXT
 70
     0
  0
APPID
  5
9AB
330
9
100
AcDbSymbolTableRecord
100
AcDbRegAppTableRecord
  2
ACAD_EXEMPT_FROM_CAD_STANDARDS
 70
     0
  0
APPID
  5
218E
330
9
100
AcDbSymbolTableRecord
100
AcDbRegAppTableRecord
  2
ACAD_DSTYLE_DIMTEXT_FILL
 70
     0
  0
APPID
  5
218F
330
9
100
AcDbSymbolTableRecord
100
AcDbRegAppTableRecord
  2
ACAD_DSTYLE_DIMEXT_LENGTH
 70
     0
  0
APPID
  5
2190
330
9
100
AcDbSymbolTableRecord
100
AcDbRegAppTableRecord
  2
ACAD_DSTYLE_DIMEXT_ENABLED
 70
     0
  0
APPID
  5
2191
330
9
100
AcDbSymbolTableRecord
100
AcDbRegAppTableRecord
  2
ACAD_DSTYLE_DIM_LINETYPE
 70
     0
  0
APPID
  5
2192
330
9
100
AcDbSymbolTableRecord
100
AcDbRegAppTableRecord
  2
ACAD_DSTYLE_DIM_EXT1_LINETYPE
 70
     0
  0
APPID
  5
2193
330
9
100
AcDbSymbolTableRecord
100
AcDbRegAppTableRecord
  2
ACAD_DSTYLE_DIM_EXT2_LINETYPE
 70
     0
  0
APPID
  5
3E63
330
9
100
AcDbSymbolTableRecord
100
AcDbRegAppTableRecord
  2
AcAecLayerStandard
 70
     0
  0
APPID
  5
3E64
330
9
100
AcDbSymbolTableRecord
100
AcDbRegAppTableRecord
  2
GENIUS_GENSCREG_15
 70
     0
  0
APPID
  5
3E65
330
9
100
AcDbSymbolTableRecord
100
AcDbRegAppTableRecord
  2
GENIUS_GENOBJ-N-SDF_13
 70
     0
  0
APPID
  5
3E66
330
9
100
AcDbSymbolTableRecord
100
AcDbRegAppTableRecord
  2
GENIUS_GENODEF_13
 70
     0
  0
APPID
  5
4E53
330
9
100
AcDbSymbolTableRecord
100
AcDbRegAppTableRecord
  2
GENIUS_GENREC_14
 70
     0
  0
APPID
  5
4E54
330
9
100
AcDbSymbolTableRecord
100
AcDbRegAppTableRecord
  2
GENIUS_GENOBJ-N-REC_13
 70
     0
  0
APPID
  5
4EB8
330
9
100
AcDbSymbolTableRecord
100
AcDbRegAppTableRecord
  2
GENIUS_GENDTOL_13
 70
     0
  0
APPID
  5
53A4
330
9
100
AcDbSymbolTableRecord
100
AcDbRegAppTableRecord
  2
GENIUS_GENFIL_13
 70
     0
  0
APPID
  5
53A5
330
9
100
AcDbSymbolTableRecord
100
AcDbRegAppTableRecord
  2
GENIUS_GENOBJ-N-CHA_13
 70
     0
  0
APPID
  5
617C
330
9
100
AcDbSymbolTableRecord
100
AcDbRegAppTableRecord
  2
ACAD_MLEADERVER
 70
     0
  0
APPID
  5
61DD
330
9
100
AcDbSymbolTableRecord
100
AcDbRegAppTableRecord
  2
AcDbBlockRepETag
 70
     0
  0
APPID
  5
620C
330
9
100
AcDbSymbolTableRecord
100
AcDbRegAppTableRecord
  2
AcadAnnotative
 70
     0
  0
APPID
  5
624C
330
9
100
AcDbSymbolTableRecord
100
AcDbRegAppTableRecord
  2
ACAUTHENVIRON
 70
     0
  0
APPID
  5
629C
330
9
100
AcDbSymbolTableRecord
100
AcDbRegAppTableRecord
  2
AcDbDynamicBlockTrueName
 70
     0
  0
APPID
  5
629D
330
9
100
AcDbSymbolTableRecord
100
AcDbRegAppTableRecord
  2
AcDbDynamicBlockGUID
 70
     0
  0
APPID
  5
62C0
330
9
100
AcDbSymbolTableRecord
100
AcDbRegAppTableRecord
  2
ACAD_DSTYLE_DIMJAG
 70
     0
  0
APPID
  5
62C1
330
9
100
AcDbSymbolTableRecord
100
AcDbRegAppTableRecord
  2
ACAD_DSTYLE_DIMTALN
 70
     0
  0
APPID
  5
62C2
330
9
100
AcDbSymbolTableRecord
100
AcDbRegAppTableRecord
  2
ACAD_DSTYLE_DIMRADIAL_EXTENSION
 70
     0
  0
APPID
  5
65E8
330
9
100
AcDbSymbolTableRecord
100
AcDbRegAppTableRecord
  2
AcadAnnotativeDecomposition
 70
     0
  0
ENDTAB
  0
TABLE
  2
DIMSTYLE
  5
A
330
0
100
AcDbSymbolTable
 70
    16
100
AcDbDimStyleTable
 71
     4
340
3C8
340
8B
340
86
340
81
  0
DIMSTYLE
105
81
330
A
100
AcDbSymbolTableRecord
100
AcDbDimStyleTableRecord
  2
AM_ISO
 70
     0
  4
"
 41
2.5
 42
1.0
 43
10.0
 44
1.0
 47
0.1
 48
0.1
 73
     0
 74
     0
 77
     1
 78
     8
 79
     2
140
3.5
141
0.0
143
0.0393701
146
0.71
147
1.5
172
     1
176
   256
177
   256
178
     2
271
     2
272
     3
274
     4
283
     0
284
     8
340
11
371
    -1
372
    -1
1001
ACAD_DSTYLE_DIMJOGGED_JOGANGLE_SYMBOL
1070
   384
1040
0.7853981633974483
1001
ACAD_DSTYLE_DIMARC_LENGTH_SYMBOL
1070
   379
1070
     1
  0
DIMSTYLE
105
82
330
A
100
AcDbSymbolTableRecord
100
AcDbDimStyleTableRecord
  2
AM_ISO$3
 70
     0
  4
"
 41
2.5
 42
1.0
 43
10.0
 44
1.0
 47
0.1
 48
0.1
 73
     0
 77
     1
 78
     8
 79
     2
140
3.5
141
0.0
143
0.0393701
146
0.71
147
1.5
176
   256
177
   256
178
     2
271
     2
272
     3
274
     4
283
     0
284
     8
288
     1
289
     0
340
11
371
    -1
372
    -1
1001
ACAD_DSTYLE_DIMJOGGED_JOGANGLE_SYMBOL
1070
   384
1040
0.7853981633974483
1001
ACAD_DSTYLE_DIMARC_LENGTH_SYMBOL
1070
   379
1070
     1
  0
DIMSTYLE
105
83
330
A
100
AcDbSymbolTableRecord
100
AcDbDimStyleTableRecord
  2
AM_ISO$4
 70
     0
  4
"
 41
2.5
 42
1.0
 43
10.0
 44
1.0
 47
0.1
 48
0.1
 73
     0
 77
     1
 78
     8
 79
     2
140
3.5
141
0.0
143
0.0393701
146
0.71
147
1.5
176
   256
177
   256
178
     2
271
     2
272
     3
274
     4
283
     0
284
     8
288
     1
289
     0
340
11
371
    -1
372
    -1
1001
ACAD_DSTYLE_DIMJOGGED_JOGANGLE_SYMBOL
1070
   384
1040
0.7853981633974483
1001
ACAD_DSTYLE_DIMARC_LENGTH_SYMBOL
1070
   379
1070
     1
  0
DIMSTYLE
105
84
330
A
100
AcDbSymbolTableRecord
100
AcDbDimStyleTableRecord
  2
AM_ISO$6
 70
     0
  4
"
 41
2.5
 42
1.0
 43
10.0
 44
1.0
 47
0.1
 48
0.1
 73
     0
 74
     0
 78
     8
 79
     2
140
3.5
141
0.0
143
0.0393701
146
0.71
147
1.5
172
     1
176
   256
177
   256
178
     2
271
     2
272
     3
274
     4
283
     0
284
     8
340
11
371
    -1
372
    -1
1001
ACAD_DSTYLE_DIMJOGGED_JOGANGLE_SYMBOL
1070
   384
1040
0.7853981633974483
1001
ACAD_DSTYLE_DIMARC_LENGTH_SYMBOL
1070
   379
1070
     1
  0
DIMSTYLE
105
85
330
A
100
AcDbSymbolTableRecord
100
AcDbDimStyleTableRecord
  2
AM_ISO$7
 70
     0
  4
"
 41
2.5
 42
1.0
 43
10.0
 44
1.0
 47
0.1
 48
0.1
 73
     0
 74
     0
 77
     1
 78
     8
 79
     2
140
5.0
141
0.0
143
0.0393701
146
0.71
147
1.5
172
     1
176
   256
177
   256
178
     2
271
     2
272
     3
274
     4
283
     0
284
     8
340
11
371
    -1
372
    -1
1001
ACAD_DSTYLE_DIMJOGGED_JOGANGLE_SYMBOL
1070
   384
1040
0.7853981633974483
1001
ACAD_DSTYLE_DIMARC_LENGTH_SYMBOL
1070
   379
1070
     1
  0
DIMSTYLE
105
86
330
A
100
AcDbSymbolTableRecord
100
AcDbDimStyleTableRecord
  2
AM_ISO$SF
 70
     0
  4
"
 41
2.5
 42
1.0
 43
10.0
 44
1.0
 47
0.1
 48
0.1
 73
     0
 74
     0
 75
     1
 76
     1
 77
     1
 78
     8
 79
     2
140
3.5
141
0.0
143
0.0393701
146
0.71
147
1.5
172
     1
176
   256
177
   256
178
     2
271
     2
272
     3
274
     4
283
     0
284
     8
340
11
371
    -1
372
    -1
1001
ACAD_DSTYLE_DIMJOGGED_JOGANGLE_SYMBOL
1070
   384
1040
0.7853981633974483
1001
ACAD_DSTYLE_DIMARC_LENGTH_SYMBOL
1070
   379
1070
     1
  0
DIMSTYLE
105
8B
330
A
100
AcDbSymbolTableRecord
100
AcDbDimStyleTableRecord
  2
AM_ISO$SH
 70
     0
  4
"
 41
2.5
 42
1.0
 43
10.0
 44
1.0
 47
0.1
 48
0.1
 73
     0
 74
     0
 75
     1
 76
     1
 77
     1
 78
     8
 79
     2
140
3.5
141
0.0
143
0.0393701
144
2.0
146
0.71
147
1.5
172
     1
173
     1
176
   256
177
   256
178
     2
271
     2
272
     3
274
     4
283
     0
284
     8
340
11
343
87
371
    -1
372
    -1
1001
ACAD_DSTYLE_DIMJOGGED_JOGANGLE_SYMBOL
1070
   384
1040
0.7853981633974483
1001
ACAD_DSTYLE_DIMARC_LENGTH_SYMBOL
1070
   379
1070
     1
  0
DIMSTYLE
105
3C8
102
{ACAD_REACTORS
330
19C9
330
4017
330
4033
330
4036
330
4037
330
404E
330
4075
330
4076
330
401F
330
4034
330
4035
330
4055
330
405A
330
405B
330
4062
330
4073
330
4083
330
40A4
330
19F4
330
2E07
330
2E09
330
2E0A
330
2E5C
330
6369
330
6409
102
}
330
A
100
AcDbSymbolTableRecord
100
AcDbDimStyleTableRecord
  2
STANDARD
 70
     0
 41
3.0
 42
1.0
 43
1.0
 44
1.0
 48
0.000000001
 73
     0
 74
     0
 77
     1
 78
     8
140
3.0
141
-0.05
145
5.0
146
0.8
147
1.0
172
     1
176
     3
177
     3
178
     6
271
     2
272
     2
284
     8
340
11
371
    -1
1001
ACAD_DSTYLE_DIMJOGGED_JOGANGLE_SYMBOL
1070
   384
1040
1.570796326794896
  0
DIMSTYLE
105
4DBB
102
{ACAD_REACTORS
330
19C9
330
4017
330
4033
330
4036
330
4037
330
404E
330
4074
330
4075
330
4076
330
4034
330
4035
330
4055
330
405A
330
59F5
330
6235
330
6238
330
6323
330
63C3
330
64A0
330
64A3
102
}
330
A
100
AcDbSymbolTableRecord
100
AcDbDimStyleTableRecord
  2
STANDARD$0
 70
     0
 41
3.0
 42
1.0
 43
1.0
 44
1.0
 48
0.000000001
 73
     0
 74
     0
 77
     1
 78
     8
140
3.0
141
-0.05
145
5.0
146
0.8
147
1.0
172
     1
176
     3
177
     3
178
     6
271
     2
272
     2
284
     8
340
11
371
    -1
1001
ACAD_DSTYLE_DIMJOGGED_JOGANGLE_SYMBOL
1070
   384
1040
1.570796326794896
  0
DIMSTYLE
105
6539
330
A
100
AcDbSymbolTableRecord
100
AcDbDimStyleTableRecord
  2
AM_ANSI
 70
     0
  4
mm
 41
0.1
 42
0.05
 43
0.5
 44
0.1
 47
0.1
 48
0.1
 78
     7
 79
     2
140
0.12
141
0.0
146
0.71
147
0.06
176
   256
177
   256
178
     2
274
     4
284
     7
340
11
371
    -1
372
    -1
1001
ACAD_DSTYLE_DIMJOGGED_JOGANGLE_SYMBOL
1070
   384
1040
0.7853981633974483
1001
ACAD_DSTYLE_DIMARC_LENGTH_SYMBOL
1070
   379
1070
     1
  0
ENDTAB
  0
TABLE
  2
BLOCK_RECORD
  5
1
330
0
100
AcDbSymbolTable
 70
    39
  0
BLOCK_RECORD
  5
1F
102
{ACAD_XDICTIONARY
360
8F
102
}
330
1
100
AcDbSymbolTableRecord
100
AcDbBlockTableRecord
  2
*Model_Space
340
22
  0
BLOCK_RECORD
  5
1B
102
{ACAD_XDICTIONARY
360
2D9F
102
}
330
1
100
AcDbSymbolTableRecord
100
AcDbBlockTableRecord
  2
*Paper_Space
340
1E
  0
BLOCK_RECORD
  5
87
330
1
100
AcDbSymbolTableRecord
100
AcDbBlockTableRecord
  2
GENAXEH
340
0
  0
BLOCK_RECORD
  5
103
330
1
100
AcDbSymbolTableRecord
100
AcDbBlockTableRecord
  2
*U1
340
0
  0
BLOCK_RECORD
  5
2FB
330
1
100
AcDbSymbolTableRecord
100
AcDbBlockTableRecord
  2
_DatumFilled
340
0
  0
BLOCK_RECORD
  5
2FF
330
1
100
AcDbSymbolTableRecord
100
AcDbBlockTableRecord
  2
_None
340
0
  0
BLOCK_RECORD
  5
1A4C
330
1
100
AcDbSymbolTableRecord
100
AcDbBlockTableRecord
  2
*D5
340
0
  0
BLOCK_RECORD
  5
40DE
330
1
100
AcDbSymbolTableRecord
100
AcDbBlockTableRecord
  2
*D7
340
0
  0
BLOCK_RECORD
  5
411A
330
1
100
AcDbSymbolTableRecord
100
AcDbBlockTableRecord
  2
*D8
340
0
  0
BLOCK_RECORD
  5
4128
330
1
100
AcDbSymbolTableRecord
100
AcDbBlockTableRecord
  2
*D9
340
0
  0
BLOCK_RECORD
  5
4134
330
1
100
AcDbSymbolTableRecord
100
AcDbBlockTableRecord
  2
*D10
340
0
  0
BLOCK_RECORD
  5
4141
330
1
100
AcDbSymbolTableRecord
100
AcDbBlockTableRecord
  2
*D11
340
0
  0
BLOCK_RECORD
  5
415B
330
1
100
AcDbSymbolTableRecord
100
AcDbBlockTableRecord
  2
*D13
340
0
  0
BLOCK_RECORD
  5
4167
330
1
100
AcDbSymbolTableRecord
100
AcDbBlockTableRecord
  2
*D14
340
0
  0
BLOCK_RECORD
  5
59F6
330
1
100
AcDbSymbolTableRecord
100
AcDbBlockTableRecord
  2
*D17
340
0
  0
BLOCK_RECORD
  5
61DE
102
{ACAD_XDICTIONARY
360
64A9
102
}
330
1
100
AcDbSymbolTableRecord
100
AcDbBlockTableRecord
  2
ST4209-Frontcap
340
0
102
{BLKREFS
331
620D
102
}
1001
AcadAnnotative
1000
AnnotativeData
1002
{
1070
     1
1070
     1
1002
}
1001
AcDbDynamicBlockGUID
1000
{FB05021A-3C8B-40E3-A1AE-6B314F1F5C3D}
1001
AcDbBlockRepETag
1070
     1
1071
       39
1001
ACAD
1000
DesignCenter Data
1002
{
1070
     1
1070
     4
1002
}
  0
BLOCK_RECORD
  5
62C3
102
{ACAD_XDICTIONARY
360
640E
102
}
330
1
100
AcDbSymbolTableRecord
100
AcDbBlockTableRecord
  2
ST4209-Endcap
340
0
102
{BLKREFS
331
6317
102
}
1001
AcadAnnotative
1000
AnnotativeData
1002
{
1070
     1
1070
     1
1002
}
1001
AcDbDynamicBlockGUID
1000
{44EC1270-895A-4D47-8427-1A332993D42C}
1001
AcDbBlockRepETag
1070
     1
1071
       72
1001
ACAD
1000
DesignCenter Data
1002
{
1070
     1
1070
     4
1002
}
  0
BLOCK_RECORD
  5
640F
330
1
100
AcDbSymbolTableRecord
100
AcDbBlockTableRecord
  2
*D33
340
0
  0
BLOCK_RECORD
  5
6427
330
1
100
AcDbSymbolTableRecord
100
AcDbBlockTableRecord
  2
*D34
340
0
  0
BLOCK_RECORD
  5
64AA
330
1
100
AcDbSymbolTableRecord
100
AcDbBlockTableRecord
  2
*D36
340
0
  0
BLOCK_RECORD
  5
64B9
330
1
100
AcDbSymbolTableRecord
100
AcDbBlockTableRecord
  2
*D37
340
0
  0
BLOCK_RECORD
  5
653A
102
{ACAD_XDICTIONARY
360
656A
102
}
330
1
100
AcDbSymbolTableRecord
100
AcDbBlockTableRecord
  2
Step-Phase
340
0
102
{BLKREFS
331
656E
102
}
1001
ACAD
1000
DesignCenter Data
1002
{
1070
     1
1070
     4
1002
}
  0
ENDTAB
  0
ENDSEC
  0
SECTION
  2
BLOCKS
  0
BLOCK
  5
20
330
1F
100
AcDbEntity
  8
0
100
AcDbBlockBegin
  2
*Model_Space
 70
     0
 10
0.0
 20
0.0
 30
0.0
  3
*Model_Space
  1

  0
ENDBLK
  5
21
330
1F
100
AcDbEntity
  8
0
100
AcDbBlockEnd
  0
BLOCK
  5
1C
330
1B
100
AcDbEntity
 67
     1
  8
0
100
AcDbBlockBegin
  2
*Paper_Space
 70
     0
 10
0.0
 20
0.0
 30
0.0
  3
*Paper_Space
  1

  0
ENDBLK
  5
1D
330
1B
100
AcDbEntity
 67
     1
  8
0
100
AcDbBlockEnd
  0
BLOCK
  5
89
330
87
100
AcDbEntity
  8
0
100
AcDbBlockBegin
  2
GENAXEH
 70
     0
 10
0.0
 20
0.0
 30
0.0
  3
GENAXEH
  1

  0
LINE
  5
88
330
87
100
AcDbEntity
  8
0
100
AcDbLine
 10
-1.0
 20
0.0
 30
0.0
 11
1.0
 21
0.0
 31
0.0
  0
ENDBLK
  5
8A
330
87
100
AcDbEntity
  8
0
100
AcDbBlockEnd
  0
BLOCK
  5
104
330
103
100
AcDbEntity
  8
0
100
AcDbBlockBegin
  2
*U1
 70
     1
 10
0.0
 20
0.0
 30
0.0
  3
*U1
  1

  0
ENDBLK
  5
105
330
103
100
AcDbEntity
  8
0
100
AcDbBlockEnd
  0
BLOCK
  5
2FC
330
2FB
100
AcDbEntity
  8
0
100
AcDbBlockBegin
  2
_DatumFilled
 70
     0
 10
0.0
 20
0.0
 30
0.0
  3
_DatumFilled
  1

  0
SOLID
  5
2FD
330
2FB
100
AcDbEntity
  8
0
  6
ByBlock
 62
     0
100
AcDbTrace
 10
0.0
 20
0.5773502700000001
 30
0.0
 11
-1.0
 21
0.0
 31
0.0
 12
0.0
 22
-0.5773502700000001
 32
0.0
 13
0.0
 23
-0.5773502700000001
 33
0.0
  0
ENDBLK
  5
2FE
330
2FB
100
AcDbEntity
  8
0
100
AcDbBlockEnd
  0
BLOCK
  5
300
330
2FF
100
AcDbEntity
  8
0
100
AcDbBlockBegin
  2
_None
 70
     0
 10
0.0
 20
0.0
 30
0.0
  3
_None
  1

  0
ENDBLK
  5
301
330
2FF
100
AcDbEntity
  8
0
100
AcDbBlockEnd
  0
BLOCK
  5
1A56
330
1A4C
100
AcDbEntity
  8
0
100
AcDbBlockBegin
  2
*D5
 70
     1
 10
0.0
 20
0.0
 30
0.0
  3
*D5
  1

  0
LINE
  5
6059
330
1A4C
100
AcDbEntity
  8
DIM
 62
     3
370
    -2
100
AcDbLine
 10
129.9063688288351
 20
73.09868988223387
 30
0.0
 11
129.9063688288351
 21
54.91119174080847
 31
0.0
  0
LINE
  5
605A
330
1A4C
100
AcDbEntity
  8
DIM
 62
     3
370
    -2
100
AcDbLine
 10
139.0972407104071
 20
59.09299455805125
 30
0.0
 11
139.0972407104071
 21
54.91119174080847
 31
0.0
  0
LINE
  5
605B
330
1A4C
100
AcDbEntity
  8
DIM
 62
     3
100
AcDbLine
 10
132.3063688288351
 20
55.91119174080848
 30
0.0
 11
139.0972407104071
 21
55.91119174080848
 31
0.0
  0
SOLID
  5
605C
330
1A4C
100
AcDbEntity
  8
DIM
 62
     3
100
AcDbTrace
 10
132.3063688288351
 20
56.31119174080847
 30
0.0
 11
132.3063688288351
 21
55.51119174080848
 31
0.0
 12
129.9063688288351
 22
55.91119174080848
 32
0.0
 13
129.9063688288351
 23
55.91119174080848
 33
0.0
  0
MTEXT
  5
605D
330
1A4C
100
AcDbEntity
  8
DIM
 62
     6
100
AcDbMText
 10
134.4901433864878
 20
58.11119174080848
 30
0.0
 40
2.399999999999999
 41
0.0
 71
     5
 72
     1
  1
\A1;a
  7
ROMANS
 73
     1
 44
1.0
1001
ACAD
1000
MTEXTBEGIN
1070
    73
1070
     1
1070
    44
1040
1.0
1070
    74
1070
     0
1000
MTEXTEND
  0
POINT
  5
605E
330
1A4C
100
AcDbEntity
  8
Defpoints
 62
     0
100
AcDbPoint
 10
129.9063688288351
 20
74.09868988223387
 30
0.0
  0
POINT
  5
605F
330
1A4C
100
AcDbEntity
  8
Defpoints
 62
     0
100
AcDbPoint
 10
139.0972407104071
 20
60.09299455805124
 30
0.0
  0
POINT
  5
6060
330
1A4C
100
AcDbEntity
  8
Defpoints
 62
     0
100
AcDbPoint
 10
139.0972407104071
 20
55.91119174080848
 30
0.0
  0
ENDBLK
  5
1A57
330
1A4C
100
AcDbEntity
  8
0
100
AcDbBlockEnd
  0
BLOCK
  5
40E8
330
40DE
100
AcDbEntity
  8
0
100
AcDbBlockBegin
  2
*D7
 70
     1
 10
0.0
 20
0.0
 30
0.0
  3
*D7
  1

  0
LINE
  5
6474
330
40DE
100
AcDbEntity
  8
DIM
 62
     3
370
    -2
100
AcDbLine
 10
924.4231469052975
 20
644.2399750133964
 30
0.0
 11
924.4231469052975
 21
658.3899750133963
 31
0.0
  0
LINE
  5
6475
330
40DE
100
AcDbEntity
  8
DIM
 62
     3
370
    -2
100
AcDbLine
 10
957.9231469052974
 20
644.2399750133965
 30
0.0
 11
957.9231469052974
 21
658.3899750133963
 31
0.0
  0
LINE
  5
6476
330
40DE
100
AcDbEntity
  8
DIM
 62
     3
100
AcDbLine
 10
927.4231469052974
 20
657.3899750133963
 30
0.0
 11
954.9231469052973
 21
657.3899750133963
 31
0.0
  0
SOLID
  5
6477
330
40DE
100
AcDbEntity
  8
DIM
 62
     3
100
AcDbTrace
 10
927.4231469052974
 20
657.8899750133963
 30
0.0
 11
927.4231469052974
 21
656.8899750133963
 31
0.0
 12
924.4231469052975
 22
657.3899750133963
 32
0.0
 13
924.4231469052975
 23
657.3899750133963
 33
0.0
  0
SOLID
  5
6478
330
40DE
100
AcDbEntity
  8
DIM
 62
     3
100
AcDbTrace
 10
954.9231469052973
 20
657.8899750133963
 30
0.0
 11
954.9231469052973
 21
656.8899750133963
 31
0.0
 12
957.9231469052974
 22
657.3899750133963
 32
0.0
 13
957.9231469052974
 23
657.3899750133963
 33
0.0
  0
MTEXT
  5
6479
330
40DE
100
AcDbEntity
  8
DIM
 62
     6
100
AcDbMText
 10
941.482226029985
 20
659.9227171689216
 30
0.0
 40
3.0
 41
0.0
 71
     5
 72
     1
  1
\A1;33.5
 73
     1
 44
1.0
1001
ACAD
1000
MTEXTBEGIN
1070
    73
1070
     1
1070
    44
1040
1.0
1070
    74
1070
     0
1000
MTEXTEND
  0
POINT
  5
647A
330
40DE
100
AcDbEntity
  8
Defpoints
 62
     0
100
AcDbPoint
 10
924.4231469052975
 20
643.2399750133964
 30
0.0
  0
POINT
  5
647B
330
40DE
100
AcDbEntity
  8
Defpoints
 62
     0
100
AcDbPoint
 10
957.9231469052974
 20
643.2399750133965
 30
0.0
  0
POINT
  5
647C
330
40DE
100
AcDbEntity
  8
Defpoints
 62
     0
100
AcDbPoint
 10
957.9231469052974
 20
657.3899750133963
 30
0.0
  0
ENDBLK
  5
40E9
330
40DE
100
AcDbEntity
  8
0
100
AcDbBlockEnd
  0
BLOCK
  5
4126
330
411A
100
AcDbEntity
  8
0
100
AcDbBlockBegin
  2
*D8
 70
     1
 10
0.0
 20
0.0
 30
0.0
  3
*D8
  1

  0
LINE
  5
6460
330
411A
100
AcDbEntity
  8
DIM
 62
     3
370
    -2
100
AcDbLine
 10
922.4183850005355
 20
634.2399750133965
 30
0.0
 11
922.4183850005355
 21
651.3899750133963
 31
0.0
  0
LINE
  5
6461
330
411A
100
AcDbEntity
  8
DIM
 62
     3
370
    -2
100
AcDbLine
 10
924.4231469052975
 20
644.2399750133964
 30
0.0
 11
924.4231469052975
 21
651.3899750133963
 31
0.0
  0
LINE
  5
6462
330
411A
100
AcDbEntity
  8
DIM
 62
     3
100
AcDbLine
 10
927.4231469052974
 20
650.3899750133963
 30
0.0
 11
930.4231469052975
 21
650.3899750133963
 31
0.0
  0
LINE
  5
6463
330
411A
100
AcDbEntity
  8
DIM
 62
     3
100
AcDbLine
 10
919.4183850005355
 20
650.3899750133963
 30
0.0
 11
910.9320957781617
 21
650.3899750133963
 31
0.0
  0
LINE
  5
6464
330
411A
100
AcDbEntity
  8
DIM
 62
     3
100
AcDbLine
 10
924.4231469052975
 20
650.3899750133963
 30
0.0
 11
922.4183850005355
 21
650.3899750133963
 31
0.0
  0
SOLID
  5
6465
330
411A
100
AcDbEntity
  8
DIM
 62
     3
100
AcDbTrace
 10
927.4231469052974
 20
650.8899750133963
 30
0.0
 11
927.4231469052974
 21
649.8899750133963
 31
0.0
 12
924.4231469052975
 22
650.3899750133963
 32
0.0
 13
924.4231469052975
 23
650.3899750133963
 33
0.0
  0
SOLID
  5
6466
330
411A
100
AcDbEntity
  8
DIM
 62
     3
100
AcDbTrace
 10
919.4183850005355
 20
650.8899750133963
 30
0.0
 11
919.4183850005355
 21
649.8899750133963
 31
0.0
 12
922.4183850005355
 22
650.3899750133963
 32
0.0
 13
922.4183850005355
 23
650.3899750133963
 33
0.0
  0
MTEXT
  5
6467
330
411A
100
AcDbEntity
  8
DIM
 62
     6
100
AcDbMText
 10
912.9256155598808
 20
652.8961141675573
 30
0.0
 40
3.0
 41
0.0
 71
     5
 72
     1
  1
\A1;2
 73
     1
 44
1.0
1001
ACAD
1000
MTEXTBEGIN
1070
    73
1070
     1
1070
    44
1040
1.0
1070
    74
1070
     0
1000
MTEXTEND
  0
POINT
  5
6468
330
411A
100
AcDbEntity
  8
Defpoints
 62
     0
100
AcDbPoint
 10
922.4183850005355
 20
633.2399750133966
 30
0.0
  0
POINT
  5
6469
330
411A
100
AcDbEntity
  8
Defpoints
 62
     0
100
AcDbPoint
 10
924.4231469052975
 20
643.2399750133964
 30
0.0
  0
POINT
  5
646A
330
411A
100
AcDbEntity
  8
Defpoints
 62
     0
100
AcDbPoint
 10
924.4231469052975
 20
650.3899750133963
 30
0.0
  0
ENDBLK
  5
4127
330
411A
100
AcDbEntity
  8
0
100
AcDbBlockEnd
  0
BLOCK
  5
4132
330
4128
100
AcDbEntity
  8
0
100
AcDbBlockBegin
  2
*D9
 70
     1
 10
0.0
 20
0.0
 30
0.0
  3
*D9
  1

  0
LINE
  5
646B
330
4128
100
AcDbEntity
  8
DIM
 62
     3
370
    -2
100
AcDbLine
 10
900.4231469052975
 20
625.7399750133965
 30
0.0
 11
900.4231469052975
 21
658.3899750133963
 31
0.0
  0
LINE
  5
646C
330
4128
100
AcDbEntity
  8
DIM
 62
     3
370
    -2
100
AcDbLine
 10
924.4231469052975
 20
644.2399750133964
 30
0.0
 11
924.4231469052975
 21
658.3899750133963
 31
0.0
  0
LINE
  5
646D
330
4128
100
AcDbEntity
  8
DIM
 62
     3
100
AcDbLine
 10
903.4231469052974
 20
657.3899750133963
 30
0.0
 11
921.4231469052974
 21
657.3899750133963
 31
0.0
  0
SOLID
  5
646E
330
4128
100
AcDbEntity
  8
DIM
 62
     3
100
AcDbTrace
 10
903.4231469052974
 20
657.8899750133963
 30
0.0
 11
903.4231469052974
 21
656.8899750133963
 31
0.0
 12
900.4231469052975
 22
657.3899750133963
 32
0.0
 13
900.4231469052975
 23
657.3899750133963
 33
0.0
  0
SOLID
  5
646F
330
4128
100
AcDbEntity
  8
DIM
 62
     3
100
AcDbTrace
 10
921.4231469052974
 20
657.8899750133963
 30
0.0
 11
921.4231469052974
 21
656.8899750133963
 31
0.0
 12
924.4231469052975
 22
657.3899750133963
 32
0.0
 13
924.4231469052975
 23
657.3899750133963
 33
0.0
  0
MTEXT
  5
6470
102
{ACAD_XDICTIONARY
360
660A
102
}
330
4128
100
AcDbEntity
  8
DIM
 62
     6
100
AcDbMText
 10
911.5033432412548
 20
659.9165780147606
 30
0.0
 40
3.0
 41
0.0
 71
     5
 72
     1
  1
\A1;24{\H2.400000;\U+00B10.5}
 73
     1
 44
1.0
1001
ACAD
1000
MTEXTBEGIN
1070
    73
1070
     1
1070
    44
1040
1.0
1070
    74
1070
     0
1000
MTEXTEND
  0
POINT
  5
6471
330
4128
100
AcDbEntity
  8
Defpoints
 62
     0
100
AcDbPoint
 10
900.4231469052975
 20
624.7399750133966
 30
0.0
  0
POINT
  5
6472
330
4128
100
AcDbEntity
  8
Defpoints
 62
     0
100
AcDbPoint
 10
924.4231469052975
 20
643.2399750133964
 30
0.0
  0
POINT
  5
6473
330
4128
100
AcDbEntity
  8
Defpoints
 62
     0
100
AcDbPoint
 10
924.4231469052975
 20
657.3899750133963
 30
0.0
  0
ENDBLK
  5
4133
330
4128
100
AcDbEntity
  8
0
100
AcDbBlockEnd
  0
BLOCK
  5
413F
330
4134
100
AcDbEntity
  8
0
100
AcDbBlockBegin
  2
*D10
 70
     1
 10
0.0
 20
0.0
 30
0.0
  3
*D10
  1

  0
LINE
  5
64EC
330
4134
100
AcDbEntity
  8
DIM
 62
     3
370
    -2
100
AcDbLine
 10
921.5183850005356
 20
611.2399750133966
 30
0.0
 11
885.4231469052976
 21
611.2399750133966
 31
0.0
  0
LINE
  5
64ED
330
4134
100
AcDbEntity
  8
DIM
 62
     3
370
    -2
100
AcDbLine
 10
921.5183850005356
 20
633.2399750133966
 30
0.0
 11
885.4231469052976
 21
633.2399750133966
 31
0.0
  0
LINE
  5
64EE
330
4134
100
AcDbEntity
  8
DIM
 62
     3
100
AcDbLine
 10
886.4231469052976
 20
614.2399750133965
 30
0.0
 11
886.4231469052976
 21
630.2399750133965
 31
0.0
  0
SOLID
  5
64EF
330
4134
100
AcDbEntity
  8
DIM
 62
     3
100
AcDbTrace
 10
885.9231469052975
 20
614.2399750133965
 30
0.0
 11
886.9231469052975
 21
614.2399750133965
 31
0.0
 12
886.4231469052976
 22
611.2399750133966
 32
0.0
 13
886.4231469052976
 23
611.2399750133966
 33
0.0
  0
SOLID
  5
64F0
330
4134
100
AcDbEntity
  8
DIM
 62
     3
100
AcDbTrace
 10
885.9231469052975
 20
630.2399750133965
 30
0.0
 11
886.9231469052975
 21
630.2399750133965
 31
0.0
 12
886.4231469052976
 22
633.2399750133966
 32
0.0
 13
886.4231469052976
 23
633.2399750133966
 33
0.0
  0
MTEXT
  5
64F1
330
4134
100
AcDbEntity
  8
DIM
 62
     6
100
AcDbMText
 10
882.5120282149837
 20
622.2399750133965
 30
0.0
 40
3.0
 41
0.0
 71
     5
 72
     1
  1
\A1;%%c22{\H2.400000;\S 0^ -0.05;}
 11
0.0000000000000001
 21
1.0
 31
0.0
 73
     1
 44
1.0
1001
ACAD
1000
MTEXTBEGIN
1070
    73
1070
     1
1070
    44
1040
1.0
1070
    74
1070
     0
1000
MTEXTEND
  0
POINT
  5
64F2
330
4134
100
AcDbEntity
  8
Defpoints
 62
     0
100
AcDbPoint
 10
922.5183850005356
 20
611.2399750133966
 30
0.0
  0
POINT
  5
64F3
330
4134
100
AcDbEntity
  8
Defpoints
 62
     0
100
AcDbPoint
 10
922.5183850005356
 20
633.2399750133966
 30
0.0
  0
POINT
  5
64F4
330
4134
100
AcDbEntity
  8
Defpoints
 62
     0
100
AcDbPoint
 10
886.4231469052976
 20
633.2399750133966
 30
0.0
  0
ENDBLK
  5
4140
330
4134
100
AcDbEntity
  8
0
100
AcDbBlockEnd
  0
BLOCK
  5
414D
330
4141
100
AcDbEntity
  8
0
100
AcDbBlockBegin
  2
*D11
 70
     1
 10
0.0
 20
0.0
 30
0.0
  3
*D11
  1

  0
LINE
  5
64F5
330
4141
100
AcDbEntity
  8
DIM
 62
     3
370
    -2
100
AcDbLine
 10
899.4231469052975
 20
619.7399750133963
 30
0.0
 11
892.4231469052974
 21
619.7399750133963
 31
0.0
  0
LINE
  5
64F6
330
4141
100
AcDbEntity
  8
DIM
 62
     3
370
    -2
100
AcDbLine
 10
899.4231469052975
 20
624.7399750133966
 30
0.0
 11
892.4231469052974
 21
624.7399750133966
 31
0.0
  0
LINE
  5
64F7
330
4141
100
AcDbEntity
  8
DIM
 62
     3
100
AcDbLine
 10
893.4231469052974
 20
627.7399750133966
 30
0.0
 11
893.4231469052974
 21
630.7399750133965
 31
0.0
  0
LINE
  5
64F8
330
4141
100
AcDbEntity
  8
DIM
 62
     3
100
AcDbLine
 10
893.4231469052974
 20
616.7399750133963
 30
0.0
 11
893.4231469052974
 21
588.560435607608
 31
0.0
  0
LINE
  5
64F9
330
4141
100
AcDbEntity
  8
DIM
 62
     3
100
AcDbLine
 10
893.4231469052974
 20
624.7399750133966
 30
0.0
 11
893.4231469052974
 21
619.7399750133963
 31
0.0
  0
SOLID
  5
64FA
330
4141
100
AcDbEntity
  8
DIM
 62
     3
100
AcDbTrace
 10
892.9231469052975
 20
627.7399750133966
 30
0.0
 11
893.9231469052975
 21
627.7399750133966
 31
0.0
 12
893.4231469052974
 22
624.7399750133966
 32
0.0
 13
893.4231469052974
 23
624.7399750133966
 33
0.0
  0
SOLID
  5
64FB
330
4141
100
AcDbEntity
  8
DIM
 62
     3
100
AcDbTrace
 10
892.9231469052975
 20
616.7399750133963
 30
0.0
 11
893.9231469052975
 21
616.7399750133963
 31
0.0
 12
893.4231469052974
 22
619.7399750133963
 32
0.0
 13
893.4231469052974
 23
619.7399750133963
 33
0.0
  0
MTEXT
  5
64FC
330
4141
100
AcDbEntity
  8
DIM
 62
     6
100
AcDbMText
 10
889.5120282149836
 20
596.8826047754118
 30
0.0
 40
3.0
 41
0.0
 71
     5
 72
     1
  1
\A1;%%c5{\H2.400000;\S 0^ -0.012;}
 11
0.0000000000000001
 21
1.0
 31
0.0
 73
     1
 44
1.0
1001
ACAD
1000
MTEXTBEGIN
1070
    73
1070
     1
1070
    44
1040
1.0
1070
    74
1070
     0
1000
MTEXTEND
  0
POINT
  5
64FD
330
4141
100
AcDbEntity
  8
Defpoints
 62
     0
100
AcDbPoint
 10
900.4231469052975
 20
619.7399750133963
 30
0.0
  0
POINT
  5
64FE
330
4141
100
AcDbEntity
  8
Defpoints
 62
     0
100
AcDbPoint
 10
900.4231469052975
 20
624.7399750133966
 30
0.0
  0
POINT
  5
64FF
330
4141
100
AcDbEntity
  8
Defpoints
 62
     0
100
AcDbPoint
 10
893.4231469052974
 20
624.7399750133966
 30
0.0
  0
ENDBLK
  5
414E
330
4141
100
AcDbEntity
  8
0
100
AcDbBlockEnd
  0
BLOCK
  5
4165
330
415B
100
AcDbEntity
  8
0
100
AcDbBlockBegin
  2
*D13
 70
     1
 10
0.0
 20
0.0
 30
0.0
  3
*D13
  1

  0
LINE
  5
6528
330
415B
100
AcDbEntity
  8
DIM
  6
ACISOTGL
 62
     3
370
    -2
100
AcDbLine
 10
971.4202897624401
 20
625.6209273991108
 30
0.0
 11
971.4202897624401
 21
658.3899750133963
 31
0.0
  0
LINE
  5
6529
330
415B
100
AcDbEntity
  8
DIM
  6
ACISOTGL
 62
     3
370
    -2
100
AcDbLine
 10
957.9231469052974
 20
644.2399750133965
 30
0.0
 11
957.9231469052974
 21
658.3899750133963
 31
0.0
  0
LINE
  5
652A
330
415B
100
AcDbEntity
  8
DIM
  6
ACISOTGL
 62
     3
100
AcDbLine
 10
968.42028976244
 20
657.3899750133963
 30
0.0
 11
960.9231469052973
 21
657.3899750133963
 31
0.0
  0
SOLID
  5
652B
330
415B
100
AcDbEntity
  8
DIM
  6
ACISOTGL
 62
     3
100
AcDbTrace
 10
968.42028976244
 20
657.8899750133963
 30
0.0
 11
968.42028976244
 21
656.8899750133963
 31
0.0
 12
971.4202897624401
 22
657.3899750133963
 32
0.0
 13
971.4202897624401
 23
657.3899750133963
 33
0.0
  0
SOLID
  5
652C
330
415B
100
AcDbEntity
  8
DIM
  6
ACISOTGL
 62
     3
100
AcDbTrace
 10
960.9231469052973
 20
657.8899750133963
 30
0.0
 11
960.9231469052973
 21
656.8899750133963
 31
0.0
 12
957.9231469052974
 22
657.3899750133963
 32
0.0
 13
957.9231469052974
 23
657.3899750133963
 33
0.0
  0
MTEXT
  5
652D
102
{ACAD_XDICTIONARY
360
660E
102
}
330
415B
100
AcDbEntity
  8
DIM
  6
ACISOTGL
 62
     6
100
AcDbMText
 10
964.4489741472863
 20
659.9227171689216
 30
0.0
 40
3.0
 41
0.0
 71
     5
 72
     1
  1
\A1;13.5{\H2.400000;\U+00B11}
 73
     1
 44
1.0
1001
ACAD
1000
MTEXTBEGIN
1070
    73
1070
     1
1070
    44
1040
1.0
1070
    74
1070
     0
1000
MTEXTEND
  0
POINT
  5
652E
330
415B
100
AcDbEntity
  8
Defpoints
  6
ACISOTGL
 62
     0
100
AcDbPoint
 10
971.4202897624401
 20
624.6209273991107
 30
0.0
  0
POINT
  5
652F
330
415B
100
AcDbEntity
  8
Defpoints
  6
ACISOTGL
 62
     0
100
AcDbPoint
 10
957.9231469052974
 20
643.2399750133965
 30
0.0
  0
POINT
  5
6530
330
415B
100
AcDbEntity
  8
Defpoints
  6
ACISOTGL
 62
     0
100
AcDbPoint
 10
957.9231469052974
 20
657.3899750133963
 30
0.0
  0
ENDBLK
  5
4166
330
415B
100
AcDbEntity
  8
0
100
AcDbBlockEnd
  0
BLOCK
  5
4173
330
4167
100
AcDbEntity
  8
0
100
AcDbBlockBegin
  2
*D14
 70
     1
 10
0.0
 20
0.0
 30
0.0
  3
*D14
  1

  0
LINE
  5
650B
330
4167
100
AcDbEntity
  8
DIM
  6
ACISOTGL
 62
     3
370
    -2
100
AcDbLine
 10
972.4202897624401
 20
619.7399750133964
 30
0.0
 11
980.4202897624401
 21
619.7399750133964
 31
0.0
  0
LINE
  5
650C
330
4167
100
AcDbEntity
  8
DIM
  6
ACISOTGL
 62
     3
370
    -2
100
AcDbLine
 10
972.4202897624401
 20
624.7399750133967
 30
0.0
 11
980.4202897624401
 21
624.7399750133967
 31
0.0
  0
LINE
  5
650D
330
4167
100
AcDbEntity
  8
DIM
  6
ACISOTGL
 62
     3
100
AcDbLine
 10
979.4202897624401
 20
616.7399750133965
 30
0.0
 11
979.4202897624401
 21
613.7399750133964
 31
0.0
  0
LINE
  5
650E
330
4167
100
AcDbEntity
  8
DIM
  6
ACISOTGL
 62
     3
100
AcDbLine
 10
979.4202897624401
 20
627.7399750133968
 30
0.0
 11
979.4202897624401
 21
653.4208786756653
 31
0.0
  0
LINE
  5
650F
330
4167
100
AcDbEntity
  8
DIM
  6
ACISOTGL
 62
     3
100
AcDbLine
 10
979.4202897624401
 20
619.7399750133964
 30
0.0
 11
979.4202897624401
 21
624.7399750133967
 31
0.0
  0
SOLID
  5
6510
330
4167
100
AcDbEntity
  8
DIM
  6
ACISOTGL
 62
     3
100
AcDbTrace
 10
978.92028976244
 20
616.7399750133965
 30
0.0
 11
979.92028976244
 21
616.7399750133965
 31
0.0
 12
979.4202897624401
 22
619.7399750133964
 32
0.0
 13
979.4202897624401
 23
619.7399750133964
 33
0.0
  0
SOLID
  5
6511
330
4167
100
AcDbEntity
  8
DIM
  6
ACISOTGL
 62
     3
100
AcDbTrace
 10
978.92028976244
 20
627.7399750133968
 30
0.0
 11
979.92028976244
 21
627.7399750133968
 31
0.0
 12
979.4202897624401
 22
624.7399750133967
 32
0.0
 13
979.4202897624401
 23
624.7399750133967
 33
0.0
  0
MTEXT
  5
6512
330
4167
100
AcDbEntity
  8
DIM
  6
ACISOTGL
 62
     6
100
AcDbMText
 10
975.5091710721263
 20
645.0987095078618
 30
0.0
 40
3.0
 41
0.0
 71
     5
 72
     1
  1
\A1;%%c5{\H2.400000;\S 0^ -0.012;}
 11
0.0000000000000001
 21
1.0
 31
0.0
 73
     1
 44
1.0
1001
ACAD
1000
MTEXTBEGIN
1070
    73
1070
     1
1070
    44
1040
1.0
1070
    74
1070
     0
1000
MTEXTEND
  0
POINT
  5
6513
330
4167
100
AcDbEntity
  8
Defpoints
  6
ACISOTGL
 62
     0
100
AcDbPoint
 10
971.4202897624401
 20
619.7399750133964
 30
0.0
  0
POINT
  5
6514
330
4167
100
AcDbEntity
  8
Defpoints
  6
ACISOTGL
 62
     0
100
AcDbPoint
 10
971.4202897624401
 20
624.7399750133967
 30
0.0
  0
POINT
  5
6515
330
4167
100
AcDbEntity
  8
Defpoints
  6
ACISOTGL
 62
     0
100
AcDbPoint
 10
979.4202897624401
 20
624.7399750133967
 30
0.0
  0
ENDBLK
  5
4174
330
4167
100
AcDbEntity
  8
0
100
AcDbBlockEnd
  0
BLOCK
  5
59FD
330
59F6
100
AcDbEntity
  8
0
100
AcDbBlockBegin
  2
*D17
 70
     1
 10
0.0
 20
0.0
 30
0.0
  3
*D17
  1

  0
LINE
  5
619C
330
59F6
100
AcDbEntity
  8
DIM
 62
     3
100
AcDbLine
 10
121.7745209601079
 20
75.85282590218707
 30
0.0
 11
115.1274407842457
 21
75.85282590218707
 31
0.0
  0
SOLID
  5
619D
330
59F6
100
AcDbEntity
  8
DIM
 62
     3
100
AcDbTrace
 10
121.7745209601079
 20
76.35282590218707
 30
0.0
 11
121.7745209601079
 21
75.35282590218708
 31
0.0
 12
124.7745209601079
 22
75.85282590218707
 32
0.0
 13
124.7745209601079
 23
75.85282590218707
 33
0.0
  0
SOLID
  5
619E
330
59F6
100
AcDbEntity
  8
DIM
 62
     3
100
AcDbTrace
 10
115.1274407842457
 20
76.35282590218707
 30
0.0
 11
115.1274407842457
 21
75.35282590218708
 31
0.0
 12
112.1274407842458
 22
75.85282590218707
 32
0.0
 13
112.1274407842458
 23
75.85282590218707
 33
0.0
  0
POINT
  5
619F
330
59F6
100
AcDbEntity
  8
Defpoints
 62
     0
100
AcDbPoint
 10
124.7745209601079
 20
75.8528259021871
 30
0.0
  0
POINT
  5
61A0
330
59F6
100
AcDbEntity
  8
Defpoints
 62
     0
100
AcDbPoint
 10
112.1274407842458
 20
75.85282590218707
 30
0.0
  0
POINT
  5
61A1
330
59F6
100
AcDbEntity
  8
Defpoints
 62
     0
100
AcDbPoint
 10
112.1274407842458
 20
75.85282590218707
 30
0.0
  0
ENDBLK
  5
59FE
330
59F6
100
AcDbEntity
  8
0
100
AcDbBlockEnd
  0
BLOCK
  5
620A
330
61DE
100
AcDbEntity
  8
0
100
AcDbBlockBegin
  2
ST4209-Frontcap
 70
     0
 10
0.0
 20
0.0
 30
0.0
  3
ST4209-Frontcap
  1

  0
TEXT
  5
6480
330
61DE
100
AcDbEntity
  8
DATA
100
AcDbText
 10
803.1321930115115
 20
590.3736678654703
 30
0.0
 40
3.0
  1
DEPTH 4.5
100
AcDbText
1001
AcDbBlockRepETag
1070
     1
1071
        0
1005
6480
  0
TEXT
  5
6481
330
61DE
100
AcDbEntity
  8
DATA
100
AcDbText
 10
805.3093571740822
 20
594.4167743021425
 30
0.0
 40
3.0
  1
4-M3
100
AcDbText
1001
AcDbBlockRepETag
1070
     1
1071
        1
1005
6481
  0
LEADER
  5
6482
330
61DE
100
AcDbEntity
  8
DIM
100
AcDbLeader
  3
STANDARD
 76
     3
 10
815.5478018939911
 20
606.7399750133965
 30
0.0
 10
801.4256190515613
 20
594.0899750133968
 30
0.0
 10
822.200681404678
 20
594.0899750133964
 30
0.0
1001
ACAD
1000
DSTYLE
1002
{
1070
    40
1040
1.0
1070
    77
1070
     0
1002
}
1001
AcDbBlockRepETag
1070
     1
1071
        2
1005
6482
  0
LINE
  5
6483
330
61DE
100
AcDbEntity
  8
SPEC
100
AcDbLine
 10
847.9914585241278
 20
601.089975013396
 30
0.0
 11
814.1041452638539
 21
601.0899750133965
 31
0.0
1001
AcDbBlockRepETag
1070
     1
1071
        3
1005
6483
  0
LINE
  5
6484
330
61DE
100
AcDbEntity
  8
CENTER
  6
CENTER
100
AcDbLine
 10
809.4239102705799
 20
622.2399750133965
 30
0.0
 11
852.6716935174022
 21
622.2399750133965
 31
0.0
1001
AcDbBlockRepETag
1070
     1
1071
        4
1005
6484
  0
LINE
  5
6485
330
61DE
100
AcDbEntity
  8
SPEC
100
AcDbLine
 10
809.8978018939911
 20
605.2963183832592
 30
0.0
 11
809.8978018939911
 21
639.1836316435341
 31
0.0
1001
AcDbBlockRepETag
1070
     1
1071
        5
1005
6485
  0
LINE
  5
6486
330
61DE
100
AcDbEntity
  8
CENTER
100
AcDbLine
 10
817.857325703515
 20
606.7399750133965
 30
0.0
 11
813.2382780844674
 21
606.7399750133965
 31
0.0
1001
AcDbBlockRepETag
1070
     1
1071
        6
1005
6486
  0
ARC
  5
6487
330
61DE
100
AcDbEntity
  8
Gewinde
 62
     3
100
AcDbCircle
 10
815.5478018939911
 20
606.7399750133965
 30
0.0
 40
1.904761904761905
100
AcDbArc
 50
90.0
 51
14.22593001851936
1001
AcDbBlockRepETag
1070
     1
1071
        7
1005
6487
  0
CIRCLE
  5
6488
330
61DE
100
AcDbEntity
  8
SPEC
100
AcDbCircle
 10
815.5478018939911
 20
606.7399750133965
 30
0.0
 40
1.428571428571429
1001
AcDbBlockRepETag
1070
     1
1071
        8
1005
6488
  0
LINE
  5
6489
330
61DE
100
AcDbEntity
  8
CENTER
100
AcDbLine
 10
815.5478018939911
 20
604.4304512038727
 30
0.0
 11
815.5478018939911
 21
609.0494988229204
 31
0.0
1001
AcDbBlockRepETag
1070
     1
1071
        9
1005
6489
  0
LINE
  5
648A
102
{ACAD_REACTORS
330
64A2
102
}
330
61DE
100
AcDbEntity
  8
CENTER
100
AcDbLine
 10
815.5478018939911
 20
635.4304512038729
 30
0.0
 11
815.5478018939911
 21
640.0494988229204
 31
0.0
1001
AcDbBlockRepETag
1070
     1
1071
       10
1005
648A
  0
CIRCLE
  5
648B
330
61DE
100
AcDbEntity
  8
SPEC
100
AcDbCircle
 10
815.5478018939911
 20
637.7399750133966
 30
0.0
 40
1.428571428571429
1001
AcDbBlockRepETag
1070
     1
1071
       11
1005
648B
  0
ARC
  5
648C
330
61DE
100
AcDbEntity
  8
Gewinde
 62
     3
100
AcDbCircle
 10
815.5478018939911
 20
637.7399750133966
 30
0.0
 40
1.904761904761905
100
AcDbArc
 50
90.0
 51
18.72792763282408
1001
AcDbBlockRepETag
1070
     1
1071
       12
1005
648C
  0
LINE
  5
648D
330
61DE
100
AcDbEntity
  8
CENTER
100
AcDbLine
 10
817.857325703515
 20
637.7399750133966
 30
0.0
 11
813.2382780844674
 21
637.7399750133966
 31
0.0
1001
AcDbBlockRepETag
1070
     1
1071
       13
1005
648D
  0
LINE
  5
648E
330
61DE
100
AcDbEntity
  8
SPEC
100
AcDbLine
 10
832.0954209416102
 20
592.6482921997328
 30
0.0
 11
832.0954209416102
 21
601.0899750133963
 31
0.0
1001
AcDbBlockRepETag
1070
     1
1071
       14
1005
648E
  0
LINE
  5
648F
330
61DE
100
AcDbEntity
  8
SPEC
100
AcDbLine
 10
831.047801893991
 20
592.6369530882636
 30
0.0
 11
831.0478018939912
 21
601.0899750133963
 31
0.0
1001
AcDbBlockRepETag
1070
     1
1071
       15
1005
648F
  0
LINE
  5
6490
330
61DE
100
AcDbEntity
  8
SPEC
100
AcDbLine
 10
830.0001828463722
 20
592.3338995483802
 30
0.0
 11
830.0001828463722
 21
601.0899750133964
 31
0.0
1001
AcDbBlockRepETag
1070
     1
1071
       16
1005
6490
  0
LINE
  5
6491
330
61DE
100
AcDbEntity
  8
FRAME
100
AcDbLine
 10
834.8251397172814
 20
593.4379413547421
 30
0.0
 11
831.7926244545848
 21
592.5606996637359
 31
0.0
1001
AcDbBlockRepETag
1070
     1
1071
       17
1005
6491
  0
LINE
  5
6492
330
61DE
100
AcDbEntity
  8
FRAME
100
AcDbLine
 10
831.7926244545848
 20
592.5606996637359
 30
0.0
 11
831.4734119760833
 21
592.7600728828888
 31
0.0
1001
AcDbBlockRepETag
1070
     1
1071
       18
1005
6492
  0
LINE
  5
6493
330
61DE
100
AcDbEntity
  8
FRAME
100
AcDbLine
 10
831.4734119760833
 20
592.7600728828888
 30
0.0
 11
828.4408967133867
 21
591.8828317834647
 31
0.0
1001
AcDbBlockRepETag
1070
     1
1071
       19
1005
6493
  0
LINE
  5
6494
330
61DE
100
AcDbEntity
  8
CENTER
  6
CENTER
100
AcDbLine
 10
831.047801893991
 20
600.9570324215508
 30
0.0
 11
831.047801893991
 21
643.5229176052423
 31
0.0
1001
AcDbBlockRepETag
1070
     1
1071
       20
1005
6494
  0
LINE
  5
6495
330
61DE
100
AcDbEntity
  8
SPEC
100
AcDbLine
 10
852.1978018939909
 20
639.1836316435342
 30
0.0
 11
852.1978018939911
 21
605.2963183832592
 31
0.0
1001
AcDbBlockRepETag
1070
     1
1071
       21
1005
6495
  0
LINE
  5
6496
330
61DE
100
AcDbEntity
  8
CENTER
100
AcDbLine
 10
844.238278084467
 20
606.7399750133965
 30
0.0
 11
848.8573257035151
 21
606.7399750133965
 31
0.0
1001
AcDbBlockRepETag
1070
     1
1071
       22
1005
6496
  0
ARC
  5
6497
330
61DE
100
AcDbEntity
  8
Gewinde
 62
     3
100
AcDbCircle
 10
846.5478018939911
 20
606.7399750133965
 30
0.0
 40
1.904761904761905
100
AcDbArc
 50
90.0
 51
19.99580101275437
1001
AcDbBlockRepETag
1070
     1
1071
       23
1005
6497
  0
CIRCLE
  5
6498
330
61DE
100
AcDbEntity
  8
SPEC
100
AcDbCircle
 10
846.5478018939911
 20
606.7399750133965
 30
0.0
 40
1.428571428571429
1001
AcDbBlockRepETag
1070
     1
1071
       24
1005
6498
  0
LINE
  5
6499
330
61DE
100
AcDbEntity
  8
CENTER
100
AcDbLine
 10
846.5478018939911
 20
604.4304512038727
 30
0.0
 11
846.5478018939911
 21
609.0494988229204
 31
0.0
1001
AcDbBlockRepETag
1070
     1
1071
       25
1005
6499
  0
ARC
  5
649A
102
{ACAD_REACTORS
330
64A2
102
}
330
61DE
100
AcDbEntity
  8
Gewinde
 62
     3
100
AcDbCircle
 10
846.5478018939911
 20
637.7399750133966
 30
0.0
 40
1.904761904761905
100
AcDbArc
 50
90.0
 51
18.47544964922465
1001
AcDbBlockRepETag
1070
     1
1071
       26
1005
649A
  0
CIRCLE
  5
649B
330
61DE
100
AcDbEntity
  8
SPEC
100
AcDbCircle
 10
846.5478018939911
 20
637.7399750133966
 30
0.0
 40
1.428571428571429
1001
AcDbBlockRepETag
1070
     1
1071
       27
1005
649B
  0
LINE
  5
649C
102
{ACAD_REACTORS
330
64A2
102
}
330
61DE
100
AcDbEntity
  8
CENTER
100
AcDbLine
 10
846.5478018939911
 20
635.4304512038729
 30
0.0
 11
846.5478018939911
 21
640.0494988229204
 31
0.0
1001
AcDbBlockRepETag
1070
     1
1071
       28
1005
649C
  0
LINE
  5
649D
330
61DE
100
AcDbEntity
  8
CENTER
100
AcDbLine
 10
844.238278084467
 20
637.7399750133966
 30
0.0
 11
848.8573257035151
 21
637.7399750133966
 31
0.0
1001
AcDbBlockRepETag
1070
     1
1071
       29
1005
649D
  0
CIRCLE
  5
649E
330
61DE
100
AcDbEntity
  8
SPEC
100
AcDbCircle
 10
831.0478018939912
 20
622.2399750133965
 30
0.0
 40
11.0
1001
AcDbBlockRepETag
1070
     1
1071
       30
1005
649E
  0
CIRCLE
  5
649F
330
61DE
100
AcDbEntity
  8
SPEC
100
AcDbCircle
 10
831.0478018939912
 20
622.2399750133965
 30
0.0
 40
2.5
1001
AcDbBlockRepETag
1070
     1
1071
       31
1005
649F
  0
DIMENSION
  5
64A0
102
{ACAD_XDICTIONARY
360
64A1
102
}
102
{ACAD_REACTORS
330
64A2
102
}
330
61DE
100
AcDbEntity
  8
DIM
100
AcDbDimension
  2
*D37
 10
846.5478018939911
 20
650.3899750133962
 30
0.0
 11
831.0478018939912
 21
650.3899750133962
 31
0.0
 70
   160
  1
{\Famgdt;o} <>
 71
     5
 42
31.0
  3
STANDARD$0
100
AcDbAlignedDimension
 13
815.5478018939911
 23
640.0494988229204
 33
0.0
 14
846.5478018939911
 24
639.6447369181585
 34
0.0
100
AcDbRotatedDimension
1001
ACAD
1000
DSTYLE
1002
{
1070
   147
1040
1.0
1070
    72
1070
     0
1070
    71
1070
     1
1070
    47
1040
0.1
1070
    48
1040
0.1
1070
   272
1070
     1
1002
}
1001
AcDbBlockRepETag
1070
     1
1071
       32
1005
64A0
  0
DIMENSION
  5
64A3
330
61DE
100
AcDbEntity
  8
DIM
100
AcDbDimension
  2
*D36
 10
852.1978018939909
 20
657.3899750133961
 30
0.0
 11
831.5074725429436
 21
657.3899750133961
 31
0.0
 70
   160
  1
{\Famgdt;o} <> MAX.
 71
     5
 42
42.29999999999984
  3
STANDARD$0
100
AcDbAlignedDimension
 13
809.8978018939911
 23
639.1836316435341
 33
0.0
 14
852.1978018939909
 24
639.1836316435342
 34
0.0
100
AcDbRotatedDimension
1001
ACAD
1000
DSTYLE
1002
{
1070
    47
1040
0.2
1070
    48
1040
-0.2
1070
   272
1070
     1
1002
}
1001
AcDbBlockRepETag
1070
     1
1071
       33
1005
64A3
  0
ARC
  5
64A4
330
61DE
100
AcDbEntity
  8
SPEC
100
AcDbCircle
 10
831.0478018939912
 20
622.2399750133966
 30
0.0
 40
27.1
100
AcDbArc
 50
308.6988639455371
 51
321.3011360544607
1001
AcDbBlockRepETag
1070
     1
1071
       34
1005
64A4
  0
ARC
  5
64A5
330
61DE
100
AcDbEntity
  8
SPEC
100
AcDbCircle
 10
831.0478018939912
 20
622.2399750133966
 30
0.0
 40
27.1
100
AcDbArc
 50
38.69886394553932
 51
51.3011360544595
1001
AcDbBlockRepETag
1070
     1
1071
       35
1005
64A5
  0
ARC
  5
64A6
330
61DE
100
AcDbEntity
  8
SPEC
100
AcDbCircle
 10
831.0478018939912
 20
622.2399750133966
 30
0.0
 40
27.1
100
AcDbArc
 50
128.698863945541
 51
141.3011360544603
1001
AcDbBlockRepETag
1070
     1
1071
       36
1005
64A6
  0
ARC
  5
64A7
330
61DE
100
AcDbEntity
  8
SPEC
100
AcDbCircle
 10
831.0478018939912
 20
622.2399750133966
 30
0.0
 40
27.1
100
AcDbArc
 50
218.6988639455393
 51
231.3011360544614
1001
AcDbBlockRepETag
1070
     1
1071
       37
1005
64A7
  0
LINE
  5
64A8
330
61DE
100
AcDbEntity
  8
SPEC
100
AcDbLine
 10
814.1041452638532
 20
643.3899750133962
 30
0.0
 11
847.991458524129
 21
643.3899750133963
 31
0.0
1001
AcDbBlockRepETag
1070
     1
1071
       38
1005
64A8
  0
ENDBLK
  5
620B
330
61DE
100
AcDbEntity
  8
0
100
AcDbBlockEnd
  0
BLOCK
  5
6315
330
62C3
100
AcDbEntity
  8
0
100
AcDbBlockBegin
  2
ST4209-Endcap
 70
     0
 10
0.0
 20
0.0
 30
0.0
  3
ST4209-Endcap
  1

  0
LEADER
  5
63BF
102
{ACAD_XDICTIONARY
360
63C0
102
}
330
62C3
100
AcDbEntity
  8
DIM
  6
ACISOWELD
100
AcDbLeader
  3
STANDARD
 76
     3
 10
1058.900200125715
 20
622.2399750133964
 30
0.0
 10
1071.931344837149
 20
650.3899750133963
 30
0.0
 10
1095.680984666539
 20
650.3899750133964
 30
0.0
1001
AcadAnnotative
1000
AnnotativeData
1002
{
1070
     1
1070
     0
1002
}
1001
ACAD
1000
DSTYLE
1002
{
1070
    40
1040
1.0
1070
    77
1070
     0
1002
}
1001
AcDbBlockRepETag
1070
     1
1071
        0
1005
63BF
  0
DIMENSION
  5
63C3
330
62C3
100
AcDbEntity
  8
DIM
  6
ACISOWELD
100
AcDbDimension
  2
*D33
 10
1058.900200125715
 20
650.3899750133963
 30
0.0
 11
1049.426316152527
 21
650.3899750133963
 31
0.0
 70
   160
 71
     5
 42
19.05000000000018
  3
STANDARD$0
100
AcDbAlignedDimension
 13
1039.850200125714
 23
622.2399750133966
 33
0.0
 14
1058.900200125715
 24
622.2399750133964
 34
0.0
100
AcDbRotatedDimension
1001
ACAD
1000
DSTYLE
1002
{
1070
    40
1040
1.0
1002
}
1001
AcDbBlockRepETag
1070
     1
1071
        1
1005
63C3
  0
LINE
  5
63C4
330
62C3
100
AcDbEntity
  8
SPEC
100
AcDbLine
 10
1049.375200125714
 20
592.4869530882631
 30
0.0
 11
1049.375200125714
 21
601.0899750133963
 31
0.0
1001
AcDbBlockRepETag
1070
     1
1071
        2
1005
63C4
  0
LINE
  5
63C5
330
62C3
100
AcDbEntity
  8
SPEC
100
AcDbLine
 10
1050.422819173333
 20
592.4982921997325
 30
0.0
 11
1050.422819173333
 21
601.0899750133963
 31
0.0
1001
AcDbBlockRepETag
1070
     1
1071
        3
1005
63C5
  0
LINE
  5
63C6
330
62C3
100
AcDbEntity
  8
SPEC
100
AcDbLine
 10
1048.327581078095
 20
592.1838995483799
 30
0.0
 11
1048.327581078095
 21
601.0899750133963
 31
0.0
1001
AcDbBlockRepETag
1070
     1
1071
        4
1005
63C6
  0
LINE
  5
63C7
330
62C3
100
AcDbEntity
  8
FRAME
100
AcDbLine
 10
1053.152537949004
 20
593.2879413547416
 30
0.0
 11
1050.120022686308
 21
592.4106996637355
 31
0.0
1001
AcDbBlockRepETag
1070
     1
1071
        5
1005
63C7
  0
LINE
  5
63C8
330
62C3
100
AcDbEntity
  8
FRAME
100
AcDbLine
 10
1050.120022686308
 20
592.4106996637355
 30
0.0
 11
1049.800810207806
 21
592.6100728828883
 31
0.0
1001
AcDbBlockRepETag
1070
     1
1071
        6
1005
63C8
  0
LINE
  5
63C9
330
62C3
100
AcDbEntity
  8
FRAME
100
AcDbLine
 10
1049.800810207806
 20
592.6100728828883
 30
0.0
 11
1046.76829494511
 21
591.7328317834644
 31
0.0
1001
AcDbBlockRepETag
1070
     1
1071
        7
1005
63C9
  0
CIRCLE
  5
63CA
330
62C3
100
AcDbEntity
  8
CENTER
  6
CENTER
100
AcDbCircle
 10
1049.375200125714
 20
622.2399750133964
 30
0.0
 40
9.52500000000009
1001
AcDbBlockRepETag
1070
     1
1071
        8
1005
63CA
  0
LINE
  5
63CB
330
62C3
100
AcDbEntity
  8
CENTER
  6
CENTER
100
AcDbLine
 10
1027.751308502303
 20
622.2399750133964
 30
0.0
 11
1070.999091749126
 21
622.2399750133966
 31
0.0
1001
AcDbBlockRepETag
1070
     1
1071
        9
1005
63CB
  0
LINE
  5
63CC
330
62C3
100
AcDbEntity
  8
CENTER
  6
CENTER
100
AcDbLine
 10
1049.375200125714
 20
601.1616238976261
 30
0.0
 11
1049.375200125714
 21
643.318326129167
 31
0.0
1001
AcDbBlockRepETag
1070
     1
1071
       10
1005
63CC
  0
ARC
  5
63CD
330
62C3
100
AcDbEntity
  8
Gewinde
  6
ACISOWELD
 62
     3
100
AcDbCircle
 10
1039.850200125714
 20
622.2399750133965
 30
0.0
 40
1.190476190476191
100
AcDbArc
 50
86.41712674547131
 51
4.617332807393827
1001
AcDbBlockRepETag
1070
     1
1071
       11
1005
63CD
  0
CIRCLE
  5
63CE
330
62C3
100
AcDbEntity
  8
SPEC
  6
ACISOWELD
100
AcDbCircle
 10
1039.850200125714
 20
622.2399750133968
 30
0.0
 40
0.9523809523809527
1001
AcDbBlockRepETag
1070
     1
1071
       12
1005
63CE
  0
CIRCLE
  5
63CF
330
62C3
100
AcDbEntity
  8
SPEC
100
AcDbCircle
 10
1033.875200125714
 20
637.7399750133966
 30
0.0
 40
2.500000000000001
1001
AcDbBlockRepETag
1070
     1
1071
       13
1005
63CF
  0
LWPOLYLINE
  5
63D0
330
62C3
100
AcDbEntity
  8
SPEC
100
AcDbPolyline
 90
        5
 70
     0
 43
0.0
 10
1034.750665664326
 20
638.0766925282475
 10
1034.750665664326
 20
638.0766925282475
 42
0.4142135623730998
 10
1034.750665664326
 20
637.403257498546
 10
1035.323085439572
 20
636.8308377232997
 10
1035.323085439572
 20
636.8308377232997
1001
AcDbBlockRepETag
1070
     1
1071
       14
1005
63D0
  0
LWPOLYLINE
  5
63D1
330
62C3
100
AcDbEntity
  8
SPEC
100
AcDbPolyline
 90
        7
 70
     0
 43
0.0
 10
1032.427314811856
 20
636.8308377232997
 10
1032.427314811856
 20
636.8308377232997
 10
1032.427314811856
 20
636.8308377232997
 10
1032.999734587102
 20
637.4032574985458
 42
0.4142135623730998
 10
1032.999734587102
 20
638.0766925282475
 10
1032.427314811856
 20
638.6491123034936
 10
1032.966062835617
 20
639.1878603272548
1001
AcDbBlockRepETag
1070
     1
1071
       15
1005
63D1
  0
LINE
  5
63D2
330
62C3
100
AcDbEntity
  8
SPEC
100
AcDbLine
 10
1034.784337415811
 20
636.2920896995385
 30
0.0
 11
1035.323085439572
 21
636.8308377232997
 31
0.0
1001
AcDbBlockRepETag
1070
     1
1071
       16
1005
63D2
  0
LINE
  5
63D3
330
62C3
100
AcDbEntity
  8
SPEC
100
AcDbLine
 10
1032.966062835617
 20
636.2920896995385
 30
0.0
 11
1033.538482610864
 21
636.8645094747848
 31
0.0
1001
AcDbBlockRepETag
1070
     1
1071
       17
1005
63D3
  0
LINE
  5
63D4
330
62C3
100
AcDbEntity
  8
SPEC
100
AcDbLine
 10
1032.427314811856
 20
636.8308377232997
 30
0.0
 11
1032.966062835617
 21
636.2920896995385
 31
0.0
1001
AcDbBlockRepETag
1070
     1
1071
       18
1005
63D4
  0
LWPOLYLINE
  5
63D5
330
62C3
100
AcDbEntity
  8
SPEC
100
AcDbPolyline
 90
        3
 70
     0
 43
0.0
 10
1033.538482610864
 20
636.8645094747848
 42
-0.4142135623731186
 10
1034.211917640565
 20
636.8645094747848
 10
1034.784337415811
 20
636.2920896995385
1001
AcDbBlockRepETag
1070
     1
1071
       19
1005
63D5
  0
LWPOLYLINE
  5
63D6
330
62C3
100
AcDbEntity
  8
SPEC
100
AcDbPolyline
 90
        7
 70
     0
 43
0.0
 10
1034.750665664326
 20
638.0766925282475
 10
1035.323085439572
 20
638.6491123034936
 10
1034.784337415811
 20
639.1878603272548
 10
1034.211917640565
 20
638.6154405520088
 42
-0.4142135623730998
 10
1033.538482610864
 20
638.6154405520088
 10
1032.966062835617
 20
639.1878603272548
 10
1032.427314811856
 20
638.6491123034936
1001
AcDbBlockRepETag
1070
     1
1071
       20
1005
63D6
  0
ARC
  5
63D7
330
62C3
100
AcDbEntity
  8
Gewinde
  6
ACISOWELD
 62
     3
100
AcDbCircle
 10
1058.900200125715
 20
622.2399750133966
 30
0.0
 40
1.190476190476191
100
AcDbArc
 50
62.56963275759116
 51
4.462835092267559
1001
AcDbBlockRepETag
1070
     1
1071
       21
1005
63D7
  0
CIRCLE
  5
63D8
330
62C3
100
AcDbEntity
  8
SPEC
  6
ACISOWELD
100
AcDbCircle
 10
1058.900200125715
 20
622.2399750133966
 30
0.0
 40
0.9523809523809527
1001
AcDbBlockRepETag
1070
     1
1071
       22
1005
63D8
  0
CIRCLE
  5
63D9
330
62C3
100
AcDbEntity
  8
SPEC
  6
ACISOWELD
100
AcDbCircle
 10
1049.375200125714
 20
622.2399750133965
 30
0.0
 40
2.5
1001
AcDbBlockRepETag
1070
     1
1071
       23
1005
63D9
  0
LINE
  5
63DA
330
62C3
100
AcDbEntity
  8
CENTER
  6
CENTER
100
AcDbLine
 10
1033.875200125714
 20
634.7399750133965
 30
0.0
 11
1033.875200125714
 21
640.7399750133966
 31
0.0
1001
AcDbBlockRepETag
1070
     1
1071
       24
1005
63DA
  0
LINE
  5
63DB
330
62C3
100
AcDbEntity
  8
CENTER
  6
CENTER
100
AcDbLine
 10
1036.875200125714
 20
637.7399750133966
 30
0.0
 11
1030.875200125714
 21
637.7399750133966
 31
0.0
1001
AcDbBlockRepETag
1070
     1
1071
       25
1005
63DB
  0
CIRCLE
  5
63DC
330
62C3
100
AcDbEntity
  8
SPEC
100
AcDbCircle
 10
1064.875200125714
 20
637.7399750133966
 30
0.0
 40
2.5
1001
AcDbBlockRepETag
1070
     1
1071
       26
1005
63DC
  0
LWPOLYLINE
  5
63DD
330
62C3
100
AcDbEntity
  8
SPEC
100
AcDbPolyline
 90
        5
 70
     0
 43
0.0
 10
1063.999734587103
 20
638.0766925282475
 10
1063.999734587103
 20
638.0766925282475
 42
-0.4142135623730998
 10
1063.999734587103
 20
637.403257498546
 10
1063.427314811856
 20
636.8308377232997
 10
1063.427314811856
 20
636.8308377232997
1001
AcDbBlockRepETag
1070
     1
1071
       27
1005
63DD
  0
LWPOLYLINE
  5
63DE
330
62C3
100
AcDbEntity
  8
SPEC
100
AcDbPolyline
 90
        7
 70
     0
 43
0.0
 10
1066.323085439572
 20
636.8308377232997
 10
1066.323085439572
 20
636.8308377232997
 10
1066.323085439572
 20
636.8308377232997
 10
1065.750665664326
 20
637.4032574985458
 42
-0.4142135623730998
 10
1065.750665664326
 20
638.0766925282475
 10
1066.323085439572
 20
638.6491123034936
 10
1065.784337415811
 20
639.1878603272548
1001
AcDbBlockRepETag
1070
     1
1071
       28
1005
63DE
  0
LINE
  5
63DF
330
62C3
100
AcDbEntity
  8
SPEC
100
AcDbLine
 10
1063.966062835617
 20
636.2920896995385
 30
0.0
 11
1063.427314811856
 21
636.8308377232997
 31
0.0
1001
AcDbBlockRepETag
1070
     1
1071
       29
1005
63DF
  0
LINE
  5
63E0
330
62C3
100
AcDbEntity
  8
SPEC
100
AcDbLine
 10
1065.784337415811
 20
636.2920896995385
 30
0.0
 11
1065.211917640565
 21
636.8645094747848
 31
0.0
1001
AcDbBlockRepETag
1070
     1
1071
       30
1005
63E0
  0
LINE
  5
63E1
330
62C3
100
AcDbEntity
  8
SPEC
100
AcDbLine
 10
1066.323085439572
 20
636.8308377232997
 30
0.0
 11
1065.784337415811
 21
636.2920896995385
 31
0.0
1001
AcDbBlockRepETag
1070
     1
1071
       31
1005
63E1
  0
LWPOLYLINE
  5
63E2
330
62C3
100
AcDbEntity
  8
SPEC
100
AcDbPolyline
 90
        3
 70
     0
 43
0.0
 10
1065.211917640565
 20
636.8645094747848
 42
0.4142135623731186
 10
1064.538482610863
 20
636.8645094747848
 10
1063.966062835617
 20
636.2920896995385
1001
AcDbBlockRepETag
1070
     1
1071
       32
1005
63E2
  0
LWPOLYLINE
  5
63E3
330
62C3
100
AcDbEntity
  8
SPEC
100
AcDbPolyline
 90
        7
 70
     0
 43
0.0
 10
1063.999734587103
 20
638.0766925282475
 10
1063.427314811856
 20
638.6491123034936
 10
1063.966062835617
 20
639.1878603272548
 10
1064.538482610863
 20
638.6154405520088
 42
0.4142135623730998
 10
1065.211917640565
 20
638.6154405520088
 10
1065.784337415811
 20
639.1878603272548
 10
1066.323085439572
 20
638.6491123034936
1001
AcDbBlockRepETag
1070
     1
1071
       33
1005
63E3
  0
LINE
  5
63E4
330
62C3
100
AcDbEntity
  8
CENTER
  6
CENTER
100
AcDbLine
 10
1064.875200125714
 20
634.7399750133965
 30
0.0
 11
1064.875200125714
 21
640.7399750133966
 31
0.0
1001
AcDbBlockRepETag
1070
     1
1071
       34
1005
63E4
  0
LINE
  5
63E5
330
62C3
100
AcDbEntity
  8
CENTER
  6
CENTER
100
AcDbLine
 10
1061.875200125714
 20
637.7399750133966
 30
0.0
 11
1067.875200125714
 21
637.7399750133966
 31
0.0
1001
AcDbBlockRepETag
1070
     1
1071
       35
1005
63E5
  0
CIRCLE
  5
63E6
330
62C3
100
AcDbEntity
  8
SPEC
100
AcDbCircle
 10
1033.875200125714
 20
606.7399750133964
 30
0.0
 40
2.500000000000001
1001
AcDbBlockRepETag
1070
     1
1071
       36
1005
63E6
  0
LWPOLYLINE
  5
63E7
330
62C3
100
AcDbEntity
  8
SPEC
100
AcDbPolyline
 90
        5
 70
     0
 43
0.0
 10
1034.750665664326
 20
606.4032574985454
 10
1034.750665664326
 20
606.4032574985454
 42
-0.4142135623730998
 10
1034.750665664326
 20
607.076692528247
 10
1035.323085439572
 20
607.6491123034933
 10
1035.323085439572
 20
607.6491123034933
1001
AcDbBlockRepETag
1070
     1
1071
       37
1005
63E7
  0
LWPOLYLINE
  5
63E8
330
62C3
100
AcDbEntity
  8
SPEC
100
AcDbPolyline
 90
        7
 70
     0
 43
0.0
 10
1032.427314811856
 20
607.6491123034932
 10
1032.427314811856
 20
607.6491123034932
 10
1032.427314811856
 20
607.6491123034932
 10
1032.999734587102
 20
607.076692528247
 42
-0.4142135623730998
 10
1032.999734587102
 20
606.4032574985454
 10
1032.427314811856
 20
605.8308377232992
 10
1032.966062835618
 20
605.2920896995381
1001
AcDbBlockRepETag
1070
     1
1071
       38
1005
63E8
  0
LINE
  5
63E9
330
62C3
100
AcDbEntity
  8
SPEC
100
AcDbLine
 10
1034.784337415811
 20
608.1878603272545
 30
0.0
 11
1035.323085439572
 21
607.6491123034933
 31
0.0
1001
AcDbBlockRepETag
1070
     1
1071
       39
1005
63E9
  0
LINE
  5
63EA
330
62C3
100
AcDbEntity
  8
SPEC
100
AcDbLine
 10
1032.966062835618
 20
608.1878603272543
 30
0.0
 11
1033.538482610864
 21
607.6154405520082
 31
0.0
1001
AcDbBlockRepETag
1070
     1
1071
       40
1005
63EA
  0
LINE
  5
63EB
330
62C3
100
AcDbEntity
  8
SPEC
100
AcDbLine
 10
1032.427314811856
 20
607.6491123034932
 30
0.0
 11
1032.966062835618
 21
608.1878603272543
 31
0.0
1001
AcDbBlockRepETag
1070
     1
1071
       41
1005
63EB
  0
LWPOLYLINE
  5
63EC
330
62C3
100
AcDbEntity
  8
SPEC
100
AcDbPolyline
 90
        3
 70
     0
 43
0.0
 10
1033.538482610864
 20
607.6154405520082
 42
0.4142135623731186
 10
1034.211917640565
 20
607.6154405520082
 10
1034.784337415811
 20
608.1878603272545
1001
AcDbBlockRepETag
1070
     1
1071
       42
1005
63EC
  0
LWPOLYLINE
  5
63ED
330
62C3
100
AcDbEntity
  8
SPEC
100
AcDbPolyline
 90
        7
 70
     0
 43
0.0
 10
1034.750665664326
 20
606.4032574985454
 10
1035.323085439572
 20
605.8308377232994
 10
1034.784337415811
 20
605.2920896995382
 10
1034.211917640565
 20
605.8645094747843
 42
0.4142135623730998
 10
1033.538482610864
 20
605.8645094747843
 10
1032.966062835618
 20
605.2920896995381
 10
1032.427314811856
 20
605.8308377232992
1001
AcDbBlockRepETag
1070
     1
1071
       43
1005
63ED
  0
LINE
  5
63EE
330
62C3
100
AcDbEntity
  8
CENTER
  6
CENTER
100
AcDbLine
 10
1033.875200125714
 20
609.7399750133964
 30
0.0
 11
1033.875200125714
 21
603.7399750133964
 31
0.0
1001
AcDbBlockRepETag
1070
     1
1071
       44
1005
63EE
  0
LINE
  5
63EF
330
62C3
100
AcDbEntity
  8
CENTER
  6
CENTER
100
AcDbLine
 10
1036.875200125714
 20
606.7399750133964
 30
0.0
 11
1030.875200125714
 21
606.7399750133963
 31
0.0
1001
AcDbBlockRepETag
1070
     1
1071
       45
1005
63EF
  0
CIRCLE
  5
63F0
330
62C3
100
AcDbEntity
  8
SPEC
100
AcDbCircle
 10
1064.875200125714
 20
606.7399750133968
 30
0.0
 40
2.5
1001
AcDbBlockRepETag
1070
     1
1071
       46
1005
63F0
  0
LWPOLYLINE
  5
63F1
330
62C3
100
AcDbEntity
  8
SPEC
100
AcDbPolyline
 90
        5
 70
     0
 43
0.0
 10
1063.999734587103
 20
606.4032574985458
 10
1063.999734587103
 20
606.4032574985458
 42
0.4142135623730998
 10
1063.999734587103
 20
607.0766925282473
 10
1063.427314811856
 20
607.6491123034935
 10
1063.427314811856
 20
607.6491123034935
1001
AcDbBlockRepETag
1070
     1
1071
       47
1005
63F1
  0
LWPOLYLINE
  5
63F2
330
62C3
100
AcDbEntity
  8
SPEC
100
AcDbPolyline
 90
        7
 70
     0
 43
0.0
 10
1066.323085439572
 20
607.6491123034936
 10
1066.323085439572
 20
607.6491123034936
 10
1066.323085439572
 20
607.6491123034936
 10
1065.750665664326
 20
607.0766925282476
 42
0.4142135623730998
 10
1065.750665664326
 20
606.4032574985458
 10
1066.323085439572
 20
605.8308377232997
 10
1065.784337415811
 20
605.2920896995385
1001
AcDbBlockRepETag
1070
     1
1071
       48
1005
63F2
  0
LINE
  5
63F3
330
62C3
100
AcDbEntity
  8
SPEC
100
AcDbLine
 10
1063.966062835617
 20
608.1878603272548
 30
0.0
 11
1063.427314811856
 21
607.6491123034935
 31
0.0
1001
AcDbBlockRepETag
1070
     1
1071
       49
1005
63F3
  0
LINE
  5
63F4
330
62C3
100
AcDbEntity
  8
SPEC
100
AcDbLine
 10
1065.784337415811
 20
608.1878603272548
 30
0.0
 11
1065.211917640565
 21
607.6154405520085
 31
0.0
1001
AcDbBlockRepETag
1070
     1
1071
       50
1005
63F4
  0
LINE
  5
63F5
330
62C3
100
AcDbEntity
  8
SPEC
100
AcDbLine
 10
1066.323085439572
 20
607.6491123034936
 30
0.0
 11
1065.784337415811
 21
608.1878603272548
 31
0.0
1001
AcDbBlockRepETag
1070
     1
1071
       51
1005
63F5
  0
LWPOLYLINE
  5
63F6
330
62C3
100
AcDbEntity
  8
SPEC
100
AcDbPolyline
 90
        3
 70
     0
 43
0.0
 10
1065.211917640565
 20
607.6154405520085
 42
-0.4142135623731186
 10
1064.538482610864
 20
607.6154405520085
 10
1063.966062835617
 20
608.1878603272548
1001
AcDbBlockRepETag
1070
     1
1071
       52
1005
63F6
  0
LWPOLYLINE
  5
63F7
330
62C3
100
AcDbEntity
  8
SPEC
100
AcDbPolyline
 90
        7
 70
     0
 43
0.0
 10
1063.999734587103
 20
606.4032574985458
 10
1063.427314811856
 20
605.8308377232996
 10
1063.966062835617
 20
605.2920896995385
 10
1064.538482610864
 20
605.8645094747846
 42
-0.4142135623730998
 10
1065.211917640565
 20
605.8645094747846
 10
1065.784337415811
 20
605.2920896995385
 10
1066.323085439572
 20
605.8308377232997
1001
AcDbBlockRepETag
1070
     1
1071
       53
1005
63F7
  0
LINE
  5
63F8
330
62C3
100
AcDbEntity
  8
CENTER
  6
CENTER
100
AcDbLine
 10
1064.875200125714
 20
609.7399750133964
 30
0.0
 11
1064.875200125714
 21
603.7399750133964
 31
0.0
1001
AcDbBlockRepETag
1070
     1
1071
       54
1005
63F8
  0
LINE
  5
63F9
330
62C3
100
AcDbEntity
  8
CENTER
  6
CENTER
100
AcDbLine
 10
1061.875200125714
 20
606.7399750133967
 30
0.0
 11
1067.875200125715
 21
606.7399750133967
 31
0.0
1001
AcDbBlockRepETag
1070
     1
1071
       55
1005
63F9
  0
TEXT
  5
63FA
330
62C3
100
AcDbEntity
  8
DATA
100
AcDbText
 10
1072.710025844502
 20
651.5287318081243
 30
0.0
 40
3.0
  1
2-M2.5x0.45
100
AcDbText
1001
AcDbBlockRepETag
1070
     1
1071
       56
1005
63FA
  0
TEXT
  5
63FB
330
62C3
100
AcDbEntity
  8
DATA
100
AcDbText
 10
1072.710025844502
 20
646.7094957917533
 30
0.0
 40
3.0
  1
DEPTH 2 MIN.
100
AcDbText
1001
AcDbBlockRepETag
1070
     1
1071
       57
1005
63FB
  0
LINE
  5
63FC
330
62C3
100
AcDbEntity
  8
SPEC
100
AcDbLine
 10
1066.158450704788
 20
601.089975013396
 30
0.0
 11
1032.59194954664
 21
601.0899750133967
 31
0.0
1001
AcDbBlockRepETag
1070
     1
1071
       58
1005
63FC
  0
LINE
  5
63FD
330
62C3
100
AcDbEntity
  8
SPEC
100
AcDbLine
 10
1028.225200125715
 20
605.4567244343219
 30
0.0
 11
1028.225200125715
 21
639.023225592471
 31
0.0
1001
AcDbBlockRepETag
1070
     1
1071
       59
1005
63FD
  0
LINE
  5
63FE
330
62C3
100
AcDbEntity
  8
SPEC
100
AcDbLine
 10
1070.525200125714
 20
639.023225592471
 30
0.0
 11
1070.525200125714
 21
605.4567244343219
 31
0.0
1001
AcDbBlockRepETag
1070
     1
1071
       60
1005
63FE
  0
LINE
  5
63FF
330
62C3
100
AcDbEntity
  8
SPEC
100
AcDbLine
 10
1032.59194954664
 20
643.3899750133962
 30
0.0
 11
1066.158450704789
 21
643.3899750133963
 31
0.0
1001
AcDbBlockRepETag
1070
     1
1071
       61
1005
63FF
  0
CIRCLE
  5
6400
330
62C3
100
AcDbEntity
  8
SPEC
100
AcDbCircle
 10
1033.875200125714
 20
606.7399750133964
 30
0.0
 40
3.0
1001
AcDbBlockRepETag
1070
     1
1071
       62
1005
6400
  0
CIRCLE
  5
6401
330
62C3
100
AcDbEntity
  8
SPEC
100
AcDbCircle
 10
1064.875200125714
 20
606.7399750133964
 30
0.0
 40
3.0
1001
AcDbBlockRepETag
1070
     1
1071
       63
1005
6401
  0
CIRCLE
  5
6402
330
62C3
100
AcDbEntity
  8
SPEC
100
AcDbCircle
 10
1064.875200125714
 20
637.7399750133966
 30
0.0
 40
3.0
1001
AcDbBlockRepETag
1070
     1
1071
       64
1005
6402
  0
CIRCLE
  5
6403
330
62C3
100
AcDbEntity
  8
SPEC
100
AcDbCircle
 10
1033.875200125714
 20
637.7399750133966
 30
0.0
 40
3.0
1001
AcDbBlockRepETag
1070
     1
1071
       65
1005
6403
  0
CIRCLE
  5
6404
330
62C3
100
AcDbEntity
  8
SPEC
100
AcDbCircle
 10
1049.375200125714
 20
622.2399750133965
 30
0.0
 40
3.5
1001
AcDbBlockRepETag
1070
     1
1071
       66
1005
6404
  0
ARC
  5
6405
330
62C3
100
AcDbEntity
  8
SPEC
100
AcDbCircle
 10
1049.375200125714
 20
622.2399750133964
 30
0.0
 40
27.0
100
AcDbArc
 50
218.4332063408513
 51
231.5667936591486
1001
AcDbBlockRepETag
1070
     1
1071
       67
1005
6405
  0
ARC
  5
6406
102
{ACAD_REACTORS
330
640B
102
}
330
62C3
100
AcDbEntity
  8
SPEC
100
AcDbCircle
 10
1049.375200125714
 20
622.2399750133964
 30
0.0
 40
27.0
100
AcDbArc
 50
128.4332063408514
 51
141.5667936591487
1001
AcDbBlockRepETag
1070
     1
1071
       68
1005
6406
  0
ARC
  5
6407
330
62C3
100
AcDbEntity
  8
SPEC
100
AcDbCircle
 10
1049.375200125714
 20
622.2399750133964
 30
0.0
 40
27.0
100
AcDbArc
 50
38.43320634085131
 51
51.56679365914868
1001
AcDbBlockRepETag
1070
     1
1071
       69
1005
6407
  0
ARC
  5
6408
330
62C3
100
AcDbEntity
  8
SPEC
100
AcDbCircle
 10
1049.375200125714
 20
622.2399750133964
 30
0.0
 40
27.0
100
AcDbArc
 50
308.4332063408494
 51
321.5667936591487
1001
AcDbBlockRepETag
1070
     1
1071
       70
1005
6408
  0
DIMENSION
  5
6409
102
{ACAD_XDICTIONARY
360
640A
102
}
102
{ACAD_REACTORS
330
640B
102
}
330
62C3
100
AcDbEntity
  8
DIM
100
AcDbDimension
  2
*D34
 10
1030.551997569364
 20
641.5968096079941
 30
0.0
 11
1077.585136001043
 21
596.9821422217233
 31
0.0
 70
    35
 71
     5
 42
54.0
  3
STANDARD
100
AcDbDiametricDimension
 15
1068.198402682064
 25
602.8831404187987
 35
0.0
 40
0.0
1001
AcadAnnotative
1000
AnnotativeData
1002
{
1070
     1
1070
     0
1002
}
1001
ACAD
1000
DSTYLE
1002
{
1070
    40
1040
1.0
1070
   279
1070
     0
1070
   289
1070
     3
1070
   174
1070
     0
1070
   175
1070
     0
1070
   172
1070
     1
1002
}
1001
AcDbBlockRepETag
1070
     1
1071
       71
1005
6409
1001
ACAD_DSTYLE_DIMRADIAL_EXTENSION
1070
   387
1070
     1
1070
   388
1040
2.241582319541116
1070
   390
1040
2.470806660843575
  0
ENDBLK
  5
6316
330
62C3
100
AcDbEntity
  8
0
100
AcDbBlockEnd
  0
BLOCK
  5
6410
330
640F
100
AcDbEntity
  8
0
100
AcDbBlockBegin
  2
*D33
 70
     1
 10
0.0
 20
0.0
 30
0.0
  3
*D33
  1

  0
LINE
  5
6433
330
640F
100
AcDbEntity
  8
DIM
  6
ACISOWELD
 62
     3
370
    -2
100
AcDbLine
 10
1039.850200125714
 20
623.2399750133967
 30
0.0
 11
1039.850200125714
 21
651.3899750133963
 31
0.0
  0
LINE
  5
6434
330
640F
100
AcDbEntity
  8
DIM
  6
ACISOWELD
 62
     3
370
    -2
100
AcDbLine
 10
1058.900200125715
 20
623.2399750133964
 30
0.0
 11
1058.900200125715
 21
651.3899750133963
 31
0.0
  0
LINE
  5
6435
330
640F
100
AcDbEntity
  8
DIM
  6
ACISOWELD
 62
     3
100
AcDbLine
 10
1042.850200125714
 20
650.3899750133963
 30
0.0
 11
1055.900200125714
 21
650.3899750133963
 31
0.0
  0
SOLID
  5
6436
330
640F
100
AcDbEntity
  8
DIM
  6
ACISOWELD
 62
     3
100
AcDbTrace
 10
1042.850200125714
 20
650.8899750133963
 30
0.0
 11
1042.850200125714
 21
649.8899750133963
 31
0.0
 12
1039.850200125714
 22
650.3899750133963
 32
0.0
 13
1039.850200125714
 23
650.3899750133963
 33
0.0
  0
SOLID
  5
6437
330
640F
100
AcDbEntity
  8
DIM
  6
ACISOWELD
 62
     3
100
AcDbTrace
 10
1055.900200125714
 20
650.8899750133963
 30
0.0
 11
1055.900200125714
 21
649.8899750133963
 31
0.0
 12
1058.900200125715
 22
650.3899750133963
 32
0.0
 13
1058.900200125715
 23
650.3899750133963
 33
0.0
  0
MTEXT
  5
6438
330
640F
100
AcDbEntity
  8
DIM
  6
ACISOWELD
 62
     6
100
AcDbMText
 10
1049.426316152527
 20
652.9216939765614
 30
0.0
 40
3.0
 41
0.0
 71
     5
 72
     1
  1
\A1;19.05
 73
     1
 44
1.0
1001
ACAD
1000
MTEXTBEGIN
1070
    73
1070
     1
1070
    44
1040
1.0
1070
    74
1070
     0
1000
MTEXTEND
  0
POINT
  5
6439
330
640F
100
AcDbEntity
  8
Defpoints
  6
ACISOWELD
 62
     0
100
AcDbPoint
 10
1039.850200125714
 20
622.2399750133966
 30
0.0
  0
POINT
  5
643A
330
640F
100
AcDbEntity
  8
Defpoints
  6
ACISOWELD
 62
     0
100
AcDbPoint
 10
1058.900200125715
 20
622.2399750133964
 30
0.0
  0
POINT
  5
643B
330
640F
100
AcDbEntity
  8
Defpoints
  6
ACISOWELD
 62
     0
100
AcDbPoint
 10
1058.900200125715
 20
650.3899750133963
 30
0.0
  0
ENDBLK
  5
6411
330
640F
100
AcDbEntity
  8
0
100
AcDbBlockEnd
  0
BLOCK
  5
6428
330
6427
100
AcDbEntity
  8
0
100
AcDbBlockBegin
  2
*D34
 70
     1
 10
0.0
 20
0.0
 30
0.0
  3
*D34
  1

  0
LINE
  5
6445
330
6427
100
AcDbEntity
  8
DIM
 62
     3
100
AcDbLine
 10
1079.038554828797
 20
591.7356732725238
 30
0.0
 11
1070.28986963277
 21
600.7323810193989
 31
0.0
  0
LINE
  5
6446
330
6427
100
AcDbEntity
  8
DIM
 62
     3
100
AcDbLine
 10
1028.460530618658
 20
643.7475690073938
 30
0.0
 11
1026.369063667953
 21
645.8983284067935
 31
0.0
  0
MTEXT
  5
6447
102
{ACAD_XDICTIONARY
360
6608
102
}
330
6427
100
AcDbEntity
  8
DIM
 62
     6
100
AcDbMText
 10
1077.585136001043
 20
596.9821422217233
 30
0.0
 40
3.0
 41
0.0
 71
     5
 72
     1
  1
\A1;\U+220554
 11
0.6971556502351893
 21
-0.7169197997999153
 31
0.0
 73
     1
 44
1.0
1001
ACAD
1000
MTEXTBEGIN
1070
    73
1070
     1
1070
    44
1040
1.0
1070
    74
1070
     0
1000
MTEXTEND
  0
LINE
  5
6448
330
6427
100
AcDbEntity
  8
DIM
 62
     3
100
AcDbLine
 10
1030.551997569364
 20
641.5968096079941
 30
0.0
 11
1068.198402682064
 21
602.8831404187987
 31
0.0
  0
SOLID
  5
6449
330
6427
100
AcDbEntity
  8
DIM
 62
     3
100
AcDbTrace
 10
1028.818990518558
 20
644.0961468325115
 30
0.0
 11
1028.102070718759
 21
643.3989911822763
 31
0.0
 12
1030.551997569364
 22
641.5968096079941
 32
0.0
 13
1030.551997569364
 23
641.5968096079941
 33
0.0
  0
SOLID
  5
644A
330
6427
100
AcDbEntity
  8
DIM
 62
     3
100
AcDbTrace
 10
1070.64832953267
 20
601.0809588445166
 30
0.0
 11
1069.93140973287
 21
600.3838031942814
 31
0.0
 12
1068.198402682064
 22
602.8831404187987
 32
0.0
 13
1068.198402682064
 23
602.8831404187987
 33
0.0
  0
ARC
  5
644B
330
6427
100
AcDbEntity
  8
DIM
 62
     3
370
    -2
100
AcDbCircle
 10
1049.375200125714
 20
622.2399750133964
 30
0.0
 40
27.0
100
AcDbArc
 50
143.6888595670406
 51
316.3213104556532
  0
POINT
  5
644C
330
6427
100
AcDbEntity
  8
Defpoints
 62
     0
100
AcDbPoint
 10
1068.198402682064
 20
602.8831404187987
 30
0.0
  0
POINT
  5
644D
330
6427
100
AcDbEntity
  8
Defpoints
 62
     0
100
AcDbPoint
 10
1030.551997569364
 20
641.5968096079941
 30
0.0
  0
ENDBLK
  5
6429
330
6427
100
AcDbEntity
  8
0
100
AcDbBlockEnd
  0
BLOCK
  5
64AB
330
64AA
100
AcDbEntity
  8
0
100
AcDbBlockBegin
  2
*D36
 70
     1
 10
0.0
 20
0.0
 30
0.0
  3
*D36
  1

  0
LINE
  5
64D7
330
64AA
100
AcDbEntity
  8
DIM
 62
     3
370
    -2
100
AcDbLine
 10
809.8978018939911
 20
640.1836316435341
 30
0.0
 11
809.8978018939911
 21
658.3899750133962
 31
0.0
  0
LINE
  5
64D8
330
64AA
100
AcDbEntity
  8
DIM
 62
     3
370
    -2
100
AcDbLine
 10
852.1978018939909
 20
640.1836316435342
 30
0.0
 11
852.1978018939909
 21
658.3899750133962
 31
0.0
  0
LINE
  5
64D9
330
64AA
100
AcDbEntity
  8
DIM
 62
     3
100
AcDbLine
 10
812.8978018939912
 20
657.3899750133961
 30
0.0
 11
849.197801893991
 21
657.3899750133961
 31
0.0
  0
SOLID
  5
64DA
330
64AA
100
AcDbEntity
  8
DIM
 62
     3
100
AcDbTrace
 10
812.8978018939912
 20
657.8899750133962
 30
0.0
 11
812.8978018939912
 21
656.8899750133962
 31
0.0
 12
809.8978018939911
 22
657.3899750133961
 32
0.0
 13
809.8978018939911
 23
657.3899750133961
 33
0.0
  0
SOLID
  5
64DB
330
64AA
100
AcDbEntity
  8
DIM
 62
     3
100
AcDbTrace
 10
849.197801893991
 20
657.8899750133962
 30
0.0
 11
849.197801893991
 21
656.8899750133962
 31
0.0
 12
852.1978018939909
 22
657.3899750133961
 32
0.0
 13
852.1978018939909
 23
657.3899750133961
 33
0.0
  0
MTEXT
  5
64DC
330
64AA
100
AcDbEntity
  8
DIM
 62
     6
100
AcDbMText
 10
831.5074725429436
 20
659.9227171689214
 30
0.0
 40
3.0
 41
0.0
 71
     5
 72
     1
  1
\A1;{\Famgdt;o} 42.3 MAX.
 73
     1
 44
1.0
1001
ACAD
1000
MTEXTBEGIN
1070
    73
1070
     1
1070
    44
1040
1.0
1070
    74
1070
     0
1000
MTEXTEND
  0
POINT
  5
64DD
330
64AA
100
AcDbEntity
  8
Defpoints
 62
     0
100
AcDbPoint
 10
809.8978018939911
 20
639.1836316435341
 30
0.0
  0
POINT
  5
64DE
330
64AA
100
AcDbEntity
  8
Defpoints
 62
     0
100
AcDbPoint
 10
852.1978018939909
 20
639.1836316435342
 30
0.0
  0
POINT
  5
64DF
330
64AA
100
AcDbEntity
  8
Defpoints
 62
     0
100
AcDbPoint
 10
852.1978018939909
 20
657.3899750133961
 30
0.0
  0
ENDBLK
  5
64AC
330
64AA
100
AcDbEntity
  8
0
100
AcDbBlockEnd
  0
BLOCK
  5
64BA
330
64B9
100
AcDbEntity
  8
0
100
AcDbBlockBegin
  2
*D37
 70
     1
 10
0.0
 20
0.0
 30
0.0
  3
*D37
  1

  0
LINE
  5
64CE
330
64B9
100
AcDbEntity
  8
DIM
 62
     3
370
    -2
100
AcDbLine
 10
815.5478018939911
 20
641.0494988229204
 30
0.0
 11
815.5478018939911
 21
651.3899750133962
 31
0.0
  0
LINE
  5
64CF
330
64B9
100
AcDbEntity
  8
DIM
 62
     3
370
    -2
100
AcDbLine
 10
846.5478018939911
 20
640.6447369181584
 30
0.0
 11
846.5478018939911
 21
651.3899750133962
 31
0.0
  0
LINE
  5
64D0
330
64B9
100
AcDbEntity
  8
DIM
 62
     3
100
AcDbLine
 10
818.5478018939912
 20
650.3899750133962
 30
0.0
 11
843.5478018939912
 21
650.3899750133962
 31
0.0
  0
SOLID
  5
64D1
330
64B9
100
AcDbEntity
  8
DIM
 62
     3
100
AcDbTrace
 10
818.5478018939912
 20
650.8899750133962
 30
0.0
 11
818.5478018939912
 21
649.8899750133962
 31
0.0
 12
815.5478018939911
 22
650.3899750133962
 32
0.0
 13
815.5478018939911
 23
650.3899750133962
 33
0.0
  0
SOLID
  5
64D2
330
64B9
100
AcDbEntity
  8
DIM
 62
     3
100
AcDbTrace
 10
843.5478018939912
 20
650.8899750133962
 30
0.0
 11
843.5478018939912
 21
649.8899750133962
 31
0.0
 12
846.5478018939911
 22
650.3899750133962
 32
0.0
 13
846.5478018939911
 23
650.3899750133962
 33
0.0
  0
MTEXT
  5
64D3
102
{ACAD_XDICTIONARY
360
660C
102
}
330
64B9
100
AcDbEntity
  8
DIM
 62
     6
100
AcDbMText
 10
831.0478018939912
 20
652.9227171689215
 30
0.0
 40
3.0
 41
0.0
 71
     5
 72
     1
  1
\A1;{\Famgdt;o} 31{\H2.400000;\U+00B10.1}
 73
     1
 44
1.0
1001
ACAD
1000
MTEXTBEGIN
1070
    73
1070
     1
1070
    44
1040
1.0
1070
    74
1070
     0
1000
MTEXTEND
  0
POINT
  5
64D4
330
64B9
100
AcDbEntity
  8
Defpoints
 62
     0
100
AcDbPoint
 10
815.5478018939911
 20
640.0494988229204
 30
0.0
  0
POINT
  5
64D5
330
64B9
100
AcDbEntity
  8
Defpoints
 62
     0
100
AcDbPoint
 10
846.5478018939911
 20
639.6447369181585
 30
0.0
  0
POINT
  5
64D6
330
64B9
100
AcDbEntity
  8
Defpoints
 62
     0
100
AcDbPoint
 10
846.5478018939911
 20
650.3899750133962
 30
0.0
  0
ENDBLK
  5
64BB
330
64B9
100
AcDbEntity
  8
0
100
AcDbBlockEnd
  0
BLOCK
  5
656C
330
653A
100
AcDbEntity
  8
0
100
AcDbBlockBegin
  2
Step-Phase
 70
     0
 10
0.0
 20
0.0
 30
0.0
  3
Step-Phase
  1

  0
TEXT
  5
653B
330
653A
100
AcDbEntity
  8
DATA
100
AcDbText
 10
46.43564193489198
 20
20.40000000000009
 30
0.0
 40
2.4
  1
CCW
 41
0.7
  7
ROMANS
 72
     1
 11
49.11564193489198
 21
20.40000000000009
 31
0.0
100
AcDbText
1001
AcDbBlockRepETag
1070
     1
1071
        0
1005
653B
  0
SOLID
  5
653C
330
653A
100
AcDbEntity
  8
DATA
100
AcDbTrace
 10
48.70949176530849
 20
15.45678902007785
 30
0.0
 11
49.50949176530866
 21
15.45678902007785
 31
0.0
 12
49.10949176530857
 22
17.85678902007771
 32
0.0
 13
49.10949176530857
 23
17.85678902007771
 33
0.0
1001
AcDbBlockRepETag
1070
     1
1071
        1
1005
653C
  0
TEXT
  5
653D
330
653A
100
AcDbEntity
  8
DATA
100
AcDbText
 10
34.2
 20
20.40000000000009
 30
0.0
 40
2.4
  1
B\
 41
0.7
  7
ROMANS
 72
     1
 11
36.0
 21
20.40000000000009
 31
0.0
100
AcDbText
1001
AcDbBlockRepETag
1070
     1
1071
        2
1005
653D
  0
TEXT
  5
653E
330
653A
100
AcDbEntity
  8
DATA
100
AcDbText
 10
26.44
 20
20.40000000000009
 30
0.0
 40
2.4
  1
A\
 41
0.7
  7
ROMANS
 72
     1
 11
28.0
 21
20.40000000000009
 31
0.0
100
AcDbText
1001
AcDbBlockRepETag
1070
     1
1071
        3
1005
653E
  0
TEXT
  5
653F
330
653A
100
AcDbEntity
  8
DATA
100
AcDbText
 10
35.10259812448381
 20
15.60000000000013
 30
0.0
 40
2.4
  1
-
 41
0.7
  7
ROMANS
 72
     1
 11
36.14259812448381
 21
15.60000000000013
 31
0.0
100
AcDbText
1001
AcDbBlockRepETag
1070
     1
1071
        4
1005
653F
  0
TEXT
  5
6540
330
653A
100
AcDbEntity
  8
DATA
100
AcDbText
 10
35.10259812448381
 20
11.02362835042026
 30
0.0
 40
2.4
  1
-
 41
0.7
  7
ROMANS
 72
     1
 11
36.14259812448381
 21
11.02362835042026
 31
0.0
100
AcDbText
1001
AcDbBlockRepETag
1070
     1
1071
        5
1005
6540
  0
LINE
  5
6541
330
653A
100
AcDbEntity
  8
DATA
100
AcDbLine
 10
43.01849145544657
 20
8.074727969820969
 30
0.0
 11
43.01849145544657
 21
18.52612051920869
 31
0.0
1001
AcDbBlockRepETag
1070
     1
1071
        6
1005
6541
  0
TEXT
  5
6542
330
653A
100
AcDbEntity
  8
DATA
100
AcDbText
 10
27.10259812448381
 20
15.60000000000013
 30
0.0
 40
2.4
  1
-
 41
0.7
  7
ROMANS
 72
     1
 11
28.14259812448381
 21
15.60000000000013
 31
0.0
100
AcDbText
1001
AcDbBlockRepETag
1070
     1
1071
        7
1005
6542
  0
TEXT
  5
6543
330
653A
100
AcDbEntity
  8
DATA
100
AcDbText
 10
26.96
 20
10.80000000000018
 30
0.0
 40
2.4
  1
+
 41
0.7
  7
ROMANS
 72
     1
 11
28.0
 21
10.80000000000018
 31
0.0
100
AcDbText
1001
AcDbBlockRepETag
1070
     1
1071
        8
1005
6543
  0
TEXT
  5
6544
330
653A
100
AcDbEntity
  8
DATA
100
AcDbText
 10
19.12
 20
20.40000000000009
 30
0.0
 40
2.4
  1
B
 41
0.7
  7
ROMANS
 72
     1
 11
20.0
 21
20.40000000000009
 31
0.0
100
AcDbText
1001
AcDbBlockRepETag
1070
     1
1071
        9
1005
6544
  0
TEXT
  5
6545
330
653A
100
AcDbEntity
  8
DATA
100
AcDbText
 10
11.28
 20
20.40000000000009
 30
0.0
 40
2.4
  1
A
 41
0.7
  7
ROMANS
 72
     1
 11
12.0
 21
20.40000000000009
 31
0.0
100
AcDbText
1001
AcDbBlockRepETag
1070
     1
1071
       10
1005
6545
  0
TEXT
  5
6546
330
653A
100
AcDbEntity
  8
DATA
100
AcDbText
 10
18.7310266655215
 20
5.989619251837439
 30
0.0
 40
2.4
  1
-
 41
0.7
  7
ROMANS
 72
     1
 11
19.7710266655215
 21
5.989619251837439
 31
0.0
100
AcDbText
1001
AcDbBlockRepETag
1070
     1
1071
       11
1005
6546
  0
TEXT
  5
6547
330
653A
100
AcDbEntity
  8
DATA
100
AcDbText
 10
10.7310266655215
 20
5.989619251837439
 30
0.0
 40
2.4
  1
-
 41
0.7
  7
ROMANS
 72
     1
 11
11.7710266655215
 21
5.989619251837439
 31
0.0
100
AcDbText
1001
AcDbBlockRepETag
1070
     1
1071
       12
1005
6547
  0
TEXT
  5
6548
330
653A
100
AcDbEntity
  8
DATA
100
AcDbText
 10
34.96
 20
1.200000000000045
 30
0.0
 40
2.4
  1
+
 41
0.7
  7
ROMANS
 72
     1
 11
36.0
 21
1.200000000000045
 31
0.0
100
AcDbText
1001
AcDbBlockRepETag
1070
     1
1071
       13
1005
6548
  0
TEXT
  5
6549
330
653A
100
AcDbEntity
  8
DATA
100
AcDbText
 10
26.9740554471318
 20
1.07001941406088
 30
0.0
 40
2.4
  1
-
 41
0.7
  7
ROMANS
 72
     1
 11
28.0140554471318
 21
1.07001941406088
 31
0.0
100
AcDbText
1001
AcDbBlockRepETag
1070
     1
1071
       14
1005
6549
  0
TEXT
  5
654A
330
653A
100
AcDbEntity
  8
DATA
100
AcDbText
 10
18.97405544713179
 20
1.07001941406088
 30
0.0
 40
2.4
  1
-
 41
0.7
  7
ROMANS
 72
     1
 11
20.01405544713179
 21
1.07001941406088
 31
0.0
100
AcDbText
1001
AcDbBlockRepETag
1070
     1
1071
       15
1005
654A
  0
TEXT
  5
654B
330
653A
100
AcDbEntity
  8
DATA
100
AcDbText
 10
10.96
 20
1.200000000000045
 30
0.0
 40
2.4
  1
+
 41
0.7
  7
ROMANS
 72
     1
 11
12.0
 21
1.200000000000045
 31
0.0
100
AcDbText
1001
AcDbBlockRepETag
1070
     1
1071
       16
1005
654B
  0
TEXT
  5
654C
330
653A
100
AcDbEntity
  8
DATA
100
AcDbText
 10
41.4085760675022
 20
1.50537488116447
 30
0.0
 40
2.4
  1
CW
 41
0.7
  7
ROMANS
 72
     1
 11
43.2485760675022
 21
1.50537488116447
 31
0.0
100
AcDbText
1001
AcDbBlockRepETag
1070
     1
1071
       17
1005
654C
  0
LINE
  5
654D
330
653A
100
AcDbEntity
  8
DATA
100
AcDbLine
 10
8.0
 20
24.0
 30
0.0
 11
8.0
 21
0.0
 31
0.0
1001
AcDbBlockRepETag
1070
     1
1071
       18
1005
654D
  0
LINE
  5
654E
330
653A
100
AcDbEntity
  8
DATA
100
AcDbLine
 10
52.21048268184836
 20
24.0
 30
0.0
 11
52.21048268184836
 21
0.0
 31
0.0
1001
AcDbBlockRepETag
1070
     1
1071
       19
1005
654E
  0
LINE
  5
654F
330
653A
100
AcDbEntity
  8
DATA
100
AcDbLine
 10
49.10949176530857
 20
15.45678902007785
 30
0.0
 11
49.10949176530857
 21
5.696642235809576
 31
0.0
1001
AcDbBlockRepETag
1070
     1
1071
       20
1005
654F
  0
SOLID
  5
6550
330
653A
100
AcDbEntity
  8
DATA
100
AcDbTrace
 10
43.41849145544665
 20
8.074727969820969
 30
0.0
 11
42.61849145544647
 21
8.074727969820969
 31
0.0
 12
43.01849145544657
 22
5.674727969820878
 32
0.0
 13
43.01849145544657
 23
5.674727969820878
 33
0.0
1001
AcDbBlockRepETag
1070
     1
1071
       21
1005
6550
  0
LINE
  5
6551
330
653A
100
AcDbEntity
  8
DATA
100
AcDbLine
 10
45.86024680239529
 20
24.0
 30
0.0
 11
45.86024680239529
 21
0.0
 31
0.0
1001
AcDbBlockRepETag
1070
     1
1071
       22
1005
6551
  0
TEXT
  5
6552
330
653A
100
AcDbEntity
  8
DATA
100
AcDbText
 10
34.96
 20
6.0
 30
0.0
 40
2.4
  1
+
 41
0.7
  7
ROMANS
 72
     1
 11
36.0
 21
6.0
 31
0.0
100
AcDbText
1001
AcDbBlockRepETag
1070
     1
1071
       23
1005
6552
  0
TEXT
  5
6553
330
653A
100
AcDbEntity
  8
DATA
100
AcDbText
 10
26.96
 20
6.0
 30
0.0
 40
2.4
  1
+
 41
0.7
  7
ROMANS
 72
     1
 11
28.0
 21
6.0
 31
0.0
100
AcDbText
1001
AcDbBlockRepETag
1070
     1
1071
       24
1005
6553
  0
LINE
  5
6554
330
653A
100
AcDbEntity
  8
DATA
100
AcDbLine
 10
40.0
 20
24.0
 30
0.0
 11
40.0
 21
0.0
 31
0.0
1001
AcDbBlockRepETag
1070
     1
1071
       25
1005
6554
  0
LINE
  5
6555
330
653A
100
AcDbEntity
  8
DATA
100
AcDbLine
 10
32.0
 20
24.0
 30
0.0
 11
32.0
 21
0.0
 31
0.0
1001
AcDbBlockRepETag
1070
     1
1071
       26
1005
6555
  0
LINE
  5
6556
330
653A
100
AcDbEntity
  8
DATA
100
AcDbLine
 10
24.0
 20
24.0
 30
0.0
 11
24.0
 21
0.0
 31
0.0
1001
AcDbBlockRepETag
1070
     1
1071
       27
1005
6556
  0
TEXT
  5
6557
330
653A
100
AcDbEntity
  8
DATA
100
AcDbText
 10
3.319999999999999
 20
15.60000000000013
 30
0.0
 40
2.4
  1
1
 41
0.7
  7
ROMANS
 72
     1
 11
4.0
 21
15.60000000000013
 31
0.0
100
AcDbText
1001
AcDbBlockRepETag
1070
     1
1071
       28
1005
6557
  0
TEXT
  5
6558
330
653A
100
AcDbEntity
  8
DATA
100
AcDbText
 10
3.2
 20
10.80000000000018
 30
0.0
 40
2.4
  1
2
 41
0.7
  7
ROMANS
 72
     1
 11
4.0
 21
10.80000000000018
 31
0.0
100
AcDbText
1001
AcDbBlockRepETag
1070
     1
1071
       29
1005
6558
  0
TEXT
  5
6559
330
653A
100
AcDbEntity
  8
DATA
100
AcDbText
 10
3.16
 20
1.200000000000045
 30
0.0
 40
2.4
  1
4
 41
0.7
  7
ROMANS
 72
     1
 11
4.0
 21
1.200000000000045
 31
0.0
100
AcDbText
1001
AcDbBlockRepETag
1070
     1
1071
       30
1005
6559
  0
TEXT
  5
655A
330
653A
100
AcDbEntity
  8
DATA
100
AcDbText
 10
3.2
 20
6.0
 30
0.0
 40
2.4
  1
3
 41
0.7
  7
ROMANS
 72
     1
 11
4.0
 21
6.0
 31
0.0
100
AcDbText
1001
AcDbBlockRepETag
1070
     1
1071
       31
1005
655A
  0
LINE
  5
655B
330
653A
100
AcDbEntity
  8
DATA
100
AcDbLine
 10
0.0
 20
24.0
 30
0.0
 11
0.0
 21
0.0
 31
0.0
1001
AcDbBlockRepETag
1070
     1
1071
       32
1005
655B
  0
TEXT
  5
655C
330
653A
100
AcDbEntity
  8
DATA
100
AcDbText
 10
0.0
 20
25.40952380952399
 30
0.0
 40
2.8
  1
WHEN FACING MOUNTING END (X)
 41
0.7
  7
ROMANS
100
AcDbText
1001
AcDbBlockRepETag
1070
     1
1071
       33
1005
655C
  0
TEXT
  5
655D
330
653A
100
AcDbEntity
  8
DATA
100
AcDbText
 10
-0.1668820425609283
 20
30.0
 30
0.0
 40
2.8
  1
FULL STEP 2 PHASE-Ex.,
 41
0.7
  7
ROMANS
100
AcDbText
1001
AcDbBlockRepETag
1070
     1
1071
       34
1005
655D
  0
LINE
  5
655E
330
653A
100
AcDbEntity
  8
DATA
100
AcDbLine
 10
0.0
 20
19.20000000000004
 30
0.0
 11
40.0
 21
19.20000000000004
 31
0.0
1001
AcDbBlockRepETag
1070
     1
1071
       35
1005
655E
  0
LINE
  5
655F
330
653A
100
AcDbEntity
  8
DATA
100
AcDbLine
 10
0.0
 20
4.800000000000181
 30
0.0
 11
40.0
 21
4.800000000000181
 31
0.0
1001
AcDbBlockRepETag
1070
     1
1071
       36
1005
655F
  0
LINE
  5
6560
330
653A
100
AcDbEntity
  8
DATA
100
AcDbLine
 10
52.21048268184836
 20
24.0
 30
0.0
 11
0.0
 21
24.0
 31
0.0
1001
AcDbBlockRepETag
1070
     1
1071
       37
1005
6560
  0
LINE
  5
6561
330
653A
100
AcDbEntity
  8
DATA
100
AcDbLine
 10
0.0
 20
0.0
 30
0.0
 11
52.21048268184836
 21
0.0
 31
0.0
1001
AcDbBlockRepETag
1070
     1
1071
       38
1005
6561
  0
TEXT
  5
6562
330
653A
100
AcDbEntity
  8
DATA
100
AcDbText
 10
0.9599999999999994
 20
20.40000000000009
 30
0.0
 40
2.4
  1
STEP
 41
0.7
  7
ROMANS
 72
     1
 11
4.0
 21
20.40000000000009
 31
0.0
100
AcDbText
1001
AcDbBlockRepETag
1070
     1
1071
       39
1005
6562
  0
TEXT
  5
6563
330
653A
100
AcDbEntity
  8
DATA
100
AcDbText
 10
18.96
 20
15.60000000000013
 30
0.0
 40
2.4
  1
+
 41
0.7
  7
ROMANS
 72
     1
 11
20.0
 21
15.60000000000013
 31
0.0
100
AcDbText
1001
AcDbBlockRepETag
1070
     1
1071
       40
1005
6563
  0
TEXT
  5
6564
330
653A
100
AcDbEntity
  8
DATA
100
AcDbText
 10
18.96
 20
10.80000000000018
 30
0.0
 40
2.4
  1
+
 41
0.7
  7
ROMANS
 72
     1
 11
20.0
 21
10.80000000000018
 31
0.0
100
AcDbText
1001
AcDbBlockRepETag
1070
     1
1071
       41
1005
6564
  0
TEXT
  5
6565
330
653A
100
AcDbEntity
  8
DATA
100
AcDbText
 10
10.96
 20
15.60000000000013
 30
0.0
 40
2.4
  1
+
 41
0.7
  7
ROMANS
 72
     1
 11
12.0
 21
15.60000000000013
 31
0.0
100
AcDbText
1001
AcDbBlockRepETag
1070
     1
1071
       42
1005
6565
  0
TEXT
  5
6566
330
653A
100
AcDbEntity
  8
DATA
100
AcDbText
 10
10.7310266655215
 20
10.79480942302962
 30
0.0
 40
2.4
  1
-
 41
0.7
  7
ROMANS
 72
     1
 11
11.7710266655215
 21
10.79480942302962
 31
0.0
100
AcDbText
1001
AcDbBlockRepETag
1070
     1
1071
       43
1005
6566
  0
LINE
  5
6567
330
653A
100
AcDbEntity
  8
DATA
100
AcDbLine
 10
16.0
 20
24.0
 30
0.0
 11
16.0
 21
0.0
 31
0.0
1001
AcDbBlockRepETag
1070
     1
1071
       44
1005
6567
  0
LINE
  5
6568
330
653A
100
AcDbEntity
  8
DATA
100
AcDbLine
 10
0.0
 20
14.40000000000009
 30
0.0
 11
40.0
 21
14.40000000000009
 31
0.0
1001
AcDbBlockRepETag
1070
     1
1071
       45
1005
6568
  0
LINE
  5
6569
330
653A
100
AcDbEntity
  8
DATA
100
AcDbLine
 10
0.0
 20
9.600000000000136
 30
0.0
 11
40.0
 21
9.600000000000136
 31
0.0
1001
AcDbBlockRepETag
1070
     1
1071
       46
1005
6569
  0
ENDBLK
  5
656D
330
653A
100
AcDbEntity
  8
0
100
AcDbBlockEnd
  0
ENDSEC
  0
SECTION
  2
ENTITIES
  0
TEXT
  5
13FA
330
1F
100
AcDbEntity
  8
SPEC
100
AcDbText
 10
1198.0
 20
654.0
 30
0.0
 40
2.4
  1

 41
0.7
  7
ROMANS
100
AcDbText
  0
LINE
  5
4016
330
1F
100
AcDbEntity
  8
SPEC
100
AcDbLine
 10
945.8755278576781
 20
639.0232255924709
 30
0.0
 11
957.9231469052974
 21
639.0232255924709
 31
0.0
  0
DIMENSION
  5
4017
330
1F
100
AcDbEntity
  8
DIM
100
AcDbDimension
  2
*D7
 10
957.9231469052974
 20
657.3899750133963
 30
0.0
 11
941.482226029985
 21
657.3899750133963
 31
0.0
 70
   160
 71
     5
 42
33.49999999999989
  3
STANDARD
100
AcDbAlignedDimension
 13
924.4231469052975
 23
643.2399750133964
 33
0.0
 14
957.9231469052974
 24
643.2399750133965
 34
0.0
100
AcDbRotatedDimension
1001
ACAD
1000
DSTYLE
1002
{
1070
    47
1040
0.8
1070
    48
1040
0.8
1070
   147
1040
1.0
1070
    72
1070
     0
1070
    71
1070
     0
1070
    40
1040
1.0
1002
}
  0
LINE
  5
4018
330
1F
100
AcDbEntity
  8
SPEC
100
AcDbLine
 10
924.4231469052975
 20
643.3899750133963
 30
0.0
 11
957.9231469052974
 21
643.3899750133964
 31
0.0
  0
LINE
  5
4019
330
1F
100
AcDbEntity
  8
SPEC
100
AcDbLine
 10
924.4231469052975
 20
601.089975013396
 30
0.0
 11
957.9231469052976
 21
601.0899750133963
 31
0.0
  0
LINE
  5
401A
330
1F
100
AcDbEntity
  8
SPEC
100
AcDbLine
 10
951.3976904314816
 20
586.6998710484885
 30
0.0
 11
950.82494746358
 21
587.0575939351176
 31
0.0
  0
LINE
  5
401B
330
1F
100
AcDbEntity
  8
SPEC
100
AcDbLine
 10
954.1766752047781
 20
588.8993831519447
 30
0.0
 11
951.1441599420814
 21
588.0221414609386
 31
0.0
  0
LINE
  5
401C
330
1F
100
AcDbEntity
  8
CENTER
100
AcDbLine
 10
898.1644890373768
 20
622.2399750133965
 30
0.0
 11
973.7060448538532
 21
622.2399750133965
 31
0.0
  0
TEXT
  5
4025
330
1F
100
AcDbEntity
  8
DIM
100
AcDbText
 10
811.9520642271249
 20
664.0
 30
0.0
 40
3.571428571428572
  1
Front view and mounting
100
AcDbText
  0
DIMENSION
  5
4033
330
1F
100
AcDbEntity
  8
DIM
100
AcDbDimension
  2
*D8
 10
924.4231469052975
 20
650.3899750133963
 30
0.0
 11
912.9256155598808
 21
650.3899750133963
 31
0.0
 70
   160
 71
     5
 42
2.004761904761949
  3
STANDARD
100
AcDbAlignedDimension
 13
922.4183850005355
 23
633.2399750133966
 33
0.0
 14
924.4231469052975
 24
643.2399750133964
 34
0.0
100
AcDbRotatedDimension
1001
ACAD
1000
DSTYLE
1002
{
1070
    40
1040
1.0
1002
}
  0
TOLERANCE
  5
4034
330
1F
100
AcDbEntity
  8
DIM
100
AcDbFcf
  3
STANDARD
 10
883.4252413857518
 20
633.9872557153719
 30
0.0
  1
{\Fgdt;r}%%v0.075%%v%%vA%%v%%v
 11
0.0000000000000001
 21
1.0
 31
0.0
1001
ACAD
1000
DSTYLE
1002
{
1070
   140
1040
3.0
1070
   147
1040
0.9523809523809527
1002
}
  0
TOLERANCE
  5
4035
330
1F
100
AcDbEntity
  8
DIM
100
AcDbFcf
  3
STANDARD
 10
890.4231469052975
 20
642.1488751511025
 30
0.0
  1
{\Fgdt;h}%%v0.05%%v%%v%%v%%v
 11
0.0000000000000001
 21
1.0
 31
0.0
1001
ACAD
1000
DSTYLE
1002
{
1070
   140
1040
3.0
1070
   147
1040
0.9523809523809527
1002
}
  0
DIMENSION
  5
4036
330
1F
100
AcDbEntity
  8
DIM
100
AcDbDimension
  2
*D9
 10
924.4231469052975
 20
657.3899750133963
 30
0.0
 11
911.5033432412548
 21
657.3899750133963
 31
0.0
 70
   160
  1
<>
 71
     5
 42
24.0
  3
STANDARD
100
AcDbAlignedDimension
 13
900.4231469052975
 23
624.7399750133966
 33
0.0
 14
924.4231469052975
 24
643.2399750133964
 34
0.0
100
AcDbRotatedDimension
1001
ACAD
1000
DSTYLE
1002
{
1070
   340
1005
11
1070
   146
1040
0.8
1070
   284
1070
     8
1070
    47
1040
0.5
1070
   147
1040
1.0
1070
    48
1040
0.5
1070
    72
1070
     0
1070
    71
1070
     1
1070
    78
1070
     8
1070
   144
1040
1.0
1070
    40
1040
1.0
1002
}
  0
DIMENSION
  5
4037
330
1F
100
AcDbEntity
  8
DIM
100
AcDbDimension
  2
*D10
 10
886.4231469052976
 20
633.2399750133966
 30
0.0
 11
886.4231469052974
 21
622.2399750133965
 31
0.0
 70
   160
  1
%%c<>
 71
     5
 42
22.0
  3
STANDARD
100
AcDbAlignedDimension
 13
922.5183850005356
 23
611.2399750133966
 33
0.0
 14
922.5183850005356
 24
633.2399750133966
 34
0.0
 50
90.0
100
AcDbRotatedDimension
1001
ACAD
1000
DSTYLE
1002
{
1070
    40
1040
1.0
1070
    48
1040
0.05
1070
    71
1070
     1
1070
   144
1040
1.0
1070
   272
1070
     3
1002
}
  0
LINE
  5
404C
330
1F
100
AcDbEntity
  8
SPEC
100
AcDbLine
 10
950.3993373814877
 20
588.0983948854663
 30
0.0
 11
950.3993373814877
 21
601.0899750133961
 31
0.0
  0
LINE
  5
404D
330
1F
100
AcDbEntity
  8
SPEC
100
AcDbLine
 10
949.3517183338688
 20
587.7953413455827
 30
0.0
 11
949.3517183338692
 21
601.0899750133961
 31
0.0
  0
DIMENSION
  5
404E
330
1F
100
AcDbEntity
  8
DIM
100
AcDbDimension
  2
*D11
 10
893.4231469052974
 20
624.7399750133966
 30
0.0
 11
893.4231469052972
 21
596.8826047754118
 31
0.0
 70
   160
  1
%%c<>
 71
     5
 42
5.000000000000227
  3
STANDARD
100
AcDbAlignedDimension
 13
900.4231469052975
 23
619.7399750133963
 33
0.0
 14
900.4231469052975
 24
624.7399750133966
 34
0.0
 50
90.0
100
AcDbRotatedDimension
1001
ACAD
1000
DSTYLE
1002
{
1070
   272
1070
     3
1070
    48
1040
0.012
1070
   147
1040
1.0
1070
    72
1070
     0
1070
    71
1070
     1
1070
    40
1040
1.0
1002
}
  0
LINE
  5
404F
330
1F
100
AcDbEntity
  8
SPEC
100
AcDbLine
 10
950.3993373814878
 20
578.3853686828083
 30
0.0
 11
950.3993373814878
 21
586.9344741404927
 31
0.0
  0
LINE
  5
4050
330
1F
100
AcDbEntity
  8
SPEC
100
AcDbLine
 10
949.3517183338685
 20
578.3853686828083
 30
0.0
 11
949.3517183338685
 21
586.6314206006093
 31
0.0
  0
LINE
  5
4051
330
1F
100
AcDbEntity
  8
SPEC
100
AcDbLine
 10
951.1441599420814
 20
588.0221414609386
 30
0.0
 11
950.82494746358
 21
588.2215146800913
 31
0.0
  0
LINE
  5
4052
330
1F
100
AcDbEntity
  8
SPEC
100
AcDbLine
 10
950.82494746358
 20
587.0575939351176
 30
0.0
 11
947.7924322008831
 21
586.1803528356938
 31
0.0
  0
LINE
  5
4053
330
1F
100
AcDbEntity
  8
SPEC
100
AcDbLine
 10
950.82494746358
 20
588.2215146800913
 30
0.0
 11
947.7924322008831
 21
587.3442735806674
 31
0.0
  0
LINE
  5
4054
330
1F
100
AcDbEntity
  8
SPEC
100
AcDbLine
 10
900.4231469052975
 20
619.7399750133963
 30
0.0
 11
922.4183850005355
 21
619.7399750133966
 31
0.0
  0
TOLERANCE
  5
4055
330
1F
100
AcDbEntity
  8
DIM
100
AcDbFcf
  3
STANDARD
 10
895.4837641732732
 20
605.4084936209985
 30
0.0
  1
{\Fgdt;b}%%v0.1%%v%%vA%%v%%v
1001
ACAD
1000
DSTYLE
1002
{
1070
   140
1040
3.0
1070
   147
1040
0.9523809523809527
1002
}
  0
LINE
  5
4056
330
1F
100
AcDbEntity
  8
SPEC
100
AcDbLine
 10
900.4231469052975
 20
624.7399750133966
 30
0.0
 11
922.4183850005355
 21
624.7399750133966
 31
0.0
  0
LINE
  5
4057
330
1F
100
AcDbEntity
  8
SPEC
100
AcDbLine
 10
900.4231469052975
 20
624.7399750133966
 30
0.0
 11
900.4231469052975
 21
619.7399750133963
 31
0.0
  0
LINE
  5
4058
330
1F
100
AcDbEntity
  8
DIM
100
AcDbLine
 10
893.4231469052974
 20
629.5368050695952
 30
0.0
 11
893.4231469052974
 21
642.1488751511025
 31
0.0
  0
LINE
  5
4059
330
1F
100
AcDbEntity
  8
DIM
100
AcDbLine
 10
886.4252413857517
 20
633.9872557153719
 30
0.0
 11
886.4252413857517
 21
630.6334942770747
 31
0.0
  0
TOLERANCE
  5
405A
330
1F
100
AcDbEntity
  8
DIM
100
AcDbFcf
  3
STANDARD
 10
912.2271654286333
 20
638.1515585647751
 30
0.0
  1
%%v%%v%%vA%%v%%v
1001
ACAD
1000
DSTYLE
1002
{
1070
   140
1040
3.0
1070
   147
1040
0.9523809523809527
1002
}
  0
LEADER
  5
405B
330
1F
100
AcDbEntity
  8
DIM
100
AcDbLeader
  3
STANDARD
 76
     2
 10
915.2480572462176
 20
624.7399750133966
 30
0.0
 10
915.2480572462176
 20
635.151558564775
 30
0.0
210
0.0
220
0.0
230
-1.0
1001
ACAD
1000
DSTYLE
1002
{
1070
   341
1005
2FB
1070
    40
1040
1.0
1070
    77
1070
     0
1002
}
  0
LINE
  5
405C
330
1F
100
AcDbEntity
  8
SPEC
100
AcDbLine
 10
947.78028976244
 20
635.5733083467299
 30
0.0
 11
947.78028976244
 21
608.9066416800632
 31
0.0
  0
LINE
  5
405D
330
1F
100
AcDbEntity
  8
SPEC
100
AcDbLine
 10
932.4231469052975
 20
635.5733083467298
 30
0.0
 11
932.4231469052975
 21
608.9066416800631
 31
0.0
  0
LINE
  5
405E
330
1F
100
AcDbEntity
  8
SPEC
100
AcDbLine
 10
924.4231469052973
 20
643.3899750133963
 30
0.0
 11
924.4231469052975
 21
601.0899750133959
 31
0.0
  0
LINE
  5
405F
330
1F
100
AcDbEntity
  8
SPEC
100
AcDbLine
 10
922.4183850005355
 20
611.2399750133966
 30
0.0
 11
922.4183850005355
 21
633.2399750133966
 31
0.0
  0
LINE
  5
4060
330
1F
100
AcDbEntity
  8
SPEC
100
AcDbLine
 10
932.4231469052975
 20
608.9066416800631
 30
0.0
 11
947.78028976244
 21
608.9066416800632
 31
0.0
  0
LEADER
  5
4062
330
1F
100
AcDbEntity
  8
DIM
100
AcDbLeader
  3
STANDARD
 76
     2
 10
924.4231469052975
 20
605.0971178705392
 30
0.0
 10
918.1740779522636
 20
605.0971178705392
 30
0.0
1001
ACAD
1000
DSTYLE
1002
{
1070
    40
1040
1.0
1070
    77
1070
     0
1002
}
  0
LINE
  5
4063
330
1F
100
AcDbEntity
  8
SPEC
100
AcDbLine
 10
934.3279088100594
 20
607.0018797753012
 30
0.0
 11
934.3279088100594
 21
601.089975013396
 31
0.0
  0
LINE
  5
4064
330
1F
100
AcDbEntity
  8
SPEC
100
AcDbLine
 10
932.4231469052975
 20
608.9066416800631
 30
0.0
 11
934.3279088100594
 21
607.0018797753012
 31
0.0
  0
LINE
  5
4065
330
1F
100
AcDbEntity
  8
SPEC
100
AcDbLine
 10
922.4183850005355
 20
611.2399750133966
 30
0.0
 11
924.4231469052975
 21
611.2399750133966
 31
0.0
  0
LINE
  5
4067
330
1F
100
AcDbEntity
  8
SPEC
100
AcDbLine
 10
945.8755278576781
 20
607.0018797753013
 30
0.0
 11
945.8755278576782
 21
601.089975013396
 31
0.0
  0
LINE
  5
4068
330
1F
100
AcDbEntity
  8
SPEC
100
AcDbLine
 10
947.78028976244
 20
608.9066416800632
 30
0.0
 11
945.8755278576781
 21
607.0018797753013
 31
0.0
  0
LINE
  5
4069
330
1F
100
AcDbEntity
  8
SPEC
100
AcDbLine
 10
932.4231469052975
 20
635.5733083467298
 30
0.0
 11
947.78028976244
 21
635.5733083467299
 31
0.0
  0
LINE
  5
406A
330
1F
100
AcDbEntity
  8
SPEC
100
AcDbLine
 10
932.4231469052975
 20
635.5733083467298
 30
0.0
 11
934.3279088100594
 21
637.4780702514917
 31
0.0
  0
LINE
  5
406B
330
1F
100
AcDbEntity
  8
SPEC
100
AcDbLine
 10
922.4183850005355
 20
633.2399750133966
 30
0.0
 11
924.4231469052975
 21
633.2399750133966
 31
0.0
  0
LINE
  5
406C
330
1F
100
AcDbEntity
  8
SPEC
100
AcDbLine
 10
924.4231469052975
 20
639.0232255924708
 30
0.0
 11
934.3279088100594
 21
639.0232255924708
 31
0.0
  0
LINE
  5
406D
330
1F
100
AcDbEntity
  8
SPEC
100
AcDbLine
 10
934.3279088100594
 20
643.3899750133963
 30
0.0
 11
934.3279088100594
 21
637.4780702514917
 31
0.0
  0
LINE
  5
406E
330
1F
100
AcDbEntity
  8
SPEC
100
AcDbLine
 10
947.78028976244
 20
635.5733083467299
 30
0.0
 11
945.8755278576781
 21
637.4780702514918
 31
0.0
  0
LINE
  5
4070
330
1F
100
AcDbEntity
  8
SPEC
100
AcDbLine
 10
945.8755278576782
 20
643.3899750133963
 30
0.0
 11
945.8755278576781
 21
637.4780702514918
 31
0.0
  0
TEXT
  5
4071
330
1F
100
AcDbEntity
  8
DIM
100
AcDbText
 10
929.8919208225202
 20
664.0
 30
0.0
 40
3.571428571428572
  1
Side view
100
AcDbText
  0
DIMENSION
  5
4075
330
1F
100
AcDbEntity
  8
DIM
  6
ACISOTGL
100
AcDbDimension
  2
*D13
 10
957.9231469052974
 20
657.3899750133963
 30
0.0
 11
964.4489741472863
 21
657.3899750133963
 31
0.0
 70
   160
  1
<>
 71
     5
 42
13.49714285714276
  3
STANDARD
100
AcDbAlignedDimension
 13
971.4202897624401
 23
624.6209273991107
 33
0.0
 14
957.9231469052974
 24
643.2399750133965
 34
0.0
 50
180.0
100
AcDbRotatedDimension
1001
ACAD
1000
DSTYLE
1002
{
1070
    47
1040
1.0
1070
    48
1040
1.0
1070
   147
1040
1.0
1070
    72
1070
     0
1070
    71
1070
     1
1070
    40
1040
1.0
1002
}
  0
DIMENSION
  5
4076
330
1F
100
AcDbEntity
  8
DIM
  6
ACISOTGL
100
AcDbDimension
  2
*D14
 10
979.4202897624401
 20
624.7399750133967
 30
0.0
 11
979.4202897624399
 21
645.0987095078618
 31
0.0
 70
   160
  1
%%c<>
 71
     5
 42
5.000000000000341
  3
STANDARD
100
AcDbAlignedDimension
 13
971.4202897624401
 23
619.7399750133964
 33
0.0
 14
971.4202897624401
 24
624.7399750133967
 34
0.0
 50
90.0
100
AcDbRotatedDimension
1001
ACAD
1000
DSTYLE
1002
{
1070
   146
1040
0.8
1070
   284
1070
     8
1070
   272
1070
     3
1070
    48
1040
0.012
1070
   147
1040
1.0
1070
    72
1070
     0
1070
    71
1070
     1
1070
    78
1070
     8
1070
   144
1040
1.0
1070
    40
1040
1.0
1002
}
  0
MTEXT
  5
4077
102
{ACAD_REACTORS
330
4083
102
}
330
1F
100
AcDbEntity
  8
SPEC
  6
HIDDEN
 62
     6
100
AcDbMText
 10
973.9352816470965
 20
610.087307987786
 30
0.0
 40
3.0
 41
54.2857142857143
 71
     1
 72
     1
  1
(only for type \PST4209S1404-B\PReady for encoder +\Pdriver mount)
 73
     1
 44
1.0
1001
ACAD
1000
MTEXTBEGIN
1070
    73
1070
     1
1070
    44
1040
1.0
1070
    74
1070
     0
1000
MTEXTEND
  0
LINE
  5
4078
330
1F
100
AcDbEntity
  8
SPEC
100
AcDbLine
 10
952.4945754767257
 20
588.4127877411881
 30
0.0
 11
952.4945754767257
 21
601.0899750133961
 31
0.0
  0
LINE
  5
4079
330
1F
100
AcDbEntity
  8
SPEC
100
AcDbLine
 10
951.4469564291069
 20
588.1097339969356
 30
0.0
 11
951.4469564291067
 21
601.0899750133963
 31
0.0
  0
LINE
  5
407D
330
1F
100
AcDbEntity
  8
SPEC
100
AcDbLine
 10
951.4469564291069
 20
578.3853686828083
 30
0.0
 11
951.4469564291069
 21
586.7141226460311
 31
0.0
  0
LINE
  5
407E
330
1F
100
AcDbEntity
  8
SPEC
100
AcDbLine
 10
952.4945754767257
 20
578.3853686828083
 30
0.0
 11
952.4945754767257
 21
587.0171763902837
 31
0.0
  0
LINE
  5
407F
330
1F
100
AcDbEntity
  8
SPEC
100
AcDbLine
 10
954.1766752047781
 20
587.5037718010402
 30
0.0
 11
951.3976904314816
 21
586.6998710484885
 31
0.0
  0
LINE
  5
4080
330
1F
100
AcDbEntity
  8
SPEC
100
AcDbLine
 10
957.9231469052974
 20
601.0899750133961
 30
0.0
 11
957.923146905297
 21
643.3899750133964
 31
0.0
  0
LINE
  5
4081
330
1F
100
AcDbEntity
  8
SPEC
  6
ACISOTGL
100
AcDbLine
 10
971.4202897624401
 20
624.7399750133967
 30
0.0
 11
971.4202897624401
 21
619.7399750133964
 31
0.0
  0
LINE
  5
4082
330
1F
100
AcDbEntity
  8
SPEC
  6
ACISOTGL
100
AcDbLine
 10
971.4202897624401
 20
619.7399750133964
 30
0.0
 11
957.9231469052974
 21
619.7399750133967
 31
0.0
  0
LEADER
  5
4083
330
1F
100
AcDbEntity
  8
DIM
  6
ACISOTGL
100
AcDbLeader
  3
STANDARD
 73
     0
 40
9.356980445657114
 41
37.73124147339699
 76
     3
 10
964.5866754423845
 20
622.3954867422986
 30
0.0
 10
970.580566170865
 20
609.1801903586397
 30
0.0
 10
973.0585989112176
 20
609.1801903586397
 30
0.0
213
-2.423850538799245
223
-1.208600593008168
233
0.0
1001
ACAD
1000
DSTYLE
1002
{
1070
    40
1040
1.0
1070
    77
1070
     0
1002
}
  0
LINE
  5
408C
330
1F
100
AcDbEntity
  8
SPEC
  6
ACISOTGL
100
AcDbLine
 10
971.4202897624401
 20
624.7399750133967
 30
0.0
 11
957.9231469052974
 21
624.7399750133967
 31
0.0
  0
LEADER
  5
40A4
330
1F
100
AcDbEntity
  8
DIM
  6
ACISOTGL
100
AcDbLeader
  3
STANDARD
 76
     3
 10
1035.350200125714
 20
622.2399750133964
 30
0.0
 10
1021.85801356618
 20
598.4810073203671
 30
0.0
 10
1012.568757298192
 20
598.4810073203671
 30
0.0
1001
ACAD
1000
DSTYLE
1002
{
1070
    40
1040
1.0
1070
    77
1070
     0
1002
}
  0
TEXT
  5
40D9
330
1F
100
AcDbEntity
  8
DIM
100
AcDbText
 10
1034.131432493788
 20
664.0
 30
0.0
 40
3.571428571428572
  1
Rear view
100
AcDbText
  0
LINE
  5
5C4D
330
1F
100
AcDbEntity
  8
SPEC
100
AcDbLine
 10
945.8755278576781
 20
605.4567244343221
 30
0.0
 11
957.9231469052974
 21
605.4567244343221
 31
0.0
  0
LINE
  5
5C4E
330
1F
100
AcDbEntity
  8
SPEC
100
AcDbLine
 10
924.4231469052975
 20
605.456724434322
 30
0.0
 11
934.3279088100594
 21
605.456724434322
 31
0.0
  0
TEXT
  5
5CB0
330
1F
100
AcDbEntity
  8
DATA
100
AcDbText
 10
905.5836721738522
 20
581.2227002502921
 30
0.0
 40
3.0
  1
L=300+10mm
100
AcDbText
  0
TEXT
  5
5CB1
330
1F
100
AcDbEntity
  8
DATA
100
AcDbText
 10
905.5836721738522
 20
586.2227002502922
 30
0.0
 40
3.0
  1
UL1430 AWG 26
100
AcDbText
  0
LEADER
  5
5CB2
330
1F
100
AcDbEntity
  8
DIM
100
AcDbLeader
  3
STANDARD
 76
     3
 10
951.6918819248731
 20
575.3998589126754
 30
0.0
 10
944.6964171590392
 20
566.0899750133961
 30
0.0
 10
886.4231469052974
 20
566.0899750133961
 30
0.0
211
1.0
221
0.0000000000000001
231
0.0
1001
ACAD
1000
DSTYLE
1002
{
1070
    40
1040
1.0
1070
    77
1070
     0
1002
}
  0
TEXT
  5
5CB3
330
1F
100
AcDbEntity
  8
DATA
100
AcDbText
 10
886.1819544966733
 20
572.920287734603
 30
0.0
 40
3.0
  1
Connector Type: JST XHP-4
100
AcDbText
  0
TEXT
  5
5CB4
330
1F
100
AcDbEntity
  8
DATA
100
AcDbText
 10
886.1819544966733
 20
568.2187644931404
 30
0.0
 40
3.0
  1
Contact: SXH-001T-P0.6
100
AcDbText
  0
LEADER
  5
5CB5
330
1F
100
AcDbEntity
  8
DIM
100
AcDbLeader
  3
STANDARD
 76
     3
 10
951.3019306436776
 20
593.4045720583391
 30
0.0
 10
938.0542269652162
 20
580.0899750133961
 30
0.0
 10
905.2690890625276
 20
580.0899750133961
 30
0.0
211
-1.0
221
0.0
231
0.0
210
0.0
220
0.0
230
-1.0
1001
ACAD
1000
DSTYLE
1002
{
1070
    40
1040
1.0
1070
    77
1070
     0
1002
}
  0
LWPOLYLINE
  5
5CC3
330
1F
100
AcDbEntity
  8
SPEC
100
AcDbPolyline
 90
        4
 70
     1
 43
0.0
 10
947.7196138031631
 20
578.3853686828083
 10
954.1361724230252
 20
578.3853686828083
 10
954.1361724230252
 20
573.9818201220241
 10
947.7196138031631
 20
573.9818201220241
1001
GENIUS_GENREC_14
1002
{
1000
PYDIR
1011
947.7196138031631
1021
573.9818201220241
1031
0.0
1002
}
1002
{
1000
PXDIR
1011
954.1361724230252
1021
578.3853686828083
1031
0.0
1002
}
1002
{
1000
PORI
1011
947.7196138031631
1021
578.3853686828083
1031
0.0
1002
}
1002
{
1000
PINS
1011
947.7196138031631
1021
578.3853686828083
1031
0.0
1002
}
1002
{
1000
PINS2
1011
954.1361724230252
1021
573.9818201220241
1031
0.0
1002
}
1002
{
1000
C
1070
     1
1002
}
1001
GENIUS_GENODEF_13
1002
{
1000
HIER
1070
     0
1002
}
1002
{
1000
MANEDIT
1070
     0
1002
}
1002
{
1000
NOSEL
1070
     0
1002
}
1002
{
1000
BEHIND
1070
     0
1002
}
1002
{
1000
OTHER
1070
     0
1002
}
1002
{
1000
REACTOR
1002
}
1001
GENIUS_GENOBJ-N-REC_13
1002
{
1000
OWNER
1000
GEN
1002
}
  0
INSERT
  5
620D
102
{ACAD_XDICTIONARY
360
620E
102
}
330
1F
100
AcDbEntity
  8
0 @ 1
100
AcDbBlockReference
  2
ST4209-Frontcap
 10
7.654020457027286
 20
0.0
 30
0.0
  0
INSERT
  5
6317
102
{ACAD_XDICTIONARY
360
6318
102
}
330
1F
100
AcDbEntity
  8
0 @ 1
100
AcDbBlockReference
  2
ST4209-Endcap
 10
-4.5
 20
0.0
 30
0.0
  0
VIEWPORT
  5
2D8
102
{ACAD_XDICTIONARY
360
65F3
102
}
330
1B
100
AcDbEntity
 67
     1
  8
0
100
AcDbViewport
 10
163.625870172012
 20
106.2623951359899
 30
0.0
 40
426.408450371033
 41
265.0560080478551
 68
     1
 69
     1
 12
163.625870172012
 22
106.2623951359899
 13
0.0
 23
0.0
 14
10.0
 24
10.0
 15
10.0
 25
10.0
 16
0.0
 26
0.0
 36
1.0
 17
0.0
 27
0.0
 37
0.0
 42
50.0
 43
0.0
 44
0.0
 45
265.0560080478551
 50
0.0
 51
0.0
 72
   100
 90
    32768
  1

281
     0
 71
     0
 74
     0
110
0.0
120
0.0
130
0.0
111
1.0
121
0.0
131
0.0
112
0.0
122
1.0
132
0.0
 79
     0
146
0.0
  0
MTEXT
  5
1290
330
1B
100
AcDbEntity
 67
     1
  8
DATA
100
AcDbMText
 10
142.6845396305116
 20
14.24154306217638
 30
0.0
 40
1.930697999999999
 41
24.133725
 71
     1
 72
     5
  1
X       %%p0.5\P1PL     %%p0.2\P2PL     %%p0.1\PANGLE   %%p30'
  7
ROMANS
 73
     1
 44
1.0
1001
ACAD
1000
MTEXTBEGIN
1070
    73
1070
     1
1070
    44
1040
1.0
1070
    74
1070
     0
1000
MTEXTEND
  0
LWPOLYLINE
  5
1291
330
1B
100
AcDbEntity
 67
     1
  8
SPEC
100
AcDbPolyline
 90
        2
 70
     0
 43
0.0
 10
44.51178313191621
 20
21.65598901220129
 10
104.0278513100474
 20
21.65598901220129
  0
TEXT
  5
1294
330
1B
100
AcDbEntity
 67
     1
  8
DATA
100
AcDbText
 10
223.3033978947773
 20
2.332825847364669
 30
0.0
 40
3.861395999999999
  1
ST4209S1404
 41
0.7
  7
ROMANS
100
AcDbText
  0
LWPOLYLINE
  5
1296
330
1B
100
AcDbEntity
 67
     1
  8
SPEC
100
AcDbPolyline
 90
        2
 70
     0
 43
0.0
 10
0.0009154015513104
 20
21.65598901220129
 10
44.6040054243686
 20
21.65598901220129
  0
LINE
  5
1297
330
1B
100
AcDbEntity
 67
     1
  8
DATA
100
AcDbLine
 10
141.4515899505442
 20
16.0064410711449
 30
0.0
 11
206.4352883025385
 21
16.0064410711449
 31
0.0
  0
LINE
  5
1299
330
1B
100
AcDbEntity
 67
     1
  8
DATA
100
AcDbLine
 10
188.9615608996265
 20
21.65598901220129
 30
0.0
 11
188.9615608996265
 21
0.0005791177154606
 31
0.0
  0
LINE
  5
129A
330
1B
100
AcDbEntity
 67
     1
  8
DATA
100
AcDbLine
 10
172.7736353934133
 20
21.65598905905817
 30
0.0
 11
172.7736353934214
 21
6.498316907446511
 31
0.0
  0
LINE
  5
129B
330
1B
100
AcDbEntity
 67
     1
  8
DATA
100
AcDbLine
 10
161.8855388603332
 20
0.0005791177154606
 30
0.0
 11
161.8855388603055
 21
21.65598905610526
 31
0.0
  0
LINE
  5
129D
330
1B
100
AcDbEntity
 67
     1
  8
DATA
100
AcDbLine
 10
206.4352889818797
 20
21.65598901220129
 30
0.0
 11
206.4352889818797
 21
0.0005791177154606
 31
0.0
  0
LINE
  5
129E
330
1B
100
AcDbEntity
 67
     1
  8
DATA
100
AcDbLine
 10
71.44730055966757
 20
21.65598901220129
 30
0.0
 11
71.44730055966755
 21
0.0005791177154606
 31
0.0
  0
LINE
  5
129F
330
1B
100
AcDbEntity
 67
     1
  8
DATA
100
AcDbLine
 10
86.0425128352576
 20
21.65598901220129
 30
0.0
 11
86.0425128352576
 21
0.0005791177154606
 31
0.0
  0
LINE
  5
12A0
330
1B
100
AcDbEntity
 67
     1
  8
DATA
100
AcDbLine
 10
50.66681625037072
 20
21.65598901220129
 30
0.0
 11
50.66681625037072
 21
0.0005791177154606
 31
0.0
  0
LINE
  5
12A2
330
1B
100
AcDbEntity
 67
     1
  8
DATA
100
AcDbLine
 10
86.0425128352576
 20
16.5762960950056
 30
0.0
 11
0.0009154015513104
 21
16.5762960950056
 31
0.0
  0
LINE
  5
12A3
330
1B
100
AcDbEntity
 67
     1
  8
DATA
100
AcDbLine
 10
0.0009154015513104
 20
11.49660317780993
 30
0.0
 11
86.0425128352576
 21
11.49660317780992
 31
0.0
  0
LINE
  5
12A4
330
1B
100
AcDbEntity
 67
     1
  8
DATA
100
AcDbLine
 10
0.0009154015513104
 20
6.41691026061423
 30
0.0
 11
86.0425128352576
 21
6.416910260614244
 31
0.0
  0
LINE
  5
12A5
330
1B
100
AcDbEntity
 67
     1
  8
DATA
100
AcDbLine
 10
10.9812208516878
 20
21.65598901220129
 30
0.0
 11
10.9812208516878
 21
0.0005791177154606
 31
0.0
  0
LINE
  5
12A6
330
1B
100
AcDbEntity
 67
     1
  8
DATA
100
AcDbLine
 10
206.4352889818797
 20
6.487604351384876
 30
0.0
 11
161.8855388603332
 21
6.487604351384876
 31
0.0
  0
LINE
  5
12A7
330
1B
100
AcDbEntity
 67
     1
  8
DATA
100
AcDbLine
 10
161.8855388603332
 20
11.19931228302795
 30
0.0
 11
206.4352889818797
 21
11.19931228302795
 31
0.0
  0
TEXT
  5
12A8
330
1B
100
AcDbEntity
 67
     1
  8
DATA
100
AcDbText
 10
144.2089124014906
 20
17.38788360913192
 30
0.0
 40
2.413372499999999
  1
SCALE FREE
 41
0.7
  7
ROMANS
 72
     2
 11
159.5740506514906
 21
17.38788360913192
 31
0.0
100
AcDbText
  0
LINE
  5
12A9
330
1B
100
AcDbEntity
 67
     1
  8
DATA
100
AcDbLine
 10
141.4515899505442
 20
21.65598901220129
 30
0.0
 11
141.4515899505442
 21
0.0005791177154606
 31
0.0
  0
TEXT
  5
12AA
330
1B
100
AcDbEntity
 67
     1
  8
DATA
100
AcDbText
 10
72.81931794091391
 20
2.289088082541405
 30
0.0
 40
2.896047
  1
APVD
 41
0.7
  7
ROMANS
100
AcDbText
  0
TEXT
  5
12AB
330
1B
100
AcDbEntity
 67
     1
  8
DATA
100
AcDbText
 10
54.00518497335647
 20
2.289088082541405
 30
0.0
 40
2.896047
  1
DATE
 41
0.7
  7
ROMANS
100
AcDbText
  0
TEXT
  5
12AC
330
1B
100
AcDbEntity
 67
     1
  8
DATA
100
AcDbText
 10
13.71048401705179
 20
2.289088082541405
 30
0.0
 40
2.896047
  1
DESCRIPTION
 41
0.7
  7
ROMANS
100
AcDbText
  0
TEXT
  5
12AD
330
1B
100
AcDbEntity
 67
     1
  8
DATA
100
AcDbText
 10
2.61316602814029
 20
2.289088082541405
 30
0.0
 40
2.896047
  1
REV
 41
0.7
  7
ROMANS
 72
     2
 11
8.11565532814029
 21
2.289088082541405
 31
0.0
100
AcDbText
  0
TEXT
  5
12B1
330
1B
100
AcDbEntity
 67
     1
  8
DATA
100
AcDbText
 10
166.3066680148434
 20
2.249663648385519
 30
0.0
 40
2.896047
  1
SIGNATURE
 41
0.7
  7
ROMANS
 72
     2
 11
182.2349265148434
 21
2.249663648385519
 31
0.0
100
AcDbText
  0
TEXT
  5
12B2
330
1B
100
AcDbEntity
 67
     1
  8
DATA
100
AcDbText
 10
194.0753275043612
 20
2.147712645052658
 30
0.0
 40
2.896047
  1
DATE
 41
0.7
  7
ROMANS
 72
     2
 11
201.0258403043613
 21
2.147712645052658
 31
0.0
100
AcDbText
  0
TEXT
  5
12B3
330
1B
100
AcDbEntity
 67
     1
  8
DATA
100
AcDbText
 10
211.3647597711961
 20
15.15914893796167
 30
0.0
 40
3.668326199999999
  1
STEPPING MOTOR
 41
0.8
  7
ITALICT
 72
     2
 11
254.825691131196
 21
15.15914893796167
 31
0.0
100
AcDbText
  0
LINE
  5
12B4
330
1B
100
AcDbEntity
 67
     1
  8
DATA
100
AcDbLine
 10
206.4352889818797
 20
12.14062779339902
 30
0.0
 11
280.0
 21
12.14062786782275
 31
0.0
  0
TEXT
  5
12B5
330
1B
100
AcDbEntity
 67
     1
  8
DATA
100
AcDbText
 10
208.2206521091139
 20
8.230964343399071
 30
0.0
 40
2.413372499999999
  1
DWG.NO
 41
0.7
  7
ROMANS
 72
     2
 11
217.6328048591138
 21
8.230964343399071
 31
0.0
100
AcDbText
  0
TEXT
  5
12B6
330
1B
100
AcDbEntity
 67
     1
  8
DATA
100
AcDbText
 10
89.47920924063479
 20
16.55350887427961
 30
0.0
 40
2.896047
  1
NANOTEC:
 41
0.7
  7
ROMANS
100
AcDbText
  0
TEXT
  5
12B7
330
1B
100
AcDbEntity
 67
     1
  8
DATA
100
AcDbText
 10
189.4634543457442
 20
7.541155117526503
 30
0.0
 40
2.509907399999999
  1
28.06.06
 41
0.7
  7
ROMANS
100
AcDbText
  0
LINE
  5
12B8
330
1B
100
AcDbEntity
 67
     1
  8
SPEC
100
AcDbLine
 10
0.0009154015513104
 20
21.65598901220129
 30
0.0
 11
0.0009154015513104
 21
119.7806666755164
 31
0.0
  0
LWPOLYLINE
  5
12BA
330
1B
100
AcDbEntity
 67
     1
  8
SPEC
100
AcDbPolyline
 90
        4
 70
     1
 43
0.0
 10
0.0009154015513104
 20
196.250579117687
 10
0.0009154015513104
 20
0.0005791177154606
 10
280.0
 20
0.0005791177154606
 10
280.0
 20
196.250579117687
  0
LWPOLYLINE
  5
1708
330
1B
100
AcDbEntity
 67
     1
  8
SPEC
100
AcDbPolyline
 90
        2
 70
     0
 43
0.0
 10
46.10949139879676
 20
21.6559890122013
 10
107.7618763685136
 20
21.6559890122013
  0
LINE
  5
19BB
330
1B
100
AcDbEntity
 67
     1
  8
SPEC
100
AcDbLine
 10
170.0009154015513
 20
21.6559890122013
 30
0.0
 11
170.0009154015513
 21
111.6559890122013
 31
0.0
  0
TEXT
  5
19BD
330
1B
100
AcDbEntity
 67
     1
  8
DATA
100
AcDbText
 10
1.828349188375568
 20
73.0
 30
0.0
 40
2.4
  1
DETENT TORQUE (Nm) [lb-in]
 41
0.7
  7
ROMANS
100
AcDbText
  0
TEXT
  5
19BF
330
1B
100
AcDbEntity
 67
     1
  8
SPEC
100
AcDbText
 10
153.8283491883755
 20
48.0
 30
0.0
 40
2.4
  1

 41
0.7
  7
ROMANS
100
AcDbText
  0
TEXT
  5
19C0
330
1B
100
AcDbEntity
 67
     1
  8
DATA
  6
HIDDEN
100
AcDbText
 10
111.8283491883755
 20
105.2917072386782
 30
0.0
 40
3.0
  1
PERMISSIBLE RADIAL+AXIAL FORCE
 41
0.7
  7
ROMANS
100
AcDbText
  0
TEXT
  5
19C1
330
1B
100
AcDbEntity
 67
     1
  8
DATA
100
AcDbText
 10
1.828349188375568
 20
43.0
 30
0.0
 40
2.4
  1
AMBIENT TEMPERATURE -10°~ 50°C [14°F ~ 122°F]
 41
0.7
  7
ROMANS
100
AcDbText
  0
TEXT
  5
19C2
330
1B
100
AcDbEntity
 67
     1
  8
DATA
100
AcDbText
 10
110.8283491883755
 20
48.0
 30
0.0
 40
2.4
  1
AXIAL-FORCE Fa (N)
 41
0.7
  7
ROMANS
100
AcDbText
  0
TEXT
  5
19C4
330
1B
100
AcDbEntity
 67
     1
  8
DATA
100
AcDbText
 10
1.828349188375568
 20
28.0
 30
0.0
 40
2.4
  1
DIELECTRIC STRENGTH 500VAC FOR 1 MIN. (BETWEEN THE MOTOR COILS AND THE MOTOR CASE)
 41
0.59
  7
ROMANS
100
AcDbText
  0
TEXT
  5
19C5
330
1B
100
AcDbEntity
 67
     1
  8
DATA
100
AcDbText
 10
1.828349188375568
 20
33.0
 30
0.0
 40
2.4
  1
INSULATION CLASS B 130° [266°F]
 41
0.7
  7
ROMANS
100
AcDbText
  0
TEXT
  5
19C6
330
1B
100
AcDbEntity
 67
     1
  8
DATA
100
AcDbText
 10
1.828349188375568
 20
38.0
 30
0.0
 40
2.4
  1
INSULATION RESISTANCE 100 MOhm (UNDER NORMAL TEMPERATURE AND HUMIDITY)
 41
0.69
  7
ROMANS
100
AcDbText
  0
TEXT
  5
19C7
330
1B
100
AcDbEntity
 67
     1
  8
DATA
100
AcDbText
 10
1.828349188375568
 20
48.0
 30
0.0
 40
2.4
  1
TEMPERATURE RISE: MAX.80°C (MOTOR STANDSTILL; FOR 2 PHASE ENERGIZED)
 41
0.7
  7
ROMANS
100
AcDbText
  0
MTEXT
  5
19C8
330
1B
100
AcDbEntity
 67
     1
  8
DATA
100
AcDbMText
 10
131.290926933951
 20
85.84775216573845
 30
0.0
 40
2.399999999999999
 41
6.509999999999999
 71
     1
 72
     5
  1
F{\H0.8333x;r}
  7
ROMANS
 73
     1
 44
1.0
1001
ACAD
1000
MTEXTBEGIN
1070
    73
1070
     1
1070
    44
1040
1.0
1070
    74
1070
     0
1000
MTEXTEND
  0
DIMENSION
  5
19C9
330
1B
100
AcDbEntity
 67
     1
  8
DIM
100
AcDbDimension
  2
*D5
 10
139.0972407104071
 20
55.91119174080848
 30
0.0
 11
134.4901433864878
 21
55.91119174080848
 31
0.0
 70
   160
  1
a
 71
     5
 42
9.190871881572007
  3
STANDARD
100
AcDbAlignedDimension
 13
129.9063688288351
 23
74.09868988223387
 33
0.0
 14
139.0972407104071
 24
60.09299455805124
 34
0.0
100
AcDbRotatedDimension
1001
ACAD
1000
DSTYLE
1002
{
1070
   344
1005
2FF
1070
   173
1070
     1
1070
   343
1005
0
1070
    41
1040
2.399999999999999
1070
   340
1005
3C7
1070
   140
1040
2.399999999999999
1070
    40
1040
1.0
1002
}
  0
LINE
  5
19D1
330
1B
100
AcDbEntity
 67
     1
  8
CENTER
  6
AM_ISO08W050x2
100
AcDbLine
 10
126.6677412239616
 20
75.98428938777749
 30
0.0
 11
169.3332402093541
 21
75.98428938777749
 31
0.0
  0
TEXT
  5
19D2
330
1B
100
AcDbEntity
 67
     1
  8
DATA
100
AcDbText
 10
164.5
 20
43.0
 30
0.0
 40
2.4
  1
20
 41
0.7
  7
ROMANS
100
AcDbText
  0
TEXT
  5
19D3
330
1B
100
AcDbEntity
 67
     1
  8
DATA
100
AcDbText
 10
164.5
 20
38.0
 30
0.0
 40
2.4
  1
20
 41
0.7
  7
ROMANS
100
AcDbText
  0
TEXT
  5
19D4
330
1B
100
AcDbEntity
 67
     1
  8
DATA
100
AcDbText
 10
157.0
 20
38.0
 30
0.0
 40
2.4
  1
26
 41
0.7
  7
ROMANS
100
AcDbText
  0
TEXT
  5
19D5
330
1B
100
AcDbEntity
 67
     1
  8
DATA
100
AcDbText
 10
157.0
 20
43.0
 30
0.0
 40
2.4
  1
15
 41
0.7
  7
ROMANS
100
AcDbText
  0
TEXT
  5
19D6
330
1B
100
AcDbEntity
 67
     1
  8
DATA
100
AcDbText
 10
149.5
 20
43.0
 30
0.0
 40
2.4
  1
10
 41
0.7
  7
ROMANS
100
AcDbText
  0
TEXT
  5
19D7
330
1B
100
AcDbEntity
 67
     1
  8
DATA
100
AcDbText
 10
149.5
 20
38.0
 30
0.0
 40
2.4
  1
36
 41
0.7
  7
ROMANS
100
AcDbText
  0
TEXT
  5
19D8
330
1B
100
AcDbEntity
 67
     1
  8
DATA
100
AcDbText
 10
143.3283491883756
 20
43.0
 30
0.0
 40
2.4
  1
5
 41
0.7
  7
ROMANS
100
AcDbText
  0
TEXT
  5
19D9
330
1B
100
AcDbEntity
 67
     1
  8
DATA
100
AcDbText
 10
142.0
 20
38.0
 30
0.0
 40
2.4
  1
58
 41
0.7
  7
ROMANS
100
AcDbText
  0
TEXT
  5
19DC
330
1B
100
AcDbEntity
 67
     1
  8
DATA
100
AcDbText
 10
110.8283491883755
 20
38.0
 30
0.0
 40
2.4
  1
RADIAL-FORCE Fr (N)
 41
0.7
  7
ROMANS
100
AcDbText
  0
TEXT
  5
19DD
330
1B
100
AcDbEntity
 67
     1
  8
DATA
100
AcDbText
 10
110.8283491883755
 20
43.0
 30
0.0
 40
2.4
  1
DISTANCE a  (mm)
 41
0.7
  7
ROMANS
100
AcDbText
  0
TEXT
  5
19DE
330
1B
100
AcDbEntity
 67
     1
  8
DATA
100
AcDbText
 10
70.0
 20
63.0
 30
0.0
 40
2.4
  1
%%P5%
 41
0.7
  7
ROMANS
100
AcDbText
  0
TEXT
  5
19DF
330
1B
100
AcDbEntity
 67
     1
  8
DATA
100
AcDbText
 10
70.0
 20
68.0
 30
0.0
 40
2.4
  1
0.9
 41
0.7
  7
ROMANS
100
AcDbText
  0
TEXT
  5
19E0
330
1B
100
AcDbEntity
 67
     1
  8
DATA
100
AcDbText
 10
70.0
 20
88.0
 30
0.0
 40
2.4
  1
2.1%%P15%
 41
0.7
  7
ROMANS
100
AcDbText
  0
TEXT
  5
19E1
330
1B
100
AcDbEntity
 67
     1
  8
DATA
100
AcDbText
 10
70.0
 20
93.0
 30
0.0
 40
2.4
  1
1.33
 41
0.7
  7
ROMANS
100
AcDbText
  0
TEXT
  5
19E4
330
1B
100
AcDbEntity
 67
     1
  8
DATA
100
AcDbText
 10
31.82834918837557
 20
107.617252115867
 30
0.0
 40
2.4
  1
CONNECTION
 41
0.7
  7
ROMANS
100
AcDbText
  0
TEXT
  5
19E9
330
1B
100
AcDbEntity
 67
     1
  8
DATA
100
AcDbText
 10
1.828349188375568
 20
98.0
 30
0.0
 40
2.4
  1
VOLTAGE (VDC)
 41
0.7
  7
ROMANS
100
AcDbText
  0
TEXT
  5
19EA
330
1B
100
AcDbEntity
 67
     1
  8
DATA
100
AcDbText
 10
1.828349188375568
 20
93.0
 30
0.0
 40
2.4
  1
AMPS/PHASE
 41
0.7
  7
ROMANS
100
AcDbText
  0
TEXT
  5
19EB
330
1B
100
AcDbEntity
 67
     1
  8
DATA
100
AcDbText
 10
1.828349188375568
 20
103.617252115867
 30
0.0
 40
2.4
  1
SPECIFICATION
 41
0.7
  7
ROMANS
100
AcDbText
  0
TEXT
  5
19EC
330
1B
100
AcDbEntity
 67
     1
  8
DATA
100
AcDbText
 10
1.828349188375568
 20
88.0
 30
0.0
 40
2.4
  1
RESISTANCE/PHASE  (Ohms)@25%%DC
 41
0.7
  7
ROMANS
100
AcDbText
  0
TEXT
  5
19ED
330
1B
100
AcDbEntity
 67
     1
  8
DATA
100
AcDbText
 10
1.828349188375568
 20
83.0
 30
0.0
 40
2.4
  1
INDUCTANCE/PHASE (mH) @1KHz
 41
0.7
  7
ROMANS
100
AcDbText
  0
TEXT
  5
19EF
330
1B
100
AcDbEntity
 67
     1
  8
DATA
100
AcDbText
 10
1.828349188375568
 20
78.0
 30
0.0
 40
2.4
  1
HOLDING TORQUE (Nm) [lb-in]
 41
0.7
  7
ROMANS
100
AcDbText
  0
TEXT
  5
19F0
330
1B
100
AcDbEntity
 67
     1
  8
DATA
100
AcDbText
 10
1.828349188375568
 20
53.0
 30
0.0
 40
2.4
  1
WEIGHT (Kg) [lb]
 41
0.7
  7
ROMANS
100
AcDbText
  0
TEXT
  5
19F1
330
1B
100
AcDbEntity
 67
     1
  8
DATA
100
AcDbText
 10
1.828349188375568
 20
68.0
 30
0.0
 40
2.4
  1
STEP ANGLE (°)
 41
0.7
  7
ROMANS
100
AcDbText
  0
TEXT
  5
19F2
330
1B
100
AcDbEntity
 67
     1
  8
DATA
100
AcDbText
 10
1.828349188375568
 20
63.0
 30
0.0
 40
2.4
  1
STEP ACCURACY (NON-ACCUM)
 41
0.7
  7
ROMANS
100
AcDbText
  0
LEADER
  5
19F4
330
1B
100
AcDbEntity
 67
     1
  8
DIM
100
AcDbLeader
  3
STANDARD
 76
     2
 10
130.0606073289473
 20
78.69222240356484
 30
0.0
 10
130.0606073289473
 20
86.51626982104639
 30
0.0
1001
ACAD
1000
DSTYLE
1002
{
1070
    41
1040
2.399999999999999
1070
   341
1005
0
1070
    40
1040
1.0
1070
    77
1070
     0
1002
}
  0
TEXT
  5
19F5
330
1B
100
AcDbEntity
 67
     1
  8
DATA
100
AcDbText
 10
70.0
 20
98.0
 30
0.0
 40
2.4
  1
2.79
 41
0.7
  7
ROMANS
100
AcDbText
  0
TEXT
  5
19F7
330
1B
100
AcDbEntity
 67
     1
  8
DATA
100
AcDbText
 10
75.0
 20
107.617252115867
 30
0.0
 40
2.399999999999999
  1
BIPOLAR
 41
0.7
  7
ROMANS
100
AcDbText
  0
LINE
  5
19F9
330
1B
100
AcDbEntity
 67
     1
  8
SPEC
100
AcDbLine
 10
0.0009154015513104
 20
111.6559890122013
 30
0.0
 11
280.0
 21
111.6559890122013
 31
0.0
  0
LINE
  5
19FA
330
1B
100
AcDbEntity
 67
     1
  8
SPEC
100
AcDbLine
 10
280.0
 20
21.65598908813853
 30
0.0
 11
0.0009154015513104
 21
21.6559890122013
 31
0.0
  0
LINE
  5
19FD
330
1B
100
AcDbEntity
 67
     1
  8
SPEC
100
AcDbLine
 10
0.0009154015513104
 20
26.65598901220131
 30
0.0
 11
170.0009154015513
 21
26.65598901220131
 31
0.0
  0
LINE
  5
19FF
330
1B
100
AcDbEntity
 67
     1
  8
SPEC
100
AcDbLine
 10
0.0009154015513104
 20
31.65598901220131
 30
0.0
 11
170.0009154015513
 21
31.65598901220131
 31
0.0
  0
LINE
  5
1A00
330
1B
100
AcDbEntity
 67
     1
  8
SPEC
100
AcDbLine
 10
0.0009154015513104
 20
36.65598901220142
 30
0.0
 11
170.0009154015513
 21
36.65598901220142
 31
0.0
  0
LINE
  5
1A01
330
1B
100
AcDbEntity
 67
     1
  8
SPEC
100
AcDbLine
 10
0.0009154015513104
 20
46.65598901220142
 30
0.0
 11
170.0009154015513
 21
46.65598901220142
 31
0.0
  0
LINE
  5
1A02
330
1B
100
AcDbEntity
 67
     1
  8
SPEC
100
AcDbLine
 10
0.0009154015513104
 20
41.65598901220142
 30
0.0
 11
170.0009154015513
 21
41.65598901220142
 31
0.0
  0
LINE
  5
1A03
330
1B
100
AcDbEntity
 67
     1
  8
SPEC
100
AcDbLine
 10
0.0009154015513104
 20
66.65598901220142
 30
0.0
 11
110.0009154015513
 21
66.65598901220142
 31
0.0
  0
LINE
  5
1A04
330
1B
100
AcDbEntity
 67
     1
  8
SPEC
100
AcDbLine
 10
0.0009154015513104
 20
61.65598901220142
 30
0.0
 11
110.0009154015513
 21
61.65598901220142
 31
0.0
  0
LINE
  5
1A05
330
1B
100
AcDbEntity
 67
     1
  8
SPEC
100
AcDbLine
 10
0.0009154015513104
 20
56.6559890122013
 30
0.0
 11
110.0009154015513
 21
56.6559890122013
 31
0.0
  0
LINE
  5
1A06
330
1B
100
AcDbEntity
 67
     1
  8
SPEC
100
AcDbLine
 10
0.0009154015513104
 20
51.6559890122013
 30
0.0
 11
170.0009154015513
 21
51.6559890122013
 31
0.0
  0
LINE
  5
1A07
330
1B
100
AcDbEntity
 67
     1
  8
SPEC
100
AcDbLine
 10
0.0009154015513104
 20
101.6559890122014
 30
0.0
 11
110.0009154015513
 21
101.6559890122014
 31
0.0
  0
LINE
  5
1A08
330
1B
100
AcDbEntity
 67
     1
  8
SPEC
100
AcDbLine
 10
0.0009154015513104
 20
96.6559890122013
 30
0.0
 11
110.0009154015513
 21
96.6559890122013
 31
0.0
  0
LINE
  5
1A09
330
1B
100
AcDbEntity
 67
     1
  8
SPEC
100
AcDbLine
 10
0.0009154015513104
 20
86.6559890122013
 30
0.0
 11
110.0009154015513
 21
86.6559890122013
 31
0.0
  0
LINE
  5
1A0A
330
1B
100
AcDbEntity
 67
     1
  8
SPEC
100
AcDbLine
 10
0.0009154015513104
 20
91.6559890122013
 30
0.0
 11
110.0009154015513
 21
91.6559890122013
 31
0.0
  0
LINE
  5
1A0B
330
1B
100
AcDbEntity
 67
     1
  8
SPEC
100
AcDbLine
 10
0.0009154015513104
 20
71.6559890122013
 30
0.0
 11
110.0009154015513
 21
71.6559890122013
 31
0.0
  0
LINE
  5
1A0C
330
1B
100
AcDbEntity
 67
     1
  8
SPEC
100
AcDbLine
 10
0.0009154015513104
 20
76.65598901220142
 30
0.0
 11
110.0009154015513
 21
76.65598901220142
 31
0.0
  0
LINE
  5
1A0D
330
1B
100
AcDbEntity
 67
     1
  8
SPEC
100
AcDbLine
 10
0.0009154015513104
 20
81.65598901220141
 30
0.0
 11
110.0009154015513
 21
81.65598901220141
 31
0.0
  0
MTEXT
  5
1A0E
330
1B
100
AcDbEntity
 67
     1
  8
DATA
100
AcDbMText
 10
2.328349188375568
 20
61.11725211586701
 30
0.0
 40
2.399999999999999
 41
110.0
 71
     1
 72
     5
  1
{\W0.7;ROTOR INERTIA (Kg-m²) [lb-in²]}
  7
ROMANS
 73
     1
 44
1.0
1001
ACAD
1000
MTEXTBEGIN
1070
    73
1070
     1
1070
    44
1040
1.0
1070
    74
1070
     0
1000
MTEXTEND
  0
LINE
  5
1A0F
330
1B
100
AcDbEntity
 67
     1
  8
SPEC
100
AcDbLine
 10
0.0009154015513104
 20
91.6559890122013
 30
0.0
 11
50.00091540155131
 21
91.6559890122013
 31
0.0
  0
LINE
  5
1A10
330
1B
100
AcDbEntity
 67
     1
  8
SPEC
100
AcDbLine
 10
50.00091540155131
 20
111.6559890122013
 30
0.0
 11
50.00091540155131
 21
51.6559890122013
 31
0.0
  0
LINE
  5
1A11
330
1B
100
AcDbEntity
 67
     1
  8
SPEC
100
AcDbLine
 10
50.00091540155131
 20
101.6559890122014
 30
0.0
 11
0.0009154015513104
 21
111.6559890122013
 31
0.0
  0
TEXT
  5
1A16
330
1B
100
AcDbEntity
 67
     1
  8
DATA
100
AcDbText
 10
111.8283491883755
 20
28.0
 30
0.0
 40
2.4
  1
SHAFT PLAY (mm)
 41
0.7
  7
ROMANS
100
AcDbText
  0
LINE
  5
1A17
330
1B
100
AcDbEntity
 67
     1
  8
SPEC
100
AcDbLine
 10
110.0009154015513
 20
31.65598901220131
 30
0.0
 11
140.0009154015513
 21
31.65598901220131
 31
0.0
  0
TEXT
  5
1A18
330
1B
100
AcDbEntity
 67
     1
  8
DATA
100
AcDbText
 10
143.8283491883755
 20
32.61725211586702
 30
0.0
 40
2.5
  1
AXIAL
 41
0.7
  7
ROMANS
100
AcDbText
  0
TEXT
  5
1A19
330
1B
100
AcDbEntity
 67
     1
  8
DATA
100
AcDbText
 10
157.8283491883756
 20
32.61725211586702
 30
0.0
 40
2.5
  1
RADIAL
 41
0.7
  7
ROMANS
100
AcDbText
  0
TEXT
  5
1A1A
330
1B
100
AcDbEntity
 67
     1
  8
DATA
100
AcDbText
 10
142.8283491883755
 20
27.61725211586702
 30
0.0
 40
2.5
  1
0.075
 41
0.7
  7
ROMANS
100
AcDbText
  0
TEXT
  5
1A1B
330
1B
100
AcDbEntity
 67
     1
  8
DATA
100
AcDbText
 10
157.8283491883756
 20
27.61725211586702
 30
0.0
 40
2.5
  1
0.025
 41
0.7
  7
ROMANS
100
AcDbText
  0
TEXT
  5
1A1C
330
1B
100
AcDbEntity
 67
     1
  8
DATA
100
AcDbText
 10
143.8283491883755
 20
22.61725211586702
 30
0.0
 40
2.5
  1
10
 41
0.7
  7
ROMANS
100
AcDbText
  0
TEXT
  5
1A1D
330
1B
100
AcDbEntity
 67
     1
  8
DATA
100
AcDbText
 10
157.8283491883756
 20
22.61725211586702
 30
0.0
 40
2.5
  1
5.0
 41
0.7
  7
ROMANS
100
AcDbText
  0
LINE
  5
1A1E
330
1B
100
AcDbEntity
 67
     1
  8
SPEC
100
AcDbLine
 10
110.0009154015513
 20
36.65598901220142
 30
0.0
 11
140.0009154015513
 21
31.65598901220131
 31
0.0
  0
LINE
  5
1A1F
330
1B
100
AcDbEntity
 67
     1
  8
SPEC
100
AcDbLine
 10
140.0009154015513
 20
46.65598901220142
 30
0.0
 11
146.0009154015513
 21
46.65598901220142
 31
0.0
  0
LINE
  5
1A21
330
1B
100
AcDbEntity
 67
     1
  8
SPEC
100
AcDbLine
 10
147.5009154015513
 20
46.65598901220142
 30
0.0
 11
147.5009154015513
 21
36.65598901220142
 31
0.0
  0
LINE
  5
1A22
330
1B
100
AcDbEntity
 67
     1
  8
SPEC
100
AcDbLine
 10
155.0009154015513
 20
46.65598901220142
 30
0.0
 11
155.0009154015513
 21
36.65598901220142
 31
0.0
  0
LINE
  5
1A23
330
1B
100
AcDbEntity
 67
     1
  8
SPEC
100
AcDbLine
 10
162.5009154015513
 20
46.65598901220142
 30
0.0
 11
162.5009154015513
 21
36.65598901220142
 31
0.0
  0
LINE
  5
1A6A
330
1B
100
AcDbEntity
 67
     1
  8
SPEC
100
AcDbLine
 10
110.0009154015513
 20
111.6559890122013
 30
0.0
 11
110.0009154015513
 21
21.6559890122013
 31
0.0
  0
VIEWPORT
  5
1E55
102
{ACAD_XDICTIONARY
360
65F5
102
}
330
1B
100
AcDbEntity
 67
     1
  8
Defpoints
100
AcDbViewport
 10
140.0004577007756
 20
153.9532840649441
 30
0.0
 40
279.9990845984487
 41
84.59459010548574
 68
     2
 69
     2
 12
-7.25099775696321
 22
-1.262819215470059
 13
0.0
 23
0.0
 14
2.5
 24
2.5
 15
10.0
 25
10.0
 16
0.0
 26
0.0
 36
570.5666459849701
 17
947.8124645230504
 27
618.5561384333266
 37
0.0
 42
50.0
 43
0.0
 44
0.0
 45
124.8431214930157
 50
0.0
 51
0.0
 72
   100
 90
    32864
  1

281
     0
 71
     1
 74
     0
110
0.0
120
0.0
130
0.0
111
1.0
121
0.0
131
0.0
112
0.0
122
1.0
132
0.0
 79
     0
146
0.0
1001
GENIUS_GENOBJ-N-SDF_13
1002
{
1000
OWNER
1000
GEN
1002
}
1001
GENIUS_GENODEF_13
1002
{
1000
HIER
1070
     0
1002
}
1002
{
1000
MANEDIT
1070
     0
1002
}
1002
{
1000
NOSEL
1070
     0
1002
}
1002
{
1000
BEHIND
1070
     0
1002
}
1002
{
1000
OTHER
1070
     0
1002
}
1002
{
1000
REACTOR
1002
}
1001
GENIUS_GENSCREG_15
1000
PF
1040
0.0
1000
DF
1040
0.0
1000
MIN
1011
0.0009154015513104
1021
111.6559890122013
1031
0.0
1000
MAX
1011
280.0
1021
196.250579117687
1031
0.0
1000
FLAGS
1070
     2
  0
TEXT
  5
2CB7
330
1B
100
AcDbEntity
 67
     1
  8
DATA
100
AcDbText
 10
70.0
 20
53.0
 30
0.0
 40
2.4
  1
0.22 [0.485]
 41
0.7
  7
ROMANS
100
AcDbText
  0
TEXT
  5
2CBF
330
1B
100
AcDbEntity
 67
     1
  8
DATA
100
AcDbText
 10
70.0
 20
83.0
 30
0.0
 40
2.4
  1
4.2%%P20%%%
 41
0.7
  7
ROMANS
100
AcDbText
  0
TEXT
  5
2CCB
330
1B
100
AcDbEntity
 67
     1
  8
DATA
100
AcDbText
 10
70.0
 20
78.0
 30
0.0
 40
2.4
  1
0.22 [1.947]
 41
0.7
  7
ROMANS
100
AcDbText
  0
LWPOLYLINE
  5
2CEB
330
1B
100
AcDbEntity
 67
     1
  8
SPEC
100
AcDbPolyline
 90
        4
 70
     1
 43
0.0
 10
139.0972407104071
 20
91.87558421750372
 10
159.2275531197891
 20
91.87558421750374
 10
159.2275531197891
 20
60.09299455805124
 10
139.0972407104071
 20
60.09299455805124
  0
LWPOLYLINE
  5
2D6D
330
1B
100
AcDbEntity
 67
     1
  8
SPEC
100
AcDbPolyline
 90
        4
 70
     1
 43
0.0
 10
139.0972407104071
 20
87.09730240531003
 10
137.6137908953366
 20
87.09730240531003
 10
137.6137908953366
 20
64.87127637024494
 10
139.0972407104071
 20
64.87127637024494
  0
LINE
  5
2D70
330
1B
100
AcDbEntity
 67
     1
  8
SPEC
100
AcDbLine
 10
168.9451046743791
 20
74.09868988223387
 30
0.0
 11
159.2275531197891
 21
74.09868988223387
 31
0.0
  0
LINE
  5
2D71
330
1B
100
AcDbEntity
 67
     1
  8
SPEC
100
AcDbLine
 10
168.9451046743791
 20
77.86988889332109
 30
0.0
 11
159.2275531197891
 21
77.86988889332109
 31
0.0
  0
LINE
  5
2D72
330
1B
100
AcDbEntity
 67
     1
  8
SPEC
100
AcDbLine
 10
168.9451046743791
 20
74.09868988223387
 30
0.0
 11
168.9451046743791
 21
77.86988889332109
 31
0.0
  0
LWPOLYLINE
  5
2D94
330
1B
100
AcDbEntity
 67
     1
  8
SPEC
100
AcDbPolyline
 90
        4
 70
     1
 43
0.0
 10
157.9302096399492
 20
81.38735029589254
 10
154.6305199228664
 20
81.38735029589254
 10
154.6305199228664
 20
70.58122847966247
 10
157.9302096399492
 20
70.58122847966247
  0
CIRCLE
  5
2D95
330
1B
100
AcDbEntity
 67
     1
  8
SPEC
100
AcDbCircle
 10
156.2803647814078
 20
79.73750543735114
 30
0.0
 40
1.649844858541398
  0
CIRCLE
  5
2D96
330
1B
100
AcDbEntity
 67
     1
  8
SPEC
100
AcDbCircle
 10
156.2803647814078
 20
72.23107333820388
 30
0.0
 40
1.649844858541398
  0
LINE
  5
2D97
330
1B
100
AcDbEntity
 67
     1
  8
SPEC
100
AcDbLine
 10
157.9302096399492
 20
81.38735029589254
 30
0.0
 11
158.5734045934214
 21
80.74081741993238
 31
0.0
  0
LINE
  5
2D98
330
1B
100
AcDbEntity
 67
     1
  8
SPEC
100
AcDbLine
 10
158.6531348075577
 20
77.651473709366
 30
0.0
 11
158.5053768956558
 21
77.48676576983574
 31
0.0
  0
LINE
  5
2D99
330
1B
100
AcDbEntity
 67
     1
  8
SPEC
100
AcDbLine
 10
158.5053768956559
 20
74.48181300571924
 30
0.0
 11
158.6531348075576
 21
74.31710506618914
 31
0.0
  0
LINE
  5
2D9A
330
1B
100
AcDbEntity
 67
     1
  8
SPEC
100
AcDbLine
 10
158.5734045934215
 20
71.2277613556228
 30
0.0
 11
157.9302096399492
 21
70.58122847966247
 31
0.0
  0
ARC
  5
2D9E
330
1B
100
AcDbEntity
 67
     1
  8
SPEC
100
AcDbCircle
 10
156.9783020632643
 20
79.15395009142419
 30
0.0
 40
2.25
100
AcDbArc
 50
318.1050245216237
 51
44.85171410623406
  0
ARC
  5
2DA1
330
1B
100
AcDbEntity
 67
     1
  8
SPEC
100
AcDbCircle
 10
156.9783020632643
 20
72.81462868413088
 30
0.0
 40
2.25
100
AcDbArc
 50
315.1482858937687
 51
41.8949754783788
  0
ARC
  5
2DA2
330
1B
100
AcDbEntity
 67
     1
  8
SPEC
100
AcDbCircle
 10
160.1802096399492
 20
75.98428938777752
 30
0.0
 40
2.25
100
AcDbArc
 50
138.1050245216231
 51
221.8949754783793
  0
LWPOLYLINE
  5
2DA3
330
1B
100
AcDbEntity
 67
     1
  8
SPEC
100
AcDbPolyline
 90
        4
 70
     1
 43
0.0
 10
139.0972407104071
 20
81.38735029589254
 10
142.3969304274899
 20
81.38735029589254
 10
142.3969304274899
 20
70.58122847966247
 10
139.0972407104071
 20
70.58122847966247
  0
CIRCLE
  5
2DA4
330
1B
100
AcDbEntity
 67
     1
  8
SPEC
100
AcDbCircle
 10
140.7470855689485
 20
79.73750543735114
 30
0.0
 40
1.649844858541398
  0
CIRCLE
  5
2DA5
330
1B
100
AcDbEntity
 67
     1
  8
SPEC
100
AcDbCircle
 10
140.7470855689485
 20
72.23107333820388
 30
0.0
 40
1.649844858541398
  0
TEXT
  5
2DC8
330
1B
100
AcDbEntity
 67
     1
  8
DATA
100
AcDbText
 10
1.828349188375568
 20
23.0
 30
0.0
 40
2.4
  1
AMBIENT HUMIDITY MAX. 85% (NO CONDENSATION)
 41
0.7
  7
ROMANS
100
AcDbText
  0
LINE
  5
2DD6
330
1B
100
AcDbEntity
 67
     1
  8
SPEC
100
AcDbLine
 10
146.0009154015513
 20
46.65598901220142
 30
0.0
 11
151.0009154015513
 21
46.65598901220142
 31
0.0
  0
LINE
  5
2DD7
330
1B
100
AcDbEntity
 67
     1
  8
SPEC
100
AcDbLine
 10
140.0009154015513
 20
51.6559890122013
 30
0.0
 11
140.0009154015513
 21
21.6559890122013
 31
0.0
  0
LINE
  5
2DD8
330
1B
100
AcDbEntity
 67
     1
  8
SPEC
100
AcDbLine
 10
140.0009154015513
 20
36.65598901220131
 30
0.0
 11
155.0009154015513
 21
36.65598901220136
 31
0.0
  0
LINE
  5
2DD9
330
1B
100
AcDbEntity
 67
     1
  8
SPEC
100
AcDbLine
 10
155.0009154015513
 20
36.65598901220136
 30
0.0
 11
155.0009154015513
 21
21.6559890122013
 31
0.0
  0
TEXT
  5
2DE0
330
1B
100
AcDbEntity
 67
     1
  8
DATA
100
AcDbText
 10
111.8283491883755
 20
23.0
 30
0.0
 40
2.4
  1
AT LOAD MAX: (N)
 41
0.7
  7
ROMANS
100
AcDbText
  0
LINE
  5
2DE5
330
1B
100
AcDbEntity
 67
     1
  8
SPEC
100
AcDbLine
 10
127.8962393407466
 20
74.09868988223387
 30
0.0
 11
137.6137908953366
 21
74.09868988223387
 31
0.0
  0
LINE
  5
2DE6
330
1B
100
AcDbEntity
 67
     1
  8
SPEC
100
AcDbLine
 10
127.8962393407466
 20
77.86988889332109
 30
0.0
 11
137.6137908953366
 21
77.86988889332109
 31
0.0
  0
LINE
  5
2DE7
330
1B
100
AcDbEntity
 67
     1
  8
SPEC
100
AcDbLine
 10
127.8962393407466
 20
74.09868988223387
 30
0.0
 11
127.8962393407466
 21
77.86988889332109
 31
0.0
  0
MTEXT
  5
2E04
330
1B
100
AcDbEntity
 67
     1
  8
SPEC
 62
     6
100
AcDbMText
 10
145.5187721793249
 20
89.62880385942026
 30
0.0
 40
2.0
 41
0.0
 71
     1
 72
     1
  1
BEARING
  7
ROMANS
 73
     1
 44
1.0
1001
ACAD
1000
MTEXTBEGIN
1070
    73
1070
     1
1070
    44
1040
1.0
1070
    74
1070
     0
1000
MTEXTEND
  0
LEADER
  5
2E07
330
1B
100
AcDbEntity
 67
     1
  8
DIM
100
AcDbLeader
  3
STANDARD
 76
     2
 10
156.2803647814078
 20
79.73750543735114
 30
0.0
 10
150.8271563148611
 20
87.12304269521258
 30
0.0
1001
ACAD
1000
DSTYLE
1002
{
1070
   147
1040
1.0
1070
    77
1070
     0
1002
}
  0
LEADER
  5
2E09
330
1B
100
AcDbEntity
 67
     1
  8
DIM
100
AcDbLeader
  3
STANDARD
 76
     2
 10
140.7470855689485
 20
79.73750543735114
 30
0.0
 10
146.7956208247884
 20
86.83653569069861
 30
0.0
1001
ACAD
1000
DSTYLE
1002
{
1070
   147
1040
1.0
1070
    77
1070
     0
1002
}
  0
LEADER
  5
2E0A
330
1B
100
AcDbEntity
 67
     1
  8
DIM
100
AcDbLeader
  3
STANDARD
 73
     0
 75
     1
 40
5.333333333333333
 41
9.066666666666666
 76
     3
 10
158.5734045934214
 20
80.74081741993238
 30
0.0
 10
167.5136123890166
 20
94.46023307290511
 30
0.0
 10
164.5136123890166
 20
94.46023307290511
 30
0.0
340
2E0B
213
1.589802987236566
223
-4.427990251304436
233
0.0
1001
ACAD
1000
DSTYLE
1002
{
1070
   147
1040
1.0
1070
    77
1070
     0
1002
}
  0
MTEXT
  5
2E0B
102
{ACAD_REACTORS
330
2E0A
102
}
330
1B
100
AcDbEntity
 67
     1
  8
SPEC
 62
     6
100
AcDbMText
 10
161.9238094017801
 20
98.88822332420955
 30
0.0
 40
2.0
 41
0.0
 71
     3
 72
     1
  1
SPRING\PWASHER
  7
ROMANS
 73
     1
 44
1.0
1001
ACAD
1000
MTEXTBEGIN
1070
    73
1070
     1
1070
    44
1040
1.0
1070
    74
1070
     0
1000
MTEXTEND
  0
MTEXT
  5
2E19
330
1B
100
AcDbEntity
 67
     1
  8
DATA
100
AcDbMText
 10
148.4983559025127
 20
50.13711884239956
 30
0.0
 40
2.399999999999999
 41
110.0
 71
     1
 72
     5
  1
{\W0.7;F\H0.8333x;a\H1.2x;=7}
  7
ROMANS
 73
     1
 44
1.0
1001
ACAD
1000
MTEXTBEGIN
1070
    73
1070
     1
1070
    44
1040
1.0
1070
    74
1070
     0
1000
MTEXTEND
  0
MTEXT
  5
2E48
330
1B
100
AcDbEntity
 67
     1
  8
SPEC
 62
     6
100
AcDbMText
 10
111.8786983663672
 20
99.27994356100203
 30
0.0
 40
2.0
 41
0.0
 71
     1
 72
     1
  1
ROTOR SPRING-\PMOUNTED IN\PAXIAL DIRECTION
  7
ROMANS
 73
     1
 44
1.0
1001
ACAD
1000
MTEXTBEGIN
1070
    73
1070
     1
1070
    44
1040
1.0
1070
    74
1070
     0
1000
MTEXTEND
  0
LEADER
  5
2E5C
330
1B
100
AcDbEntity
 67
     1
  8
DIM
100
AcDbLeader
  3
STANDARD
 76
     2
 10
131.5179864032658
 20
89.06775256840445
 30
0.0
 10
112.2566843209139
 20
89.06775256840445
 30
0.0
1001
ACAD
1000
DSTYLE
1002
{
1070
   147
1040
1.0
1070
    77
1070
     0
1002
}
  0
TEXT
  5
557C
330
1B
100
AcDbEntity
 67
     1
  8
DATA
100
AcDbText
 10
102.9106217481551
 20
2.296070477388891
 30
0.0
 40
3.861395999999999
  1
ST4209S1404
 41
0.7
  7
ROMANS
100
AcDbText
  0
TEXT
  5
57F0
330
1B
100
AcDbEntity
 67
     1
  8
DATA
100
AcDbText
 10
78.77077768692515
 20
59.3825037332533
 30
0.0
 40
1.399999999999999
  1
-6
 41
0.7
  7
ROMANS
100
AcDbText
  0
TEXT
  5
57F1
330
1B
100
AcDbEntity
 67
     1
  8
DATA
100
AcDbText
 10
70.0
 20
58.0
 30
0.0
 40
2.4
  1
3.5x10  [0.012]
 41
0.7
  7
ROMANS
100
AcDbText
  0
MTEXT
  5
57F2
330
1B
100
AcDbEntity
 67
     1
  8
DATA
100
AcDbMText
 10
70.0
 20
76.11725211586701
 30
0.0
 40
2.399999999999999
 41
50.69688999264281
 71
     1
 72
     5
  1
{\W0.7;6.6x10  [0.0584]}
  7
ROMANS
 73
     1
 44
1.0
1001
ACAD
1000
MTEXTBEGIN
1070
    73
1070
     1
1070
    44
1040
1.0
1070
    74
1070
     0
1000
MTEXTEND
  0
TEXT
  5
57F3
330
1B
100
AcDbEntity
 67
     1
  8
DATA
100
AcDbText
 10
78.19860536078784
 20
74.72462232128343
 30
0.0
 40
1.399999999999999
  1
-3
 41
0.7
  7
ROMANS
100
AcDbText
  0
MTEXT
  5
59F4
330
1B
100
AcDbEntity
 67
     1
  8
DATA
100
AcDbMText
 10
118.2344638844852
 20
79.4204407347795
 30
0.0
 40
2.399999999999999
 41
6.509999999999999
 71
     1
 72
     5
  1
F{\H0.8333x;a}
  7
ROMANS
 73
     1
 44
1.0
1001
ACAD
1000
MTEXTBEGIN
1070
    73
1070
     1
1070
    44
1040
1.0
1070
    74
1070
     0
1000
MTEXTEND
  0
DIMENSION
  5
59F5
330
1B
100
AcDbEntity
 67
     1
  8
DIM
100
AcDbDimension
  2
*D17
 10
112.1274407842458
 20
75.85282590218707
 30
0.0
 11
118.4509808721768
 21
75.85282590218707
 31
0.0
 70
    32
  1
 
 71
     5
 42
12.64708017586213
  3
STANDARD$0
100
AcDbAlignedDimension
 13
124.7745209601079
 23
75.8528259021871
 33
0.0
 14
112.1274407842458
 24
75.85282590218707
 34
0.0
100
AcDbRotatedDimension
1001
ACAD
1000
DSTYLE
1002
{
1070
   281
1070
     0
1070
    76
1070
     1
1070
    75
1070
     1
1070
    47
1040
0.2
1070
    48
1040
-0.2
1070
   272
1070
     1
1002
}
  0
TEXT
  5
5BB4
330
1B
100
AcDbEntity
 67
     1
  8
DATA
100
AcDbText
 10
162.9999999999723
 20
16.96410451522373
 30
0.0
 40
2.896047
  1
APVD
 41
0.7
  7
ROMANS
100
AcDbText
  0
TEXT
  5
5BB5
330
1B
100
AcDbEntity
 67
     1
  8
DATA
100
AcDbText
 10
162.9999999999723
 20
12.35726786292487
 30
0.0
 40
2.896047
  1
CHKD
 41
0.7
  7
ROMANS
100
AcDbText
  0
TEXT
  5
5BB6
330
1B
100
AcDbEntity
 67
     1
  8
DATA
100
AcDbText
 10
162.9999999999723
 20
7.366527959600396
 30
0.0
 40
2.896047
  1
DRN
 41
0.7
  7
ROMANS
100
AcDbText
  0
TEXT
  5
5BB7
330
1B
100
AcDbEntity
 67
     1
  8
DATA
100
AcDbText
 10
175.682905111775
 20
7.450575519801228
 30
0.0
 40
3.0
  1
J.W.
  7
ITALICT
100
AcDbText
  0
LINE
  5
5D69
102
{ACAD_REACTORS
330
5D6D
102
}
330
1B
100
AcDbEntity
 67
     1
  8
DATA
100
AcDbLine
 10
260.1498949271972
 20
76.63083266744376
 30
0.0
 11
258.2298949271974
 21
76.63083266744376
 31
0.0
  0
LINE
  5
5D6A
102
{ACAD_REACTORS
330
5D6D
102
}
330
1B
100
AcDbEntity
 67
     1
  8
DATA
100
AcDbLine
 10
258.2298949271974
 20
72.15083266744374
 30
0.0
 11
260.1498949271972
 21
72.15083266744374
 31
0.0
  0
LINE
  5
5D6B
102
{ACAD_REACTORS
330
5D6D
102
}
330
1B
100
AcDbEntity
 67
     1
  8
DATA
100
AcDbLine
 10
260.1498949271972
 20
72.15083266744374
 30
0.0
 11
260.1498949271972
 21
76.63083266744376
 31
0.0
  0
LINE
  5
5D6C
102
{ACAD_REACTORS
330
5D6D
102
}
330
1B
100
AcDbEntity
 67
     1
  8
DATA
100
AcDbLine
 10
258.2298949271974
 20
76.63083266744376
 30
0.0
 11
258.2298949271974
 21
72.15083266744374
 31
0.0
  0
HATCH
  5
5D6D
330
1B
100
AcDbEntity
 67
     1
  8
DATA
100
AcDbHatch
 10
0.0
 20
0.0
 30
0.0
210
0.0
220
0.0
230
1.0
  2
SOLID
 70
     1
 71
     1
 91
        1
 92
        1
 93
        4
 72
     1
 10
260.1498949271972
 20
76.63083266744376
 11
258.2298949271974
 21
76.63083266744376
 72
     1
 10
258.2298949271974
 20
76.63083266744376
 11
258.2298949271974
 21
72.15083266744374
 72
     1
 10
258.2298949271974
 20
72.15083266744374
 11
260.1498949271972
 21
72.15083266744374
 72
     1
 10
260.1498949271972
 20
72.15083266744374
 11
260.1498949271972
 21
76.63083266744376
 97
        4
330
5D69
330
5D6C
330
5D6A
330
5D6B
 75
     0
 76
     1
 98
        1
 10
111.0298949271973
 20
-36.32916733255627
  0
LWPOLYLINE
  5
5D6E
330
1B
100
AcDbEntity
 67
     1
  8
DATA
100
AcDbPolyline
 90
        3
 70
     0
 43
0.0
 10
202.8000404246576
 20
77.09200028582005
 10
202.8000404246576
 20
77.09200028582005
 10
206.8739178952186
 20
77.09200028092356
  0
LWPOLYLINE
  5
5D6F
330
1B
100
AcDbEntity
 67
     1
  8
DATA
100
AcDbPolyline
 90
        3
 70
     0
 43
0.0
 10
202.8000404599155
 20
89.0406765004411
 10
202.8000404599155
 20
89.0406765004411
 10
206.8739178952186
 20
89.04067649497687
  0
MTEXT
  5
5D70
330
1B
100
AcDbEntity
 67
     1
  8
DATA
100
AcDbMText
 10
248.7163941178033
 20
72.86791880996871
 30
0.0
 40
2.4
 41
5.0
 71
     1
 72
     1
  1
B\\
  7
ROMANS
 73
     1
 44
1.0
1001
ACAD
1000
MTEXTBEGIN
1070
    73
1070
     1
1070
    44
1040
1.0
1070
    74
1070
     0
1000
MTEXTEND
  0
MTEXT
  5
5D71
330
1B
100
AcDbEntity
 67
     1
  8
DATA
100
AcDbMText
 10
248.6795449688534
 20
79.02214302199659
 30
0.0
 40
2.4
 41
4.0
 71
     1
 72
     1
  1
B
  7
ROMANS
 73
     1
 44
1.0
1001
ACAD
1000
MTEXTBEGIN
1070
    73
1070
     1
1070
    44
1040
1.0
1070
    74
1070
     0
1000
MTEXTEND
  0
MTEXT
  5
5D72
330
1B
100
AcDbEntity
 67
     1
  8
DATA
100
AcDbMText
 10
248.3276981790343
 20
84.02530767368523
 30
0.0
 40
2.4
 41
5.0
 71
     1
 72
     1
  1
A\\
  7
ROMANS
 73
     1
 44
1.0
1001
ACAD
1000
MTEXTBEGIN
1070
    73
1070
     1
1070
    44
1040
1.0
1070
    74
1070
     0
1000
MTEXTEND
  0
MTEXT
  5
5D73
330
1B
100
AcDbEntity
 67
     1
  8
DATA
100
AcDbMText
 10
248.5538041700913
 20
90.46556349097079
 30
0.0
 40
2.4
 41
4.0
 71
     1
 72
     1
  1
A
  7
ROMANS
 73
     1
 44
1.0
1001
ACAD
1000
MTEXTBEGIN
1070
    73
1070
     1
1070
    44
1040
1.0
1070
    74
1070
     0
1000
MTEXTEND
  0
TEXT
  5
5D74
330
1B
100
AcDbEntity
 67
     1
  8
DATA
100
AcDbText
 10
195.9543181037118
 20
100.6064744390815
 30
0.0
 40
2.4
  1
(EXTERN)
 41
0.65
  7
ROMANS
100
AcDbText
  0
TEXT
  5
5D75
330
1B
100
AcDbEntity
 67
     1
  8
DATA
100
AcDbText
 10
234.3325503547887
 20
102.1502571750892
 30
0.0
 40
2.4
  1
MOTOR
 41
0.65
  7
ROMANS
100
AcDbText
  0
TEXT
  5
5D76
330
1B
100
AcDbEntity
 67
     1
  8
DATA
100
AcDbText
 10
189.9543181037118
 20
103.9686604096419
 30
0.0
 40
2.4
  1
TYPE OF CONNECTION
 41
0.65
  7
ROMANS
100
AcDbText
  0
LWPOLYLINE
  5
5D77
330
1B
100
AcDbEntity
 67
     1
  8
DATA
100
AcDbPolyline
 90
        4
 70
     1
 43
0.0
 10
187.9543181037118
 20
99.48463138333602
 10
264.3330796240771
 20
99.48463076220956
 10
264.3330796240771
 20
107.6531444291646
 10
187.9543181037118
 20
107.6531444291646
  0
MLINE
  5
5D78
330
1B
100
AcDbEntity
 67
     1
  8
DATA
100
AcDbMline
  2
STANDARD
340
18
 40
0.3
 70
     0
 71
     1
 72
     2
 73
     2
 10
216.9191207624947
 20
107.6531444291646
 30
0.0
210
0.0
220
0.0
230
1.0
 11
216.9191207624947
 21
107.6531444291646
 31
0.0
 12
-1.135098967989524E-08
 22
-1.0
 32
0.0
 13
1.0
 23
-1.135098972660561E-08
 33
0.0
 74
     2
 41
0.0
 41
0.0
 75
     0
 74
     2
 41
-0.3
 41
0.0
 75
     0
 11
216.9191203166172
 21
68.37220050739493
 31
0.0
 12
-1.135098967989524E-08
 22
-1.0
 32
0.0
 13
1.0
 23
-1.135098972660561E-08
 33
0.0
 74
     2
 41
0.0
 41
0.0
 75
     0
 74
     2
 41
-0.3
 41
0.0
 75
     0
  0
TEXT
  5
5D79
330
1B
100
AcDbEntity
 67
     1
  8
DATA
100
AcDbText
 10
218.4195644465481
 20
92.58703464596612
 30
0.0
 40
2.4
  1
PIN NO.
 41
0.7
  7
ROMANS
100
AcDbText
  0
TEXT
  5
5D7A
330
1B
100
AcDbEntity
 67
     1
  8
DATA
100
AcDbText
 10
234.4615001801878
 20
94.34912226683456
 30
0.0
 40
2.4
  1
LEADS
 41
0.7
  7
ROMANS
100
AcDbText
  0
LINE
  5
5DAA
330
1B
100
AcDbEntity
 67
     1
  8
DATA
100
AcDbLine
 10
187.9543181037118
 20
99.48463137847097
 30
0.0
 11
187.9543181037118
 21
68.37220061722513
 31
0.0
  0
LINE
  5
5DAB
330
1B
100
AcDbEntity
 67
     1
  8
DATA
100
AcDbLine
 10
264.3330796240771
 20
91.67164437848793
 30
0.0
 11
187.9543181037118
 21
91.67164440466221
 31
0.0
  0
TEXT
  5
5DAC
330
1B
100
AcDbEntity
 67
     1
  8
DATA
100
AcDbText
 10
250.2102719053032
 20
94.43058202521079
 30
0.0
 40
2.4
  1
WINDING
 41
0.7
  7
ROMANS
100
AcDbText
  0
LWPOLYLINE
  5
5DAD
330
1B
100
AcDbEntity
 67
     1
  8
DATA
100
AcDbPolyline
 90
        4
 70
     1
 43
0.0
 10
247.4427521142384
 20
99.48463076220956
 10
264.3330796240771
 20
99.48463076220956
 10
264.3330796240771
 20
68.3722004989314
 10
247.4427521163661
 20
68.3722004989314
  0
LWPOLYLINE
  5
5DAE
330
1B
100
AcDbEntity
 67
     1
  8
DATA
100
AcDbPolyline
 90
        2
 70
     0
 43
0.0
 10
206.8739178952186
 20
83.14187857768864
 10
202.8000404376661
 20
83.14187858315289
  0
MTEXT
  5
5DAF
330
1B
100
AcDbEntity
 67
     1
  8
DATA
100
AcDbMText
 10
199.3048529244764
 20
75.02416432762162
 30
0.0
 40
2.4
 41
4.0
 71
     9
 72
     1
  1
B
  7
ROMANS
 73
     1
 44
1.0
1001
ACAD
1000
MTEXTBEGIN
1070
    73
1070
     1
1070
    44
1040
1.0
1070
    74
1070
     0
1000
MTEXTEND
  0
LWPOLYLINE
  5
5DB0
330
1B
100
AcDbEntity
 67
     1
  8
DATA
100
AcDbPolyline
 90
        2
 70
     0
 43
0.0
 10
206.8739179381645
 20
71.40070753081282
 10
202.8000404023579
 20
71.40070756365308
  0
MTEXT
  5
5DB1
330
1B
100
AcDbEntity
 67
     1
  8
DATA
100
AcDbMText
 10
201.248136703225
 20
80.91911836896496
 30
0.0
 40
2.4
 41
4.0
 71
     9
 72
     1
  1
A\\
  7
ROMANS
 73
     1
 44
1.0
1001
ACAD
1000
MTEXTBEGIN
1070
    73
1070
     1
1070
    44
1040
1.0
1070
    74
1070
     0
1000
MTEXTEND
  0
MTEXT
  5
5DB2
330
1B
100
AcDbEntity
 67
     1
  8
DATA
100
AcDbMText
 10
199.2823669636317
 20
87.84067649497682
 30
0.0
 40
2.4
 41
4.0
 71
     9
 72
     1
  1
\A1;A
  7
ROMANS
 73
     1
 44
1.0
1001
ACAD
1000
MTEXTBEGIN
1070
    73
1070
     1
1070
    44
1040
1.0
1070
    74
1070
     0
1000
MTEXTEND
  0
MTEXT
  5
5DB3
330
1B
100
AcDbEntity
 67
     1
  8
DATA
100
AcDbMText
 10
201.2735945081082
 20
69.69242501787208
 30
0.0
 40
2.4
 41
4.0
 71
     9
 72
     1
  1
B\\
  7
ROMANS
 73
     1
 44
1.0
1001
ACAD
1000
MTEXTBEGIN
1070
    73
1070
     1
1070
    44
1040
1.0
1070
    74
1070
     0
1000
MTEXTEND
  0
LINE
  5
5DB4
330
1B
100
AcDbEntity
 67
     1
  8
DATA
100
AcDbLine
 10
259.1898949271974
 20
76.63083266744376
 30
0.0
 11
259.1898949271972
 21
78.29291909311347
 31
0.0
  0
LINE
  5
5DB5
330
1B
100
AcDbEntity
 67
     1
  8
DATA
100
AcDbLine
 10
259.1898949271974
 20
72.15083266744374
 30
0.0
 11
259.1898949271972
 21
70.29291909311346
 31
0.0
  0
LINE
  5
5DB6
330
1B
100
AcDbEntity
 67
     1
  8
DATA
100
AcDbLine
 10
259.1898949271972
 20
78.29291909311347
 30
0.0
 11
253.9200871955686
 21
78.29291909311347
 31
0.0
  0
LINE
  5
5DB7
330
1B
100
AcDbEntity
 67
     1
  8
DATA
100
AcDbLine
 10
259.1898949271972
 20
70.29291909311346
 30
0.0
 11
253.9200871955686
 21
70.29291909311346
 31
0.0
  0
LINE
  5
5DB8
330
1B
100
AcDbEntity
 67
     1
  8
DATA
100
AcDbLine
 10
259.1898949271974
 20
87.97839148508579
 30
0.0
 11
259.1898949271974
 21
89.67557812765914
 31
0.0
  0
LINE
  5
5DB9
330
1B
100
AcDbEntity
 67
     1
  8
DATA
100
AcDbLine
 10
259.1898949271974
 20
89.67557812765914
 30
0.0
 11
253.9200871955686
 21
89.67557812765914
 31
0.0
  0
LINE
  5
5DBA
102
{ACAD_REACTORS
330
5DBE
102
}
330
1B
100
AcDbEntity
 67
     1
  8
DATA
100
AcDbLine
 10
260.1498949271972
 20
87.97839148508579
 30
0.0
 11
258.2298949271974
 21
87.97839148508579
 31
0.0
  0
LINE
  5
5DBB
330
1B
100
AcDbEntity
 67
     1
  8
DATA
100
AcDbLine
 10
259.1898949271974
 20
83.49839148508577
 30
0.0
 11
259.1898949271974
 21
81.67557812765913
 31
0.0
  0
LINE
  5
5DBC
330
1B
100
AcDbEntity
 67
     1
  8
DATA
100
AcDbLine
 10
259.1898949271974
 20
81.67557812765913
 30
0.0
 11
253.9200871955686
 21
81.67557812765913
 31
0.0
  0
LINE
  5
5DBD
102
{ACAD_REACTORS
330
5DBE
102
}
330
1B
100
AcDbEntity
 67
     1
  8
DATA
100
AcDbLine
 10
258.2298949271974
 20
83.49839148508577
 30
0.0
 11
260.1498949271972
 21
83.49839148508577
 31
0.0
  0
HATCH
  5
5DBE
330
1B
100
AcDbEntity
 67
     1
  8
DATA
100
AcDbHatch
 10
0.0
 20
0.0
 30
0.0
210
0.0
220
0.0
230
1.0
  2
SOLID
 70
     1
 71
     1
 91
        1
 92
        1
 93
        4
 72
     1
 10
260.1498949271972
 20
87.97839148508579
 11
258.2298949271974
 21
87.97839148508579
 72
     1
 10
258.2298949271974
 20
87.97839148508579
 11
258.2298949271974
 21
83.49839148508577
 72
     1
 10
258.2298949271974
 20
83.49839148508577
 11
260.1498949271972
 21
83.49839148508577
 72
     1
 10
260.1498949271972
 20
83.49839148508577
 11
260.1498949271972
 21
87.97839148508579
 97
        4
330
5DBA
330
5DC0
330
5DBD
330
5DBF
 75
     0
 76
     1
 98
        1
 10
111.0298949271973
 20
-24.98160851491411
  0
LINE
  5
5DBF
102
{ACAD_REACTORS
330
5DBE
102
}
330
1B
100
AcDbEntity
 67
     1
  8
DATA
100
AcDbLine
 10
260.1498949271972
 20
83.49839148508577
 30
0.0
 11
260.1498949271972
 21
87.97839148508579
 31
0.0
  0
LINE
  5
5DC0
102
{ACAD_REACTORS
330
5DBE
102
}
330
1B
100
AcDbEntity
 67
     1
  8
DATA
100
AcDbLine
 10
258.2298949271974
 20
87.97839148508579
 30
0.0
 11
258.2298949271974
 21
83.49839148508577
 31
0.0
  0
TEXT
  5
5DC1
330
1B
100
AcDbEntity
 67
     1
  8
DATA
100
AcDbText
 10
198.9543181037118
 20
94.34999999999998
 30
0.0
 40
2.4
  1
BIPOLAR
 41
0.65
  7
ROMANS
100
AcDbText
  0
LWPOLYLINE
  5
5DC2
330
1B
100
AcDbEntity
 67
     1
  8
DATA
100
AcDbPolyline
 90
        4
 70
     1
 43
0.0
 10
231.4715828426001
 20
99.48463098076636
 10
247.4427521142384
 20
99.48463076220956
 10
247.4427521142384
 20
68.3722004989314
 10
231.4715828043713
 20
68.37220050022311
  0
TEXT
  5
5DC3
330
1B
100
AcDbEntity
 67
     1
  8
DATA
100
AcDbText
 10
233.981977056156
 20
81.65780504491726
 30
0.0
 40
2.4
  1
ORG
 41
0.7
  7
ROMANS
100
AcDbText
  0
TEXT
  5
5DC4
330
1B
100
AcDbEntity
 67
     1
  8
DATA
100
AcDbText
 10
221.937405971496
 20
81.77138634366951
 30
0.0
 40
2.4
  1
 2
 41
0.7
  7
ROMANS
100
AcDbText
  0
TEXT
  5
5DC5
330
1B
100
AcDbEntity
 67
     1
  8
DATA
100
AcDbText
 10
217.3827952943629
 20
95.93703464596625
 30
0.0
 40
2.4
  1
CONNECTOR
 41
0.65
  7
ROMANS
100
AcDbText
  0
TEXT
  5
5DC6
330
1B
100
AcDbEntity
 67
     1
  8
DATA
100
AcDbText
 10
221.937405971496
 20
87.97222761644455
 30
0.0
 40
2.4
  1
 1
 41
0.7
  7
ROMANS
100
AcDbText
  0
LINE
  5
5DC7
330
1B
100
AcDbEntity
 67
     1
  8
DATA
100
AcDbLine
 10
216.9191207433116
 20
80.02192233476181
 30
0.0
 11
247.4427521142384
 21
80.02192232758998
 31
0.0
  0
LINE
  5
5DC8
330
1B
100
AcDbEntity
 67
     1
  8
DATA
100
AcDbLine
 10
216.9191207514414
 20
85.84678336458097
 30
0.0
 11
247.4427521031851
 21
85.84678335611744
 31
0.0
  0
TEXT
  5
5DC9
330
1B
100
AcDbEntity
 67
     1
  8
DATA
100
AcDbText
 10
233.981977056156
 20
87.8586463176923
 30
0.0
 40
2.4
  1
BRN
 41
0.7
  7
ROMANS
100
AcDbText
  0
TEXT
  5
5DCA
330
1B
100
AcDbEntity
 67
     1
  8
DATA
100
AcDbText
 10
221.937405971496
 20
76.20290005108142
 30
0.0
 40
2.4
  1
 3
 41
0.7
  7
ROMANS
100
AcDbText
  0
TEXT
  5
5DCB
330
1B
100
AcDbEntity
 67
     1
  8
DATA
100
AcDbText
 10
221.937405971496
 20
70.22642888653205
 30
0.0
 40
2.4
  1
 4
 41
0.7
  7
ROMANS
100
AcDbText
  0
LINE
  5
5DCC
330
1B
100
AcDbEntity
 67
     1
  8
DATA
100
AcDbLine
 10
216.9191207336628
 20
74.19706130555848
 30
0.0
 11
247.4427520854066
 21
74.19706129838665
 31
0.0
  0
TEXT
  5
5DCD
330
1B
100
AcDbEntity
 67
     1
  8
DATA
100
AcDbText
 10
233.981977056156
 20
70.11284758777979
 30
0.0
 40
2.4
  1
YEL
 41
0.7
  7
ROMANS
100
AcDbText
  0
TEXT
  5
5DCE
330
1B
100
AcDbEntity
 67
     1
  8
DATA
100
AcDbText
 10
233.981977056156
 20
76.08931875232916
 30
0.0
 40
2.4
  1
RED
 41
0.7
  7
ROMANS
100
AcDbText
  0
LINE
  5
5DCF
330
1B
100
AcDbEntity
 67
     1
  8
DATA
100
AcDbLine
 10
231.4715828426001
 20
99.48463090567621
 30
0.0
 11
231.4715828043713
 21
68.37220050022311
 31
0.0
  0
LINE
  5
5DD0
330
1B
100
AcDbEntity
 67
     1
  8
DATA
100
AcDbLine
 10
231.4715828043713
 20
68.37220050022311
 30
0.0
 11
187.9543181037118
 21
68.37220050022311
 31
0.0
  0
LINE
  5
5DD1
330
1B
100
AcDbEntity
 67
     1
  8
DATA
100
AcDbLine
 10
248.0039931173076
 20
58.19407841709471
 30
0.0
 11
253.3945431164091
 21
58.19407841709471
 31
0.0
  0
LINE
  5
5DD2
330
1B
100
AcDbEntity
 67
     1
  8
DATA
100
AcDbLine
 10
253.3945431164091
 20
44.28174984798457
 30
0.0
 11
248.0039931173076
 21
44.28174984798457
 31
0.0
  0
TEXT
  5
5DD3
330
1B
100
AcDbEntity
 67
     1
  8
DATA
100
AcDbText
 10
234.6343181054318
 20
43.00000007649202
 30
0.0
 40
2.399999999599999
  1
(A\)ORG
 41
0.7
  7
ROMANS
 72
     2
 11
244.9543181037118
 21
43.00000007649202
 31
0.0
100
AcDbText
  0
CIRCLE
  5
5DD4
330
1B
100
AcDbEntity
 67
     1
  8
DATA
100
AcDbCircle
 10
247.533035974529
 20
44.28174984798457
 30
0.0
 40
0.4709571427786491
  0
TEXT
  5
5DD5
330
1B
100
AcDbEntity
 67
     1
  8
DATA
100
AcDbText
 10
236.4743181051251
 20
57.00000007649202
 30
0.0
 40
2.399999999599999
  1
(A)BRN
 41
0.7
  7
ROMANS
 72
     2
 11
244.9543181037118
 21
57.00000007649202
 31
0.0
100
AcDbText
  0
CIRCLE
  5
5DD6
330
1B
100
AcDbEntity
 67
     1
  8
DATA
100
AcDbCircle
 10
247.533035974529
 20
58.19407841709471
 30
0.0
 40
0.4709571427786491
  0
TEXT
  5
5DD7
330
1B
100
AcDbEntity
 67
     1
  8
DATA
100
AcDbText
 10
257.3543181033118
 20
25.4400000779187
 30
0.0
 40
2.399999999599999
  1
(B)RED
 50
90.0
 41
0.7
  7
ROMANS
 72
     2
 11
254.9543181037118
 21
34.00000007649203
 31
0.0
100
AcDbText
 73
     3
  0
TEXT
  5
5DD8
330
1B
100
AcDbEntity
 67
     1
  8
DATA
100
AcDbText
 10
270.3543181033118
 20
24.08000007814536
 30
0.0
 40
2.399999999599999
  1
(B\)YEL
 50
90.0
 41
0.7
  7
ROMANS
 72
     2
 11
267.9543181037118
 21
34.00000007649203
 31
0.0
100
AcDbText
 73
     3
  0
LINE
  5
5DD9
330
1B
100
AcDbEntity
 67
     1
  8
DATA
100
AcDbLine
 10
253.3945431164091
 20
45.67552841918078
 30
0.0
 11
253.3945431164091
 21
44.28174984798457
 31
0.0
  0
ARC
  5
5DDA
330
1B
100
AcDbEntity
 67
     1
  8
DATA
100
AcDbCircle
 10
261.8825931149943
 20
42.03833913407288
 30
0.0
 40
0.7032535713113561
100
AcDbArc
 50
180.0
 51
0.0
  0
LINE
  5
5DDB
330
1B
100
AcDbEntity
 67
     1
  8
DATA
100
AcDbLine
 10
255.6528466874613
 20
36.64778913497139
 30
0.0
 11
255.6528466874613
 21
42.03833913407288
 31
0.0
  0
CIRCLE
  5
5DDC
330
1B
100
AcDbEntity
 67
     1
  8
DATA
100
AcDbCircle
 10
255.6528466874613
 20
36.17683199219277
 30
0.0
 40
0.4709571427786491
  0
LINE
  5
5DDD
330
1B
100
AcDbEntity
 67
     1
  8
DATA
100
AcDbLine
 10
255.6528466874613
 20
42.03833913407288
 30
0.0
 11
256.9193395443933
 21
42.03833913407288
 31
0.0
  0
ARC
  5
5DDE
330
1B
100
AcDbEntity
 67
     1
  8
DATA
100
AcDbCircle
 10
259.0291002583271
 20
42.03833913407288
 30
0.0
 40
0.7032535713113561
100
AcDbArc
 50
180.0
 51
0.0
  0
ARC
  5
5DDF
330
1B
100
AcDbEntity
 67
     1
  8
DATA
100
AcDbCircle
 10
257.6225931157046
 20
42.03833913407288
 30
0.0
 40
0.7032535713113561
100
AcDbArc
 50
180.0
 51
0.0
  0
ARC
  5
5DE0
330
1B
100
AcDbEntity
 67
     1
  8
DATA
100
AcDbCircle
 10
260.4356074009497
 20
42.03833913407288
 30
0.0
 40
0.7032535713113561
100
AcDbArc
 50
180.0
 51
0.0
  0
LINE
  5
5DE1
330
1B
100
AcDbEntity
 67
     1
  8
DATA
100
AcDbLine
 10
269.6075609708501
 20
42.03833913407288
 30
0.0
 11
269.6075609708501
 21
36.64778913497139
 31
0.0
  0
CIRCLE
  5
5DE2
330
1B
100
AcDbEntity
 67
     1
  8
DATA
100
AcDbCircle
 10
269.6075609708501
 20
36.17683199219277
 30
0.0
 40
0.4709571427786491
  0
ARC
  5
5DE3
330
1B
100
AcDbEntity
 67
     1
  8
DATA
100
AcDbCircle
 10
267.5105288283421
 20
42.03833913407288
 30
0.0
 40
0.7032535713113561
100
AcDbArc
 50
180.0
 51
0.0
  0
ARC
  5
5DE4
330
1B
100
AcDbEntity
 67
     1
  8
DATA
100
AcDbCircle
 10
264.6975145430968
 20
42.03833913407288
 30
0.0
 40
0.7032535713113561
100
AcDbArc
 50
180.0
 51
0.0
  0
ARC
  5
5DE5
330
1B
100
AcDbEntity
 67
     1
  8
DATA
100
AcDbCircle
 10
263.2891002576171
 20
42.03833913407288
 30
0.0
 40
0.7032535713113561
100
AcDbArc
 50
180.0
 51
0.0
  0
ARC
  5
5DE6
330
1B
100
AcDbEntity
 67
     1
  8
DATA
100
AcDbCircle
 10
266.1040216857196
 20
42.03833913407288
 30
0.0
 40
0.7032535713113561
100
AcDbArc
 50
180.0
 51
0.0
  0
LINE
  5
5DE7
330
1B
100
AcDbEntity
 67
     1
  8
DATA
100
AcDbLine
 10
268.2137823996541
 20
42.03833913407288
 30
0.0
 11
269.6075609708501
 21
42.03833913407288
 31
0.0
  0
CIRCLE
  5
5DE8
330
1B
100
AcDbEntity
 67
     1
  8
DATA
100
AcDbCircle
 10
262.4045331149075
 20
51.02372056114677
 30
0.0
 40
6.338828570372099
  0
ARC
  5
5DE9
330
1B
100
AcDbEntity
 67
     1
  8
DATA
100
AcDbCircle
 10
253.3945431164091
 20
52.00481056098335
 30
0.0
 40
0.7032535713113561
100
AcDbArc
 50
90.0
 51
270.0
  0
ARC
  5
5DEA
330
1B
100
AcDbEntity
 67
     1
  8
DATA
100
AcDbCircle
 10
253.3945431164091
 20
49.19179627573785
 30
0.0
 40
0.7032535713113561
100
AcDbArc
 50
90.0
 51
270.0
  0
ARC
  5
5DEB
330
1B
100
AcDbEntity
 67
     1
  8
DATA
100
AcDbCircle
 10
253.3945431164091
 20
46.37878199049228
 30
0.0
 40
0.7032535713113561
100
AcDbArc
 50
90.0
 51
270.0
  0
ARC
  5
5DEC
330
1B
100
AcDbEntity
 67
     1
  8
DATA
100
AcDbCircle
 10
253.3945431164091
 20
47.78528913311506
 30
0.0
 40
0.7032535713113561
100
AcDbArc
 50
90.0
 51
270.0
  0
ARC
  5
5DED
330
1B
100
AcDbEntity
 67
     1
  8
DATA
100
AcDbCircle
 10
253.3945431164091
 20
50.59830341836057
 30
0.0
 40
0.7032535713113561
100
AcDbArc
 50
90.0
 51
270.0
  0
ARC
  5
5DEE
330
1B
100
AcDbEntity
 67
     1
  8
DATA
100
AcDbCircle
 10
253.3945431164091
 20
56.22433198885141
 30
0.0
 40
0.7032535713113561
100
AcDbArc
 50
90.0
 51
270.0
  0
ARC
  5
5DEF
330
1B
100
AcDbEntity
 67
     1
  8
DATA
100
AcDbCircle
 10
253.3945431164091
 20
53.41131770360607
 30
0.0
 40
0.7032535713113561
100
AcDbArc
 50
90.0
 51
270.0
  0
ARC
  5
5DF0
330
1B
100
AcDbEntity
 67
     1
  8
DATA
100
AcDbCircle
 10
253.3945431164091
 20
54.81782484622885
 30
0.0
 40
0.7032535713113561
100
AcDbArc
 50
90.0
 51
270.0
  0
LINE
  5
5DF1
330
1B
100
AcDbEntity
 67
     1
  8
DATA
100
AcDbLine
 10
253.3945431164091
 20
58.19407841709471
 30
0.0
 11
253.3945431164091
 21
56.92758556016292
 31
0.0
  0
TEXT
  5
5DF2
330
1B
100
AcDbEntity
 67
     1
  8
DATA
100
AcDbText
 10
249.6738000081093
 20
61.34556070180178
 30
0.0
 40
2.5
  1
WIRING DIAGRAM
 41
0.7
  7
ROMANS
100
AcDbText
  0
TEXT
  5
610F
330
1B
100
AcDbEntity
 67
     1
  8
DATA
100
AcDbText
 10
189.4634543457442
 20
17.05999183728654
 30
0.0
 40
2.509907399999999
  1
26.02.07
 41
0.7
  7
ROMANS
100
AcDbText
  0
TEXT
  5
6110
330
1B
100
AcDbEntity
 67
     1
  8
DATA
100
AcDbText
 10
175.6829051118027
 20
16.86719000998262
 30
0.0
 40
3.0
  1
S.Ha.
  7
ITALICT
100
AcDbText
  0
TEXT
  5
6198
330
1B
100
AcDbEntity
 67
     1
  8
DATA
100
AcDbText
 10
72.81931794091391
 20
7.368780999737087
 30
0.0
 40
2.896047
  1
J.W.
 41
0.7
  7
ROMANS
100
AcDbText
  0
TEXT
  5
6199
330
1B
100
AcDbEntity
 67
     1
  8
DATA
100
AcDbText
 10
54.00518497335647
 20
7.368780999737087
 30
0.0
 40
2.896047
  1
30.04.08
 41
0.7
  7
ROMANS
100
AcDbText
  0
TEXT
  5
619A
330
1B
100
AcDbEntity
 67
     1
  8
DATA
100
AcDbText
 10
13.7104840170518
 20
7.368780999737087
 30
0.0
 40
2.896047
  1
DATA CORRECTION
 41
0.7
  7
ROMANS
100
AcDbText
  0
TEXT
  5
619B
330
1B
100
AcDbEntity
 67
     1
  8
DATA
100
AcDbText
 10
7.053771428140292
 20
7.368780999737087
 30
0.0
 40
2.896047
  1
1
 41
0.7
  7
ROMANS
 72
     2
 11
8.115655328140292
 21
7.368780999737087
 31
0.0
100
AcDbText
  0
LWPOLYLINE
  5
651E
330
1B
100
AcDbEntity
 67
     1
  8
DIM
100
AcDbPolyline
 90
        3
 70
     1
 43
0.0
 10
96.79797158713352
 20
86.00838382427113
 10
94.71951061805086
 20
82.40838382427114
 10
98.87643255621618
 20
82.40838382427114
  0
TEXT
  5
651F
330
1B
100
AcDbEntity
 67
     1
  8
DATA
100
AcDbText
 10
95.98958060340089
 20
82.6783776843971
 30
0.0
 40
2.399999999999999
  1
1
 41
0.8
  7
ROMANS
100
AcDbText
  0
INSERT
  5
656E
330
1B
100
AcDbEntity
 67
     1
  8
0
100
AcDbBlockReference
  2
Step-Phase
 10
177.1261104891189
 20
26.64382673505122
 30
0.0
  0
ENDSEC
  0
SECTION
  2
OBJECTS
  0
DICTIONARY
  5
C
330
0
100
AcDbDictionary
281
     1
  3
ACAD_2007HEADERVARS_RT
350
65ED
  3
ACAD_COLOR
350
BE
  3
ACAD_GROUP
350
D
  3
ACAD_LAYOUT
350
1A
  3
ACAD_MATERIAL
350
BD
  3
ACAD_MLEADERSTYLE
350
617A
  3
ACAD_MLINESTYLE
350
17
  3
ACAD_PLOTSETTINGS
350
19
  3
ACAD_PLOTSTYLENAME
350
E
  3
ACAD_SCALELIST
350
6158
  3
ACAD_TABLESTYLE
350
11A
  3
ACAD_VISUALSTYLE
350
6147
  3
AcadDim
350
2E5B
  3
AcAmCatalogState
350
10E
  3
ACDB_RECOMPOSE_DATA
350
65EB
  3
AcDbVariableDictionary
350
94
  3
ACDMSYSVARMGR
350
D0
  3
ACGREF_MASTER
350
55
  3
ACGREFACAD_MASTER
350
59
  3
AcmDictionary
350
5B
  3
ACME_BOM_MANAGER_NAME
350
4E
  3
ACME_COMMAND_HISTORY
350
49
  3
ACME_SCOPE_NAME
350
48
  3
ACMESTATEMGR
350
53
  3
AcmeSysVarManager
350
4A
  3
AcmSystemVariableManager
350
5F
  3
AD_APPL
350
FA
  3
ADSYSVARMGR
350
F9
  3
AmdtNamedDwgMgr
350
ED
  3
AMG
350
41
  3
AMGSNAPSETTINGS
350
26B
  3
AMI_MASTER
350
5A
  3
AUTOCAD_ASSEMBLIES_PROJECT
350
102
  3
Designer_Assemblies_SysVars
350
FD
  3
DWGPROPS
350
65EC
  3
GREFAM_MODULE
350
F3
  0
DICTIONARY
  5
2F5
330
2
100
AcDbDictionary
280
     1
281
     1
  3
ACAD_LAYERFILTERS
360
63BB
  3
ACAD_LAYERSTATES
360
2F6
  3
ACLYDICTIONARY
360
63BA
  3
AMLAYER_GROUPCOLORS
360
554A
  0
DICTIONARY
  5
656F
330
10
100
AcDbDictionary
280
     1
281
     1
  3
ADSK_XREC_LAYER_RECONCILED
360
6570
  0
DICTIONARY
  5
6571
330
3BE
100
AcDbDictionary
280
     1
281
     1
  3
ADSK_XREC_LAYER_RECONCILED
360
6572
  0
DICTIONARY
  5
6573
330
3BF
100
AcDbDictionary
280
     1
281
     1
  3
ADSK_XREC_LAYER_RECONCILED
360
6574
  0
DICTIONARY
  5
6575
330
3C0
100
AcDbDictionary
280
     1
281
     1
  3
ADSK_XREC_LAYER_RECONCILED
360
6576
  0
DICTIONARY
  5
6577
330
3C1
100
AcDbDictionary
280
     1
281
     1
  3
ADSK_XREC_LAYER_RECONCILED
360
6578
  0
DICTIONARY
  5
6579
330
3C3
100
AcDbDictionary
280
     1
281
     1
  3
ADSK_XREC_LAYER_RECONCILED
360
657A
  0
DICTIONARY
  5
657B
330
61DC
100
AcDbDictionary
280
     1
281
     1
  3
ADSK_XREC_LAYER_RECONCILED
360
657C
  0
DICTIONARY
  5
65E9
330
65E7
100
AcDbDictionary
280
     1
281
     1
  3
ASDK_XREC_ANNO_SCALE_INFO
360
65EA
  0
DICTIONARY
  5
8F
330
1F
100
AcDbDictionary
280
     1
281
     1
  3
ACAD_SORTENTS
360
53A3
  0
DICTIONARY
  5
2D9F
330
1B
100
AcDbDictionary
280
     1
281
     1
  3
ACAD_SORTENTS
360
2DA0
  0
DICTIONARY
  5
64A9
330
61DE
100
AcDbDictionary
280
     1
281
     1
  3
ACAD_SORTENTS
360
64B6
  3
AcDbBlockTableRecordData
360
65FE
  0
DICTIONARY
  5
640E
330
62C3
100
AcDbDictionary
280
     1
281
     1
  3
ACAD_SORTENTS
360
641B
  3
AcDbBlockTableRecordData
360
6604
  0
DICTIONARY
  5
656A
330
653A
100
AcDbDictionary
280
     1
281
     1
  3
ACAD_SORTENTS
360
656B
  3
AcDbBlockTableRecordData
360
6610
  0
DICTIONARY
  5
660A
330
6470
100
AcDbDictionary
280
     1
281
     1
  3
ACAD_MTEXT_RT
360
660B
  0
DICTIONARY
  5
660E
330
652D
100
AcDbDictionary
280
     1
281
     1
  3
ACAD_MTEXT_RT
360
660F
  0
DICTIONARY
  5
64A1
330
64A0
100
AcDbDictionary
280
     1
281
     1
  3
ACAD_DIMASSOC
360
64A2
  0
DICTIONARY
  5
63C0
330
63BF
100
AcDbDictionary
280
     1
281
     1
  3
AcDbContextDataManager
360
63C1
  0
DICTIONARY
  5
640A
330
6409
100
AcDbDictionary
280
     1
281
     1
  3
ACAD_DIMASSOC
360
640B
  3
AcDbContextDataManager
360
640C
  0
DICTIONARY
  5
6608
330
6447
100
AcDbDictionary
280
     1
281
     1
  3
ACAD_MTEXT_RT
360
6609
  0
DICTIONARY
  5
660C
330
64D3
100
AcDbDictionary
280
     1
281
     1
  3
ACAD_MTEXT_RT
360
660D
  0
DICTIONARY
  5
620E
330
620D
100
AcDbDictionary
280
     1
281
     1
  3
AcDbContextDataManager
360
620F
  0
DICTIONARY
  5
6318
330
6317
100
AcDbDictionary
280
     1
281
     1
  3
AcDbContextDataManager
360
6319
  0
DICTIONARY
  5
65F3
330
2D8
100
AcDbDictionary
280
     1
281
     1
  3
ACAD_XREC_ROUNDTRIP
360
65F4
  0
DICTIONARY
  5
65F5
330
1E55
100
AcDbDictionary
280
     1
281
     1
  3
ACAD_XREC_ROUNDTRIP
360
65F6
  0
DICTIONARY
  5
65ED
102
{ACAD_REACTORS
330
C
102
}
330
C
100
AcDbDictionary
281
     1
  3
DIMARCSYM
350
65EE
  0
DICTIONARY
  5
BE
102
{ACAD_REACTORS
330
C
102
}
330
C
100
AcDbDictionary
281
     1
  0
DICTIONARY
  5
D
102
{ACAD_REACTORS
330
C
102
}
330
C
100
AcDbDictionary
281
     1
  0
DICTIONARY
  5
1A
102
{ACAD_REACTORS
330
C
102
}
330
C
100
AcDbDictionary
281
     1
  3
Layout1
350
1E
  3
Model
350
22
  0
DICTIONARY
  5
BD
102
{ACAD_REACTORS
330
C
102
}
330
C
100
AcDbDictionary
281
     1
  3
ByBlock
350
6137
  3
ByLayer
350
612F
  3
Global
350
613F
  0
DICTIONARY
  5
617A
102
{ACAD_REACTORS
330
C
102
}
330
C
100
AcDbDictionary
281
     1
  3
Standard
350
617B
  0
DICTIONARY
  5
17
102
{ACAD_REACTORS
330
C
102
}
330
C
100
AcDbDictionary
281
     1
  3
Standard
350
18
  0
DICTIONARY
  5
19
102
{ACAD_REACTORS
330
C
102
}
330
C
100
AcDbDictionary
281
     1
  0
ACDBDICTIONARYWDFLT
  5
E
102
{ACAD_REACTORS
330
C
102
}
330
C
100
AcDbDictionary
281
     1
  3
Normal
350
F
100
AcDbDictionaryWithDefault
340
F
  0
DICTIONARY
  5
6158
102
{ACAD_REACTORS
330
C
102
}
330
C
100
AcDbDictionary
281
     1
  3
A0
350
6159
  3
A1
350
615A
  3
A2
350
615B
  3
A3
350
615C
  3
A4
350
615D
  3
A5
350
615E
  3
A6
350
615F
  3
A7
350
6160
  3
A8
350
6161
  3
A9
350
6162
  3
B0
350
6163
  3
B1
350
6164
  3
B2
350
6165
  3
B3
350
6166
  3
B4
350
6167
  3
B5
350
6168
  3
B6
350
6169
  3
B7
350
616A
  3
B8
350
616B
  3
B9
350
616C
  3
C0
350
616D
  3
C1
350
616E
  3
C2
350
616F
  3
C3
350
6170
  3
C4
350
6171
  3
C5
350
6172
  3
C6
350
6173
  3
C7
350
6174
  3
C8
350
6175
  3
C9
350
6176
  3
D0
350
6177
  3
D1
350
6178
  3
D2
350
6179
  0
DICTIONARY
  5
11A
102
{ACAD_REACTORS
330
C
102
}
330
C
100
AcDbDictionary
281
     1
  3
Standard
350
11B
  0
DICTIONARY
  5
6147
102
{ACAD_REACTORS
330
C
102
}
330
C
100
AcDbDictionary
281
     1
  3
2dWireframe
350
614D
  3
3D Hidden
350
614F
  3
3dWireframe
350
614E
  3
Basic
350
614C
  3
Brighten
350
6153
  3
ColorChange
350
6157
  3
Conceptual
350
6150
  3
Dim
350
6152
  3
Facepattern
350
6156
  3
Flat
350
6148
  3
FlatWithEdges
350
6149
  3
Gouraud
350
614A
  3
GouraudWithEdges
350
614B
  3
Linepattern
350
6155
  3
Realistic
350
6151
  3
Thicken
350
6154
  0
XRECORD
  5
2E5B
102
{ACAD_REACTORS
330
C
102
}
330
C
100
AcDbXrecord
280
     1
 90
   990106
  3

 60
     0
 61
     0
 62
     1
 63
     3
 64
     0
 65
     0
 66
     0
 67
     3
 68
     1
 69
     0
 70
     0
 71
     0
 72
     0
 40
0.0
170
     0
340
2E0B
  0
ACAD_PROXY_OBJECT
  5
10E
102
{ACAD_REACTORS
330
C
102
}
330
C
100
AcDbProxyObject
 90
      499
 91
      568
 95
       25
 70
     0
 93
      632
310
3FFFFFFFE00A02814029B219D2E283937B3B930B6902334B632B9AE20BABA37B232B9B5AE20B1B0B2369B971817199C971C2E20B1B0B236AE2A32B6B83630BA32C0081014020800BEC04A408FEFD0800
 94
        0
1001
ACAD
1000
AcRTDxfName
1000
CATALOGSTATE
1000
AcRTDxfName
1000
CATALOGSTATE
  0
XRECORD
  5
65EB
102
{ACAD_REACTORS
330
C
102
}
330
C
100
AcDbXrecord
280
     1
 90
        1
330
11B
330
620D
330
6317
  0
DICTIONARY
  5
94
102
{ACAD_REACTORS
330
C
102
}
330
C
100
AcDbDictionary
281
     1
  3
CANNOSCALE
350
65E3
  3
CMLEADERSTYLE
350
65E2
  3
CTABLESTYLE
350
138
  3
DIMASSOC
350
96
  3
INDEXCTL
350
95
  3
PROJECTNAME
350
1B03
  3
SORTENTS
350
65E4
  0
ACAD_PROXY_OBJECT
  5
D0
102
{ACAD_REACTORS
330
C
102
}
330
C
100
AcDbProxyObject
 90
      499
 91
      507
 95
       25
 70
     0
 93
      240
310
4C51A47A000000000000000000000000000000000000000000000000000018
330
D1
330
D2
330
D3
330
D4
330
D5
330
D6
330
D7
330
DA
330
DB
330
DC
330
DD
330
DE
330
DF
330
E0
330
E1
330
E2
330
E3
330
E4
330
E5
330
E6
330
E7
330
E8
330
E9
330
EA
330
EB
330
EC
 94
        0
1001
ACAD
1000
AcRTDxfName
1000
ACIMSYSVARMAN
1000
AcRTDxfName
1000
ACIMSYSVARMAN
  0
ACAD_PROXY_OBJECT
  5
55
102
{ACAD_REACTORS
330
C
102
}
330
C
100
AcDbProxyObject
 90
      499
 91
      516
 95
       25
 70
     0
 93
       34
310
04000042BF
 94
        0
1001
ACAD
1000
AcRTDxfName
1000
ACGREFMASTER
1000
AcRTDxfName
1000
ACGREFMASTER
  0
ACAD_PROXY_OBJECT
  5
59
102
{ACAD_REACTORS
330
C
102
}
330
C
100
AcDbProxyObject
 90
      499
 91
      519
 95
       25
 70
     0
 93
      114
310
04000041C08000000000000000003F
 94
        0
1001
ACAD
1000
AcRTDxfName
1000
ACGREFACADMASTER
1000
AcRTDxfName
1000
ACGREFACADMASTER
  0
DICTIONARY
  5
5B
102
{ACAD_REACTORS
330
C
102
}
330
C
100
AcDbDictionary
281
     1
  3
AcmBOM
350
272
  3
AcmBOMDATA
350
5C
  3
AcmStdDictionary
350
61
  3
AMDTSECTSYM_ARROWCOLOR
350
123
  0
ACAD_PROXY_OBJECT
  5
4E
102
{ACAD_REACTORS
330
C
102
}
330
C
100
AcDbProxyObject
 90
      499
 91
      510
 95
       25
 70
     0
 93
       50
310
0001004040003F
330
0
330
0
330
4F
 94
        0
1001
ACAD
1000
AcRTDxfName
1000
ACMEDRAWINGMAN
1000
AcRTDxfName
1000
ACMEDRAWINGMAN
  0
ACAD_PROXY_OBJECT
  5
49
102
{ACAD_REACTORS
330
C
102
}
330
C
100
AcDbProxyObject
 90
      499
 91
      506
 95
       25
 70
     0
 93
     7040
310
478050E4C41594F55545F434F4E54524F4C80505515341564540805314D5347202D205050413A2020206465736B746F702E6172782046696C6556657273696F6E3A2031302E302E35332E313030014C5354D1C80B481414104E88080819195CDADD1BDC0B985C9E08119A5B1955995C9CDA5BDB8E880C4C0B8C0B8D4CCB8C4
310
C0C0050E4C41594F55545F434F4E54524F4C8050E4C41594F55545F434F4E54524F4C80505515341564540405314D5347202D205050413A2020206465736B746F702E6172782046696C6556657273696F6E3A2031302E302E35332E313030014390535115149154D15511109353D1102014213880B4815539113C05084E202
310
D20554E444F014115539113E014115539113E014393105653D55517D0D3D3951493D32014393105653D55517D0D3D3951493D320142111493D411D153D360142111493D411D153D3601415454D05591501014C5354D1C80B481414104E88080819195CDADD1BDC0B985C9E08119A5B1955995C9CDA5BDB8E880C4C0B8C0B8D
310
4CCB8C4C0C00504504C4F5480505434C4F534540405314D5347202D205050413A2020206465736B746F702E6172782046696C6556657273696F6E3A2031302E302E35332E313030014390535115149154D15511109353D1102014213880B4815539113C05084E202D20554E444F014115539113E014115539113E014254105
310
4D51150D312542014191111151125510101461354D1C80B4810DBDB5B585B990810D05390D1531311510B80505515341564540405314D5347202D205050413A2020206465736B746F702E6172782046696C6556657273696F6E3A2031302E302E35332E313030014393105653D55517D0D3D3951493D32014393105653D555
310
17D0D3D3951493D3201419354D41050D160140D41053A01419414D41050D1501014C5354D1C80B481414104E88080819195CDADD1BDC0B985C9E08119A5B1955995C9CDA5BDB8E880C4C0B8C0B8D4CCB8C4C0C0050644444544495440405184D5347202D20436F6D6D616E642043414E43454C4C45442E01415454D0559150
310
1014C5354D1C80B481414104E88080819195CDADD1BDC0B985C9E08119A5B1955995C9CDA5BDB8E880C4C0B8C0B8D4CCB8C4C0C00504504C4F5480505515341564540405314D5347202D205050413A2020206465736B746F702E6172782046696C6556657273696F6E3A2031302E302E35332E31303000
 94
        0
1001
ACAD
1000
AcRTDxfName
1000
ACMECOMMANDHISTORY
1000
AcRTDxfName
1000
ACMECOMMANDHISTORY
  0
ACAD_PROXY_OBJECT
  5
48
102
{ACAD_REACTORS
330
C
102
}
330
C
100
AcDbProxyObject
 90
      499
 91
      505
 95
       25
 70
     0
 93
      570
310
0A000048008000000000000000001324DA0000000000000000000000000000000000000000000000000000000000000000000000000000000000000000000000000000AAA406AABF
360
4B
360
4C
360
4D
360
4F
360
60
360
C9
360
CA
360
CB
360
CC
360
D1
360
D2
360
D3
360
D4
360
D5
360
D6
360
D7
360
DA
360
DB
360
DC
360
DD
360
DE
360
DF
360
E0
360
E1
360
E2
360
E3
360
E4
360
E5
360
E6
360
E7
360
E8
360
E9
360
EA
360
EB
360
EC
360
F5
360
F6
360
F7
360
F8
360
FE
360
FF
360
100
360
101
360
106
360
107
360
108
360
109
360
10A
360
10B
360
4E56
 94
        0
1001
ACAD
1000
AcRTDxfName
1000
ACMESCOPE
1000
AcRTDxfName
1000
ACMESCOPE
  0
ACAD_PROXY_OBJECT
  5
53
102
{ACAD_REACTORS
330
C
102
}
330
C
100
AcDbProxyObject
 90
      499
 91
      515
 95
       25
 70
     0
 93
       50
310
0A000042A412BF
 94
        0
1001
ACAD
1000
AcRTDxfName
1000
ACMESTATEMGR
1000
AcRTDxfName
1000
ACMESTATEMGR
  0
ACAD_PROXY_OBJECT
  5
4A
102
{ACAD_REACTORS
330
C
102
}
330
C
100
AcDbProxyObject
 90
      499
 91
      507
 95
       25
 70
     0
 93
       48
310
90341200000000
330
4B
330
4C
330
4D
 94
        0
1001
ACAD
1000
AcRTDxfName
1000
ACIMSYSVARMAN
1000
AcRTDxfName
1000
ACIMSYSVARMAN
  0
ACAD_PROXY_OBJECT
  5
5F
102
{ACAD_REACTORS
330
C
102
}
330
C
100
AcDbProxyObject
 90
      499
 91
      507
 95
       25
 70
     0
 93
       40
310
90240E00007C
330
60
330
4E56
 94
        0
1001
ACAD
1000
AcRTDxfName
1000
ACIMSYSVARMAN
1000
AcRTDxfName
1000
ACIMSYSVARMAN
  0
ACAD_PROXY_OBJECT
  5
FA
102
{ACAD_REACTORS
330
C
102
}
330
C
100
AcDbProxyObject
 90
      499
 91
      557
 95
       25
 70
     0
 93
       42
310
00090000407F
330
F5
 94
        0
1001
ACAD
1000
AcRTDxfName
1000
NAMEDAPPL
1000
AcRTDxfName
1000
NAMEDAPPL
  0
ACAD_PROXY_OBJECT
  5
F9
102
{ACAD_REACTORS
330
C
102
}
330
C
100
AcDbProxyObject
 90
      499
 91
      507
 95
       25
 70
     0
 93
        8
310
AA7D
 94
        0
1001
ACAD
1000
AcRTDxfName
1000
ACIMSYSVARMAN
1000
AcRTDxfName
1000
ACIMSYSVARMAN
  0
ACAD_PROXY_OBJECT
  5
ED
102
{ACAD_REACTORS
330
C
102
}
330
C
100
AcDbProxyObject
 90
      499
 91
      548
 95
       25
 70
     0
 93
       42
310
000100005EBF
330
C9
 94
        0
1001
ACAD
1000
AcRTDxfName
1000
AM_DWGMGR_NAME
1000
AcRTDxfName
1000
AM_DWGMGR_NAME
  0
DICTIONARY
  5
41
102
{ACAD_REACTORS
330
C
102
}
330
C
100
AcDbDictionary
281
     1
  3
AcMgSettings
350
42
  3
AMGLAYCFG
350
63
  0
DICTIONARY
  5
26B
102
{ACAD_REACTORS
330
C
102
}
330
C
100
AcDbDictionary
281
     1
  3
DIMENSION
350
270
  3
FEA
350
26F
  3
HATCH (1)
350
26C
  3
HATCH (2)
350
26D
  3
SIMPLE WELD
350
271
  3
SYMBOLS
350
26E
  0
ACAD_PROXY_OBJECT
  5
5A
102
{ACAD_REACTORS
330
C
102
}
330
C
100
AcDbProxyObject
 90
      499
 91
      520
 95
       25
 70
     0
 93
       34
310
05000042BF
 94
        0
1001
ACAD
1000
AcRTDxfName
1000
AMIMASTER
1000
AcRTDxfName
1000
AMIMASTER
  0
ACAD_PROXY_OBJECT
  5
102
102
{ACAD_REACTORS
330
C
102
}
330
C
100
AcDbProxyObject
 90
      499
 91
      560
 95
       25
 70
     0
 93
       98
310
0A00004FC0000000000000003F
330
109
330
0
330
10A
330
0
330
0
330
0
330
0
330
0
 94
        0
1001
ACAD
1000
AcRTDxfName
1000
ACAMPROJECT
1000
AcRTDxfName
1000
ACAMPROJECT
  0
ACAD_PROXY_OBJECT
  5
FD
102
{ACAD_REACTORS
330
C
102
}
330
C
100
AcDbProxyObject
 90
      499
 91
      507
 95
       25
 70
     0
 93
       56
310
90441600000000CC
330
FE
330
FF
330
100
330
101
 94
        0
1001
ACAD
1000
AcRTDxfName
1000
ACIMSYSVARMAN
1000
AcRTDxfName
1000
ACIMSYSVARMAN
  0
XRECORD
  5
65EC
102
{ACAD_REACTORS
330
C
102
}
330
C
100
AcDbXrecord
280
     1
  1
DWGPROPS COOKIE
  2

  3

  4

  6

  7

  8
wei_j
  9

300
AmdtFileType=84
301
=
302
=
303
=
304
=
305
=
306
=
307
=
308
=
309
=
 40
1.710033946759259
 41
2453787.436149942
 42
2454587.45329081
  1

 90
        1
  0
ACAD_PROXY_OBJECT
  5
F3
102
{ACAD_REACTORS
330
C
102
}
330
C
100
AcDbProxyObject
 90
      499
 91
      551
 95
       25
 70
     0
 93
        8
310
057D
 94
        0
1001
ACAD
1000
AcRTDxfName
1000
MAPIAMMOUDLE
1000
AcRTDxfName
1000
MAPIAMMOUDLE
  0
DICTIONARY
  5
63BB
102
{ACAD_REACTORS
330
2F5
102
}
330
2F5
100
AcDbDictionary
281
     1
  0
DICTIONARY
  5
2F6
102
{ACAD_REACTORS
330
2F5
102
}
330
2F5
100
AcDbDictionary
281
     1
  0
DICTIONARY
  5
63BA
102
{ACAD_REACTORS
330
2F5
102
}
330
2F5
100
AcDbDictionary
281
     1
1001
ACAD
1000
<All
  0
DICTIONARY
  5
554A
102
{ACAD_REACTORS
330
2F5
102
}
330
2F5
100
AcDbDictionary
280
     1
281
     1
  0
XRECORD
  5
6570
102
{ACAD_REACTORS
330
656F
102
}
330
656F
100
AcDbXrecord
280
     1
290
     1
  0
XRECORD
  5
6572
102
{ACAD_REACTORS
330
6571
102
}
330
6571
100
AcDbXrecord
280
     1
290
     1
  0
XRECORD
  5
6574
102
{ACAD_REACTORS
330
6573
102
}
330
6573
100
AcDbXrecord
280
     1
290
     1
  0
XRECORD
  5
6576
102
{ACAD_REACTORS
330
6575
102
}
330
6575
100
AcDbXrecord
280
     1
290
     1
  0
XRECORD
  5
6578
102
{ACAD_REACTORS
330
6577
102
}
330
6577
100
AcDbXrecord
280
     1
290
     1
  0
XRECORD
  5
657A
102
{ACAD_REACTORS
330
6579
102
}
330
6579
100
AcDbXrecord
280
     1
290
     1
  0
XRECORD
  5
657C
102
{ACAD_REACTORS
330
657B
102
}
330
657B
100
AcDbXrecord
280
     1
290
     1
  0
XRECORD
  5
65EA
102
{ACAD_REACTORS
330
65E9
102
}
330
65E9
100
AcDbXrecord
280
     1
 70
     1
340
6159
340
10
 70
    -1
  0
SORTENTSTABLE
  5
53A3
102
{ACAD_REACTORS
330
8F
102
}
330
8F
100
AcDbSortentsTable
330
1F
331
4050
  5
4059
331
4019
  5
4019
331
4058
  5
4061
331
4060
  5
4069
331
4068
  5
4071
331
4070
  5
4079
331
4078
  5
4081
331
4080
  5
4089
331
4051
  5
405A
331
401A
  5
401A
331
4059
  5
4062
331
4069
  5
4072
331
4071
  5
407A
331
4079
  5
4082
331
4081
  5
408A
331
4052
  5
405B
331
401B
  5
401B
331
405A
  5
4063
331
4062
  5
406C
331
406A
  5
4073
331
4033
  5
403A
331
4082
  5
408B
331
4053
  5
405C
331
401C
  5
401C
331
40D9
  5
53B8
331
405B
  5
4064
331
4063
  5
406D
331
406B
  5
4075
331
4034
  5
403B
331
4083
  5
408C
331
404C
  5
4055
331
4054
  5
405D
331
405C
  5
4065
331
4025
  5
402B
331
4064
  5
406E
331
406C
  5
4076
331
4035
  5
403C
331
404D
  5
4056
331
4016
  5
4016
331
408C
  5
4095
331
4055
  5
405E
331
405D
  5
4066
331
13FA
  5
13FA
331
4065
  5
406F
331
40A4
  5
40BA
331
406D
  5
4077
331
4036
  5
403D
331
4075
  5
407E
331
407D
  5
4086
331
404E
  5
4057
331
4017
  5
4017
331
4056
  5
405F
331
405E
  5
4067
331
406E
  5
4078
331
4037
  5
4040
331
4076
  5
407F
331
407E
  5
4087
331
404F
  5
4058
331
4018
  5
4018
331
4057
  5
4060
331
405F
  5
4068
331
4067
  5
4070
331
4077
  5
4080
331
407F
  5
4088
  0
SORTENTSTABLE
  5
2DA0
102
{ACAD_REACTORS
330
2D9F
102
}
330
2D9F
100
AcDbSortentsTable
330
1B
331
1A0B
  5
1A0B
331
12AD
  5
12AD
331
19D4
  5
19D4
331
12B5
  5
12B5
331
2CEB
  5
2CEB
331
19DC
  5
19DC
331
1A1B
  5
1A1B
331
19E4
  5
19E4
331
19EC
  5
19EC
331
2D8
  5
2D8
331
19F4
  5
19F4
331
1296
  5
1296
331
19BD
  5
19BD
331
129E
  5
129E
331
19C5
  5
19C5
331
12A6
  5
12A6
331
1A04
  5
1A04
331
1A0C
  5
1A0C
331
19D5
  5
19D5
331
12B6
  5
12B6
331
19DD
  5
19DD
331
1A1C
  5
1A1C
331
1E55
  5
1E55
331
19ED
  5
19ED
331
19F5
  5
19F5
331
1297
  5
1297
331
2D94
  5
2D94
331
19FD
  5
19FD
331
129F
  5
129F
331
19C6
  5
19C6
331
12A7
  5
12A7
331
1A05
  5
1A05
331
1A0D
  5
1A0D
331
12B7
  5
12B7
331
19D6
  5
19D6
331
19DE
  5
19DE
331
1A1D
  5
1A1D
331
2D6D
  5
2D6D
331
1290
  5
1290
331
2D95
  5
2D95
331
12A0
  5
12A0
331
19BF
  5
19BF
331
19C7
  5
19C7
331
1A06
  5
1A06
331
12A8
  5
12A8
331
1A0E
  5
1A0E
331
12B8
  5
12B8
331
19D7
  5
19D7
331
1A16
  5
1A16
331
19DF
  5
19DF
331
1A1E
  5
1A1E
331
1291
  5
1291
331
1708
  5
1708
331
19EF
  5
19EF
331
2D96
  5
2D96
331
1299
  5
1299
331
19F7
  5
19F7
331
2CB7
  5
2CB7
331
2D9E
  5
2D99
331
19C0
  5
19C0
331
19FF
  5
19FF
331
2CBF
  5
2CBF
331
1A07
  5
1A07
331
12A9
  5
12A9
331
19C8
  5
19C8
331
12B1
  5
12B1
331
1A0F
  5
1A0F
331
19D8
  5
19D8
331
1A17
  5
1A17
331
19E0
  5
19E0
331
1A1F
  5
1A1F
331
19F0
  5
19F0
331
1A21
  5
1A21
331
129A
  5
129A
331
2D97
  5
2D97
331
12A2
  5
12A2
331
19C1
  5
19C1
331
1A00
  5
1A00
331
12AA
  5
12AA
331
19C9
  5
19C9
331
1A08
  5
1A08
331
12B2
  5
12B2
331
19D1
  5
19D1
331
1A10
  5
1A10
331
12BA
  5
12BA
331
19D9
  5
19D9
331
1A18
  5
1A18
331
19E1
  5
19E1
331
2D70
  5
2D70
331
19E9
  5
19E9
331
19F1
  5
19F1
331
1A22
  5
1A22
331
129B
  5
129B
331
19F9
  5
19F9
331
2D98
  5
2D98
331
12A3
  5
12A3
331
19C2
  5
19C2
331
1A01
  5
1A01
331
1A6A
  5
1A6A
331
12AB
  5
12AB
331
1A09
  5
1A09
331
12B3
  5
12B3
331
19D2
  5
19D2
331
1A11
  5
1A11
331
1A19
  5
1A19
331
2D71
  5
2D71
331
19EA
  5
19EA
331
1294
  5
1294
331
19F2
  5
19F2
331
1A23
  5
1A23
331
19BB
  5
19BB
331
19FA
  5
19FA
331
2D99
  5
2D9A
331
12A4
  5
12A4
331
1A02
  5
1A02
331
2DA1
  5
2DA2
331
12AC
  5
12AC
331
1A0A
  5
1A0A
331
12B4
  5
12B4
331
19D3
  5
19D3
331
1A1A
  5
1A1A
331
2D72
  5
2D72
331
19EB
  5
19EB
331
129D
  5
129D
331
2D9A
  5
2DA1
331
19C4
  5
19C4
331
12A5
  5
12A5
331
1A03
  5
1A03
331
2DA2
  5
2D9E
331
2CCB
  5
2CCB
  0
SORTENTSTABLE
  5
64B6
102
{ACAD_REACTORS
330
64A9
102
}
330
64A9
100
AcDbSortentsTable
330
61DE
  0
DICTIONARY
  5
65FE
102
{ACAD_REACTORS
330
64A9
102
}
330
64A9
100
AcDbDictionary
280
     1
281
     1
  3
Edit
360
65FF
  0
SORTENTSTABLE
  5
641B
102
{ACAD_REACTORS
330
640E
102
}
330
640E
100
AcDbSortentsTable
330
62C3
331
6408
  5
6406
331
6406
  5
6408
  0
DICTIONARY
  5
6604
102
{ACAD_REACTORS
330
640E
102
}
330
640E
100
AcDbDictionary
280
     1
281
     1
  3
Edit
360
6605
  0
SORTENTSTABLE
  5
656B
102
{ACAD_REACTORS
330
656A
102
}
330
656A
100
AcDbSortentsTable
330
653A
  0
DICTIONARY
  5
6610
102
{ACAD_REACTORS
330
656A
102
}
330
656A
100
AcDbDictionary
280
     1
281
     1
  3
Edit
360
6611
  0
XRECORD
  5
660B
102
{ACAD_REACTORS
330
660A
102
}
330
660A
100
AcDbXrecord
280
     1
 40
26623.0
  1
\A1;24{\H2.400000;±0.5}
  0
XRECORD
  5
660F
102
{ACAD_REACTORS
330
660E
102
}
330
660E
100
AcDbXrecord
280
     1
 40
27086.0
  1
\A1;13.5{\H2.400000;±1}
  0
DIMASSOC
  5
64A2
102
{ACAD_REACTORS
330
64A1
102
}
330
64A1
100
AcDbDimAssoc
330
64A0
 90
        3
 70
     0
 71
     0
  1
AcDbOsnapPointRef
 72
     1
331
648A
 73
     0
 91
        0
 40
0.0
 10
0.0
 20
0.0
 30
2.000000000000000E+50
 75
     0
  1
AcDbOsnapPointRef
 72
     6
331
649A
 73
     0
 91
        0
 40
1.570796326794896
 10
0.0
 20
0.0
 30
0.0
332
649C
 74
     0
 92
        0
 75
     0
  0
DICTIONARY
  5
63C1
102
{ACAD_REACTORS
330
63C0
102
}
330
63C0
100
AcDbDictionary
281
     1
  3
ACDB_ANNOTATIONSCALES
350
63C2
  0
DIMASSOC
  5
640B
102
{ACAD_REACTORS
330
640A
102
}
330
640A
100
AcDbDimAssoc
330
6409
 90
        2
 70
     0
 71
     0
  1
AcDbOsnapPointRef
 72
     3
331
6406
 73
     2
 91
        0
 40
0.0
 10
0.0
 20
0.0
 30
0.0
 75
     0
  0
DICTIONARY
  5
640C
102
{ACAD_REACTORS
330
640A
102
}
330
640A
100
AcDbDictionary
281
     1
  3
ACDB_ANNOTATIONSCALES
350
640D
  0
XRECORD
  5
6609
102
{ACAD_REACTORS
330
6608
102
}
330
6608
100
AcDbXrecord
280
     1
 40
5101.0
  1
\A1;\U+220554
  0
XRECORD
  5
660D
102
{ACAD_REACTORS
330
660C
102
}
330
660C
100
AcDbXrecord
280
     1
 40
56538.0
  1
\A1;{\Famgdt;o} 31{\H2.400000;±0.1}
  0
DICTIONARY
  5
620F
102
{ACAD_REACTORS
330
620E
102
}
330
620E
100
AcDbDictionary
281
     1
  3
ACDB_ANNOTATIONSCALES
350
6210
  0
DICTIONARY
  5
6319
102
{ACAD_REACTORS
330
6318
102
}
330
6318
100
AcDbDictionary
281
     1
  3
ACDB_ANNOTATIONSCALES
350
631A
  0
XRECORD
  5
65F4
102
{ACAD_REACTORS
330
65F3
102
}
330
65F3
100
AcDbXrecord
280
     1
102
SHADEPLOT
 70
     0
  0
XRECORD
  5
65F6
102
{ACAD_REACTORS
330
65F5
102
}
330
65F5
100
AcDbXrecord
280
     1
102
SHADEPLOT
 70
     0
  0
XRECORD
  5
65EE
102
{ACAD_REACTORS
330
65ED
102
}
330
65ED
100
AcDbXrecord
280
     1
 70
     1
  0
LAYOUT
  5
1E
102
{ACAD_XDICTIONARY
360
2F8
102
}
102
{ACAD_REACTORS
330
1A
102
}
330
1A
100
AcDbPlotSettings
  1

  2
Win2PDF.pc3
  4
A4
  6

 40
3.174999952316284
 41
3.174999952316284
 42
3.17498779296875
 43
3.175003051757812
 44
296.989501953125
 45
209.9944915771484
 46
5.312880544559845
 47
3.691731224612709
 48
-2.741527483742856
 49
-4.405153099064477
140
286.9528414930985
141
199.6619049309473
142
1.0
143
1.0
 70
   756
 72
     1
 73
     0
 74
     1
  7
monochrome.ctb
 75
    16
147
1.0
148
0.0035435350820308
149
0.0079104503049052
100
AcDbLayout
  1
Layout1
 70
     1
 71
     1
 10
-8.49142403195816
 20
-6.874641627233899
 11
288.4980779211669
 21
203.1198499499145
 12
0.0
 22
0.0
 32
0.0
 14
0.0009154015513104
 24
0.0005791177154606
 34
0.0
 15
371.6110365672757
 25
196.250579117687
 35
0.0
146
0.0
 13
0.0
 23
0.0
 33
0.0
 16
1.0
 26
0.0
 36
0.0
 17
0.0
 27
1.0
 37
0.0
 76
     0
330
1B
331
2D8
1001
ACAD_PSEXT
1000
Win2PDF.pc3
1000
Win2PDF
1000
PDFFILE:
1000

1070
     0
  0
LAYOUT
  5
22
102
{ACAD_XDICTIONARY
360
65F0
102
}
102
{ACAD_REACTORS
330
1A
102
}
330
1A
100
AcDbPlotSettings
  1

  2
\\pallas\ColorLaserJet Büro
  4
A4
  6

 40
6.805083274841308
 41
5.027085304260253
 42
6.805084228515625
 43
5.027069091796875
 44
209.9733276367187
 45
296.9683227539062
 46
0.0
 47
0.0
 48
0.0
 49
0.0
140
0.0
141
0.0
142
1.0
143
1.82975238375777
 70
 11952
 72
     1
 73
     1
 74
     0
  7

 75
     0
147
0.5465220370126233
148
-1003.732693658126
149
-531.8054935907698
100
AcDbLayout
  1
Model
 70
     1
 71
     0
 10
0.0
 20
0.0
 11
12.0
 21
9.0
 12
0.0
 22
0.0
 32
0.0
 14
0.0
 24
0.0
 34
0.0
 15
0.0
 25
0.0
 35
0.0
146
0.0
 13
0.0
 23
0.0
 33
0.0
 16
1.0
 26
0.0
 36
0.0
 17
0.0
 27
1.0
 37
0.0
 76
     0
330
1F
1001
ACAD_PSEXT
1000
\\pallas\ColorLaserJet Büro
1000
HP Color LaserJet 4550 PCL
1000
Serverraum
1000
HP ColorLaserJet 4550N
1070
     0
  0
MATERIAL
  5
6137
102
{ACAD_XDICTIONARY
360
6138
102
}
102
{ACAD_REACTORS
330
BD
102
}
330
BD
100
AcDbMaterial
  1
ByBlock
 72
     0
 43
0.0008202099737533
 43
0.0
 43
0.0
 43
0.0
 43
0.0
 43
0.0008202099737533
 43
0.0
 43
0.0
 43
0.0
 43
0.0
 43
1.0
 43
0.0
 43
0.0
 43
0.0
 43
0.0
 43
1.0
 77
     0
 47
0.0008202099737533
 47
0.0
 47
0.0
 47
0.0
 47
0.0
 47
0.0008202099737533
 47
0.0
 47
0.0
 47
0.0
 47
0.0
 47
1.0
 47
0.0
 47
0.0
 47
0.0
 47
0.0
 47
1.0
171
     0
 49
0.0008202099737533
 49
0.0
 49
0.0
 49
0.0
 49
0.0
 49
0.0008202099737533
 49
0.0
 49
0.0
 49
0.0
 49
0.0
 49
1.0
 49
0.0
 49
0.0
 49
0.0
 49
0.0
 49
1.0
175
     0
142
0.0008202099737533
142
0.0
142
0.0
142
0.0
142
0.0
142
0.0008202099737533
142
0.0
142
0.0
142
0.0
142
0.0
142
1.0
142
0.0
142
0.0
142
0.0
142
0.0
142
1.0
179
     0
144
0.0008202099737533
144
0.0
144
0.0
144
0.0
144
0.0
144
0.0008202099737533
144
0.0
144
0.0
144
0.0
144
0.0
144
1.0
144
0.0
144
0.0
144
0.0
144
0.0
144
1.0
147
0.0008202099737533
147
0.0
147
0.0
147
0.0
147
0.0
147
0.0008202099737533
147
0.0
147
0.0
147
0.0
147
0.0
147
1.0
147
0.0
147
0.0
147
0.0
147
0.0
147
1.0
  0
MATERIAL
  5
612F
102
{ACAD_XDICTIONARY
360
6130
102
}
102
{ACAD_REACTORS
330
BD
102
}
330
BD
100
AcDbMaterial
  1
ByLayer
 72
     0
 43
0.0008202099737533
 43
0.0
 43
0.0
 43
0.0
 43
0.0
 43
0.0008202099737533
 43
0.0
 43
0.0
 43
0.0
 43
0.0
 43
1.0
 43
0.0
 43
0.0
 43
0.0
 43
0.0
 43
1.0
 77
     0
 47
0.0008202099737533
 47
0.0
 47
0.0
 47
0.0
 47
0.0
 47
0.0008202099737533
 47
0.0
 47
0.0
 47
0.0
 47
0.0
 47
1.0
 47
0.0
 47
0.0
 47
0.0
 47
0.0
 47
1.0
171
     0
 49
0.0008202099737533
 49
0.0
 49
0.0
 49
0.0
 49
0.0
 49
0.0008202099737533
 49
0.0
 49
0.0
 49
0.0
 49
0.0
 49
1.0
 49
0.0
 49
0.0
 49
0.0
 49
0.0
 49
1.0
175
     0
142
0.0008202099737533
142
0.0
142
0.0
142
0.0
142
0.0
142
0.0008202099737533
142
0.0
142
0.0
142
0.0
142
0.0
142
1.0
142
0.0
142
0.0
142
0.0
142
0.0
142
1.0
179
     0
144
0.0008202099737533
144
0.0
144
0.0
144
0.0
144
0.0
144
0.0008202099737533
144
0.0
144
0.0
144
0.0
144
0.0
144
1.0
144
0.0
144
0.0
144
0.0
144
0.0
144
1.0
147
0.0008202099737533
147
0.0
147
0.0
147
0.0
147
0.0
147
0.0008202099737533
147
0.0
147
0.0
147
0.0
147
0.0
147
1.0
147
0.0
147
0.0
147
0.0
147
0.0
147
1.0
  0
MATERIAL
  5
613F
102
{ACAD_XDICTIONARY
360
6140
102
}
102
{ACAD_REACTORS
330
BD
102
}
330
BD
100
AcDbMaterial
  1
Global
 72
     0
 43
0.0008202099737533
 43
0.0
 43
0.0
 43
0.0
 43
0.0
 43
0.0008202099737533
 43
0.0
 43
0.0
 43
0.0
 43
0.0
 43
1.0
 43
0.0
 43
0.0
 43
0.0
 43
0.0
 43
1.0
 77
     0
 47
0.0008202099737533
 47
0.0
 47
0.0
 47
0.0
 47
0.0
 47
0.0008202099737533
 47
0.0
 47
0.0
 47
0.0
 47
0.0
 47
1.0
 47
0.0
 47
0.0
 47
0.0
 47
0.0
 47
1.0
171
     0
 49
0.0008202099737533
 49
0.0
 49
0.0
 49
0.0
 49
0.0
 49
0.0008202099737533
 49
0.0
 49
0.0
 49
0.0
 49
0.0
 49
1.0
 49
0.0
 49
0.0
 49
0.0
 49
0.0
 49
1.0
175
     0
142
0.0008202099737533
142
0.0
142
0.0
142
0.0
142
0.0
142
0.0008202099737533
142
0.0
142
0.0
142
0.0
142
0.0
142
1.0
142
0.0
142
0.0
142
0.0
142
0.0
142
1.0
179
     0
144
0.0008202099737533
144
0.0
144
0.0
144
0.0
144
0.0
144
0.0008202099737533
144
0.0
144
0.0
144
0.0
144
0.0
144
1.0
144
0.0
144
0.0
144
0.0
144
0.0
144
1.0
147
0.0008202099737533
147
0.0
147
0.0
147
0.0
147
0.0
147
0.0008202099737533
147
0.0
147
0.0
147
0.0
147
0.0
147
1.0
147
0.0
147
0.0
147
0.0
147
0.0
147
1.0
  0
MLEADERSTYLE
  5
617B
102
{ACAD_REACTORS
330
617A
102
}
330
617A
100
AcDbMLeaderStyle
170
     2
171
     1
172
     0
 90
        2
 40
0.0
 41
0.0
173
     1
 91
-1056964608
340
14
 92
       -2
290
     1
 42
2.0
291
     1
 43
0.36
  3
Standard
 44
4.0
300

342
11
174
     1
178
     6
175
     1
176
     0
 93
-1056964608
 45
4.0
292
     0
297
     0
 46
4.0
 94
-1056964608
 47
1.0
 49
1.0
140
1.0
293
     1
141
0.0
294
     1
177
     0
142
1.0
295
     0
296
     0
143
0.125
1001
ACAD_MLEADERVER
1070
     2
  0
MLINESTYLE
  5
18
102
{ACAD_REACTORS
330
17
102
}
330
17
100
AcDbMlineStyle
  2
STANDARD
 70
     0
  3

 62
   256
 51
90.0
 52
90.0
 71
     2
 49
0.5
 62
   256
  6
BYLAYER
 49
-0.5
 62
   256
  6
BYLAYER
  0
ACDBPLACEHOLDER
  5
F
102
{ACAD_REACTORS
330
E
102
}
330
E
  0
SCALE
  5
6159
102
{ACAD_REACTORS
330
6158
102
}
330
6158
100
AcDbScale
 70
     0
300
1:1
140
1.0
141
1.0
290
     1
  0
SCALE
  5
615A
102
{ACAD_REACTORS
330
6158
102
}
330
6158
100
AcDbScale
 70
     0
300
1:2
140
1.0
141
2.0
290
     0
  0
SCALE
  5
615B
102
{ACAD_REACTORS
330
6158
102
}
330
6158
100
AcDbScale
 70
     0
300
1:4
140
1.0
141
4.0
290
     0
  0
SCALE
  5
615C
102
{ACAD_REACTORS
330
6158
102
}
330
6158
100
AcDbScale
 70
     0
300
1:5
140
1.0
141
5.0
290
     0
  0
SCALE
  5
615D
102
{ACAD_REACTORS
330
6158
102
}
330
6158
100
AcDbScale
 70
     0
300
1:8
140
1.0
141
8.0
290
     0
  0
SCALE
  5
615E
102
{ACAD_REACTORS
330
6158
102
}
330
6158
100
AcDbScale
 70
     0
300
1:10
140
1.0
141
10.0
290
     0
  0
SCALE
  5
615F
102
{ACAD_REACTORS
330
6158
102
}
330
6158
100
AcDbScale
 70
     0
300
1:16
140
1.0
141
16.0
290
     0
  0
SCALE
  5
6160
102
{ACAD_REACTORS
330
6158
102
}
330
6158
100
AcDbScale
 70
     0
300
1:20
140
1.0
141
20.0
290
     0
  0
SCALE
  5
6161
102
{ACAD_REACTORS
330
6158
102
}
330
6158
100
AcDbScale
 70
     0
300
1:30
140
1.0
141
30.0
290
     0
  0
SCALE
  5
6162
102
{ACAD_REACTORS
330
6158
102
}
330
6158
100
AcDbScale
 70
     0
300
1:40
140
1.0
141
40.0
290
     0
  0
SCALE
  5
6163
102
{ACAD_REACTORS
330
6158
102
}
330
6158
100
AcDbScale
 70
     0
300
1:50
140
1.0
141
50.0
290
     0
  0
SCALE
  5
6164
102
{ACAD_REACTORS
330
6158
102
}
330
6158
100
AcDbScale
 70
     0
300
1:100
140
1.0
141
100.0
290
     0
  0
SCALE
  5
6165
102
{ACAD_REACTORS
330
6158
102
}
330
6158
100
AcDbScale
 70
     0
300
2:1
140
2.0
141
1.0
290
     0
  0
SCALE
  5
6166
102
{ACAD_REACTORS
330
6158
102
}
330
6158
100
AcDbScale
 70
     0
300
4:1
140
4.0
141
1.0
290
     0
  0
SCALE
  5
6167
102
{ACAD_REACTORS
330
6158
102
}
330
6158
100
AcDbScale
 70
     0
300
8:1
140
8.0
141
1.0
290
     0
  0
SCALE
  5
6168
102
{ACAD_REACTORS
330
6158
102
}
330
6158
100
AcDbScale
 70
     0
300
10:1
140
10.0
141
1.0
290
     0
  0
SCALE
  5
6169
102
{ACAD_REACTORS
330
6158
102
}
330
6158
100
AcDbScale
 70
     0
300
100:1
140
100.0
141
1.0
290
     0
  0
SCALE
  5
616A
102
{ACAD_REACTORS
330
6158
102
}
330
6158
100
AcDbScale
 70
     0
300
1/128" = 1'-0"
140
0.0078125
141
12.0
290
     0
  0
SCALE
  5
616B
102
{ACAD_REACTORS
330
6158
102
}
330
6158
100
AcDbScale
 70
     0
300
1/64" = 1'-0"
140
0.015625
141
12.0
290
     0
  0
SCALE
  5
616C
102
{ACAD_REACTORS
330
6158
102
}
330
6158
100
AcDbScale
 70
     0
300
1/32" = 1'-0"
140
0.03125
141
12.0
290
     0
  0
SCALE
  5
616D
102
{ACAD_REACTORS
330
6158
102
}
330
6158
100
AcDbScale
 70
     0
300
1/16" = 1'-0"
140
0.0625
141
12.0
290
     0
  0
SCALE
  5
616E
102
{ACAD_REACTORS
330
6158
102
}
330
6158
100
AcDbScale
 70
     0
300
3/32" = 1'-0"
140
0.09375
141
12.0
290
     0
  0
SCALE
  5
616F
102
{ACAD_REACTORS
330
6158
102
}
330
6158
100
AcDbScale
 70
     0
300
1/8" = 1'-0"
140
0.125
141
12.0
290
     0
  0
SCALE
  5
6170
102
{ACAD_REACTORS
330
6158
102
}
330
6158
100
AcDbScale
 70
     0
300
3/16" = 1'-0"
140
0.1875
141
12.0
290
     0
  0
SCALE
  5
6171
102
{ACAD_REACTORS
330
6158
102
}
330
6158
100
AcDbScale
 70
     0
300
1/4" = 1'-0"
140
0.25
141
12.0
290
     0
  0
SCALE
  5
6172
102
{ACAD_REACTORS
330
6158
102
}
330
6158
100
AcDbScale
 70
     0
300
3/8" = 1'-0"
140
0.375
141
12.0
290
     0
  0
SCALE
  5
6173
102
{ACAD_REACTORS
330
6158
102
}
330
6158
100
AcDbScale
 70
     0
300
1/2" = 1'-0"
140
0.5
141
12.0
290
     0
  0
SCALE
  5
6174
102
{ACAD_REACTORS
330
6158
102
}
330
6158
100
AcDbScale
 70
     0
300
3/4" = 1'-0"
140
0.75
141
12.0
290
     0
  0
SCALE
  5
6175
102
{ACAD_REACTORS
330
6158
102
}
330
6158
100
AcDbScale
 70
     0
300
1" = 1'-0"
140
1.0
141
12.0
290
     0
  0
SCALE
  5
6176
102
{ACAD_REACTORS
330
6158
102
}
330
6158
100
AcDbScale
 70
     0
300
1-1/2" = 1'-0"
140
1.5
141
12.0
290
     0
  0
SCALE
  5
6177
102
{ACAD_REACTORS
330
6158
102
}
330
6158
100
AcDbScale
 70
     0
300
3" = 1'-0"
140
3.0
141
12.0
290
     0
  0
SCALE
  5
6178
102
{ACAD_REACTORS
330
6158
102
}
330
6158
100
AcDbScale
 70
     0
300
6" = 1'-0"
140
6.0
141
12.0
290
     0
  0
SCALE
  5
6179
102
{ACAD_REACTORS
330
6158
102
}
330
6158
100
AcDbScale
 70
     0
300
1'-0" = 1'-0"
140
12.0
141
12.0
290
     0
  0
TABLESTYLE
  5
11B
102
{ACAD_XDICTIONARY
360
65E5
102
}
102
{ACAD_REACTORS
330
11A
102
}
330
11A
100
AcDbTableStyle
  3
Standard
 70
     0
 71
     0
 40
1.5
 41
1.5
280
     0
281
     0
  7
STANDARD
140
4.5
170
     2
 62
     0
 63
     7
283
     0
274
    -2
284
     1
 64
     0
275
    -2
285
     1
 65
     0
276
    -2
286
     1
 66
     0
277
    -2
287
     1
 67
     0
278
    -2
288
     1
 68
     0
279
    -2
289
     1
 69
     0
  7
STANDARD
140
6.0
170
     5
 62
     0
 63
     7
283
     0
274
    -2
284
     1
 64
     0
275
    -2
285
     1
 65
     0
276
    -2
286
     1
 66
     0
277
    -2
287
     1
 67
     0
278
    -2
288
     1
 68
     0
279
    -2
289
     1
 69
     0
  7
STANDARD
140
4.5
170
     5
 62
     0
 63
     7
283
     0
274
    -2
284
     1
 64
     0
275
    -2
285
     1
 65
     0
276
    -2
286
     1
 66
     0
277
    -2
287
     1
 67
     0
278
    -2
288
     1
 68
     0
279
    -2
289
     1
 69
     0
  0
VISUALSTYLE
  5
614D
102
{ACAD_REACTORS
330
6147
102
}
330
6147
100
AcDbVisualStyle
  2
2dWireframe
 70
     4
 71
     0
 72
     2
 73
     0
 90
        0
 40
-0.6
 41
-30.0
 62
     5
 63
     7
 74
     1
 91
        4
 64
     7
 65
   257
 75
     1
175
     1
 42
1.0
 92
        0
 66
   257
 43
1.0
 76
     1
 77
     6
 78
     2
 67
     7
 79
     5
170
     0
171
     0
290
     0
174
     0
 93
        1
 44
0.0
173
     0
291
     0
 45
0.0
1001
ACAD
1000
AcDbSavedByObjectVersion
1070
     0
  0
VISUALSTYLE
  5
614F
102
{ACAD_REACTORS
330
6147
102
}
330
6147
100
AcDbVisualStyle
  2
3D Hidden
 70
     6
 71
     1
 72
     2
 73
     2
 90
        0
 40
-0.6
 41
-30.0
 62
     5
 63
     7
 74
     2
 91
        2
 64
     7
 65
   257
 75
     2
175
     1
 42
40.0
 92
        0
 66
   257
 43
1.0
 76
     1
 77
     6
 78
     2
 67
     7
 79
     3
170
     0
171
     0
290
     0
174
     0
 93
        1
 44
0.0
173
     0
291
     0
 45
0.0
1001
ACAD
1000
AcDbSavedByObjectVersion
1070
     0
  0
VISUALSTYLE
  5
614E
102
{ACAD_REACTORS
330
6147
102
}
330
6147
100
AcDbVisualStyle
  2
3dWireframe
 70
     5
 71
     0
 72
     2
 73
     0
 90
        0
 40
-0.6
 41
-30.0
 62
     5
 63
     7
 74
     1
 91
        4
 64
     7
 65
   257
 75
     1
175
     1
 42
1.0
 92
        0
 66
   257
 43
1.0
 76
     1
 77
     6
 78
     2
 67
     7
 79
     5
170
     0
171
     0
290
     0
174
     0
 93
        1
 44
0.0
173
     0
291
     0
 45
0.0
1001
ACAD
1000
AcDbSavedByObjectVersion
1070
     0
  0
VISUALSTYLE
  5
614C
102
{ACAD_REACTORS
330
6147
102
}
330
6147
100
AcDbVisualStyle
  2
Basic
 70
     7
 71
     1
 72
     0
 73
     1
 90
        0
 40
-0.6
 41
-30.0
 62
     5
 63
     7
 74
     0
 91
        4
 64
     7
 65
   257
 75
     1
175
     1
 42
1.0
 92
        8
 66
     7
 43
1.0
 76
     1
 77
     6
 78
     2
 67
     7
 79
     5
170
     0
171
     0
290
     0
174
     0
 93
        1
 44
0.0
173
     0
291
     1
 45
0.0
1001
ACAD
1000
AcDbSavedByObjectVersion
1070
     0
  0
VISUALSTYLE
  5
6153
102
{ACAD_REACTORS
330
6147
102
}
330
6147
100
AcDbVisualStyle
  2
Brighten
 70
    12
 71
     2
 72
     2
 73
     0
 90
        0
 40
-0.6
 41
-30.0
 62
     5
 63
     7
 74
     1
 91
        4
 64
     7
 65
   257
 75
     1
175
     1
 42
1.0
 92
        8
 66
     7
 43
1.0
 76
     1
 77
     6
 78
     2
 67
     7
 79
     5
170
     0
171
     0
290
     0
174
     0
 93
        1
 44
50.0
173
     0
291
     1
 45
0.0
1001
ACAD
1000
AcDbSavedByObjectVersion
1070
     0
  0
VISUALSTYLE
  5
6157
102
{ACAD_REACTORS
330
6147
102
}
330
6147
100
AcDbVisualStyle
  2
ColorChange
 70
    16
 71
     2
 72
     2
 73
     3
 90
        0
 40
-0.6
 41
-30.0
 62
     5
 63
     8
 74
     1
 91
        4
 64
     7
 65
   257
 75
     1
175
     1
 42
1.0
 92
        8
 66
     8
 43
1.0
 76
     1
 77
     6
 78
     2
 67
     7
 79
     5
170
     0
171
     0
290
     0
174
     0
 93
        1
 44
0.0
173
     0
291
     1
 45
0.0
1001
ACAD
1000
AcDbSavedByObjectVersion
1070
     0
  0
VISUALSTYLE
  5
6150
102
{ACAD_REACTORS
330
6147
102
}
330
6147
100
AcDbVisualStyle
  2
Conceptual
 70
     9
 71
     3
 72
     2
 73
     0
 90
        0
 40
-0.6
 41
-30.0
 62
     5
 63
     7
 74
     2
 91
        2
 64
     7
 65
   257
 75
     1
175
     1
 42
40.0
 92
        8
 66
     7
 43
1.0
 76
     1
 77
     6
 78
     2
 67
     7
 79
     3
170
     0
171
     0
290
     0
174
     0
 93
        1
 44
0.0
173
     0
291
     0
 45
0.0
1001
ACAD
1000
AcDbSavedByObjectVersion
1070
     0
  0
VISUALSTYLE
  5
6152
102
{ACAD_REACTORS
330
6147
102
}
330
6147
100
AcDbVisualStyle
  2
Dim
 70
    11
 71
     2
 72
     2
 73
     0
 90
        0
 40
-0.6
 41
-30.0
 62
     5
 63
     7
 74
     1
 91
        4
 64
     7
 65
   257
 75
     1
175
     1
 42
1.0
 92
        8
 66
     7
 43
1.0
 76
     1
 77
     6
 78
     2
 67
     7
 79
     5
170
     0
171
     0
290
     0
174
     0
 93
        1
 44
-50.0
173
     0
291
     1
 45
0.0
1001
ACAD
1000
AcDbSavedByObjectVersion
1070
     0
  0
VISUALSTYLE
  5
6156
102
{ACAD_REACTORS
330
6147
102
}
330
6147
100
AcDbVisualStyle
  2
Facepattern
 70
    15
 71
     2
 72
     2
 73
     0
 90
        0
 40
-0.6
 41
-30.0
 62
     5
 63
     7
 74
     1
 91
        4
 64
     7
 65
   257
 75
     1
175
     1
 42
1.0
 92
        8
 66
     7
 43
1.0
 76
     1
 77
     6
 78
     2
 67
     7
 79
     5
170
     0
171
     0
290
     0
174
     0
 93
        1
 44
0.0
173
     0
291
     1
 45
0.0
1001
ACAD
1000
AcDbSavedByObjectVersion
1070
     0
  0
VISUALSTYLE
  5
6148
102
{ACAD_REACTORS
330
6147
102
}
330
6147
100
AcDbVisualStyle
  2
Flat
 70
     0
 71
     2
 72
     1
 73
     1
 90
        2
 40
-0.6
 41
30.0
 62
     5
 63
     7
 74
     0
 91
        4
 64
     7
 65
   257
 75
     1
175
     1
 42
1.0
 92
        8
 66
     7
 43
1.0
 76
     1
 77
     6
 78
     2
 67
     7
 79
     5
170
     0
171
     0
290
     0
174
     0
 93
       13
 44
0.0
173
     0
291
     1
 45
0.0
1001
ACAD
1000
AcDbSavedByObjectVersion
1070
     0
  0
VISUALSTYLE
  5
6149
102
{ACAD_REACTORS
330
6147
102
}
330
6147
100
AcDbVisualStyle
  2
FlatWithEdges
 70
     1
 71
     2
 72
     1
 73
     1
 90
        2
 40
-0.6
 41
30.0
 62
     5
 63
     7
 74
     1
 91
        4
 64
     7
 65
   257
 75
     1
175
     1
 42
1.0
 92
        0
 66
   257
 43
1.0
 76
     1
 77
     6
 78
     2
 67
     7
 79
     5
170
     0
171
     0
290
     0
174
     0
 93
       13
 44
0.0
173
     0
291
     1
 45
0.0
1001
ACAD
1000
AcDbSavedByObjectVersion
1070
     0
  0
VISUALSTYLE
  5
614A
102
{ACAD_REACTORS
330
6147
102
}
330
6147
100
AcDbVisualStyle
  2
Gouraud
 70
     2
 71
     2
 72
     2
 73
     1
 90
        2
 40
-0.6
 41
30.0
 62
     5
 63
     7
 74
     0
 91
        4
 64
     7
 65
   257
 75
     1
175
     1
 42
1.0
 92
        0
 66
     7
 43
1.0
 76
     1
 77
     6
 78
     2
 67
     7
 79
     5
170
     0
171
     0
290
     0
174
     0
 93
       13
 44
0.0
173
     0
291
     1
 45
0.0
1001
ACAD
1000
AcDbSavedByObjectVersion
1070
     0
  0
VISUALSTYLE
  5
614B
102
{ACAD_REACTORS
330
6147
102
}
330
6147
100
AcDbVisualStyle
  2
GouraudWithEdges
 70
     3
 71
     2
 72
     2
 73
     1
 90
        2
 40
-0.6
 41
30.0
 62
     5
 63
     7
 74
     1
 91
        4
 64
     7
 65
   257
 75
     1
175
     1
 42
1.0
 92
        0
 66
   257
 43
1.0
 76
     1
 77
     6
 78
     2
 67
     7
 79
     5
170
     0
171
     0
290
     0
174
     0
 93
       13
 44
0.0
173
     0
291
     1
 45
0.0
1001
ACAD
1000
AcDbSavedByObjectVersion
1070
     0
  0
VISUALSTYLE
  5
6155
102
{ACAD_REACTORS
330
6147
102
}
330
6147
100
AcDbVisualStyle
  2
Linepattern
 70
    14
 71
     2
 72
     2
 73
     0
 90
        0
 40
-0.6
 41
-30.0
 62
     5
 63
     7
 74
     1
 91
        4
 64
     7
 65
   257
 75
     7
175
     7
 42
1.0
 92
        8
 66
     7
 43
1.0
 76
     1
 77
     6
 78
     2
 67
     7
 79
     5
170
     0
171
     0
290
     0
174
     0
 93
        1
 44
0.0
173
     0
291
     1
 45
0.0
1001
ACAD
1000
AcDbSavedByObjectVersion
1070
     0
  0
VISUALSTYLE
  5
6151
102
{ACAD_REACTORS
330
6147
102
}
330
6147
100
AcDbVisualStyle
  2
Realistic
 70
     8
 71
     2
 72
     2
 73
     0
 90
        0
 40
-0.6
 41
-30.0
 62
     5
 63
     7
 74
     1
 91
        0
 64
     7
 65
   257
 75
     1
175
     1
 42
1.0
 92
        8
 66
     8
 43
1.0
 76
     1
 77
     6
 78
     2
 67
     7
 79
     5
170
     0
171
     0
290
     0
174
     0
 93
       13
 44
0.0
173
     0
291
     0
 45
0.0
1001
ACAD
1000
AcDbSavedByObjectVersion
1070
     0
  0
VISUALSTYLE
  5
6154
102
{ACAD_REACTORS
330
6147
102
}
330
6147
100
AcDbVisualStyle
  2
Thicken
 70
    13
 71
     2
 72
     2
 73
     0
 90
        0
 40
-0.6
 41
-30.0
 62
     5
 63
     7
 74
     1
 91
        4
 64
     7
 65
   257
 75
     1
175
     1
 42
1.0
 92
       12
 66
     7
 43
1.0
 76
     1
 77
     6
 78
     2
 67
     7
 79
     5
170
     0
171
     0
290
     0
174
     0
 93
        1
 44
0.0
173
     0
291
     1
 45
0.0
1001
ACAD
1000
AcDbSavedByObjectVersion
1070
     0
  0
DICTIONARYVAR
  5
65E3
102
{ACAD_REACTORS
330
94
102
}
330
94
100
DictionaryVariables
280
     0
  1
1:1
  0
DICTIONARYVAR
  5
65E2
102
{ACAD_REACTORS
330
94
102
}
330
94
100
DictionaryVariables
280
     0
  1
STANDARD
  0
DICTIONARYVAR
  5
138
102
{ACAD_REACTORS
330
94
102
}
330
94
100
DictionaryVariables
280
     0
  1
STANDARD
  0
DICTIONARYVAR
  5
96
102
{ACAD_REACTORS
330
94
102
}
330
94
100
DictionaryVariables
280
     0
  1
2
  0
DICTIONARYVAR
  5
95
102
{ACAD_REACTORS
330
94
102
}
330
94
100
DictionaryVariables
280
     0
  1
0
  0
DICTIONARYVAR
  5
1B03
102
{ACAD_REACTORS
330
94
102
}
330
94
100
DictionaryVariables
280
     0
  1

  0
DICTIONARYVAR
  5
65E4
102
{ACAD_REACTORS
330
94
102
}
330
94
100
DictionaryVariables
280
     0
  1
127
  0
DICTIONARY
  5
272
102
{ACAD_REACTORS
330
5B
102
}
330
5B
100
AcDbDictionary
281
     1
  0
ACAD_PROXY_OBJECT
  5
5C
102
{ACAD_REACTORS
330
5B
102
}
330
5B
100
AcDbProxyObject
 90
      499
 91
      521
 95
       25
 70
     0
 93
      120
310
405010040CA904C415CD5B0760910A00
350
5D
 94
        0
1001
ACAD
1000
AcRTDxfName
1000
ACMDATADICTIONARY
1000
AcRTDxfName
1000
ACMDATADICTIONARY
  0
DICTIONARY
  5
61
102
{ACAD_REACTORS
330
5B
102
}
330
5B
100
AcDbDictionary
281
     1
  3
ISO
350
62
  0
XRECORD
  5
123
102
{ACAD_REACTORS
330
5B
102
}
330
5B
100
AcDbXrecord
280
     1
 90
-1023410169
  0
ACAD_PROXY_OBJECT
  5
4B
330
0
100
AcDbProxyObject
 90
      499
 91
      508
 95
       25
 70
     0
 93
      156
310
00010143D050D351505391D5531054925390D49F
330
48
 94
        0
1001
ACAD
1000
AcRTDxfName
1000
ACIMREALSYSVAR
1000
AcRTDxfName
1000
ACIMREALSYSVAR
  0
ACAD_PROXY_OBJECT
  5
4C
330
0
100
AcDbProxyObject
 90
      499
 91
      508
 95
       25
 70
     0
 93
      148
310
000101439050D351531253915054925390D49F
330
48
 94
        0
1001
ACAD
1000
AcRTDxfName
1000
ACIMREALSYSVAR
1000
AcRTDxfName
1000
ACIMREALSYSVAR
  0
ACAD_PROXY_OBJECT
  5
4D
330
0
100
AcDbProxyObject
 90
      499
 91
      509
 95
       25
 70
     0
 93
      156
310
000101439050D35154D6535093D314D25691508F
330
48
 94
        0
1001
ACAD
1000
AcRTDxfName
1000
ACIMINTSYSVAR
1000
AcRTDxfName
1000
ACIMINTSYSVAR
  0
ACAD_PROXY_OBJECT
  5
4F
330
0
100
AcDbProxyObject
 90
      499
 91
      511
 95
       25
 70
     0
 93
       88
310
000101411093D34C402B0000
330
48
330
0
330
0
 94
        0
1001
ACAD
1000
AcRTDxfName
1000
ACMEVIEW
1000
AcRTDxfName
1000
ACMEVIEW
  0
ACAD_PROXY_OBJECT
  5
60
330
0
100
AcDbProxyObject
 90
      499
 91
      523
 95
       25
 70
     0
 93
      140
310
00010142105350D55494D5110050349534FF
330
48
 94
        0
1001
ACAD
1000
AcRTDxfName
1000
ACIMSTRSYSVAR
1000
AcRTDxfName
1000
ACIMSTRSYSVAR
  0
ACAD_PROXY_OBJECT
  5
C9
330
0
100
AcDbProxyObject
 90
      499
 91
      544
 95
       25
 70
     0
 93
      398
310
0001014119185D1940508372E302E33392E38014151185D1D5B4050931302E302E35332E3040501000041905394D24CCC65B
330
48
330
CA
330
D0
 94
        0
1001
ACAD
1000
AcRTDxfName
1000
AM_DRAWING_MGR
1000
AcRTDxfName
1000
AM_DRAWING_MGR
  0
ACAD_PROXY_OBJECT
  5
CA
330
0
100
AcDbProxyObject
 90
      499
 91
      545
 95
       25
 70
     0
 93
       48
310
000190140A0000
330
48
330
CB
 94
        0
1001
ACAD
1000
AcRTDxfName
1000
AM_DWG_DOCUMENT
1000
AcRTDxfName
1000
AM_DWG_DOCUMENT
  0
ACAD_PROXY_OBJECT
  5
CB
330
0
100
AcDbProxyObject
 90
      499
 91
      546
 95
       25
 70
     0
 93
       48
310
0001AA00000000
330
48
330
1E
330
CC
330
0
 94
        0
1001
ACAD
1000
AcRTDxfName
1000
AM_DWG_SHEET
1000
AcRTDxfName
1000
AM_DWG_SHEET
  0
ACAD_PROXY_OBJECT
  5
CC
330
0
100
AcDbProxyObject
 90
      499
 91
      547
 95
       25
 70
     0
 93
       28
310
0001AAAF
330
48
 94
        0
1001
ACAD
1000
AcRTDxfName
1000
AM_VIEWDIMPARMAP
1000
AcRTDxfName
1000
AM_VIEWDIMPARMAP
  0
ACAD_PROXY_OBJECT
  5
D1
330
0
100
AcDbProxyObject
 90
      499
 91
      509
 95
       25
 70
     0
 93
      108
310
000101421053521310D05310D01F
330
48
 94
        0
1001
ACAD
1000
AcRTDxfName
1000
ACIMINTSYSVAR
1000
AcRTDxfName
1000
ACIMINTSYSVAR
  0
ACAD_PROXY_OBJECT
  5
D2
330
0
100
AcDbProxyObject
 90
      499
 91
      509
 95
       25
 70
     0
 93
      124
310
00010142905354915554D1511253501F
330
48
 94
        0
1001
ACAD
1000
AcRTDxfName
1000
ACIMINTSYSVAR
1000
AcRTDxfName
1000
ACIMINTSYSVAR
  0
ACAD_PROXY_OBJECT
  5
D3
330
0
100
AcDbProxyObject
 90
      499
 91
      509
 95
       25
 70
     0
 93
      132
310
00010143105354D150D51253D39112536F
330
48
 94
        0
1001
ACAD
1000
AcRTDxfName
1000
ACIMINTSYSVAR
1000
AcRTDxfName
1000
ACIMINTSYSVAR
  0
ACAD_PROXY_OBJECT
  5
D4
330
0
100
AcDbProxyObject
 90
      499
 91
      509
 95
       25
 70
     0
 93
      124
310
00010142905355941093D4911154901F
330
48
 94
        0
1001
ACAD
1000
AcRTDxfName
1000
ACIMINTSYSVAR
1000
AcRTDxfName
1000
ACIMINTSYSVAR
  0
ACAD_PROXY_OBJECT
  5
D5
330
0
100
AcDbProxyObject
 90
      499
 91
      509
 95
       25
 70
     0
 93
      116
310
0001014290535115D1D0D3D313D4AF
330
48
 94
        0
1001
ACAD
1000
AcRTDxfName
1000
ACIMINTSYSVAR
1000
AcRTDxfName
1000
ACIMINTSYSVAR
  0
ACAD_PROXY_OBJECT
  5
D6
330
0
100
AcDbProxyObject
 90
      499
 91
      509
 95
       25
 70
     0
 93
      148
310
00010143505355925155D49151949154D2101F
330
48
 94
        0
1001
ACAD
1000
AcRTDxfName
1000
ACIMINTSYSVAR
1000
AcRTDxfName
1000
ACIMINTSYSVAR
  0
ACAD_PROXY_OBJECT
  5
D7
330
0
100
AcDbProxyObject
 90
      499
 91
      509
 95
       25
 70
     0
 93
      172
310
00010144105350539393D51154149154D1549591501F
330
48
 94
        0
1001
ACAD
1000
AcRTDxfName
1000
ACIMINTSYSVAR
1000
AcRTDxfName
1000
ACIMINTSYSVAR
  0
ACAD_PROXY_OBJECT
  5
DA
330
0
100
AcDbProxyObject
 90
      499
 91
      509
 95
       25
 70
     0
 93
      172
310
00010144105350555513D11253505494905391D1501F
330
48
 94
        0
1001
ACAD
1000
AcRTDxfName
1000
ACIMINTSYSVAR
1000
AcRTDxfName
1000
ACIMINTSYSVAR
  0
ACAD_PROXY_OBJECT
  5
DB
330
0
100
AcDbProxyObject
 90
      499
 91
      509
 95
       25
 70
     0
 93
      124
310
00010142D0535156151491519112536F
330
48
 94
        0
1001
ACAD
1000
AcRTDxfName
1000
ACIMINTSYSVAR
1000
AcRTDxfName
1000
ACIMINTSYSVAR
  0
ACAD_PROXY_OBJECT
  5
DC
330
0
100
AcDbProxyObject
 90
      499
 91
      509
 95
       25
 70
     0
 93
      132
310
00010142D05355105410539393D511501F
330
48
 94
        0
1001
ACAD
1000
AcRTDxfName
1000
ACIMINTSYSVAR
1000
AcRTDxfName
1000
ACIMINTSYSVAR
  0
ACAD_PROXY_OBJECT
  5
DD
330
0
100
AcDbProxyObject
 90
      499
 91
      509
 95
       25
 70
     0
 93
      108
310
00010142105350555513D0D3101F
330
48
 94
        0
1001
ACAD
1000
AcRTDxfName
1000
ACIMINTSYSVAR
1000
AcRTDxfName
1000
ACIMINTSYSVAR
  0
ACAD_PROXY_OBJECT
  5
DE
330
0
100
AcDbProxyObject
 90
      499
 91
      509
 95
       25
 70
     0
 93
      108
310
00010142105350D311915055105F
330
48
 94
        0
1001
ACAD
1000
AcRTDxfName
1000
ACIMINTSYSVAR
1000
AcRTDxfName
1000
ACIMINTSYSVAR
  0
ACAD_PROXY_OBJECT
  5
DF
330
0
100
AcDbProxyObject
 90
      499
 91
      509
 95
       25
 70
     0
 93
      108
310
00010142105350D315925155D3FF
330
48
 94
        0
1001
ACAD
1000
AcRTDxfName
1000
ACIMINTSYSVAR
1000
AcRTDxfName
1000
ACIMINTSYSVAR
  0
ACAD_PROXY_OBJECT
  5
E0
330
0
100
AcDbProxyObject
 90
      499
 91
      509
 95
       25
 70
     0
 93
      148
310
0001014350535212511156915493D11253501F
330
48
 94
        0
1001
ACAD
1000
AcRTDxfName
1000
ACIMINTSYSVAR
1000
AcRTDxfName
1000
ACIMINTSYSVAR
  0
ACAD_PROXY_OBJECT
  5
E1
330
0
100
AcDbProxyObject
 90
      499
 91
      509
 95
       25
 70
     0
 93
      124
310
00010142905352105510D21254D3D01F
330
48
 94
        0
1001
ACAD
1000
AcRTDxfName
1000
ACIMINTSYSVAR
1000
AcRTDxfName
1000
ACIMINTSYSVAR
  0
ACAD_PROXY_OBJECT
  5
E2
330
0
100
AcDbProxyObject
 90
      499
 91
      509
 95
       25
 70
     0
 93
      148
310
00010143905354D25391D3115210551310566F
330
48
 94
        0
1001
ACAD
1000
AcRTDxfName
1000
ACIMINTSYSVAR
1000
AcRTDxfName
1000
ACIMINTSYSVAR
  0
ACAD_PROXY_OBJECT
  5
E3
330
0
100
AcDbProxyObject
 90
      499
 91
      509
 95
       25
 70
     0
 93
      124
310
00010142D0535115D1D193111254D42F
330
48
 94
        0
1001
ACAD
1000
AcRTDxfName
1000
ACIMINTSYSVAR
1000
AcRTDxfName
1000
ACIMINTSYSVAR
  0
ACAD_PROXY_OBJECT
  5
E4
330
0
100
AcDbProxyObject
 90
      499
 91
      509
 95
       25
 70
     0
 93
      100
310
00010142105350555513D213AF
330
48
 94
        0
1001
ACAD
1000
AcRTDxfName
1000
ACIMINTSYSVAR
1000
AcRTDxfName
1000
ACIMINTSYSVAR
  0
ACAD_PROXY_OBJECT
  5
E5
330
0
100
AcDbProxyObject
 90
      499
 91
      509
 95
       25
 70
     0
 93
      116
310
000101425053521390D3D55395101F
330
48
 94
        0
1001
ACAD
1000
AcRTDxfName
1000
ACIMINTSYSVAR
1000
AcRTDxfName
1000
ACIMINTSYSVAR
  0
ACAD_PROXY_OBJECT
  5
E6
330
0
100
AcDbProxyObject
 90
      499
 91
      509
 95
       25
 70
     0
 93
      108
310
0001014210535213941493D2901F
330
48
 94
        0
1001
ACAD
1000
AcRTDxfName
1000
ACIMINTSYSVAR
1000
AcRTDxfName
1000
ACIMINTSYSVAR
  0
ACAD_PROXY_OBJECT
  5
E7
330
0
100
AcDbProxyObject
 90
      499
 91
      509
 95
       25
 70
     0
 93
      108
310
000101421053521395165411507F
330
48
 94
        0
1001
ACAD
1000
AcRTDxfName
1000
ACIMINTSYSVAR
1000
AcRTDxfName
1000
ACIMINTSYSVAR
  0
ACAD_PROXY_OBJECT
  5
E8
330
0
100
AcDbProxyObject
 90
      499
 91
      509
 95
       25
 70
     0
 93
      108
310
000101421053521395925155D0FF
330
48
 94
        0
1001
ACAD
1000
AcRTDxfName
1000
ACIMINTSYSVAR
1000
AcRTDxfName
1000
ACIMINTSYSVAR
  0
ACAD_PROXY_OBJECT
  5
E9
330
0
100
AcDbProxyObject
 90
      499
 91
      509
 95
       25
 70
     0
 93
      140
310
00010143505354D150D51253D390D3D4166F
330
48
 94
        0
1001
ACAD
1000
AcRTDxfName
1000
ACIMINTSYSVAR
1000
AcRTDxfName
1000
ACIMINTSYSVAR
  0
ACAD_PROXY_OBJECT
  5
EA
330
0
100
AcDbProxyObject
 90
      499
 91
      509
 95
       25
 70
     0
 93
      108
310
00010142105350D3141493D2903F
330
48
 94
        0
1001
ACAD
1000
AcRTDxfName
1000
ACIMINTSYSVAR
1000
AcRTDxfName
1000
ACIMINTSYSVAR
  0
ACAD_PROXY_OBJECT
  5
EB
330
0
100
AcDbProxyObject
 90
      499
 91
      508
 95
       25
 70
     0
 93
      212
310
00010143905350555513D2105510D21493D500000000000002E40F
330
48
 94
        0
1001
ACAD
1000
AcRTDxfName
1000
ACIMREALSYSVAR
1000
AcRTDxfName
1000
ACIMREALSYSVAR
  0
ACAD_PROXY_OBJECT
  5
EC
330
0
100
AcDbProxyObject
 90
      499
 91
      509
 95
       25
 70
     0
 93
      156
310
00010143905350555513D2105510D2111155101F
330
48
 94
        0
1001
ACAD
1000
AcRTDxfName
1000
ACIMINTSYSVAR
1000
AcRTDxfName
1000
ACIMINTSYSVAR
  0
ACAD_PROXY_OBJECT
  5
F5
330
0
100
AcDbProxyObject
 90
      499
 91
      553
 95
       25
 70
     0
 93
      722
310
0001000000009AA6A9AA4051E576564204665622031392032313A35383A3234203230303320285554432901420DCB8C0B8CCE4B8E00518467269204D61722030322031323A31383A3232203230303701424C4C0B8C0B8D4CCB8C3F
330
48
330
F6
330
F7
330
F9
330
0
 94
        0
1001
ACAD
1000
AcRTDxfName
1000
ADAPPL
1000
AcRTDxfName
1000
ADAPPL
  0
ACAD_PROXY_OBJECT
  5
F6
330
0
100
AcDbProxyObject
 90
      499
 91
      554
 95
       25
 70
     0
 93
       70
310
0001AAA80820000003
330
48
330
F6
330
F6
 94
        0
1001
ACAD
1000
AcRTDxfName
1000
DEPMGR
1000
AcRTDxfName
1000
DEPMGR
  0
ACAD_PROXY_OBJECT
  5
F7
330
0
100
AcDbProxyObject
 90
      499
 91
      555
 95
       25
 70
     0
 93
       48
310
00010000000000
330
48
330
0
330
F8
330
0
330
0
 94
        0
1001
ACAD
1000
AcRTDxfName
1000
PARAMMGR
1000
AcRTDxfName
1000
PARAMMGR
  0
ACAD_PROXY_OBJECT
  5
F8
330
0
100
AcDbProxyObject
 90
      499
 91
      556
 95
       25
 70
     0
 93
       40
310
000100AAAACC
330
48
330
0
 94
        0
1001
ACAD
1000
AcRTDxfName
1000
PARAMSCOPE
1000
AcRTDxfName
1000
PARAMSCOPE
  0
ACAD_PROXY_OBJECT
  5
FE
330
0
100
AcDbProxyObject
 90
      499
 91
      523
 95
       25
 70
     0
 93
      180
310
00010143105050D3D354111193905351405044B4F4D50F
330
48
 94
        0
1001
ACAD
1000
AcRTDxfName
1000
ACIMSTRSYSVAR
1000
AcRTDxfName
1000
ACIMSTRSYSVAR
  0
ACAD_PROXY_OBJECT
  5
FF
330
0
100
AcDbProxyObject
 90
      499
 91
      523
 95
       25
 70
     0
 93
      212
310
0001014390505193D3111154911193905351405064F72646E6572F
330
48
 94
        0
1001
ACAD
1000
AcRTDxfName
1000
ACIMSTRSYSVAR
1000
AcRTDxfName
1000
ACIMSTRSYSVAR
  0
ACAD_PROXY_OBJECT
  5
100
330
0
100
AcDbProxyObject
 90
      499
 91
      523
 95
       25
 70
     0
 93
      180
310
00010143105050539393D111939053514050428415629F
330
48
 94
        0
1001
ACAD
1000
AcRTDxfName
1000
ACIMSTRSYSVAR
1000
AcRTDxfName
1000
ACIMSTRSYSVAR
  0
ACAD_PROXY_OBJECT
  5
101
330
0
100
AcDbProxyObject
 90
      499
 91
      523
 95
       25
 70
     0
 93
      428
310
00010143905050D3D35415925155D31254D5005214F62656E0A566F726E0A5265636874730A4C696E6B730A556E74656E0A41757831F
330
48
 94
        0
1001
ACAD
1000
AcRTDxfName
1000
ACIMSTRSYSVAR
1000
AcRTDxfName
1000
ACIMSTRSYSVAR
  0
ACAD_PROXY_OBJECT
  5
106
330
0
100
AcDbProxyObject
 90
      499
 91
      561
 95
       25
 70
     0
 93
       32
310
00010000CC
330
48
340
103
330
108
330
103
 94
        0
1001
ACAD
1000
AcRTDxfName
1000
ACAMGRCOMPDEF
1000
AcRTDxfName
1000
ACAMGRCOMPDEF
  0
ACAD_PROXY_OBJECT
  5
107
330
0
100
AcDbProxyObject
 90
      499
 91
      562
 95
       25
 70
     0
 93
       18
310
0001BF
330
48
 94
        0
1001
ACAD
1000
AcRTDxfName
1000
ACCMCONTEXT
1000
AcRTDxfName
1000
ACCMCONTEXT
  0
ACAD_PROXY_OBJECT
  5
108
330
0
100
AcDbProxyObject
 90
      499
 91
      563
 95
       25
 70
     0
 93
      178
310
00010142D4D50D0C8C0E54CC4D0C0D105005540155003F
330
48
330
106
330
107
 94
        0
1001
ACAD
1000
AcRTDxfName
1000
ACAMCOMPDEF
1000
AcRTDxfName
1000
ACAMCOMPDEF
  0
ACAD_PROXY_OBJECT
  5
109
330
0
100
AcDbProxyObject
 90
      499
 91
      564
 95
       25
 70
     0
 93
      178
310
000100AAAAAAA319705ED0F82D93A9F3994443CC2F0EFF
330
48
330
108
 94
        0
1001
ACAD
1000
AcRTDxfName
1000
ACAMCOMPDEFMGR
1000
AcRTDxfName
1000
ACAMCOMPDEFMGR
  0
ACAD_PROXY_OBJECT
  5
10A
330
0
100
AcDbProxyObject
 90
      499
 91
      565
 95
       25
 70
     0
 93
      108
310
000190140A000000000000AAAAAF
330
48
330
10B
330
10B
330
10B
330
10B
330
10B
330
0
 94
        0
1001
ACAD
1000
AcRTDxfName
1000
AMCONTEXTMGR
1000
AcRTDxfName
1000
AMCONTEXTMGR
  0
ACAD_PROXY_OBJECT
  5
10B
330
0
100
AcDbProxyObject
 90
      499
 91
      566
 95
       25
 70
     0
 93
       51
310
00010000AAAA9F
330
48
330
10A
330
108
 94
        0
1001
ACAD
1000
AcRTDxfName
1000
ACAMCONTEXTMODELER
1000
AcRTDxfName
1000
ACAMCONTEXTMODELER
  0
ACAD_PROXY_OBJECT
  5
4E56
330
0
100
AcDbProxyObject
 90
      499
 91
      509
 95
       25
 70
     0
 93
      148
310
0001014350535311D0D3D313D49353D111501F
330
48
 94
        0
1001
ACAD
1000
AcRTDxfName
1000
ACIMINTSYSVAR
  0
DICTIONARY
  5
42
102
{ACAD_REACTORS
330
41
102
}
330
41
100
AcDbDictionary
281
     1
  3
DWGSETTINGS
350
43
  3
FEM
350
AA
  3
Shaft
350
A7
  3
TRANSSETTINGS
350
44
  0
ACAD_PROXY_OBJECT
  5
63
102
{ACAD_REACTORS
330
41
102
}
330
41
100
AcDbProxyObject
 90
      499
 91
      525
 95
       25
 70
     0
 93
    18016
310
41902491013041105357CC201C00030C0132442404C504414D5F3180E0000C3004C9109013241105357CCA01400030C0132442404CD04414D5F338060000C3004669013441105357CD200C00030C0119A404D504414D5F358030000C3004669013641105357CDA00800030C0123A404DD04414D5F378040000C30046690138
310
41105357CE200400030C0119A404E504414D5F398FD0000C300904902324141505357CC4C201C00030C0132A408D10505414D5F31318030000C300466902495041505357CC4CA01C00030C013240A408C13905414D5F304E8070000C3004CA902314E41505357CC53A03800030C0132A408C93905414D5F324E8050000C300
310
4CA902334E41505357CCD3A01800030C0119A408D13905414D5F344E8030000C300466902354E41505357CD53A00C00030C0119A408D93905414D5F364E8020000C30048E902374E41505357CDD3A01000030C0119A408E13905414D5F384E8010000C300466902394E41505357CE53A3F400030C0241240CC9053906414D5
310
F31304E8070000C3004CA90334414E41905357CC4C53A00C00030C0119A40D25413906414D5F31324E8070000C3004C9029044B4C494E41505357D0D3200400030C01194264112539193D08414D5F50415245468040000C3004650B9055241484D3541905357D093D4A01C00030C01324264115925155D08414D5F56494557
310
538010000C3004650B906424548494E4441905357D25395A3F400030C02436415514905253105414D5F54528030000C3004650990348494441905357D21251201C00030C011942640D59254D06414D5F5649538070000C3004C90990650415244494D42505357D41054911253600C00030C011942641949151911253509414
310
D5F52454644494D8040000C300465099534110921395901398000000C0003FFFFFFFE415092139594D06424548494E448000000C0003FFFFFFFE411093D48C9055241484D358010000C300466411093D48CD055241484D358020000C30048E411093D48D5055241484D358000000C0003FFFFFFFE4110D0530C90134800000
310
0C0003FFFFFFFE4110D0530CD01348020000C30048E4110D0530D501348070000C3004CA4110D0530DD013481E0000C30051A4110D15393901378000000C0003FFFFFFFE4110D15395D01378000000C0003FFFFFFFE4110D312539044B4C494E8000000C0003FFFFFFFE4110D3D38C501308000000C0003FFFFFFFD034110D
310
3D38C901318000000C0003FFFFFFFD034110D3D38CD01328000000C0003FFFFFFFD034110D3D38D101328000000C0003FFFFFFFD034111115510501348000000C0003FFFFFFFE4111125051D01358000000C0003FFFFFFFE4111125312501358000000C0003FFFFFFFE411112535410650415244494D8000000C0003FFFFFF
310
FE411112535490652454644494D8000000C0003FFFFFFFE4111915353901388000000C0003FFFFFFFE415191535413901388030000C3003FFFFFFFE4151915354D410234418000000C0003FFFFFFFE4151915354D510234418030000C300466415191535593901328000000C0003FFFFFFFE415191535595101328030000C3
310
004664112105510D01388000000C0003FFFFFFFD014112125113901338000000C0003FFFFFFFD034112125115D01338000000C0003FFFFFFFD034112131253901348000000C0003FFFFFFFD01411213D0D3901378000000C0003FFFFFFFE411213D0D5D01378000000C0003FFFFFFFE4112539193D04494E464F8000000C00
310
03FFFFFFFE4113115051101358000000C0003FFFFFFFE419397D0921395902394E8000000C0003FFFFFFFE419397D0D3D38C502304E8000000C0003FFFFFFFD03419397D0D3D38C902314E8000000C0003FFFFFFFD03419397D0D3D38CD02324E8000000C0003FFFFFFFD03419397D0D3D38D102324E8000000C0003FFFFFF
310
FD03419397D0D15393902374E8000000C0003FFFFFFFE419397D0D15395D02374E8000000C0003FFFFFFFE419397D1125312502354E8000000C0003FFFFFFFE419397D2105510D02384E8000000C0003FFFFFFFD01419397D2125113902334E8000000C0003FFFFFFFD03419397D2125115D02334E8000000C0003FFFFFFFD
310
03419397D3115051102354E8000000C0003FFFFFFFE419397D391D25410349504E8000000C0003FFFFFFFE419397D412105390334414E8000000C0003FFFFFFFE419397D510D3D3902304E8000000C0003FFFFFFFD03419397D5121312502344E8000000C0003FFFFFFFD01419397D5131153902304E8000000C0003FFFFFF
310
FD03419397D594131250332414E8000000C0003FFFFFFFE411391D25410249508000000C0003FFFFFFFE411410530C9055241484D358010000C300466411410530CD055241484D358020000C30048E411410530D5055241484D358000000C0003FFFFFFFE411412105390234418000000C0003FFFFFFFE411413D4D3901358
310
000000C0003FFFFFFFE411490D1D3901378000000C0003FFFFFFFE411490D1D5D01378000000C0003FFFFFFFE4114D09492D01348000000C0003FFFFFFFD014114D150D5101348000000C0003FFFFFFFD014114D6508CD01358020000C30048E411354D653501358020000C30048E411510D3D3901308000000C0003FFFFFF
310
FD034115121312501348000000C0003FFFFFFFD01411512550C9055241484D358010000C300466411512550CD055241484D358020000C30048E411512550D5055241484D358000000C0003FFFFFFFE4115131153901308000000C0003FFFFFFFD03415514905253105545241494C8000000C0003FFFFFFFE41151493125013
310
48000000C0003FFFFFFFD01411516150C501368030000C300466411516150C901368030000C300466411516150CD01368000000C0003FFFFFFFE411516150D501368070000C3004CA411516150DD013681E0000C30051A4115925155D04564945578000000C0003FFFFFFFE41159151121034849448000000C0003FFFFFFFD
310
0241159151159035649538000000C0003FFFFFFFD02411594131250232418000000C0003FFFFFFFE4116925690501348000000C0003FFFFFFFD01AAA3F400030C01013F90A405194092340D1941119415324191941D3243932479467F6CC
340
16
340
16
340
16
340
64
340
16
340
16
340
16
340
65
340
16
340
16
340
65
340
66
340
16
340
16
340
16
340
16
340
64
340
16
340
16
340
16
340
65
340
16
340
16
340
65
340
66
340
16
340
67
340
16
340
16
340
16
340
16
340
16
340
64
340
16
340
16
340
16
340
15
340
15
340
15
340
15
340
15
340
15
340
15
340
15
340
15
340
68
340
15
340
15
340
15
340
15
340
15
340
15
340
15
340
15
340
15
340
15
340
15
340
15
340
15
340
16
340
15
340
15
340
15
340
15
340
69
340
15
340
15
340
68
340
15
340
15
340
15
340
15
340
15
340
15
340
15
340
15
340
68
340
15
340
15
340
15
340
69
340
15
340
15
340
15
340
15
340
15
340
15
340
15
340
15
340
15
340
15
340
15
340
15
340
15
340
15
340
68
340
15
340
15
340
15
340
15
340
15
340
15
340
15
340
15
340
15
340
15
340
15
340
15
340
15
340
15
340
15
340
15
340
15
340
15
340
15
340
15
340
15
340
15
340
6C
 94
        0
1001
ACAD
1000
AcRTDxfName
1000
AMGOBJPROPCFG
1000
AcRTDxfName
1000
AMGOBJPROPCFG
  0
ACAD_PROXY_OBJECT
  5
270
102
{ACAD_REACTORS
330
26B
102
}
330
26B
100
AcDbProxyObject
 90
      499
 91
      577
 95
       25
 70
     0
 93
      253
310
43D1444494D454E53494F4E2C414D44545F2A5F44494D404A9012A404A9012AF
 94
        0
1001
ACAD
1000
AcRTDxfName
1000
ACAMGFILTERDAT
1000
AcRTDxfName
1000
ACAMGFILTERDAT
  0
ACAD_PROXY_OBJECT
  5
26F
102
{ACAD_REACTORS
330
26B
102
}
330
26B
100
AcDbProxyObject
 90
      499
 91
      577
 95
       25
 70
     0
 93
      181
310
43D012A42D05357D191504B505357CA9012A404A9012AF
 94
        0
1001
ACAD
1000
AcRTDxfName
1000
ACAMGFILTERDAT
1000
AcRTDxfName
1000
ACAMGFILTERDAT
  0
ACAD_PROXY_OBJECT
  5
26C
102
{ACAD_REACTORS
330
26B
102
}
330
26B
100
AcDbProxyObject
 90
      499
 91
      577
 95
       25
 70
     0
 93
      133
310
43D054841544348404A9012A404A9012AF
 94
        0
1001
ACAD
1000
AcRTDxfName
1000
ACAMGFILTERDAT
1000
AcRTDxfName
1000
ACAMGFILTERDAT
  0
ACAD_PROXY_OBJECT
  5
26D
102
{ACAD_REACTORS
330
26B
102
}
330
26B
100
AcDbProxyObject
 90
      499
 91
      577
 95
       25
 70
     0
 93
      549
310
43D044C494E4549CE0B0E138B0A8B4E0B0A8B4E138B105357CE0B105357CE138B0A8B505357CE0B0A8B505357CE139012A404A910494E534552542C535444504152543244F
 94
        0
1001
ACAD
1000
AcRTDxfName
1000
ACAMGFILTERDAT
1000
AcRTDxfName
1000
ACAMGFILTERDAT
  0
ACAD_PROXY_OBJECT
  5
271
102
{ACAD_REACTORS
330
26B
102
}
330
26B
100
AcDbProxyObject
 90
      499
 91
      577
 95
       25
 70
     0
 93
      181
310
43D0341524341105357CD5012A404C906494E534552547
 94
        0
1001
ACAD
1000
AcRTDxfName
1000
ACAMGFILTERDAT
1000
AcRTDxfName
1000
ACAMGFILTERDAT
  0
ACAD_PROXY_OBJECT
  5
26E
102
{ACAD_REACTORS
330
26B
102
}
330
26B
100
AcDbProxyObject
 90
      499
 91
      577
 95
       25
 70
     0
 93
     1053
310
43D7841434D46434652414D452C41434D444154554D5441524745542C41434D444154554D49442C41434D57454C4453594D2C41434D5355524653594D2C41434D4645415449442C41434D504152545245462C41434D42414C4C4F4F4E2C414D44544544474553594D2C414D47534352455743414C435441424C45404A9012A
310
404A9012AF
 94
        0
1001
ACAD
1000
AcRTDxfName
1000
ACAMGFILTERDAT
1000
AcRTDxfName
1000
ACAMGFILTERDAT
  0
XRECORD
  5
65FF
102
{ACAD_REACTORS
330
65FE
102
}
330
65FE
100
AcDbXrecord
280
     1
1070
     0
1070
     1
1070
     1
  0
XRECORD
  5
6605
102
{ACAD_REACTORS
330
6604
102
}
330
6604
100
AcDbXrecord
280
     1
1070
     0
1070
     1
1070
     1
  0
XRECORD
  5
6611
102
{ACAD_REACTORS
330
6610
102
}
330
6610
100
AcDbXrecord
280
     1
1070
     0
1070
     1
1070
     1
  0
DICTIONARY
  5
63C2
102
{ACAD_REACTORS
330
63C1
102
}
330
63C1
100
AcDbDictionary
281
     1
  0
DICTIONARY
  5
640D
102
{ACAD_REACTORS
330
640C
102
}
330
640C
100
AcDbDictionary
281
     1
  0
DICTIONARY
  5
6210
102
{ACAD_REACTORS
330
620F
102
}
330
620F
100
AcDbDictionary
281
     1
  3
*A1
350
6211
  0
DICTIONARY
  5
631A
102
{ACAD_REACTORS
330
6319
102
}
330
6319
100
AcDbDictionary
281
     1
  3
*A1
350
631B
  0
DICTIONARY
  5
2F8
330
1E
100
AcDbDictionary
280
     1
281
     1
  3
ACAD_XREC_ROUNDTRIP
360
65EF
  3
ADSK_XREC_LAYOUTTHUMBNAIL
360
2F9
  0
DICTIONARY
  5
65F0
330
22
100
AcDbDictionary
280
     1
281
     1
  3
ACAD_XREC_ROUNDTRIP
360
65F1
  0
DICTIONARY
  5
6138
330
6137
100
AcDbDictionary
280
     1
281
     1
  3
ACAD_XREC_ROUNDTRIP
360
65F8
  3
BUMPTILE
360
613A
  3
DIFFUSETILE
360
6139
  3
OPACITYTILE
360
613D
  3
REFLECTIONTILE
360
613C
  3
REFRACTIONTILE
360
613E
  3
SPECULARTILE
360
613B
  0
DICTIONARY
  5
6130
330
612F
100
AcDbDictionary
280
     1
281
     1
  3
ACAD_XREC_ROUNDTRIP
360
65F7
  3
BUMPTILE
360
6132
  3
DIFFUSETILE
360
6131
  3
OPACITYTILE
360
6135
  3
REFLECTIONTILE
360
6134
  3
REFRACTIONTILE
360
6136
  3
SPECULARTILE
360
6133
  0
DICTIONARY
  5
6140
330
613F
100
AcDbDictionary
280
     1
281
     1
  3
ACAD_XREC_ROUNDTRIP
360
65F9
  3
BUMPTILE
360
6142
  3
DIFFUSETILE
360
6141
  3
OPACITYTILE
360
6145
  3
REFLECTIONTILE
360
6144
  3
REFRACTIONTILE
360
6146
  3
SPECULARTILE
360
6143
  0
DICTIONARY
  5
65E5
330
11B
100
AcDbDictionary
280
     1
281
     1
  3
ACAD_ROUNDTRIP_2008_TABLESTYLE_CELLSTYLEMAP
360
65E6
  3
ACAD_XREC_ROUNDTRIP
360
65F2
  0
ACAD_PROXY_OBJECT
  5
5D
102
{ACAD_REACTORS
330
5C
102
}
330
5C
100
AcDbProxyObject
 90
      499
 91
      522
 95
       25
 70
     0
 93
      253
310
057356C1D82406406AA8FFFFFFFF0609010042D4D50D0C8C0E54CC4D0C0D1017
330
1F
330
0
330
108
 94
        0
1001
ACAD
1000
AcRTDxfName
1000
ACMDATAENTRYBLOCK
1000
AcRTDxfName
1000
ACMDATAENTRYBLOCK
  0
ACAD_PROXY_OBJECT
  5
62
102
{ACAD_REACTORS
330
61
102
}
330
61
100
AcDbProxyObject
 90
      499
 91
      524
 95
       25
 70
     0
 93
     2533
310
6080000000000000C408000000C00040D254D3D01640600800030C0200800030C000000000000000C40C88A2085A0B6B23A22B233B2A9BA3220480A1C82C6DAA6EAE4CCA8CAF0E8A6E8C88120284A0B1B6A321A329BA3220480A1A82C6DAAECAD8C8D2DCCEA6E8C8812028420B1B6A4B229BA3220480A1682C6DA88C2E8EAD
310
AA6E8C88120284A0B1B6A127A6A9BA3220480A2082DAC8E888CAE8C2D2D8A6F2DAA6E8C88120288A0B6B23A29B2B1BA34B7B729BCB6A9BA3220480A2282DAC8E886CADCE8CAE498D2DCCAA6E8C88120285A0B6B23A2737BA32A9BA3220480A1682C682DACE98C2F2A6E8C88120285A0B1A0B6B3A234B6A9BA3220480A2282C
310
682DACE90DED8CA86D0C2E4E8A6E8C88120286A0B1A0B6B3AA34BA3632A9BA3220480A2282DAC8E8A8D0E4CAC2C898D2DCCAA6E8C881203204809FFFE7FFFF
340
6D
360
6E
360
6F
360
70
360
71
360
72
360
73
360
74
360
75
360
76
360
77
360
78
360
7F
360
80
360
8C
360
8D
360
10D
340
0
340
0
340
15
340
15
 94
        0
1001
ACAD
1000
AcRTDxfName
1000
ACMSTANDARDISO
1000
AcRTDxfName
1000
ACMSTANDARDISO
  0
ACAD_PROXY_OBJECT
  5
43
102
{ACAD_REACTORS
330
42
102
}
330
42
100
AcDbProxyObject
 90
      499
 91
      504
 95
       25
 70
     0
 93
     2530
310
4050B44574753455454494E4753A1286829C8E82A4A482B282A106660F8686AF86C608321A2A720A723A0A849A1ABE1C983E18999AA0C868A9C889282940000000000000488083A1A2A72224A0A9A0A8418983E19183E199820E868A9C8892A6A894000000000000010808321A2A72622A7250000000000000122020C868A9
310
C9E8C8C94000000000000048808731B430B6B332B93234B6B6B7B232A7F2128698929C82A4A482B282A106260F86460F866608421A624A722AA2CA820A82AC2624A722A1288AE8EAAA68682988A94283A620A9AA27A12520A80982109A82968AAC928AAE9FA04832829A1A0A622830020000419491559254D2505404C10553
310
43414C4541503313A31425512535154D510535412815DD74F87E48DCD050756455253494F4E4150531352E3030441ED115D1D4D15515125391D4D153911F7F
 94
        0
1001
ACAD
1000
AcRTDxfName
1000
AMGSETTINGSOBJ
1000
AcRTDxfName
1000
AMGSETTINGSOBJ
  0
ACAD_PROXY_OBJECT
  5
AA
102
{ACAD_REACTORS
330
42
102
}
330
42
100
AcDbProxyObject
 90
      499
 91
      504
 95
       25
 70
     0
 93
      411
310
4050346454D21092DCC6E486DECACC942842630BCA3B937BAB820A8320A6AFA322A0A20F688AE8EA68AA8A8929C8EA68A9C88FBF
 94
        0
1001
ACAD
1000
AcRTDxfName
1000
AMGSETTINGSOBJ
1000
AcRTDxfName
1000
AMGSETTINGSOBJ
  0
ACAD_PROXY_OBJECT
  5
A7
102
{ACAD_REACTORS
330
42
102
}
330
42
100
AcDbProxyObject
 90
      499
 91
      504
 95
       25
 70
     0
 93
      513
310
40505536861667421292DCE8CAE4E4EAE0E89FC84A634B3B43A2634B732A7F21A98D2CED0E898D2DCCAACD2CAEE9FC883DA22BA3A9A2AA2A24A723A9A2A7223EFF
 94
        0
1001
ACAD
1000
AcRTDxfName
1000
AMGSETTINGSOBJ
1000
AcRTDxfName
1000
AMGSETTINGSOBJ
  0
ACAD_PROXY_OBJECT
  5
44
102
{ACAD_REACTORS
330
42
102
}
330
42
100
AcDbProxyObject
 90
      499
 91
      504
 95
       25
 70
     0
 93
      852
310
4050D5452414E5353455454494E4753A2488A482AE929C8EA8A4829CA69882A8929E9C0C00800050D4F524947494E414C4C595F4F4E0600400028529A7AAA921A2A620A723A0A81A222AAA12AAA0A48AA68AA4AC8A0C0080001107B44574753455454494E4753454E447DF
 94
        0
1001
ACAD
1000
AcRTDxfName
1000
AMGSETTINGSOBJ
1000
AcRTDxfName
1000
AMGSETTINGSOBJ
  0
ACDB_BLKREFOBJECTCONTEXTDATA_CLASS
  5
6211
102
{ACAD_REACTORS
330
6210
102
}
330
6210
100
AcDbObjectContextData
 70
     3
290
     1
100
AcDbAnnotScaleObjectContextData
340
6159
 50
0.0
 10
7.654020457027286
 20
0.0
 30
0.0
 41
1.0
 42
1.0
 43
1.0
  0
ACDB_BLKREFOBJECTCONTEXTDATA_CLASS
  5
631B
102
{ACAD_REACTORS
330
631A
102
}
330
631A
100
AcDbObjectContextData
 70
     3
290
     1
100
AcDbAnnotScaleObjectContextData
340
6159
 50
0.0
 10
-4.5
 20
0.0
 30
0.0
 41
1.0
 42
1.0
 43
1.0
  0
XRECORD
  5
65EF
102
{ACAD_REACTORS
330
2F8
102
}
330
2F8
100
AcDbXrecord
280
     1
102
SHADEPLOT
 70
     1
102
SHADEPLOTRESLEVEL
 70
     2
102
SHADEPLOTCUSTOMDPI
 70
   300
  0
XRECORD
  5
2F9
102
{ACAD_REACTORS
330
2F8
102
}
330
2F8
100
AcDbXrecord
280
     1
310
28000000B40000007F00000001000800000000004C590000000000000000000000010000000000000000000000000000FFFFFF000000000000000000000000000000000000000000000000000000000000000000330000006600000099000000CC000000FF00000000330000333300006633000099330000CC330000FF3300
310
0000660000336600006666000099660000CC660000FF66000000990000339900006699000099990000CC990000FF99000000CC000033CC000066CC000099CC0000CCCC0000FFCC000000FF000033FF000066FF000099FF0000CCFF0000FFFF000000003300330033006600330099003300CC003300FF003300003333003333
310
33006633330099333300CC333300FF33330000663300336633006666330099663300CC663300FF66330000993300339933006699330099993300CC993300FF99330000CC330033CC330066CC330099CC3300CCCC3300FFCC330000FF330033FF330066FF330099FF3300CCFF3300FFFF330000006600330066006600660099
310
006600CC006600FF00660000336600333366006633660099336600CC336600FF33660000666600336666006666660099666600CC666600FF66660000996600339966006699660099996600CC996600FF99660000CC660033CC660066CC660099CC6600CCCC6600FFCC660000FF660033FF660066FF660099FF6600CCFF6600
310
FFFF660000009900330099006600990099009900CC009900FF00990000339900333399006633990099339900CC339900FF33990000669900336699006666990099669900CC669900FF66990000999900339999006699990099999900CC999900FF99990000CC990033CC990066CC990099CC9900CCCC9900FFCC990000FF99
310
0033FF990066FF990099FF9900CCFF9900FFFF99000000CC003300CC006600CC009900CC00CC00CC00FF00CC000033CC003333CC006633CC009933CC00CC33CC00FF33CC000066CC003366CC006666CC009966CC00CC66CC00FF66CC000099CC003399CC006699CC009999CC00CC99CC00FF99CC0000CCCC0033CCCC0066CC
310
CC0099CCCC00CCCCCC00FFCCCC0000FFCC0033FFCC0066FFCC0099FFCC00CCFFCC00FFFFCC000000FF003300FF006600FF009900FF00CC00FF00FF00FF000033FF003333FF006633FF009933FF00CC33FF00FF33FF000066FF003366FF006666FF009966FF00CC66FF00FF66FF000099FF003399FF006699FF009999FF00CC
310
99FF00FF99FF0000CCFF0033CCFF0066CCFF0099CCFF00CCCCFF00FFCCFF0000FFFF0033FFFF0066FFFF0099FFFF00CCFFFF00FFFFFF00000000000D0D0D001A1A1A00282828003535350043434300505050005D5D5D006B6B6B00787878008686860093939300A1A1A100AEAEAE00BBBBBB00C9C9C900D6D6D600E4E4E400
310
F1F1F100FFFFFF0000000000000000000000000000000000000000000000000000000000000000000000000000000000F5F5F5F5F5F5F5F5F5F5F5F5F5F5F5F5F5F5F5F5F5F5F5F5F5F5F5F5F5F5F5F5F5F5F5F5F5F5F5F5F5F5F5F5F5F5F5F5F5F5F5F5F5F5F5F5F5F5F5F5F5F5F5F5F5F5F5F5F5F5F5F5F5F5F5F5F5F5F5
310
F5F5F5F5F5F5F5F5F5F5F5F5F5F5F5F5F5F5F5F5F5F5F5F5F5F5F5F5F5F5F5F5F5F5F5F5F5F5F5F5F5F5F5F5F5F5F5F5F5F5F5F5F5F5F5F5F5F5F5F5F5F5F5F5F5F5F5F5F5F5F5F5F5F5F5F5F5F5F5F5F5F5F5F5F5F5F5F5F5F5F5F5F5F5F5F5F5F5F5F5F5F5E2E2E2E2E2E2E2E2E2E2E2E2E2E2E2E2E2E2E2E2E2E2E2E2E2
310
E2E2E2E2E2E2E2E2E2E2E2E2E2E2E2E2E2E2E2E2E2E2E2E2E2E2E2E2E2E2E2E2E2E2E2E2E2E2E2E2E2E2E2E2E2E2E2E2E2E2E2E2E2E2E2E2E2E2E2E2E2E2E2E2E2E2E2E2E2E2E2E2E2E2E2E2E2E2E2E2E2E2E2E2E2E2E2E2E2E2E2E2E2E2E2E2E2E2E2E2E2E2E2E2E2E2E2E2E2E2E2E2E2E2E2E2E2E2E2E2E2E2E2E2E2E2E2
310
E2E2E2E2E2E2E2E2E2E2E2E2E2E2E2E2E2E2E2E2E2E2E2E2E2F5F5F5E2F5F5F5F5F5F5F5F5E2E2E2E2E2E2E2E2E2F5F5F5F5F5F5F5F5F5F5F5F5F5F5F5F5E2E2E2E2E2E2E2E2E2F5F5F5F5F5F5F5F5F5F5F5F5F5F5F5F5E2E2E2E2E2E2E2E2E2F5F5F5F5F5F5F5F5F5F5F5F5F5F5F5F5E2E2E2E2E2E2E2E2E2F5F5F5F5F5F5
310
F5F5F5F5F5F5F5F5F5F5E2E2E2E2E2E2E2E2E2F5F5F5F5F5F5F5F5F5F5F5F5F5F5F5F5E2E2E2E2E2E2E2E2E2F5F5F5F5F5F5F5F5F5F5F5F5F5F5F5F5E2E2E2E2E2E2E2E2E2F5F5F5F5F5F5F5F5E2F5F5F5E2F5E2E2E2E2E2E2E2E2E2E2E2E2E2E2E2E2E2E2E2E2E2E2E2E2E2E2E2E2E2E2E2E2E2E2E2E2E2E2E2E2E2E2E2E2
310
E2E2E2E2E2E2E2E2E2E2E2E2E2E2E2E2E2E2E2E2E2E2E2E2E2E2E2E2E2E2E2E2E2E2E2E2E2E2E2E2E2E2E2E2E2E2E2E2E2E2E2E2E2E2E2E2E2E2E2E2E2E2E2E2E2E2E2E2E2E2E2E2E2E2E2E2E2E2E2E2E2E2E2E2E2E2E2E2E2E2E2E2E2E2E2E2E2E2E2E2E2E2E2E2E2E2E2E2E2E2E2E2E2E2E2E2E2E2E2E2E2E2E2E2E2E2E2
310
E2E2F5E2F5F5F5E2F5E2E2BEBEBEBEBEBEBEBEBEBEBEBEBEBEBEBEBEBEBEBEBEBEBEBEBEBEBEBEBEBEBEBEBEBEBEBEBEBEBEBEBEBEBEBEBEBEBEBEBEBEBEBEBEBEBEBEBEBEBEBEBEBEBEBEBEBEBEBEBEBEBEBEBEBEBEBEBEBEBEBEBEBEBEBEBEBEBEBEBEBEBEBEBEBEBEBEBEBEBEBEBEBEBEBEBEBEBEBEBEBEBEBEBEBEBEBE
310
BEBEBEBEBEBEBEBEBEBEBEBEBEBEBEBEBEBEBEBEBEBEBEBEBEBEBEBEBEBEBEBEBEBEBEBEBEBEBEBEBEBEBEBEBEBEBEBEBEBEBEBEBEE2E2F5E2F5F5F5E2F5E2E2BEE2E2E2E2E2E2C3E2E2E2E2E2E2E2E2E2E2E2E2E2E2E2E2E2E2E2E2E2E2E2C3E2E2E2E2E2E2E2E2E2E2E2C3E2E2E2E2E2E2E2E2C3E2E2E2E2E2E2E2E2E2E2
310
E2E2E2E2E2E2E2E2E2E2E2E2E2E2E2E2E2E2E2E2E2E2C3E2E2E2E2E2E2E2E2E2E2E2C3E2E2E2E2E2E2E2E2E2E2E2E2E2E2E2C3E2E2E2E2E2E2E2E2E2E2C3E2E2E2E2E2E2E2E2E2E2E2E2E2E2E2E2E2E2E2E2E2E2E2E2E2E2E2E2E2E2E2E2E2E2E2E2E2E2E2E2E2E2E2BEE2E2F5E2F5F5F5E2F5E2E2BEE2C3C3C3C3E2C3E2C3
310
C3C3C3C3C3C3C3C3C3C3C3E2E2E2E2E2E2E2E2E2E2C3E2C3C3C3C3C3E2E2E2E2E2C3C3C3C3C3C3E2E2E2C3E2E2E2E2E2E2E2E2E2C3C3C3C3C3C3C3C3C3C3C3C3C3C3C3C3C3E2E2E2E2E2E2C3C3C3C3C3C3E2E2C3C3C3E2C3E2E2C3C3C3C3C3C3C3C3C3C3E2E2E2C3E2E2E2C3C3C3C3E2E2E2C3E2E2E2E2E2E2E2E2E2C3C3C3
310
C3C3C3C3C3C3C3C3C3C3C3C3C3C3E2E2E2E2E2E2E2E2E2E2E2E2E2E2E2E2E2BEE2E2F5E2F5F5F5E2F5E2E2BEE2C3C3C3C3E2C3E2C3C3C3C3C3C3C3C3C3C3C3C3E2E2E2E2E2E2E2E2E2E2C3E2C3C3C3C3C3E2E2E2E2E2C3C3C3C3C3C3E2E2E2C3E2E2E2E2E2E2E2E2E2C3C3C3E2C3C3C3C3C3C3C3C3E2C3C3C3C3E2E2E2E2E2
310
E2C3C3C3C3C3C3E2E2C3C3C3C3C3E2E2C3C3C3C3C3C3C3C3C3C3E2E2E2C3E2E2E2C3C3C3C3E2E2E2C3E2E2E2E2E2E2E2E2E2C3C3C3E2C3C3C3C3C3C3C3C3E2C3C3C3C3E2E2E2E2E2E2E2E2E2E2E2E2E2E2E2E2E2BEE2E2F5E2F5F5F5E2F5E2E2BEC3C3C3C3C3C3C3C3C3C3C3C3C3C3C3C3C3C3C3C3C3C3C3C3C3C3C3C3C3C3
310
C3C3C3C3C3C3C3C3C3C3C3C3C3C3C3C3C3C3C3C3C3C3E2E2E2E2E2E2E2E2E2C3C3C3C3C3C3C3C3C3C3C3C3E2C3C3C3C3E2E2E2E2E2E2C3C3C3C3E2E2E2E2C3C3C3C3C3C3C3C3C3C3C3C3C3C3C3C3C3C3C3C3C3C3C3C3C3C3C3C3C3C3C3C3E2E2E2E2E2E2E2E2E2C3C3C3E2C3C3C3C3C3C3C3C3E2C3C3C3C3E2E2E2E2E2E2E2
310
E2E2E2E2E2E2E2E2E2E2BEE2E2F5E2F5F5F5E2F5E2E2BEE2E2E2E2C3E2C3E2C3C3C3C3C3C3C3C3C3C3C3C3C3C3C3C3C3E2E2E2E2E2C3E2C3C3C3C3C3C3C3C3C3E2C3C3C3C3C3E2E2E2E2C3E2E2E2E2E2E2E2E2E2E2E2E2E2E2E2E2E2E2E2E2E2E2E2E2E2E2E2E2E2E2E2E2C3C3C3E2E2E2E2E2C3C3C3C3C3C3C3C3C3E2E2C3
310
C3C3C3C3C3C3C3E2C3C3C3C3C3C3C3C3E2E2E2C3C3C3C3C3C3C3E2E2E2E2E2E2E2E2E2E2E2E2E2E2E2E2E2E2E2E2E2E2E2E2E2E2E2E2E2E2E2E2E2E2E2E2E2BEE2E2F5E2F5F5F5E2E2E2E2BEE2E2E2E2C3E2C3E2C3C3C3C3E2C3C3C3C3C3C3C3C3C3C3C3C3E2E2E2E2E2C3E2C3C3C3C3C3E2C3C3E2E2C3E2C3C3C3E2E2E2E2
310
C3E2E2E2E2E2E2E2E2E2E2E2E2E2E2E2E2E2E2E2E2E2E2E2E2E2E2E2E2E2E2E2E2C3C3C3C3E2E2E2E2C3C3C3C3C3C3C3C3C3E2E2C3E2E2C3E2C3C3E2E2C3C3C3C3C3C3C3C3E2E2E2C3C3C3C3C3C3C3E2E2E2E2E2E2E2E2E2E2E2E2E2E2E2E2E2E2E2E2E2E2E2E2E2E2E2E2E2E2E2E2E2E2E2E2E2BEE2E2E2E2F5F5F5E2E2E2
310
E2BEC3C3C3C3C3C3C3C3C3C3C3C3C3C3C3C3C3C3C3C3C3C3C3C3C3C3C3C3C3C3C3C3C3C3C3C3C3C3C3C3C3C3C3C3C3C3C3C3C3C3C3C3E2E2E2E2E2E2E2E2E2E2E2E2E2E2E2E2E2E2E2E2E2E2E2E2E2E2E2E2E2E2E2E2C3C3C3E2E2E2E2E2C3C3C3C3C3C3C3C3C3C3C3C3C3C3C3C3C3C3C3C3C3C3C3C3C3C3C3C3C3C3C3C3C3
310
C3C3C3C3C3E2E2E2E2E2E2E2E2E2E2E2E2E2E2E2E2E2E2E2E2E2E2E2E2E2E2E2E2E2E2E2E2E2E2E2E2E2BEE2E2E2E2F5F5F5E2E2E2E2BEE2E2E2E2E2E2C3E2E2E2E2E2E2E2E2E2E2E2E2E2E2E2E2E2E2E2E2E2E2E2C3E2E2E2E2E2E2E2E2E2E2E2C3E2E2E2E2E2E2E2E2C3E2E2E2E2E2E2E2E2E2E2E2E2E2E2E2E2E2E2E2E2
310
E2E2E2E2E2E2E2E2E2E2E2E2C3C3E2E2E2E2E2E2C3C3C3C3C3C3C3C3C3C3E2C3E2E2E2E2E2E2E2E2C3E2E2E2E2E2E2E2E2E2E2C3C3C3C3C3C3C3C3C3C3C3C3C3C3C3C3C3C3C3C3C3C3C3C3C3C3C3C3C3C3C3C3C3C3C3C3C3C3C3C3C3C3C3C3BEE2E2E2E2F5F5F5E2E2E2E2BEE2E2E2E2E2E2C3E2E2E2E2E2E2E2E2E2E2E2E2
310
E2E2E2E2E2E2E2E2E2E2E2C3E2E2E2E2E2E2E2E2E2E2E2C3E2E2E2E2E2E2E2E2C3E2E2E2E2E2E2E2E2E2E2E2E2E2E2E2E2E2E2E2E2E2E2E2E2E2E2E2E2E2E2E2E2C3C3E2E2E2E2E2E2C3C3C3C3C3C3C3C3C3C3E2C3E2E2E2E2E2E2E2E2C3E2E2E2E2E2E2E2E2E2E2C3E2E2C3C3C3C3C3C3C3C3C3C3C3C3C3C3C3E2C3C3C3C3
310
E2C3C3C3C3C3E2E2E2E2E2E2E2E2E2E2E2E2E2E2E2BEE2E2E2E2F5F5F5E2E2E2E2BEC3C3C3C3C3C3C3C3C3C3C3C3C3C3C3C3C3C3C3C3C3C3C3C3C3C3C3C3C3C3C3C3C3C3C3C3C3C3C3C3C3C3C3C3C3C3C3C3C3C3C3C3E2C3C3C3C3C3C3C3C3C3E2E2E2E2E2E2E2E2E2E2E2E2E2E2E2E2E2E2E2E2E2E2C3C3C3C3C3C3C3C3C3
310
C3C3C3C3C3C3C3C3C3C3C3C3C3C3C3C3C3C3C3C3C3C3C3C3C3C3C3C3C3C3C3E2E2C3C3C3E2C3C3C3C3C3C3C3C3C3C3C3E2C3C3C3C3C3C3C3C3C3C3C3E2E2E2E2E2E2E2E2E2E2E2E2E2E2BEE2E2E2E2F5F5F5E2E2E2E2BEE2E2E2E2E2E2C3E2E2E2E2E2E2E2E2E2E2E2E2E2E2E2E2E2E2E2E2E2E2E2C3E2E2E2E2E2E2E2E2E2
310
E2E2C3E2E2E2E2E2E2E2E2C3E2C3C3C3C3C3C3C3C3C3E2E2E2E2E2E2E2E2E2E2E2E2E2E2E2E2E2E2E2E2E2E2C3E2C3C3C3C3C3C3C3C3C3C3C3C3C3C3C3C3E2C3E2C3C3C3C3C3C3C3C3C3C3C3C3C3C3C3E2E2E2C3E2E2C3C3C3C3C3C3C3C3C3C3C3C3C3C3C3E2E2C3C3C3C3C3C3C3C3C3C3E2E2E2E2E2E2E2E2E2E2E2E2E2E2
310
BEE2E2E2E2F5F5F5E2E2E2E2BEE2E2E2E2E2E2C3E2E2E2E2E2E2E2E2E2E2E2E2E2E2E2E2E2E2E2E2E2E2E2C3E2E2E2E2E2E2E2E2E2E2E2C3E2E2E2E2E2E2E2E2C3E2C3C3C3C3C3C3C3C3C3E2E2E2E2E2E2E2E2E2E2E2E2E2E2E2E2E2E2E2E2E2E2C3E2C3C3C3C3C3C3C3C3C3C3C3C3C3C3C3C3E2C3E2C3C3E2C3C3C3C3C3C3
310
C3C3C3C3C3C3E2E2E2C3E2E2E2C3C3C3C3C3C3C3C3C3C3C3C3C3C3E2E2C3C3C3C3C3C3C3C3C3E2E2E2E2E2E2E2E2E2E2E2E2E2E2E2BEE2E2E2E2F5F5F5E2E2E2E2BEBEBEBEBEBEBEBEBEBEBEBEBEBEBEBEBEBEBEBEBEBEBEBEBEBEBEBEBEBEBEBEBEBEBEBEBEBEBEBEBEBEBEBEBEBEBEBEBEBEBEBEBEBEBEBEBEBEBEBEBEBE
310
BEBEBEBEBEBEBEBEBEBEBEBEBEBEBEBEBEBEBEBEBEBEBEBEBEBEBEBEBEBEBEBEBEBEBEBEBEBEBEBEBEBEBEBEBEBEBEBEBEBEBEBEBEBEBEBEBEBEBEBEBEBEBEBEBEBEBEBEBEBEBEBEBEBEBEBEBEBEBEBEBEBEBEBEBEBEBEBEBEBEBEBEBEBEBEBEBEBEBEBEBEBEBEBEBEBEBEE2E2E2E2F5F5F5E2E2E2E2BEC3C3C3C3C3C3C3E2
310
C3C3C3C3C3C3C3C3C3C3C3E2C3C3C3C3C3C3C3E2C3C3C3C3C3C3C3C3C3C3C3C3E2E2E2E2E2E2E2E2E2E2E2E2E2E2E2E2E2E2E2E2E2E2E2E2E2BEC3C3E2C3C3C3C3E2C3C3C3C3C3C3C3E2E2BEE2E2C3C3E2E2E2E2BEE2C3C3C3E2E2E2E2BEE2E2E2E2E2E2E2E2E2E2E2E2E2E2E2E2E2E2E2E2E2E2E2E2E2E2E2E2E2E2E2E2E2
310
E2E2E2E2E2E2E2E2E2E2E2E2E2E2E2E2E2E2E2E2E2E2E2E2E2E2E2E2E2E2E2E2BEE2E2E2E2F5F5F5E2F5E2E2BEE2C3C3C3C3C3C3E2C3C3C3C3C3C3C3C3C3C3C3E2C3C3C3C3C3C3C3E2C3C3C3C3C3C3C3C3C3C3C3C3E2E2E2E2E2E2E2E2E2E2E2E2E2E2E2E2E2E2E2E2E2E2E2E2E2BEC3C3C3C3C3C3C3E2C3C3C3C3C3C3C3E2
310
E2BEE2E2C3C3E2E2E2E2BEE2C3C3C3E2E2E2E2BEE2E2E2E2E2E2E2E2E2E2E2E2E2E2E2E2E2E2E2E2E2E2E2E2E2E2E2E2E2E2E2E2E2E2E2E2E2E2E2E2E2E2E2E2E2E2E2E2E2E2E2E2E2E2E2E2E2C3C3C3E2E2E2E2E2BEE2E2F5E2F5F5F5E2F5E2E2BEBEBEBEBEBEBEBEBEBEBEBEBEBEBEBEBEBEBEBEBEBEBEBEBEC3BEBEBEBE
310
BEBEBEBEBEBEBEBEBEBEC3BEBEBEBEBEBEBEBEBEBEBEBEBEBEBEBEBEBEBEBEBEBEBEBEBEBEBEBEBEBEBEBEBEBEBEBEBEBEC3BEC3BEBEBEBEBEBEBEBEBEBEBEBEBEBEBEBEBEBEBEBEBEE2E2E2C3C3C3C3C3C3C3C3C3C3C3C3C3C3C3C3C3C3C3C3C3C3C3C3C3C3C3C3C3C3C3C3E2E2E2E2E2E2E2E2E2E2E2E2E2E2C3C3C3C3E2
310
E2E2E2C3C3C3E2E2E2E2E2BEE2E2F5E2F5F5F5E2F5E2E2BEE2C3C3C3C3C3C3C3C3C3C3C3C3C3C3C3C3C3C3C3C3C3C3C3E2C3C3C3C3C3C3C3C3C3C3C3E2C3C3C3C3C3C3C3C3C3C3C3C3C3C3C3E2C3C3E2C3C3C3C3E2C3C3C3C3BEC3C3C3C3C3E2C3C3C3C3C3C3C3C3C3E2E2BEE2C3C3C3C3C3E2E2BEE2C3C3C3C3C3E2E2BEE2
310
E2E2C3E2C3C3E2C3E2C3E2E2C3E2C3C3E2C3C3C3E2C3E2E2C3E2C3C3C3C3C3E2E2C3E2E2E2E2E2E2E2E2E2E2E2E2E2E2C3C3C3C3E2E2E2E2E2C3C3E2E2E2E2E2BEE2E2F5E2F5F5F5E2F5E2E2BEE2C3C3C3C3C3C3C3C3C3C3C3C3C3C3C3C3C3C3C3C3C3C3C3C3C3C3C3C3C3C3C3C3C3C3C3C3C3C3C3C3C3C3C3C3C3C3C3C3C3
310
C3C3C3C3C3E2C3C3C3C3E2C3C3C3C3BEC3C3C3C3C3C3C3C3C3C3C3C3C3C3C3E2E2BEE2C3C3C3C3C3E2E2BEE2C3C3C3C3C3E2E2BEE2E2E2C3E2E2C3E2C3E2C3C3E2C3E2E2E2E2C3E2E2E2C3E2C3C3E2C3C3C3C3C3E2E2C3E2E2E2E2E2E2E2E2E2E2E2E2E2E2E2C3C3E2E2E2E2E2C3C3C3E2E2E2E2E2BEE2E2F5E2F5F5F5E2F5
310
E2E2BEBEBEBEBEBEBEBEBEBEBEBEBEBEBEBEBEBEBEBEBEBEBEBEBEBEBEBEBEBEBEBEBEBEBEBEBEBEBEBEBEBEBEBEBEBEBEBEBEBEBEBEBEBEBEBEBEBEBEBEBEBEBEBEBEBEBEBEBEBEBEBEBEBEBEBEBEBEBEBEBEBEBEBEBEBEBEBEBEBEBEBEBEBEBEBEBEBEBEBEBEBEBEE2E2E2C3C3C3C3C3C3C3C3C3C3C3C3C3C3C3C3C3C3C3
310
C3C3C3C3C3C3C3C3C3C3E2E2C3E2E2E2E2E2E2E2E2E2E2E2E2E2E2E2C3C3E2E2E2E2E2C3C3C3E2E2E2E2E2BEE2E2F5E2F5F5F5E2F5E2E2BEE2C3C3C3C3C3C3C3C3C3C3C3C3C3C3E2C3E2C3C3C3E2C3C3C3C3C3C3E2E2E2E2E2E2E2E2E2E2E2E2E2E2E2E2E2E2E2E2E2E2E2E2E2E2E2E2E2E2E2E2E2E2E2E2E2BEE2E2E2E2E2
310
E2E2E2E2BEBEBEBEBEBEE2E2BEE2C3C3C3C3C3E2E2BEE2C3C3C3C3C3C3E2BEE2E2E2C3E2C3C3E2C3E2C3C3E2C3E2C3E2E2C3C3C3E2C3E2C3C3E2C3E2C3E2C3E2C3C3E2E2E2E2E2E2E2E2E2E2E2E2E2E2E2C3C3E2E2E2E2E2C3C3C3E2E2E2E2E2BEE2E2F5E2F5F5F5E2F5E2E2BEE2C3C3C3C3C3C3C3C3C3C3C3C3C3C3E2C3E2
310
C3C3C3C3C3C3C3C3C3C3E2E2E2E2E2E2E2E2E2E2E2E2E2E2E2E2E2E2E2E2E2E2E2E2E2E2E2E2E2E2E2E2E2E2E2E2E2BEE2E2E2BEBEBEBEBEBEE2E2E2E2E2E2E2E2BEE2E2C3C3C3C3E2E2BEE2C3C3C3C3C3E2E2BEE2E2E2C3E2C3C3E2C3E2E2E2E2C3E2E2E2E2C3E2C3E2C3E2E2C3E2C3E2C3E2C3E2C3C3E2E2E2E2E2E2E2E2
310
E2E2E2E2E2E2E2C3C3E2E2E2E2E2E2E2C3E2E2E2E2E2BEE2E2F5E2F5F5F5E2F5E2E2BEBEBEBEBEBEBEBEBEBEBEBEBEBEBEBEBEBEBEBEBEBEBEBEBEBEBEBEBEBEBEBEBEBEBEBEBEBEBEBEBEBEBEBEBEBEBEBEBEBEBEBEBEBEBEBEBEBEBEBEBEBEBEBEBEBEBEBEBEBEBEBEBEBEBEBEBEBEBEBEBEBEBEBEBEBEBEBEBEBEBEBEBE
310
BEBEBEBEBEBEBEBEBEBEE2E2E2C3C3C3C3C3C3C3C3C3C3C3C3C3C3C3C3C3C3C3C3C3C3C3C3C3E2C3E2C3E2C3C3E2E2E2E2E2E2E2E2E2E2E2E2E2E2E2C3E2E2E2E2E2E2E2C3C3E2E2E2E2E2BEE2E2F5E2F5F5F5E2F5E2E2BEE2C3C3C3C3C3C3C3C3E2C3C3C3C3C3C3C3C3C3E2C3C3C3C3C3C3C3C3E2C3C3C3C3C3C3C3C3C3C3
310
C3C3C3C3C3C3C3C3C3C3C3C3C3C3C3C3C3C3C3C3C3C3C3C3C3C3BEC3C3C3C3C3E2C3C3C3C3C3E2C3C3C3C3C3BEC3C3C3BEE2C3C3E2BEC3C3C3BEE2C3C3E2BEE2E2E2C3E2C3C3E2C3E2C3C3E2C3E2C3C3E2C3C3C3E2C3E2C3C3E2C3E2C3E2C3E2C3C3E2E2E2E2E2E2E2E2E2E2E2E2E2E2E2C3E2E2E2E2E2E2E2C3E2E2E2E2E2
310
E2BEE2E2F5E2F5F5F5E2F5E2E2BEE2C3C3C3C3C3C3C3C3E2C3C3C3C3C3C3C3C3C3E2C3C3C3C3C3C3C3C3E2C3C3C3C3C3C3C3C3C3C3C3C3E2C3C3C3C3C3C3C3C3C3C3C3E2C3C3C3C3C3C3C3C3C3C3C3BEC3C3C3C3C3C3C3C3C3C3C3E2C3C3C3C3C3BEC3C3C3BEE2C3C3E2BEC3C3C3BEE2C3C3E2BEE2E2E2C3E2C3C3E2C3E2E2
310
E2E2C3E2C3E2E2C3E2C3E2C3E2E2E2E2C3E2C3E2C3E2C3C3E2E2E2E2E2E2E2E2E2E2E2E2E2E2E2C3E2E2E2E2E2E2E2C3E2E2E2E2E2E2BEE2E2F5E2F5F5F5E2F5E2E2BEBEBEBEBEBEBEBEBEBEBEBEBEBEBEBEBEBEBEBEBEBEBEBEBEBEBEBEBEBEBEBEBEBEBEBEBEBEBEBEBEBEBEBEBEBEBEBEBEBEBEBEBEBEBEBEBEBEBEBEBE
310
BEBEBEBEBEBEBEBEBEBEBEBEBEBEBEBEBEBEBEBEBEBEBEBEBEBEBEBEBEBEBEBEBEBEBEBEBEBEBEBEBEBEE2E2E2C3C3C3C3C3C3C3C3C3C3C3C3C3C3C3C3C3C3C3C3C3C3C3C3C3E2C3E2C3C3C3C3E2E2E2E2E2E2E2E2E2E2E2E2E2E2E2C3C3C3C3C3C3C3C3C3E2E2E2E2E2E2BEE2E2F5E2F5F5F5E2F5E2E2BEC3C3C3C3C3C3C3
310
E2C3C3C3C3C3C3C3C3C3C3C3E2E2C3C3C3E2C3C3C3C3C3C3C3C3E2C3C3E2C3C3C3C3C3E2E2E2E2E2E2E2E2E2E2E2E2E2E2E2E2E2E2E2E2E2E2E2BEC3C3C3C3C3C3C3E2C3E2E2C3C3C3C3E2E2BEE2C3C3BEE2C3C3E2BEE2C3C3BEE2C3C3E2BEE2E2E2C3E2E2C3E2C3E2C3C3E2C3E2C3C3E2C3E2C3E2C3E2C3C3E2C3E2C3E2C3
310
E2C3C3E2E2E2C3C3C3C3C3C3C3C3E2E2E2E2E2E2E2E2E2E2E2E2E2E2E2E2E2E2E2BEE2E2F5E2F5F5F5E2F5E2E2BEE2C3C3C3C3C3C3E2C3C3C3C3C3C3C3C3C3C3C3C3C3C3C3C3C3C3C3C3C3C3C3C3C3C3C3C3C3C3C3C3C3C3E2E2E2E2E2E2E2E2E2E2E2E2E2E2E2E2E2E2E2E2E2E2E2BEC3C3C3C3C3C3C3E2C3E2E2C3C3C3C3
310
E2E2BEE2C3C3BEE2C3C3E2BEC3C3C3BEE2C3C3E2BEE2E2E2C3E2C3C3E2C3E2C3E2E2C3E2C3E2E2C3E2E2E2C3E2E2E2E2C3E2C3E2C3E2C3C3E2E2E2C3C3C3C3C3C3C3C3C3C3C3C3E2E2E2E2C3E2E2E2E2E2E2E2E2E2E2BEE2E2F5E2F5F5F5E2F5E2E2BEBEBEBEBEBEBEBEBEBEBEBEBEBEBEBEBEBEBEBEBEBEBEBEBEBEBEBEBE
310
BEBEBEBEBEBEBEBEBEBEBEBEBEBEBEBEBEBEBEBEBEBEBEBEBEBEBEBEBEBEBEBEBEBEBEBEBEBEBEBEBEBEBEBEBEBEBEBEBEBEBEBEBEBEBEBEBEBEBEBEBEBEBEBEBEBEBEBEBEBEBEBEBEBEE2E2E2C3C3C3C3C3C3C3C3C3C3C3C3C3C3C3C3C3C3C3C3C3C3C3C3C3E2E2E2C3C3C3C3E2E2E2C3C3C3E2E2E2E2E2E2E2C3C3E2E2C3
310
C3E2C3C3E2E2E2E2E2E2E2E2BEE2E2F5E2F5F5F5E2F5E2E2BEE2C3C3C3C3C3C3C3C3C3C3C3C3C3C3C3E2C3C3C3C3C3C3C3C3C3C3C3C3C3C3C3C3C3C3C3C3C3C3C3C3C3C3C3C3C3C3C3C3C3C3C3E2C3C3C3C3C3C3C3C3C3E2E2E2BEC3C3C3C3E2C3C3C3C3C3E2C3C3C3C3C3E2BEE2E2E2E2C3C3C3C3E2E2E2E2E2E2E2E2E2BE
310
E2E2E2C3C3C3C3C3C3E2C3C3E2C3E2C3E2E2C3C3C3C3C3E2C3E2C3C3E2E2E2C3C3C3C3E2E2E2E2E2E2E2E2E2E2E2E2E2C3C3E2C3E2E2E2E2E2C3E2E2E2E2E2E2E2BEE2E2F5E2F5F5F5E2F5E2E2BEC3C3C3C3C3C3C3C3C3C3C3C3C3C3C3C3E2C3C3C3C3C3C3C3C3C3C3C3C3C3C3C3C3C3C3C3C3C3C3C3C3C3C3C3C3C3C3C3C3
310
C3C3C3E2C3C3C3C3C3C3C3C3C3E2E2E2BEC3C3C3C3C3C3C3C3C3C3E2C3C3C3C3C3E2BEE2E2E2E2C3C3C3C3C3E2E2E2E2E2E2E2E2BEE2E2E2C3C3C3C3C3C3E2C3E2E2C3E2C3E2E2C3C3C3E2C3E2C3C3E2C3E2E2E2C3C3C3C3E2E2E2E2E2E2E2E2E2E2E2E2E2C3C3E2C3E2E2E2E2E2E2C3E2E2E2E2E2E2BEE2E2F5E2F5F5F5E2
310
E2E2E2BEBEBEBEBEBEBEBEBEBEBEBEBEBEBEBEBEBEBEBEBEBEBEBEBEBEBEBEBEBEBEBEBEBEBEBEBEBEBEBEBEBEBEBEBEBEBEBEBEBEBEBEBEBEBEBEBEBEBEBEBEBEBEBEBEBEBEBEBEBEBEBEBEBEBEBEBEBEBEBEBEBEBEBEBEBEBEBEBEBEBEBEBEBEBEBEBEBEBEBEBEBEBEE2E2E2C3C3C3C3C3C3C3C3C3C3C3C3C3C3C3C3C3C3
310
C3C3C3C3C3C3C3C3C3C3C3C3C3C3E2E2E2E2E2E2E2E2E2E2E2E2E2C3C3C3E2E2E2E2E2E2E2C3E2E2E2E2E2E2BEE2E2E2E2F5F5F5E2E2E2E2BEE2C3C3C3C3C3E2C3C3C3C3C3C3C3E2E2E2E2E2E2E2E2E2E2E2E2E2E2E2BEE2E2E2E2E2E2E2E2E2E2E2C3C3C3C3E2C3C3C3C3C3C3E2E2E2E2E2E2E2E2E2E2E2E2E2BEE2E2E2E2
310
E2E2E2E2E2E2E2E2E2E2E2E2E2E2E2E2E2E2E2E2E2E2E2E2E2E2E2E2E2E2E2BEE2E2E2E2C3C3C3C3C3C3C3C3C3C3C3C3E2C3C3C3C3C3C3C3C3C3E2C3C3C3C3C3E2C3E2E2E2E2E2E2E2E2E2E2E2E2E2E2C3C3E2C3E2E2E2E2E2E2C3E2E2E2E2E2E2BEE2E2E2E2F5F5F5E2E2E2E2BEE2C3C3C3C3C3C3C3C3C3C3C3C3C3E2E2E2
310
E2E2E2E2E2E2E2E2E2E2E2E2BEE2E2E2E2E2E2E2E2E2E2E2C3C3C3C3E2C3C3C3C3C3C3E2E2E2E2E2E2E2E2E2E2E2E2E2BEE2E2E2E2E2E2E2E2E2E2E22828E2E2E228E2E2E2E2E2E2E2E2E2E2E2E2E2E2E2E2E2E2BEE2E2E2C3C3C3C3C3C3C3C3C3C3C3C3C3E2C3C3C3C3C3C3C3C3C3E2C3C3C3C3C3C3C3E2E2E2E2E2E2E2E2
310
E2E2E2E2E2E2C3C3E2C3E2E2E2E2E2C3E2E2E2E2E2E2E2BEE2E2E2E2F5F5F5E2E2E2E2BEBEBEBEBEBEBEBEBEBEBEBEBEBEBEBEBEBEBEBEBEBEBEBEBEBEBEBEBEBEBEBEBEBEBEBEBEBEBEBEBEBEBEBEBEBEBEC3BEBEBEBEC3BEBEBEBEBEBEBEBEBEBEBEBEBEBEE2E2E2E2E2E2E2E2E2E2E2282828C32828E2E2E2E2E2E2E2E2
310
E2E2E2E2E2E2E2E2E2E2BEE2E2E2C3C3C3C3C3E2C3C3C3C3E2C3C3C3C3C3C3C3C3C3C3C3C3C3E2E2E2E2E2E2E2E2E2E2E2E2C3C3C3C3C3C3E2E2E2C3C3E2E2C3E2E2E2C3E2E2E2E2E2E2E2E2BEE2E2E2E2F5F5F5E2E2E2E2BEE2C3C3C3C3C3E2C3C3C3C3C3C3C3C3C3E2C3C3C3C3C3C3E2C3C3C3E2E2BEE2E2E2E2E2E2E2E2
310
E2E2E2C3C3C3C3C3C3E2C3C3C3C3C3C3C3E2E2E2E2E2E2E2E2E2E2BEE2E2E2E2E2E2E2E2E2E2E228E2C3C3E228E2E2E2E2E2E2E2E2E2E2E2E2E2E2E2E2E2E2BEE2E2E2C3C3C3C3E2E2C3C3C3C3E2C3C3C3C3C3C3C3C3C3C3C3C3E2E2E2E2E2E2E2E2E2E2E2E2E2C3C3C3C3C3C3C3C3C3C3C3E2E2E2C3C3C3E2E2E2E2E2E2E2
310
E2E2BEE2E2E2E2F5F5F5E2E2E2E2BEE2C3C3C3C3C3E2C3C3C3C3C3C3C3C3C3C3C3C3C3C3C3C3C3C3C3C3E2E2BEE2E2E2E2E2E2E2E2E2E2E2C3C3C3C3C3C3C3C3C3C3C3C3C3C3E2E2E2E2E2E2E2E2E2E2BEE2E2E2E2E2E2E2E2E2E2E228E2E2E2E2BEBEBEBEBEBEBEBEBEBEBEBEBEE2E2E2E2E2E2BEE2E2E2C3C3C3C3E2E2C3
310
C3C3C3E2C3C3C3C3C3C3C3C3C3C3C3E2E2E2E2E2E2E2E2E2E2E2E2E2E2C3C3C3C3C3C3E2E2E2E2E2E2E2E2E2E2E2E2E2E2E2E2E2E2E2E2BEE2E2E2E2F5F5F5E2E2E2E2BEBEBEBEBEBEBEBEBEBEBEBEBEBEC3BEBEBEBEC3C3C3C3BEBEBEC3C3BEBEBEBEBEBEBEBEBEBEBEBEBEBEBEBEBEBEBEBEC3C3C3BEBEBEC3C3BEBEBEBE
310
BEBEBEBEBEBEBEE2E2E2E2E2E2E2E2E2E2E228E2E2E2E2BEE2E2E2E2E2E2E2E2E2E2E2BEE2E2E2E2E2E2BEE2E2E2E2E2E2E2E2E2E2E2E2E2E2E2E2E2E2E2E2E2E2E2E2E2E2E2E2E2E2E2E2E2E2E2E2E2E2E2E2E2E2E2E2E2E2E2C3C3C3C3C3C3C3C3C3C3C3C3C3E2E2E2E2E2BEE2E2E2E2F5F5F5E2E2E2E2BEE2C3C3C3E2C3
310
C3C3C3C3C3C3C3E2C3C3C3C3E2C3C3C3C3C3C3E2E2E2E2BEE2E2E2E2E2E2E2E2E2E2E2C3C3C3C3E2E2E2E2E2E2E2E2E2E2E2E2E2E2E2E2E2E2E2E2BEE2E2E2E2E2E2E2E2E2E2E228E2E2E2E2BEE2E2E2E2E2E2E2E2E2E2E2BEE2E2E2E2E2E2BEE2E2E2E2E2E2E2E2E2E2E2E2E2E2E2E2E2E2E2E2E2E2E2E2E2E2E2E2E2E2E2
310
E2E2E2E2E2E2E2E2E2E2E2E2E2E2E2E2C3C3C3C3C3C3C3C3C3C3C3C3C3E2E2E2E2E2BEE2E2E2E2F5F5F5E2F5E2E2BEE2C3C3C3C3C3C3C3C3C3C3C3C3C3C3C3C3C3C3C3C3C3C3C3C3E2E2E2E2BEE2E2E2E2E2E2E2E2E2E2E2C3C3C3C3E2E2E2E2E2E2E2E2E2E2E2E2E2E2E2E2E2E2E2E2BEE2E2E2E2E2E2E2E2E2E2E228E2E2
310
E2E2BEE2E2E2E2E2E2E2E2E2E2E2BEE2E2E2E2E2E2BEE2E2E2E2E2E2E2E2E2E2E2E2E2E2E2E2E2E2E2E2E2E2E2E2E2E2E2E2E2E2E2E2E2E2E2E2E2E2E2E2E2E2E2E2E2E2E2E2E2E2E2E2E2E2E2E2E2E2E2E2E2E2E2E2E2BEE2E2F5E2F5F5F5E2F5E2E2BEBEBEBEBEBEBEBEBEBEBEBEBEBEBEBEBEBEBEBEBEBEBEBEBEBEBEBE
310
BEBEBEBEBEBEBEBEBEBEBEBEBEBEBEBEBEBEBEBEBEBEBEBEBEBEBEBEBEBEBEBEBEBEBEBEBEBEBEE2E2E2E2E2E2E2E2E2E2E228E2E2E2E2BEE2E2E2E2E2E2E2E2E2E2E2BEE2E2E2E2E2E2BEE2E2E2E2E2E2E2E2E2E2E2E2E2E2E2E2E2E2E2E2E2E2E2E2E2E2E2E2E2E2E2E2E2E2E2E2E2E2E2E2E2E2E2E2E2E2E2E2E2E2E2E2
310
E2E2E2E2E2E2E2E2E2E2E2E2E2BEE2E2F5E2F5F5F5E2F5E2E2BEE2C3C3C3E2C3C3C3C3C3C3C3C3E2E2E2E2E2E2E2E2E2E2E2E2E2E2E2E2BEE2E2E2E2E2E2E2E2E2E2E2C3C3C3E2E2E2E2E2E2E2E2E2E2E2E2E2E2E2E2E2E2E2E2E2BEE2E2E2E2E2E2E2E2E2E2E228E2E2E2E2BEE2E2E2E2E2E2E2E2E2E2E2BEE2E2E2E2E2E2
310
BEE2E2E2E2E2E2E2E2E2E2C3C3C3C3C3C3C3C3C3C3C3C3C3C3C3C3C3C3C3C3C3C3C3C3C3C3C3C3C3C3C3C3C3C3C3C3C3C3C3C3C3C3C3C3C3C3E2E2E2E2E2E2E2E2E2BEE2E2F5E2F5F5F5E2F5E2E2BEE2C3C3C3C3C3C3C3C3C3C3C3C3E2E2E2E2E2E2E2E2E2E2E2E2E2E2E2E2BEE2E2E2E2E2E2E2E2E2E2E2C3C3C3E2E2E2E2
310
E2E2E2E2E2E2E2E2E2E2E2E2E2E2E2E2E2BEE2E2E2E2E2E2E2E2E2E2E228E2E2E2E2BEE2E2E2E2E2E2E2E2E2E2E2BEE2E2E2E2E2E2BEE2E2E2E2E2E2E2E2E2E2C3E2E2E2E2E2C3E2C3E2E2E2E2E2E2E2E2C3E2E2E2E2C3E2E2E2C3E2C3C3C3E2E2E2E2C3C3C3C3C3C3C3C3E2E2C3E2E2E2E2E2E2E2E2E2BEE2E2F5E2F5F5F5
310
E2F5E2E2BEBEBEBEBEBEBEBEBEBEBEBEBEBEBEBEBEBEBEBEBEBEBEBEBEBEBEBEBEBEBEBEBEBEBEBEBEBEBEBEBEBEBEBEBEBEBEBEBEBEBEBEBEBEBEBEBEBEBEBEBEBEBEBEBEBEBEE2E2E2E2E2E2E2E2E2E2E228E2E2E2E2BEBEBEE2E2E2E2E2E2E2BEBEBEE2E2E2E2E2E2BEE2E2E2E2E2E2E2E2E2E2C3E2E2E2E2E2C3E2C3C3
310
C3C3E2E2E2E2E2C3E2E2E2C3C3E2E2E2C3E2C3C3E2E2E2E2E2C3C3C3C3E2E2E2C3C3E2C3E2E2E2E2E2E2E2E2E2BEE2E2F5E2F5F5F5E2F5E2E2BEE2C3C3C3C3C3E2C3C3C3C3C3C3C3C3C3C3C3E2C3C3E2C3C3E2E2E2E2E2BEE2E2E2E2E2E2E2E2E2E2E2C3C3C3C3C3C3E2C3C3C3C3C3C3C3E2E2E2E2E2E2E2E2E2E2BEE2E2E2
310
E2E2E2E2E2E2E2E228E2E2E2E2BEBEBEE2E2E2E2E2E2E2BEBEBEE2E2E2E2E2E2BEE2E2E2E2E2E2E2E2E2E2C3E2E2E2E2E2C3C3E2E2E2E2E2E2E2E2E2C3E2E2E2E2C3E2E2E2C3C3C3C3E2E2E2E2E2C3C3C3E2E2E2E2C3C3E2C3E2E2E2E2E2E2E2E2E2BEE2E2F5E2F5F5F5E2F5E2E2BEE2C3C3C3C3C3C3C3C3C3C3C3C3C3C3C3
310
C3C3E2C3C3C3C3C3E2E2E2E2E2BEE2E2E2E2E2E2E2E2E2E2E2C3C3C3C3C3C3C3C3C3C3C3C3C3C3E2E2E2E2E2E2E2E2E2E2BEE2E228E2E2E228E2E2E2BEBEBEBEBEBEBEE2BEE2E2E2E2E2E2E2BEE2BEBEBEBEBEBEBEBEE2E2E2E2E2E2E2E2E2E2C3E2E2E2E2E2C3E2E2E2E2E2E2E2E2E2E2C3C3C3C3C3C3C3C3C3C3C3C3C3C3
310
C3C3C3C3C3E2E2E2E2E2E2C3C3E2C3E2E2E2E2E2E2E2E2E2BEE2E2F5E2F5F5F5E2F5E2E2BEBEBEBEBEBEBEBEBEBEBEBEBEBEBEBEBEBEBEBEBEBEBEBEBEBEBEBEBEBEBEBEBEBEBEBEBEBEBEBEBEBEC3C3C3BEC3C3C3C3C3BEC3C3C3C3BEBEBEBEBEBEBEBEBEBEBE282828282828282828ECBEECECECECECBEECBEECECECECEC
310
ECECBEECBEECECECECECBEECE2E2E2E2E2E2E2E2E2E2C3E2E2E2E2E2C3E2E2C3C3C3E2E2E2E2E2C3E2E2E2C3C3E2E2E2C3C3C3C3C3E2E2E2E2C3C3C3E2E2E2E2C3C3E2C3E2E2E2E2E2E2E2E2E2BEE2E2F5E2F5F5F5E2F5E2E2BEE2C3C3C3C3C3C3C3C3C3C3C3C3C3C3C3C3C3C3E2C3C3E2C3C3E2E2E2E2BEE2E2E2E2E2E2E2
310
E2E2E2E2C3C3C3C3E2C3C3C3C3C3C3E2E2E2E2E2E2E2E2E2E2E2E2E2BEE2E2E2E2C3C3E2E2E2E2BEBEBEBEBEBEBEBEBEE2E2E2E2E2E2E2BEBEBEBEBEBEBEBEBEBEE2E2E2E2E2E2E2E2E2E2C3E2E2E2E2E2C3E2E2E2E2E2E2E2E2E2E2C3E2E2E2C3C3E2E2E2C3C3C3C3C3E2E2E2E2C3C3C3E2C3C3C3C3E2E2C3E2E2E2E2E2E2
310
E2E2E2BEE2E2F5E2F5F5F5E2F5E2E2BEE2C3C3C3C3C3C3C3C3C3C3C3C3C3C3C3C3C3C3E2C3C3C3C3C3E2E2E2E2BEE2E2E2E2E2E2E2E2E2E2E2C3C3C3C3E2C3C3C3C3C3C3E2E2E2E2E2E2E2E2E2E2E2E2E2BEE2E2E2E2C3C3E2E2E2E2E228E2E2E2E2BE28BEE2E2E2E2E2E2E2BE28BEE2E2E2E2E2E2BEE2E2E2E2E2E2E2E2E2
310
E2C3E2E2E2E2E2E2E2E2E2E2E2E2E2E2E2E2C3C3C3C3C3C3C3C3C3C3C3C3C3C3C3C3C3C3C3C3E2C3E2E2E2E2E2E2C3E2E2E2E2E2E2E2E2E2BEE2E2F5E2F5F5F5E2F5E2E2BEBEBEBEBEBEBEBEBEBEBEBEBEBEBEBEBEBEBEBEBEBEBEBEBEBEBEBEBEBEBEBEBEBEBEBEBEBEBEBEBEBEBEBEBEBEBEC3BEBEBEBEC3BEBEBEBEBEBE
310
BEBEBEBEBEBEBEBEE2E2E2E2E2E2E2E2E2E2E228E2E2E2E2BEBE2828E2E2E2E2E228282828E2E2E2E2E2E2BEE2E2E2E2E2E2E2E2E2E2C3E2E2E2E2E2C3E2C3E2E2E2E2E2E2E2E2C3E2E2E2C3C3E2E2E2C3C3C3C3C3E2E2E2E2C3C3C3C3C3C3C3C3E2E2C3E2E2E2E2E2E2E2E2E2BEE2E2F5E2F5F5F5E2F5E2E2BEE2C3C3C3C3
310
C3C3C3C3C3C3C3C3C3C3C3E2C3C3C3C3C3C3C3C3C3C3E2E2BEE2E2E2E2E2E2E2E2E2E2E2C3C3C3C3C3C3C3C3E2E2E2E2E2E2E228C328E2E2E2E2E2E2BEE2E2E2E2E2E2E2E2E2E2E228C3C3E2E2BEE228E228E2E2E2E22828E2BE28E2E2E2E2E2BEE2E2E2E2E2E2E2E2E2E2C3E2E2E2E2E2C3E2C3C3C3C3E2E2E2E2E2C3E2E2
310
E2C3C3E2E2E2C3C3C3C3C3E2E2E2E2C3C3C3E2E2E2E2C3C3E2C3E2E2E2E2E2E2E2E2E2BEE2E2F5E2F5F5F5E2F5E2E2BEE2C3C3C3C3C3C3C3C3C3C3C3C3C3C3C3E2C3C3C3C3C3C3C3C3C3C3E2E2BEE2E2E2E2E2E2E2E2E2E2E2E2C3C3C3C3C3C3C3E2E2E2E2E2E2E2E2C328E2E2E2E2E2E2BEE2E2E2E2E2E2E2E2E2E2E228C3
310
C3E2E2BEE2E2E228E2E2E228E2E2E2BEE228E2E2E2E2BEE2E2E2E2E2E2E2E2E2E2C3E2E2E2E2E2C3C3E2E2E2E2E2E2E2E2E2C3E2E2E2C3C3E2E2E2C3E2C3C3C3E2E2E2E2C3E2C3E2E2E2E2C3C3E2C3E2E2E2E2E2E2E2E2E2BEE2E2F5E2F5F5F5E2F5E2E2BEBEBEBEBEBEBEBEBEBEBEBEBEBEBEBEBEBEBEBEBEBEBEBEBEBEBE
310
BEBEBEBEBEBEBEBEBEBEBEBEBEBEBEBEBEBEBEBEBEBEBEBEBEBEBEBEBEBEBE28BEBEBEBEBEBEBEBEE2E2E2E2E2E2E2E2E2E2E228C3C3E2E2BEE2E2E2E228E228E2E2E2E2BEE228E2E2E2E2BEE2E2E2E2E2E2E2E2E2E2C3E2E2E2E2E2E2E2E2E2E2E2E2E2E2E2E2C3C3C3C3C3C3C3C3C3C3C3C3C3C3C3C3C3C3C3E2E2E2E2E2
310
E2C3C3E2C3E2E2E2E2E2E2E2E2E2BEE2E2F5E2F5F5F5E2F5E2E2BEE2C3C3C3C3C3C3C3C3C3C3C3C3C3C3C3E2C3C3C3C3C3C3C3C3C3C3C3E2BEE2E2E2E2E2E2E2E2E2E2E2C3C3C3C3C3C3C3C3E2E2E2E2E2E2E2E2E2E2E2E2E2E2E2E2BEE2E2E2E2E2E2E2E2E2E228E2E2E2E2E2BEE2E2E2C3C3C3C3C3C3C3E2BEE2E228E2E2
310
E2BEE2E2E2E2E2E2E2E2E2E2C3E2E2E2E2E2C3E2E2E2E2E2E2E2E2E2E2C3E2E2E2C3E2E2E2E2C3C3C3C3C3E2E2E2E2C3C3C3E2E2E2E2C3C3E2C3E2E2E2E2E2E2E2E2E2BEE2E2F5E2F5F5F5E2F5E2E2BEE2C3C3C3C3C3C3C3C3C3C3C3C3C3C3C3E2C3C3C3C3C3C3C3C3C3C3C3E2BEE2E2E2E2E2E2E2E2E2E2E2C3C3C3C3C3C3
310
C3C3E2E2E2E2E2E2E2E2E2E2E2E2E2E2E2E2BE28282828282828282828282828E2E2E2BEE2E2E2C3C3C3C3C3C3C3E2BEE2E228E2E2E2BEE2E2E2E2E2E2E2E2E2E2C3E2E2E2E2E2C3E2E2C3C3C3E2E2E2E2E2C3E2E2E2C3E2E2E2E2C3C3C3C3C3E2E2E2E2C3C3E2E2C3C3C3C3E2E2C3E2E2E2E2E2E2E2E2E2BEE2E2F5E2F5F5
310
F5E2E2E2E2BEBEBEBEBEBEBEBEBEBEBEBEBEBEBEBEBEBEBEBEBEBEBEBEBEBEBEBEBEBEBEBEBEBEBEBEBEBEBEBEBEBEBEBEBEBEBEBEBEBEBEBEBEBEBEBEBEBEBEBEBEBEBEBEBEBEBEC3C3C3C3C3C3C3C3C3C3C3C3C3E2E2E2BEBEBEBEBEBEBEBEBEBEBEBEBEE2E2E228E2E2BEE2E2E2E2E2E2E2E2E2E2C3C3C3C3C3C3C3C3C3
310
C3C3C3C3C3C3C3C3C3C3C3C3C3C3C3C3C3C3C3C3C3C3C3C3C3C3C3C3C3C3C3C3C3C3C3C3C3E2E2E2E2E2E2E2E2E2BEE2E2E2E2F5F5F5E2E2E2E2BEC3C3C3C3C3E2C3C3C3C3C3E2E2E2E2E2E2E2E2E2E2E2E2E2E2E2E2E2E2BEE2E2E2E2E2E2E2E2E2E2E2E2C3C3C3E2E2E2E2E2E2E2E2E2E2E2E2E2E2E2E2E2E2E2E2BEE2C3
310
C3C3E2C3C3C3C3C3C3C3C3E2E2E2E2E2E2E2E2E2E2E2E2C3C3C3C3C3C3E228E2E2BEE2E2E2E2E2E2E2E2E2E2C3E2E2E2E2E2E2E2E2E2E2E2E2E2E2E2E2C3C3C3C3C3C3C3C3E2C3E2E2E2E2E2E2E2E2C3E2E2E2E2E2E2E2E2E2C3E2E2E2E2E2E2E2E2E2BEE2E2E2E2F5F5F5E2E2E2E2BEE2C3C3C3C3C3C3C3C3C3C3E2E2E2E2
310
E2E2E2E2E2E2E2E2E2E2E2E2E2E2BEE2E2E2E2E2E2E2E2E2E2E2C3C3C3C3E2E2E2E2E2E2E2E2E2E2E2E2E2E2E2E2E2E2E2E2BEC3C3C3C3C3C3C3C3C3C3E2E2E2E2E2E2E2E2E2E2E2E2E2E2E2C3C3C3C3C3C3E22828E2BEE2E2E2E2E2E2E2E2E2E2C3E2E2E2E2E2C3C3C3C3C3C3C3E2E2E2E2C3C3C3C3C3C3C3E2E2C3E2C3C3
310
C3C3C3E2E2C3E2C3C3C3C3C3C3C3E2C3E2E2E2E2E2E2E2E2E2BEE2E2E2E2F5F5F5E2E2E2E2BEBEBEBEBEBEBEBEBEBEBEBEBEBEBEBEBEBEBEBEBEBEBEBEBEBEBEBEBEBEBEBEBEBEBEBEBEBEBEBEBEBEBEBEBEBEBEBEBEBEBEBEBEBEBEBEBEBEBEBEBEBEBEBEBEBEBEC3C3C3C3C3C3C3C3C3C3C3E2E2E2E2E2E2E2E2E2E2E2E2
310
E2E2C3C3C3C3C3C3E2E2E2E2BEE2E2E2E2E2E2E2E2E2E2C3E2E2E2E2E2C3C3C3C3C3C3C3E2E2E2E2C3C3C3C3C3C3C3C3C3C3E2C3C3C3C3C3E2E2C3E2C3C3C3C3C3C3C3E2C3E2E2E2E2E2E2E2E2E2BEE2E2E2E2F5F5F5E2E2E2E2BEE2C3C3C3C3C3C3C3C3C3C3C3C3E2E2E2E2E2E2E2E2E2E2E2E2E2E2E2E2BEE2E2E2E2E2E2
310
E2E2E2E2E2C3C3C3C3E2E2E2E2E2E2E2E2E2E2E2E2E2E2E2E2E2E2E2E2BEC3C3C3C3C3C3C3C3C3C3C3C3C3E2E2E2E2E2E2E2E2E2E2E2E2C3C3C3C3C3C3E2E2E2E2BEE2E2E2E2E2E2E2E2E2E2C3E2E2E2E2E2E2E2E2E2E2E2E2E2E2E2E2C3C3C3C3C3C3C3C3C3C3E2E2E2E2E2E2E2E2C3E2E2E2E2E2E2E2E2E2C3E2E2E2E2E2
310
E2E2E2E2BEE2E2E2E2F5F5F5E2E2E2E2BEC3C3C3C3C3C3C3C3C3C3C3C3C3E2E2E2E2E2E2E2E2E2E2E2E2E2E2E2E2BEE2E2E2E2E2E2E2E2E2E2E2C3C3C3C3E2E2E2E2E2E2E2E2E2E2E2E2E2E2E2E2E2E2E2E2BEC3C3C3C3C3E2C3C3C3C3C3C3E2E2E2E2E2E2E2E2E2E2E2E2E2E2E2E2E2E2E2E2E2E2E2BEE2E2E2E2E2E2E2E2
310
E2E2C3C3C3C3C3C3C3C3C3C3C3C3C3C3C3C3C3C3C3C3C3C3C3C3C3C3C3C3C3C3C3C3C3C3C3C3C3C3C3C3C3C3C3C3C3C3E2E2E2E2E2E2E2E2E2BEE2E2E2E2F5F5F5E2E2E2E2BEBEBEBEBEBEBEBEBEBEBEBEBEBEBEBEBEBEBEBEBEBEBEBEBEBEBEBEBEBEBEBEBEBEBEBEBEBEBEBEBEBEBEBEBEBEBEBEBEBEBEBEBEBEBEBEBEBE
310
BEBEBEBEBEBEBEBEBEE2E2E2E2E2E2E2E2E2E2E2E2E2E2E2E2E2E2E2E2E2E2E2E2E2E2E2E2E2E2E2E2E2E2E2BEE2E2E2E2E2E2E2E2E2E2C3E2E2E2E2C3C3C3C3C3C3C3E2E2E2E2E2C3E2E2E2E2E2E2E2E2E2E2C3C3C3C3C3E2E2E2E2E2E2E2E2E2E2E2E2C3E2E2E2E2E2E2E2E2E2BEE2E2E2E2F5F5F5E2E2E2E2BEE2C3C3C3
310
C3C3C3C3C3C3C3C3E2E2E2E2E2E2E2E2E2E2BEBEBEBEBEE2E2BEE2E2E2E2E2E2E2E2E2E2E2E2E2E2E2E2E2E2E2E2E2E2E2E2E2E2E2E2E2E2E2E2E2E2E2BEE2E2E2E2E2E2E2E2E2E2E2E2E2E2E2E2E2E2E2E2E2E2E2E2E2E2E2E2E2E2E2E2E2E2E2BEE2E2E2E2E2E2E2E2E2E2C3C3C3C3C3C3C3C3C3C3C3C3C3C3C3C3C3C3E2
310
E2E2E2E2E2E2E2E2E2C3C3C3C3C3E2E2E2E2E2E2E2E2E2E2E2E2C3E2E2E2E2E2E2E2E2E2BEE2E2E2E2F5F5F5E2E2E2E2BEE2C3C3C3C3C3C3C3C3C3C3C3E2E2E2E2E2BEBEBEBEBEE2E2E2E2E2E2E2BEE2E2E2E2E2E2E2E2E2E2E2E2E2E2E2E2E2E2E2E2E2E2E2E2E2E2E2E2E2E2E2E2E2E2E2BEC3E2C3C3C3C3C3C3C3C3C3C3
310
C3C3C3C3C3C3C3C3C3C3C3C3C3C3C3C3E2C3C3C3C3C3E2BEE2E2E2E2E2E2E2E2E2E2C3C3C3C3C3C3C3C3C3C3C3C3C3C3C3C3C3C3E2E2E2E2E2E2E2E2E2E2C3C3C3C3C3E2E2E2E2E2E2E2E2E2E2E2E2C3E2E2E2E2E2E2E2E2E2BEE2E2E2E2F5F5F5E2F5E2E2BEE2C3C3C3C3C3C3C3C3C3C3C3BEBEBEBEBEE2E2E2E2E2E2E2E2
310
E2E2E2E2BEE2E2E2E2E2E2E2E2E2E2E2E2E2E2E2E2E2E2E2E2E2E2E2E2E2E2E2E2E2E2E2E2E2E2E2BEC3C3C3C3C3C3C3C3C3C3C3C3C3C3C3C3C3C3C3C3C3C3C3C3C3C3E2C3C3C3C3C3C3C3E2BEE2E2E2E2E2E2E2E2E2E2C3C3C3C3C3C3C3C3C3C3C3C3C3C3C3C3C3C3E2E2E2E2E2E2E2E2E2E2E2E2E2E2E2E2E2E2E2E2E2E2
310
E2E2E2E2E2C3E2E2E2E2E2E2E2E2E2BEE2E2F5E2F5F5F5E2F5E2E2BEE2E2E2E2E2E2E2BEBEBEBEBEE2E2E2E2E2E2C3C3C3C3C3C3C3C3C3C3E2BEE2E2E2E2E2E2E2E2E2E2E2E2E2E2C3C3C3C3C3C3C3E2E2E2E2E2E2E2E2E2E2E2E2E2E2BEC3C3C3C3C3C3C3C3C3C3C3C3C3C3C3C3C3C3C3C3C3C3C3C3C3C3E2C3C3C3C3C3C3
310
C3E2BEE2E2E2E2E2E2E2E2E2E2C3C3C3C3C3C3C3C3C3C3C3C3C3C3C3C3C3C3C3C3C3C3C3C3C3C3C3C3C3C3C3C3C3C3C3C3C3C3C3C3C3C3C3C3C3C3E2E2E2E2E2E2E2E2E2BEE2E2F5E2F5F5F5E2F5E2E2BEE2E2BEBEBEBEBEE2E2E2E2E2E2E2E2E2E2E2C3C3C3C3C3C3C3C3C3C3E2BEE2E2E2E2E2E2E2E2E2E2E2E2E2E2C3C3
310
C3C3C3C3C3E2E2E2E2E2E2E2E2E2E2E2E2E2E2BEE2E2E2E2E2E2E2E2E2E2E2E2E2E2E2E2E2E2E2E2E2E2E2E2E2E2E2E2E2E2E2E2E2E2E2BEE2E2E2E2E2E2E2E2E2E2E2E2E2E2E2E2E2E2E2E2E2E2E2E2E2E2E2E2E2E2E2E2E2E2E2E2E2E2E2E2E2E2E2E2E2E2E2E2E2E2E2E2E2E2E2E2E2E2E2E2E2E2E2E2E2BEE2E2F5E2F5
310
F5F5E2F5E2E2F5F5F5F5F5F5F5F5F5F5F5F5F5F5F5F5F5F5F5F5F5F5F5F5F5F5F5F5F5F5F5F5F5F5F5F5F5F5F5F5F5F5F5F5F5F5F5F5F5F5F5F5F5F5F5F5F5F5F5F5F5F5F5F5F5F5F5F5F5F5F5F5F5F5F5F5F5F5F5F5F5F5F5F5F5F5F5F5F5F5F5F5F5F5F5F5F5F5F5F5F5F5F5F5F5F5F5F5F5F5F5F5F5F5F5F5F5F5F5F5F5
310
F5F5F5F5F5F5F5F5F5F5F5F5F5F5F5F5F5F5F5F5F5F5F5F5F5F5F5F5F5F5F5F5F5F5F5F5F5F5F5F5F5F5F5F5F5F5F5F5E2E2F5E2F5F5F5E2F5E2E2F5E2E2E2E2E2E2E2E2E2E2E2E2E2E2E2E2E2E2E2E2E2E2E2E2E2E2E2E2E2E2E2E2E2E2E2E2E2E2E2E2E2E2E2E2E2E2E2E2E2E2E2E2E2E2E2E2E2E2E2E2E2E2E2E2E2E2E2
310
E2E2E2E2E2E2E2E2E2E2E2E2E2E2E2E2E2E2E2E2E2E2E2E2E2E2E2E2E2E2E2E2E2E2E2E2E2E2E2E2E2E2E2E2E2E2E2E2E2E2E2E2E2E2E2E2E2E2E2E2E2E2E2E2E2E2E2E2E2E2E2E2E2E2E2E2E2E2E2E2E2E2E2E2E2E2E2E2E2E2E2E2E2E2E2E2E2E2E2E2F5E2E2F5E2F5F5F5E2F5E2E2F5E2E2E2E2E2E2E2E2E2E2E2E2E2E2
310
E2E2E2E2E2E2E2E2E2E2E2E2E2E2E2E2E2E2E2E2E2E2E2E2E2E2E2E2E2E2E2E2E2E2E2E2E2E2E2E2E2E2E2E2E2E2E2E2E2E2E2E2E2E2E2E2E2E2E2E2E2E2E2E2E2E2E2E2E2E2E2E2E2E2E2E2E2E2E2E2E2E2E2E2E2E2E2E2E2E2E2E2E2E2E2E2E2E2E2E2E2E2E2E2E2E2E2E2E2E2E2E2E2E2E2E2E2E2E2E2E2E2E2E2E2E2E2
310
E2E2E2E2E2E2E2E2E2E2E2E2E2E2E2E2E2E2E2E2E2E2E2E2E2E2F5E2E2F5E2F5F5F5E2F5E2E2F5E2E2E2E2E2E2E2E2E2E2E2E2E2E2E2E2E2E2E2E2E2E2E2E2E2E2E2E2E2E2E2E2E2E2E2E2E2E2E2E2E2E2E2E2E2E2E2E2E2E2E2E2E2E2E2E2E2E2E2E2E2E2E2E2E2E2E2E2E2E2E2E2E2E2E2E2E2E2E2E2E2E2E2E2E2E2E2E2
310
E2E2E2E2E2E2E2E2E2E2E2E2E2E2E2E2E2E2E2E2E2E2E2E2E2E2E2E2E2E2E2E2E2E2E2E2E2E2E2E2E2E2E2E2E2E2E2E2E2E2E2E2E2E2E2E2E2E2E2E2E2E2E2E2E2E2E2E2E2E2E2E2E2E2E2E2E2E2E2F5E2E2F5E2F5F5F5E2F5E2E2F5E2E2E2E2E2E2E2E2E2E2E2E2E2E2E2E2E2E2E2E2E2E2E2E2E2E2E2E2E2E2E2E2E2E2E2
310
E2E2E2E2E2E2E2E2E2E2E2E2E2E2E2E2E2E2E2E2E2E2E2E2E2E228282828282828282828282828282828282828282828282828E2E2E2E2E2E2E2E2E2E2E2E2E2E2E2E2E2E2E2E2E2E2E2E2E2E2E2E2E2E2E2E2E2E2E2E2E2E2E2E2E2E2E2E2E2E2E2E2E2E2E2E2E2E2E2E2E2E2E2E2E2E2E2E2E2E2E2E2E2E2E2E2E2E2E2E2
310
E2E2E2E2E2F5E2E2F5E2F5F5F5E2F5E2E2F5E2E2E2E2E2E2E2E2E2E2E2E2E2E2E2E2E2E2E2E2E2E2E2E2E2E2E2E2E2E2E2E2E2E2E2E2E2E2E2E2E2E2E2E2E2E2E2E2E2E2E2E2E2E2E2E2E2E2E2E2E2C3C3C3C3C3C3C3C3C3C3C3C3C3C3C3C3C3C3C3E2E2E2E2E2E228E2E2E2E2E2E2E2E2E2E2E2E2E2E2E2E2E2E2E2E2E2E2
310
E2E2E2E2E2E2E2E2E2E2E2E2E2E2E2E2E2E2E2E2E2E2E2E2E2E2E2E2E2E2E2E2E2E2E2E2E2E2E2E2E2E2E2E2E2E2E2E2E2E2E2E2E2E2E2E2E2E2F5E2E2F5E2F5F5F5E2F5E2E2F5E2E2E2E2E2E2E2E2E2E2E2E2E2E2E2E2E2E2E2E2E2E2E2E2E2E2E2E2E2E2E2E2E2E2E2E2E2E2E2E2E2E2E2E2E2E2E2E2E2E2E2E2E2E2E2E2
310
E2E2E2E2E2C3C3C3C3C3C3C3C3C3C3C3C3C3C3C3C3C3C3C3E2E2E2E2E2E228E2E2E2E2E2E2E2E2E2E2E2E2E2E2E2E2E2E2E2E2E2E2E2E2E2E2E2E2E2E2E2E2E2E2E2E2E2E2E2E2E2E2E2E2E2E2E2E2E2E2E2E2E2E2E2E2E2E2E2E2E2E2E2E2E2E2E2E2E2E2E2E2E2E2E2E2E2E2E2E2F5E2E2F5E2F5F5F5E2F5E2E2F5E2E2E2
310
E2E2E2E2E2E2E2E2E2E2E2E2E2E2E2E2E2E2E2E2E2E2E2E2E2E2E2E2E2E2E2E2E2E2E2E2E2E2E2E2E2E2E2E2E2E2E2E2E2E2E2E2E2E2E2E2E2E2C3C3C3C3C3C3C3C3C3C3C3C3C3C3C3C3C3C3C3C3C3E2E2E2E2E228E2E2E2E2E2E2E2E2E2E2E2E2E2E2E2E2E2E2E2E2E2E2E2E2E2E2E2E2E2E2E2E2E2E2E2E2E2E2E2E2E2E2
310
E2E2E2E2E2E2E2E2E2E2E2E2E2E2E2E2E2E2E2E2E2E2E2E2E2E2E2E2E2E2E2E2E2E2E2E2E2F5E2E2F5E2F5F5F5E2F5E2E2F5E2E2E2E2E2E2E2E2E2E2E2E2E2E2E2E2E2E2E2E2E2E2E2E2E2E2E2E2E2E2E2E2E2E2E2E2E2E2E2E2E2E2E2E2E2E2E2E2E2E2E2E2E2E2E2E2E2E2E2E2E2C3C3C3C3C3C3C3C3C3C3C3C3C3C3C3C3
310
C3C3C3C3C3E2E2E2E2BEBEBEBEE2E2E2E2E2E2E2E2E2E2E2E2E2E2E2E2E2E2E2E2E2E2E2E2E2E2E2E2E2E2E2E2E2E2E2E2E2E2E2E2E2E2E2E2E2E2E2E2E2E2E2E2E2E2E2E2E2E2E2E2E2E2E2E2E2E2E2E2E2E2E2E2E2E2E2E2E2F5E2E2F5E2F5F5F5E2F5E2E2F5E2E2E2E2E2E2E2E2E2E2E2E2E2E2E2E2E2E2E2E2E2E2E2E2
310
E2E2E2E2E2E2E2E2E2E2E2E2E2E2E2E2E2E2E2E2E2E2E2E2E2E2E2E2E2E2E2E2E2E2E2E2E2E2E2E2E2E2E2E2E2E2E2E2E2E2E2E2E2E2E2E2E2E2E2E2E2E2BEE2E2BEE2E2E2E2E2E2E2E2E2E2E2E2E2E2E2E2E2E2E2E2E2E2E2E2E2E2E2E2E2E2E2E2E2E2E2E2E2E2E2E2E2E2E2E2E2E2E2E2E2E2E2E2E2E2E2E2E2E2E2E2E2
310
E2E2E2E2E2E2E2E2E2E2E2E2E2E2E2E2F5E2E2F5E2F5F5F5E2F5E2E2F5E2E2E2E2E2E2E2E2E2E2E2E2E2E2E2E2E2E2E2E2E2E2E2E2E2E2E2E2E2E2E2E2E2E2E2E2E2E2E2E2E2E2E2E2E2E2E2E2E2E2E2E2E2E2E2E2E2E2E2E2E2E2E2E2E2E2E2E2E22828282828282828282828282828E2E2E2BEBEBEBEE2E2E2E2E2E2E2E2
310
E2E2E2E2E2E2E2E2E2E2E2E2E2E2E2E2E2E2E2E2E2E2E2E2E2E2E2E2E2E2E2E2E2E2E2E2E2E2E2E2E2E2E2E2E2E2E2E2E2E2E2E2E2E2E2E2E2E2E2E2E2E2E2E2E2E2E2E2E2F5E2E2F5E2F5F5F5E2F5E2E2F5E2E2E2E2E2E2E2E2E2E2E2E2E2E2E2E2E2E2E2E2E2E2E2E2E2E2E2E2E2E2E2E2E2E2E2E2E2E2E2E2E2E2E2E2E2
310
E2E2E2E2E2E2E2E2E2E2E2E2E2E2E2E2E2E2E2E2E2E2E2E2C3C3C3C3C3C3C3C3C3C3E2E2E2E228E2E2E2BEBEE2E2E2E2E2E2E2E2E2E2E2E2E2E2E2E2E2E2E2E2E2E2E2E2E2E2E2E2E2E2E2E2E2E2E2E2E2E2E2E2E2E2E2E2E2E2E2E2E2E2E2E2E2E2E2E2E2E2E2E2E2E2E2E2E2E2E2E2E2E2E2E2E2E2E2E2E2E2F5E2E2F5E2
310
F5F5F5E2F5E2E2F5E2E2E2E2E2E2E2E2E2E2E2E2E2E2E2E2E2E2E2E2E2E2E2E2E2E2E2E2E2E2E2E2E2E2E2E2E2E2E2E2E2E2E2E2E2E2E2E2E2E2E2E2E2E2E2E2E2E2E2E2E2E2E2E2E2E2E2E2E2C3C3C3C3C3C3C3C3C3C3C3C3C3E2E228E2E2BEBEE2E2E2E2E2E2E2E2E2E2E2E2E2E2E2E2E2E2E2E2E2E2E2E2E2E2E2E2E2E2
310
E2E2E2E2E2E2E2E2E2E2E2E2E2E2E2E2E2E2E2E2E2E2E2E2E2E2E2E2E2E2E2E2E2E2E2E2E2E2E2E2E2E2E2E2E2E2E2E2F5E2E2F5E2F5F5F5E2E2E2E2F5E2E2E2E2E2E2E2E2E2E2E2E2E2E2E2E2E2E2E2E2E2E2E2E2E2E2E2E2E2E2E2E2E2E2E2E2E2E2E2E2E2E2E2E2E2E2E2E2E2E2E2E2E2E2E2E2E2E2E2E2E2E2E2E2E2E2
310
E2E2E2C3C3C3C3C3C3C3C3C3C3C3C3C3E2E2E228BEBEBEBEE2E2E2E2E2E2E2E2E2E2E2E2E2E2E2E2E2E2E2E2E2E2E2E2E2E2E2E2E2E2E2E2E2E2E2E2E2E2E2E2E2E2E2E2E2E2E2E2E2E2E2E2E2E2E2E2E2E2E2E2E2E2E2E2E2E2E2E2E2E2E2E2E2E2E2E2E2F5E2E2E2E2F5F5F5E2E2E2E2F5E2E2E2E2E2E2E2E2E2E2E2E2E2
310
E2E2E2E2E2E2E2E2E2E2E2E2E2E2E2E2E2C3C3C3C3C3C3C3C3C3E2E2E2E2E2E2E2E2E2E2E2E2E2E2E2E2E2E2E2E2E2E2C3C3E228E2E2E2E2E2E2E2E2E2E2E2E2E2E2E2E2E2E2E2E2E228BEBEBEE2E2E2E2E2E2E2E2E2E2E2E2E2E2E2E2E2E2E2E2E2E2E2E2E2E2E2E2E2E2E2E2E2E2E2E2E2E2E2E2E2E2E2E2E2E2E2E2E2E2
310
E2E2E2E2E2E2E2E2E2E2E2E2E2E2E2E2E2E2E2E2E2E2E2E2E2E2E2F5E2E2E2E2F5F5F5E2E2E2E2F5E2E2E2E2E2E2E2E2E2E2E2E2E2E2E2E2E2E2E2E2E2E2E2E2E2E2E2E2E2E2C3C3C3C3C3C3C3C3C3E2BEBEBEE2E2E2E2E2E2E2E2E2E2E2E2E2E2E2E2E2E2C3C3E228E2E2E2E2E2E2E2E2E2E2E2E2E2E2E2E2E2E2E2E2E228
310
28BEE2E2E2E2E2E2E2E2C3C3C3C3C3C3C3C3C3C3E2E2E2E2E2E2E2E2E2E2E2E2E2E2E2E2E2BEBEBEE2E2E2E2E2E2E2E2E2E2E228E2E2E2E2E2E2E2E2E2E2E2E2E2E2E2E2E2E2E2E2E2E2E2E2E2E2E2E2F5E2E2E2E2F5F5F5E2E2E2E2F5E2E2E2E2E2E2E2E2E2E2E2E2E2E2E2E2E2E2E2E2E2E2E2E2E2E2E2E2E22828282828
310
2828282828E2E2BEBEBEE2E2E2E2E2E2E2E2E2E2E2E2E2E2E2E2E2C3C3C328E2E2E2E2E2E2E2E2E2E2E2E2E2E2E2E2E2E2E2E2E2E228BEE2E2E2E2E2E2E2E2C3C3C3C3C3C3C3C3C3C3E2E2E2E2E2E2E2E2E2E2E2E2E2E2E2E2E2E2282828E2E2E2E2E2E2E2E2C3C3E2E2E2E2E2E2E2E2E2E2E2E2E2E2E2E2E2E2E2E2E2E2E2
310
E2E2E2E2E2E2F5E2E2E2E2F5F5F5E2E2E2E2F5E2E2E2E2E2E2E2E2E2E2E2E2E2E2E2E2E2E2E2E2E2E2E2E2E2E2E2E2E2E228C3C3C3C3E2E2E2E2E2E2BEBEE2E2E2E2E2E2E2E2E2E2E2E2E2E2E2E2E2E2E2C3C328E2E2E2E2E2E2E2E2E2E2E2E2E2E2E2E2E2E2E2E2E2E2BEBEE2E2E2E2E2E2E2C3C3C3C3C3C3C3C3C3C3C3C3
310
C3C3C3C3E2E2E2E2E2E2E2E2E2E2E22828BEBEE22828E2E2E2E2E2E2C3C3C3E2E2E2E2E2E2E2E2E2E2E2E2E2E2E2E2E2E2E2E2E2E2E2E2E2E2E2E2F5E2E2E2E2F5F5F5E2E2E2E2F5E2E2E2E2E2E2E2E2E2E2E2E2E2E2E2E2E2E2E2E2E2E2E2E2E2E2E2E2E2E2E22828E2E2E2E2E2E2E2E2BEBEE2E2E2E2E2E2E2E2E2E2E2E2
310
E2E2E2E2E2E2E2C3C328E2E2E2E2E2E2E2E2E2E2E2E2E2E2E2E2E2E2E2E2E2E2BEBEE2E2E2E2E2E2E2C3C3C3C3C3C3C3C3C3C3C3C3C3C3C3C32828282828E2E2E2282828E2E2BEBEE2E2E22828E2E2E2C3C3C3E2E2E2E2E2E2E2E2E2E2E2E2E2E2E2E2E2E2E2E2E2E2E2E2E2E2E2E2E2F5E2E2E2E2F5F5F5E2E2E2E2F5E2E2
310
E2E2E2E2E2E2E2E2E2E2E2E2E2E2E2E2E2E2E2E2E2E2E2E2E2E2E2E2E2E2E228E2BEBEBEBEBEBEBEECBEBEBEBEBEBEE2E2E2E2E2E2E2E2E2E2E2E2E2C3C32828282828282828282828E2BEBEBEBEBEBEBEBEBEBEBEBEBEBEBEE2E2E2E2E2E2C3C3C3C3C3C3C3C3C3C3C3C3E2E2E2E2E2E2E2E2282828BEBEBEBEBEBEBEBEBE
310
BEBEBE28E228E2E2E2E2E2E2E2E2E2E2E2E2E2E2E2E2E2E2E2E2E2E2E2E2E2E2E2E2E2E2E2E2F5E2E2E2E2F5F5F5E2E2E2E2F5E2E2E2E2E2E2E2E2E2E2E2E2E2E2E2E2E2E2E2E2E2E2E2E2E2E2E2E2E2E2E2E2E2E2BEECE2E2E2E2E2E2ECE2E2E2E2E2ECBEE2E2E2E2E2E2E2E2E2E2E2E2E2E22828C3C328C3C3E2C3C32828
310
28E2E2E2BEE2E2E2E2BEE2E2E2E2BEE2E2E2E2E2E2C3C3C3C3C3C3C3C3C3C3C3C3E2E2E2E2E2E2E2E2E228BEBEE2E2E2E2ECE2E2E2E2E2BEBE28E2E2E2E2E2E2E2E2E2E2E2E2E2E2E2E2E2E2E2E2E2E2E2E2E2E2E2E2E2E2E2E2E2F5E2E2E2E2F5F5F5E2F5E2E2F5E2E2E2E2E2E2E2E2E2E2E2E2E2E2E2E2E2E2E2E2E2E2E2
310
E2E2E2E2E2E2E2E2E2E2BE28ECBEE2E2E2E2E2ECE2E2E2E2BEEC28BEE2E2E2E2E2E2E2E2E2E2E2E2E22828C3E228C3C3E228E22828BEBEBEBEBEE2E2E2E2BEBEBEBEBEBEE2E2E2E2E2C3C3C3C3C3C3C3C3C3C3E2E2E2E2E2E2E2E2E2E2E228BEECBEE2E2E2E2ECE2E2E2E2E2BE28BEBEE2E2E2E2E2E2E2E2E2E2E2E2E2E2E2
310
E2E2E2E2E2E2E2E2E2E2E2E2E2E2E2E2E2F5E2E2F5E2F5F5F5E2F5E2E2F5E2E2E2E2E2E2E2E2E2E2E2E2E2E2E2E2E2E2E2E2E2E2E2E2E2E2E2E2E2E2E2E2E2BEE2ECBEE2E2E2E2E2ECE2E2E2E2BEECE2BEE2E2E2E2E2E2E2E2E2E2E2E2E22828282828282828282828E2BEE2E2E2BEBEBEBEBEBEBEE2E2E2BEE2E2E2E22828
310
C3C3C3C3C3C3C3C3C3E2E2E2E2E2E2E2E2E2E228BEBEBEBEE2E2E2E2ECE2E2E2E2E228BEBEBEE2E2E2E2E2E2E2E2E2E2E2E2E2E2E2E2E2E2E2E2E2E2E2E2E2E2E2E2E2E2E2E2F5E2E2F5E2F5F5F5E2F5E2E2F5E2E2E2E2E2E2E2E2E2E2E2E2E2E2E2E2E2E2E2E2E2E2E2E2E2E2E2E2E2E2E2E2E2BEE2E2E2E2E2E2BEBEBEBE
310
E2E2E2E2E2E2BEE2E2E2E2E2E2E2E2E2E2282828282828282828282828282828BEE2E2E2BEE2E2E2E2E2BEE2E2E2BEE2E2E2E228E2E2E2E2E2E2E2E2E2E2E2E2E2E2E2E2E2E2E2E228BEE228E2E2E2E2E2ECE2E2E2E228E2E2E2BEE2E2E2E2E2E2E2E2E2E2E2E2E2E2E2E2E2E2E2E2E2E2E2E2E2E2E2E2E2E2E2E2F5E2E2F5
310
E2F5F5F5E2F5E2E2F5E2E2E2E2E2E2E2E2E2E2E2E2E2E2E2E2E2E2E2E2E2E2E2E2E2E2E2E2E2E2E2E2E2BEE2E2E2E2BEBEE2E2ECE2BEBEE2E2E2E2BEE2E2E2E2E2E2E2C3C3E228E2E228E2E2E2E2E2E2E2E2E2E2E2BEE2E2E2BEE2E2E2E2E2BEE2E2E2BEE2E2E2E228E2E2E228E2E2E2E2E2E2E2E2E2E2E2E2E2E2E228E2BE
310
E2E228E2E2E2ECECECECE228E2E2E2E2BEE2E2E2E2E2E2E2E2E2E2E2E2E2E2E2E2E2E2E2E2E2E2E2E2E2E2E2E2E2E2E2E2F5E2E2F5E2F5F5F5E2F5E2E2F5E2E2E2E2E2E2E2E2E2E2E2E2E2E2E2E2E2E2E2E2E2E2E2E2E2E2E2E2E2E2E2E2E2BEE2E2E2E2BEE2E2E2ECE2E2E2BEE2E2E2BEE2E2E2E2E2E2E2C3C3E228E2E228
310
E2E2E2E2E2E2E2E2E2E2E2BEE2E2E2BEE2E2E2E2E2BEE2E2E2BEE2E2E228E2E2E2E228E2E2E2E2E2E2E2E2E2E2E2E2E2E2E228E2BEE2E228E2ECECE2ECE2E228E2E2E2E2E2BEE2E2E2E2E2E2E2E2E2E2E2E2E2E2E2E2E2E2E2E2E2E2E2E2E2E2E2E2E2E2E2E2F5E2E2F5E2F5F5F5E2F5E2E2F5E2E2E2E2E2E2E2E2E2E2E2E2
310
E2E2E2E2E2E2E2E2E2E2E2E2E2E2E2E2E2E2E2E2E2BEE2E2E2BEE2E2E2E2ECE2E2E2BEE2E2E2BEE2E2E2E2E2E2E2C3C3E228E2E228E2E2E2E2E2E2E2E2E2E2E2BEE2E2E2BEE2E2E2E2E2BEE2E2E2BEE2E228E2E2E2E2E228E2E2E2E2E2E2E2E2E2E2E2E2E2E2E228E2BEE2E22828ECE2E2BEE228E2ECE2E2E2E2BEE2E2E2E2
310
E2E2E2E2E2E2E2E2E2E2E2E2E2E2E2E2E2E2E2E2E2E2E2E2E2E2E2E2F5E2E2F5E2F5F5F5E2F5E2E2F5E2E2E2E2E2E2E2E2E2E2E2E2E2E2E2E2E2E2E2E2E2E2E2E2E2E2E2E2E2E2E2E2E2BEE2E2E2BEE2E2E2BEBEE2E2E2BEE2E2E2BEE2E2E2E2E2E2E2C3C3E228E228282828BEBEBEBEBEBEBEBEBEBEE2E2E2BEE2E2E2E2E2
310
BEE2E2E2BEBEBE28BEBEBE282828E2E2E2E2E2E2E2E2E2E2E2E2E2E2E228E2BEE2E2E228BEE2BEBE28E2E2BEBEE2E2E2BEE2E2E2E2E2E2E2E2E2E2E2E2E2E2E2E2E2E2E2E2E2E2E2E2E2E2E2E2E2E2E2E2F5E2E2F5E2F5F5F5E2F5E2E2F5E2E2E2E2E2E2E2E2E2E2E2E2E2E2E2E2E2E2E2E2E2E2E2E2E2E2E2E2E2E2E2E2E2
310
BEECECECBEECECBEBEBEBEECECBEECECECBEE2E2E2E2E2E2E2C3C3C328E2E228E2ECBEECECECECECECECECBEECECECBEECECECECECBEECECECBEECEC28ECECBEECE228E2E2E2E2E2E2E2E2E2E2E2E2E2E2E228E2BEECECECBEBEECBE28BEBEECBEBEECECECBEE2E2E2E2E2E2E2E2E2E2E2E2E2E2E2E2E2E2E2E2E2E2E2E2E2
310
E2E2E2E2E2E2E2F5E2E2F5E2F5F5F5E2F5E2E2F5E2E2E2E2E2E2E2E2E2E2E2E2E2E2E2E2E2E2E2E2E2E2E2E2E2E2E2E2E2E2E2E2E2BEE2E2E2BEE2E2E2E2BEE2E2E2BEE2E2E2BEE2E2E2E2E2E2E2E2C3C328E228282828BEBEBEBEBE2828BEBEBEE2E2E2BEE2E2E2E2E2BEE2E2E2BEBEBEBEBEBEBE282828E2E2E2E2E2E2E2
310
E2E2E2E2E2E2E2E228E2BEE2E2E2E2ECE228BEBEE2E2EC28E2E2E2BEE2E2E2E2E2E2E2E2E2E2E2E2E2E2E2E2E2E2E2E2E2E2E2E2E2E2E2E2E2E2E2E2F5E2E2F5E2F5F5F5E2F5E2E2F5E2E2E2E2E2E2E2E2E2E2E2E2E2E2E2E2E2E2E2E2E2E2E2E2E2E2E2E2E2E2E2E2E2BEE2E2E2E2BEE2E2E2ECE2E2E2BEE2E2E2BEE2E2E2
310
E2E2E2E2E2C3C328E2E228E2E228E2E2E2E2E228E2E2BEE2E2E2BEE2E2E2E2E2BEE2E2E2BEE2E2E2E2E228E2E228E2E2E2E2E2E2E2E2E2E2E2E2E2E2E228E2BEE2E2E2E22828E2ECE2E2ECECE228E2E2BEE2E2E2E2E2E2E2E2E2E2E2E2E2E2E2E2E2E2E2E2E2E2E2E2E2E2E2E2E2E2E2E2F5E2E2F5E2F5F5F5E2F5E2E2F5E2
310
E2E2E2E2E2E2E2E2E2E2E2E2E2E2E2E2E2E2E2E2E2E2E2E2E2E2E2E2E2E2E2E2BEE2E2E2E2BEE2E2E2ECE2E2BEE2E2E2E2BEE2E2E2E2E2E2E2E2E2E228E2E228E2E228E2E2E2E2E228E2E2BEE2E2E2BEE2E2E2E2E2BEE2E2E2BEE2E2E2E2E228E2E228E2E2E2E2E2E2E2E2E2E2E2E2E2E2E228E2BEE2E2E2E228E2ECECECEC
310
EC28E228E2E2BEE2E2E2E2E2E2E2E2E2E2E2E2E2E2E2E2E2E2E2E2E2E2E2E2E2E2E2E2E2E2E2E2F5E2E2F5E2F5F5F5E2F5E2E2F5E2E2E2E2E2E2E2E2E2E2E2E2E2E2E2E2E2E2E2E2E2E2E2E2E2E2E2E2E2E2E2E2E2BEE2E2E2E2E2BEBEBEBEBEBEE2E2E2E2E2BEE2E2E2E2E2E2E2E228282828282828282828282828C32828
310
28BEE2E2E2BEE2E2E2E2E2BEE2E2E2BEE2E2E2E2E228E2E228E2E2E2E2E2E2E2E2E2E2E2E2E2E2E228E2BEE2E2E22828E2E2ECE2E2E228E228E2E2BEE2E2E2E2E2E2E2E2E2E2E2E2E2E2E2E2E2E2E2E2E2E2E2E2E2E2E2E2E2E2E2E2F5E2E2F5E2F5F5F5E2F5E2E2F5E2E2E2E2E2E2E2E2E2E2E2E2E2E2E2E2E2E2E2E2E2E2
310
E2E2E2E2E2E2E2E2E2E2E2BEE228BEE2E2E2E2E2ECE2E2E2E2BEECE2BEE2E2E2E2E2E2E2E228C328E2E228E2E228E2E2E228282828E2BEE2E2E2BEBEBEBEBEBEBEE2E2E2BEE2E2E2E2E228E2E228E2E2E2E2E2E2E2E2E2E2E2E2E2E2E2E228BEBEBE28E228E2E2ECE2E2E228E2BEBEBEBEE2E2E2E2E2E2E2E2E2E2E2E2E2E2
310
E2E2E2E2E2E2E2E2E2E2E2E2E2E2E2E2E2E2F5E2E2F5E2F5F5F5E2F5E2E2F5E2E2E2E2E2E2E2E2E2E2E2E2E2E2E2E2E2E2E2E2E2E2E2E2E2E2E2E2E2E2E2E2E2BEECECECE2E2E2E2E2ECE2E2E2E2ECECECBEE2E2E2E2E2E2E2E228C328E2E228E2E228E2E2E228C3C328E2BEBEBEBEBEE2E2E2E2BEBEBEBEBEBEE2E2E2E2E2
310
C3C3E228E2E2E2E2E2E2E2E2E2E2E2E2E2E2E2E2E228BE28BEE228E2E2ECE2E2E228E2BEECBEBEE2E2E2E2E2E2E2E2E2E2E2E2E2E2E2E2E2E2E2E2E2E2E2E2E2E2E2E2E2E2E2E2F5E2E2F5E2F5F5F5E2F5E2E2F5E2E2E2E2E2E2E2E2E2E2E2E2E2E2E2E2E2E2E2E2E2E2E2E2E2E2E2E2E2E2E2E2E228BE28E2E2E2E2E2E2EC
310
E2E2E2E2E228BE28E2E2E2E2E2E2E2E2282828E2E228E2E228E2E2E228282828E2BEE2E2E2BEE2E2E2E2BEE2E2E2E2BEE2E2E2E2E2C3C3E228E2E2E2E2E2E2E2E2E2E2E2E2E2E2E2E2E2E228BEBEE228E2E2ECE2E2E228E2BEBEBEE2E2E2E2E2E2E2E2E2E2E2E2E2E2E2E2E2E2E2E2E2E2E2E2E2E2E2E2E2E2E2E2E2F5E2E2
310
F5E2F5F5F5E2F5E2E2F5E2E2E2E2E2E2E2E2E2E2E2E2E2E2E2E2E2E2E2E2E2E2E2E2E2E2E2E2E2E2E2E2E228E2BEBEBEBEBEBEBEBEBEBEBEBEBEBEE228E2E2E2E2E2E2E2E228C328282828E2E228E2E2E2E2E2E2E2E2BEBEBEBEBEBEBEBEBEBEBEBEBEBEBEE2E2E2E2E2C3C3C328E2E2E2E2E2E2E2E2E2E2E2E2E2E2E2E2E2
310
2828BEBEBEBEBEBEBEBEBEBEBEBEBEBE28E2E2E2E2E2E2E2E2E2E2E2E2E2E2E2E2E2E2E2E2E2E2E2E2E2E2E2E2E2E2E2E2E2F5E2E2F5E2F5F5F5E2E2E2E2F5E2E2E2E2E2E2E2E2E2E2E2E2E2E2E2E2E2E2E2E2E2E2E2E2E2E2E2E2E2E2E2E2E228E228E2E2E2E2E2E2E2E2E2E2E2E228E228E2E2E2E2E2E2E2E228C328C3E2
310
28E2E228E2E2E2E2E2E2E2E228E2E2E2E2E2E2E2E2E2E2E2E2E228E2E2E2E2E228C3C328E2E2E2E2E2E2E2E2E2E2E2E2E2E2E2E22828E2E2E2E228E2E2E2E2E2E228E2E2E2E228C3C3C3C3C3C3C3C3C3C3C3E2E2E2E2E2E2E2E2E2E2E2E2E2E2E2E2E2E2E2E2E2F5E2E2E2E2F5F5F5E2E2E2E2F5E2E2E2E2E2E2E2E2E2E2E2
310
E2E2E2E2E2E2E2E2E2E2E2E2E2E2E2E2E2E2E2E2E2E228E228E2E2E2E2E2E2E2E2E2E2E2E228E228E2E2E2E2E2E2E2E228C328C3C328E2E228E2E2E2C3C3E2E2E228E2E2E2E2E2E2E2E2E2E2E2E2E228E2E2E2E2E228C3C328E2E2E2E2E2E2E2E2E2E2E2E2E2E2E2E2E2E2E2E2E2E228E2E2E2E2E2E228E2E2E2E228C3C3C3
310
C3C3C3C3C3C3C3C3E2E2E2E2E2E2E2E2E2E2E2E2E2E2E2E2E2E2E2E2E2F5E2E2E2E2F5F5F5E2E2E2E2F5E2E2E2E2E2E2E2E2E2E2E2E2E2E2E2E2E2E2E2E2E2E2E2E2E2E2E2E2E2E2E2E2E228E22828282828C3C3C3C3C328282828E228E2E2E2E2E2E2E2E228C328C3C328E2E228E2E2E2C3C328282828282828E2E2E2E2E2
310
E2E2E2E2E228E2E2E2E2E228C3C328E2E2E2E2E2E2E2E2E2E2E2E2E2E2E2E2E2E2E2E2E2E228C3C3C3C3C32828E2E2E2E2E2C3C3C3C3C3C3C3C3C328E2E2E2E2E2E2E2E2E2E2E2E2E2E2E2E2E2E2E2E2E2E2F5E2E2E2E2F5F5F5E2E2E2E2F5E2E2E2E2E2E2E2E2E2E2E2E2E2E2E2E2E2E2E2E2E2E2E2E2E2E2E2E2E2E2E2E2
310
E228E228E2E2C3C3C3C3C3C3C3E2E2E228E228E2E2E2E2E2E2E2E228E228C3C328E2E228E2E2E2C3C3E2E2E228E2E2E2E2E2E2E2E2E2E2E2E2E228E2E2E2E2E228E2E228E2E2E2E2E2E2E2E2E2E2E2E2E2E2E2E2E2E2E2E2E2E228C3C3C3C3C3E228E2E2E2E2E2C3C3C3C3C3C3C3C3C3E2E2E2E2E2E2E2E2E2E2E2E2E2E2E2
310
E2E2E2E2E2E2E2E2F5E2E2E2E2F5F5F5E2E2E2E2F5E2E2E2E2E2E2E2E2E2E2E2E2E2E2E2E2E2E2E2E2E2E2E2E2E2E2E2E2E2E2E2E2E228E2E2E2E2C3C3C3E2E2E2E2E2E2E2E2E228E2E2E2E2E2E2E2E228C328C3C328E2E228E2E2E2E2E2E2E2E228E2E2E2E2E2E2E2E2E2E2E2E2E228E2E2E2E2E228E2E2E2E2E2E2E2E2E2
310
E2E2E2E2E2E2E2E2E2E2E2E2E2E2E2E2E2E2E2E2E2E2E2E2E2E2E2E2E2E2E2E2E2E2E2E2E2E2E2E2E2E2E2E2E2E2E2E2E2E2E2E2E2E2E2E2E2E2E2E2E2F5E2E2E2E2F5F5F5E2E2E2E2F5E2E2E2E2E2E2E2E2E2E2E2E2E2E2E2E2E2E2E2E2E2E2E2E2E2E2E2E2E2E2E2E2E228282828C3C3C3C3C3C3C3C3C3C328282828E2E2
310
E2E2E2E2E2E228C328C3C328E2E22828C3C3C3C3282828282828282828C3C3C3282828282828C3C3C3C32828E2E2E2E2E2E2E2E2E2E2E2E2E2E2E2E2E2E2E2E2E2E2E2E2E2E2E2E2E2E2E2E2E2E2E2E2E2E2E2E2E2E2E2E2E2E2E2E2E2E2E2E2E2E2E2E2E2E2E2E2E2E2E2E2E2E2E2E2E2E2F5E2E2E2E2F5F5F5E2E2E2E2F5
310
E2E2E2E2E2E2E2E2E2E2E2E2E2E2E2E2E2E2E2E2E2E2E2E2E2E2E2E2E2E2E2E2E2E2E2E2E2C3C3C3C3C3C3C3C3C3C3E2E2E2E2E2E2E2E2E2E2E2E2282828282828E2E2E2E2C3C3C3C3E2E2E2E2E2E2E2E2E2C3C3C3E2E2E2E2E2C3C3C3C3C3E2E2E2E2E2E2E2E2E2E2E2E2E2E2E2E2E2E2E2E2E2E2E2E2E2E2E2E2E2E2E2E2
310
E2E2E2E2E2E2E2E2E2E2E2E2E2E2E2E2E2E2E2E2E2E2E2E2E2E2E2E2E2E2E2E2E2E2E2E2E2E2E2E2F5E2E2E2E2F5F5F5E2E2E2E2F5E2E2E2E2E2E2E2E2E2E2E2E2E2E2E2E2E2E2E2E2E2E2E2E2E2E2E2E2E2E2E2282828282828C3C32828282828282828282828282828E2E2E2E2E2E2E2E2E2E2E2E2E2E2E2E2E2E2E2E2E2
310
E2E2E2E2E22828282828282828E2E2E2E2E2E2E2E2E2E2E2E2E2E2E2E2E2E2E2E2E2E2E2E2E2E2E2E2E2E2E2E2E2E2282828282828282828E2E2E2E2E2E2E2E2E2E2E2E2E2E2E2E2E2E2E2E2E2E2E2E2E2E2E2E2E2E2E2E2E2E2E2E2E2F5E2E2E2E2F5F5F5E2E2E2E2F5E2E2E2E2E2E2E2E2E2E2E2E2E2E2E2E2E2E2E2E2E2
310
E2E2E2E2E2E2E2E2E2E228282828282828282828282828282828282828282828E2E2E2E2E2E2E2E2E2E2E2E2E2E2E2E2E2E2E2E2E2E2E2E2E2E22828282828282828E2E2E2E2E2E2E2E2E2E2E2E2E2E2E2E2E2E2E2E2E2E2E2E2E2E2E2E2E2E2E2E2E2E2282828282828282828E2E2E2E2E2E2E2E2E2E2E2E2E2E2E2E2E2E2
310
E2E2E2E2E2E2E2E2E2E2E2E2E2E2E2E2E2E2E2F5E2E2E2E2F5F5F5E2F5E2E2F5E2E2E2E2E2E2E2E2E2E2E2E2E2E2E2E2E2E2E2E2E2E2E2E2E2E2E2E2E2E2E228282828282828282828282828282828282828282828E2E2E2E2E2E2E2E2E2E2E2E2E2E2E2E2E2E2E2E2E2E2E2E2E2E22828282828282828E2E2E2E2E2E2E2E2
310
E2E2E2E2E2E2E2E2E2E2E2E2E2E2E2E2E2E2E2E2E2E2E2E2E2E2282828282828282828E2E2E2E2E2E2E2E2E2E2E2E2E2E2E2E2E2E2E2E2E2E2E2E2E2E2E2E2E2E2E2E2E2E2E2E2E2F5E2E2F5E2F5F5F5E2F5E2E2F5E2E2E2E2E2E2E2E2E2E2E2E2E2E2E2E2E2E2E2E2E2E2E2E2E2E2E2E2E2E2E2E2E2E2E2E2E2E2E2E2E2E2
310
E2E2E2E2E2E2E2E2E2E2E2E2E2E2E2E2E2E2E2E2E2E2E2E2E2E2E2E2E2E2E2E2E2E2E2E2E2E2E2E2E2E2E2E2E2E2E2E2E2E2E2E2E2E2E2E2E2E2E2E2E2E2E2E2E2E2E2E2E2E2E2E2E2E2E2E2E2E2E2E2E2E2E2E2E2E2E2E2E2E2E2E2E2E2E2E2E2E2E2E2E2E2E2E2E2E2E2E2E2E2E2E2E2E2E2E2E2E2E2E2E2E2E2E2E2F5E2
310
E2F5E2F5F5F5E2F5E2E2F5E2E2E2E2E2E2E2E2E2E2E2E2E2E2E2E2E2E2E2E2E2E2E2E2E2E2E2E2E2E2E2E2E2E2E2E2E2E2E2E2E2E2E2E2E2E2E2E2E2E2E2E2E2E2E2E2E2E2E2E2E2E2E2E2E2E2E2E2E2E2E2E2E2E2E2E2E2E2E2E2E2E2E2E2E2E2E2E2E2E2E2E2E2E2E2E2E2E2E2E2E2E2E2E2E2E2E2E2E2E2E2E2E2E2E2E2
310
E2E2E2E2E2E2E2E2E2E2E2E2E2E2E2E2E2E2E2E2E2E2E2E2E2E2E2E2E2E2E2E2E2E2E2E2E2E2E2E2E2E2E2E2E2E2E2E2E2E2E2F5E2E2F5E2F5F5F5E2F5E2E2F5E2E2E2E2E2E2E2E2E2E2E2E2E2E2E2E2E2E2E2E2E2E2E2E2E2E2E2E2E2E2E2E2E2E2E2E2E2E2E2E2E2E2E2E2E2E2E2E2E2E2E2E2E2E2E2E2E2E2E2E2E2E2E2
310
E2E2E2E2E2E2E2E2E2E2E2E2E2E2E2E2E2E2E2E2E2E2E2E2E2E2E2E2E2E2E2E2E2E2E2E2E2E2E2E2E2E2E2E2E2E2E2E2E2E2E2E2E2E2E2E2E2E2E2E2E2E2E2E2E2E2E2E2E2E2E2E2E2E2E2E2E2E2E2E2E2E2E2E2E2E2E2E2E2E2E2E2E2E2E2E2E2E2E2E2E2E2E2E2F5E2E2F5E2F5F5F5E2F5E2E2F5E2E2E2E2E2E2E2E2E2E2
310
E2E2E2E2E2E2E2E2E2E2E2E2E2E2E2E2E2E2E2E2E2E2E2E2E2E2E2E2E2E2E2E2E2E2E2E2E2E2E2E2E2E2E2E2E2E2E2E2E2E2E2E2E2E2E2E2E2E2E2E2E2E2E2E2E2E2E2E2E2E2E2E2E2E2E2E2E2E2E2E2E2E2E2E2E2E2E2E2E2E2E2E2E2E2E2E2E2E2E2E2E2E2E2E2E2E2E2E2E2E2E2E2E2E2E2E2E2E2E2E2E2E2E2E2E2E2E2
310
E2E2E2E2E2E2E2E2E2E2E2E2E2E2E2E2E2E2E2E2E2E2E2E2E2E2E2E2E2E2F5E2E2F5E2F5F5F5E2F5E2E2F5F5F5F5F5F5F5F5F5F5F5F5F5F5F5F5F5F5F5F5F5F5F5F5F5F5F5F5F5F5F5F5F5F5F5F5F5F5F5F5F5F5F5F5F5F5F5F5F5F5F5F5F5F5F5F5F5F5F5F5F5F5F5F5F5F5F5F5F5F5F5F5F5F5F5F5F5F5F5F5F5F5F5F5F5
310
F5F5F5F5F5F5F5F5F5F5F5F5F5F5F5F5F5F5F5F5F5F5F5F5F5F5F5F5F5F5F5F5F5F5F5F5F5F5F5F5F5F5F5F5F5F5F5F5F5F5F5F5F5F5F5F5F5F5F5F5F5F5F5F5F5F5F5F5F5F5F5F5F5F5F5F5F5F5F5F5F5F5F5F5E2E2F5E2F5F5F5E2F5E2E2E2E2E2E2E2E2E2E2E2E2E2E2E2E2E2E2E2E2E2E2E2E2E2E2E2E2E2E2E2E2E2E2
310
E2E2E2E2E2E2E2E2E2E2E2E2E2E2E2E2E2E2E2E2E2E2E2E2E2E2E2E2E2E2E2E2E2E2E2E2E2E2E2E2E2E2E2E2E2E2E2E2E2E2E2E2E2E2E2E2E2E2E2E2E2E2E2E2E2E2E2E2E2E2E2E2E2E2E2E2E2E2E2E2E2E2E2E2E2E2E2E2E2E2E2E2E2E2E2E2E2E2E2E2E2E2E2E2E2E2E2E2E2E2E2E2E2E2E2E2E2E2E2E2E2E2E2E2E2E2E2
310
E2E2E2E2E2E2E2E2E2E2E2E2F5E2F5F5F5E2F5F5F5F5F5F5F5F5E2E2E2E2E2E2E2E2E2F5F5F5F5F5F5F5F5F5F5F5F5F5F5F5F5E2E2E2E2E2E2E2E2E2F5F5F5F5F5F5F5F5F5F5F5F5F5F5F5F5E2E2E2E2E2E2E2E2E2F5F5F5F5F5F5F5F5F5F5F5F5F5F5F5F5E2E2E2E2E2E2E2E2E2F5F5F5F5F5F5F5F5F5F5F5F5F5F5F5F5E2
310
E2E2E2E2E2E2E2E2F5F5F5F5F5F5F5F5F5F5F5F5F5F5F5F5E2E2E2E2E2E2E2E2E2F5F5F5F5F5F5F5F5F5F5F5F5F5F5F5F5E2E2E2E2E2E2E2E2E2F5F5F5F5F5F5F5F5E2F5F5F5E2E2E2E2E2E2E2E2E2E2E2E2E2E2E2E2E2E2E2E2E2E2E2E2E2E2E2E2E2E2E2E2E2E2E2E2E2E2E2E2E2E2E2E2E2E2E2E2E2E2E2E2E2E2E2E2E2
310
E2E2E2E2E2E2E2E2E2E2E2E2E2E2E2E2E2E2E2E2E2E2E2E2E2E2E2E2E2E2E2E2E2E2E2E2E2E2E2E2E2E2E2E2E2E2E2E2E2E2E2E2E2E2E2E2E2E2E2E2E2E2E2E2E2E2E2E2E2E2E2E2E2E2E2E2E2E2E2E2E2E2E2E2E2E2E2E2E2E2E2E2E2E2E2E2E2E2E2E2E2E2E2E2E2E2E2E2E2E2E2E2E2E2E2E2E2E2E2E2F5EFF5F5F5F5F5
310
F5F5F5F5F5F5F5F5F5F5F5F5F5F5F5F5F5F5F5F5F5F5F5F5F5F5F5F5F5F5F5F5F5F5F5F5F5F5F5F5F5F5F5F5F5F5F5F5F5F5F5F5F5F5F5F5F5F5F5F5F5F5F5F5F5F5F5F5F5F5F5F5F5F5F5F5F5F5F5F5F5F5F5F5F5F5F5F5F5F5F5F5F5F5F5F5F5F5F5F5F5F5F5F5F5F5F5F5F5F5F5F5F5F5F5F5F5F5F5F5F5F5F5F5F5F5F5
310
F5F5F5F5F5F5F5F5F5F5F5F5F5F5F5F5F5F5F5F5F5F5F5F5F5F5F5F5F5F5F5F5F5F5F5F5F5F5F5F5F5F5F5F5F5F5F5EF
  0
XRECORD
  5
65F1
102
{ACAD_REACTORS
330
65F0
102
}
330
65F0
100
AcDbXrecord
280
     1
102
SHADEPLOT
 70
     0
102
SHADEPLOTRESLEVEL
 70
     2
102
SHADEPLOTCUSTOMDPI
 70
   300
  0
XRECORD
  5
65F8
102
{ACAD_REACTORS
330
6138
102
}
330
6138
100
AcDbXrecord
280
     1
102
MATERIAL
148
0.0
149
0.0
149
0.0
 93
        0
 94
      127
282
     0
 72
     0
 77
     0
171
     0
175
     0
179
     0
273
     0
  0
XRECORD
  5
613A
102
{ACAD_REACTORS
330
6138
102
}
330
6138
100
AcDbXrecord
280
     1
270
     1
271
     1
  0
XRECORD
  5
6139
102
{ACAD_REACTORS
330
6138
102
}
330
6138
100
AcDbXrecord
280
     1
270
     1
271
     1
  0
XRECORD
  5
613D
102
{ACAD_REACTORS
330
6138
102
}
330
6138
100
AcDbXrecord
280
     1
270
     1
271
     1
  0
XRECORD
  5
613C
102
{ACAD_REACTORS
330
6138
102
}
330
6138
100
AcDbXrecord
280
     1
270
     1
271
     1
  0
XRECORD
  5
613E
102
{ACAD_REACTORS
330
6138
102
}
330
6138
100
AcDbXrecord
280
     1
270
     1
271
     1
  0
XRECORD
  5
613B
102
{ACAD_REACTORS
330
6138
102
}
330
6138
100
AcDbXrecord
280
     1
270
     1
271
     1
  0
XRECORD
  5
65F7
102
{ACAD_REACTORS
330
6130
102
}
330
6130
100
AcDbXrecord
280
     1
102
MATERIAL
148
0.0
149
0.0
149
0.0
 93
        0
 94
      127
282
     0
 72
     0
 77
     0
171
     0
175
     0
179
     0
273
     0
  0
XRECORD
  5
6132
102
{ACAD_REACTORS
330
6130
102
}
330
6130
100
AcDbXrecord
280
     1
270
     1
271
     1
  0
XRECORD
  5
6131
102
{ACAD_REACTORS
330
6130
102
}
330
6130
100
AcDbXrecord
280
     1
270
     1
271
     1
  0
XRECORD
  5
6135
102
{ACAD_REACTORS
330
6130
102
}
330
6130
100
AcDbXrecord
280
     1
270
     1
271
     1
  0
XRECORD
  5
6134
102
{ACAD_REACTORS
330
6130
102
}
330
6130
100
AcDbXrecord
280
     1
270
     1
271
     1
  0
XRECORD
  5
6136
102
{ACAD_REACTORS
330
6130
102
}
330
6130
100
AcDbXrecord
280
     1
270
     1
271
     1
  0
XRECORD
  5
6133
102
{ACAD_REACTORS
330
6130
102
}
330
6130
100
AcDbXrecord
280
     1
270
     1
271
     1
  0
XRECORD
  5
65F9
102
{ACAD_REACTORS
330
6140
102
}
330
6140
100
AcDbXrecord
280
     1
102
MATERIAL
148
0.0
149
0.0
149
0.0
 93
        0
 94
      127
282
     0
 72
     0
 77
     0
171
     0
175
     0
179
     0
273
     0
  0
XRECORD
  5
6142
102
{ACAD_REACTORS
330
6140
102
}
330
6140
100
AcDbXrecord
280
     1
270
     1
271
     1
  0
XRECORD
  5
6141
102
{ACAD_REACTORS
330
6140
102
}
330
6140
100
AcDbXrecord
280
     1
270
     1
271
     1
  0
XRECORD
  5
6145
102
{ACAD_REACTORS
330
6140
102
}
330
6140
100
AcDbXrecord
280
     1
270
     1
271
     1
  0
XRECORD
  5
6144
102
{ACAD_REACTORS
330
6140
102
}
330
6140
100
AcDbXrecord
280
     1
270
     1
271
     1
  0
XRECORD
  5
6146
102
{ACAD_REACTORS
330
6140
102
}
330
6140
100
AcDbXrecord
280
     1
270
     1
271
     1
  0
XRECORD
  5
6143
102
{ACAD_REACTORS
330
6140
102
}
330
6140
100
AcDbXrecord
280
     1
270
     1
271
     1
  0
CELLSTYLEMAP
  5
65E6
102
{ACAD_REACTORS
330
65E5
102
}
330
65E5
100
AcDbCellStyleMap
 90
        3
300
CELLSTYLE
  1
TABLEFORMAT_BEGIN
 90
        5
170
     1
 91
        0
 92
    32768
 62
   257
 93
        1
300
CONTENTFORMAT
  1
CONTENTFORMAT_BEGIN
 90
        0
 91
        0
 92
        4
 93
        0
300

 40
0.0
140
1.0
 94
        5
 62
     0
340
11
144
6.0
309
CONTENTFORMAT_END
171
     1
301
MARGIN
  1
CELLMARGIN_BEGIN
 40
1.5
 40
1.5
 40
1.5
 40
1.5
 40
0.18
 40
0.18
309
CELLMARGIN_END
 94
        6
 95
        1
302
GRIDFORMAT
  1
GRIDFORMAT_BEGIN
 90
        0
 91
        1
 62
     0
 92
       -2
340
0
 93
        0
 40
0.045
309
GRIDFORMAT_END
 95
        2
302
GRIDFORMAT
  1
GRIDFORMAT_BEGIN
 90
        0
 91
        1
 62
     0
 92
       -2
340
0
 93
        0
 40
0.045
309
GRIDFORMAT_END
 95
        4
302
GRIDFORMAT
  1
GRIDFORMAT_BEGIN
 90
        0
 91
        1
 62
     0
 92
       -2
340
0
 93
        0
 40
0.045
309
GRIDFORMAT_END
 95
        8
302
GRIDFORMAT
  1
GRIDFORMAT_BEGIN
 90
        0
 91
        1
 62
     0
 92
       -2
340
0
 93
        0
 40
0.045
309
GRIDFORMAT_END
 95
       16
302
GRIDFORMAT
  1
GRIDFORMAT_BEGIN
 90
        0
 91
        1
 62
     0
 92
       -2
340
0
 93
        0
 40
0.045
309
GRIDFORMAT_END
 95
       32
302
GRIDFORMAT
  1
GRIDFORMAT_BEGIN
 90
        0
 91
        1
 62
     0
 92
       -2
340
0
 93
        0
 40
0.045
309
GRIDFORMAT_END
309
TABLEFORMAT_END
  1
CELLSTYLE_BEGIN
 90
        1
 91
        1
300
_TITLE
309
CELLSTYLE_END
300
CELLSTYLE
  1
TABLEFORMAT_BEGIN
 90
        5
170
     1
 91
        0
 92
        0
 62
   257
 93
        1
300
CONTENTFORMAT
  1
CONTENTFORMAT_BEGIN
 90
        0
 91
        0
 92
        4
 93
        0
300

 40
0.0
140
1.0
 94
        5
 62
     0
340
11
144
4.5
309
CONTENTFORMAT_END
171
     1
301
MARGIN
  1
CELLMARGIN_BEGIN
 40
1.5
 40
1.5
 40
1.5
 40
1.5
 40
0.18
 40
0.18
309
CELLMARGIN_END
 94
        6
 95
        1
302
GRIDFORMAT
  1
GRIDFORMAT_BEGIN
 90
        0
 91
        1
 62
     0
 92
       -2
340
0
 93
        0
 40
0.045
309
GRIDFORMAT_END
 95
        2
302
GRIDFORMAT
  1
GRIDFORMAT_BEGIN
 90
        0
 91
        1
 62
     0
 92
       -2
340
0
 93
        0
 40
0.045
309
GRIDFORMAT_END
 95
        4
302
GRIDFORMAT
  1
GRIDFORMAT_BEGIN
 90
        0
 91
        1
 62
     0
 92
       -2
340
0
 93
        0
 40
0.045
309
GRIDFORMAT_END
 95
        8
302
GRIDFORMAT
  1
GRIDFORMAT_BEGIN
 90
        0
 91
        1
 62
     0
 92
       -2
340
0
 93
        0
 40
0.045
309
GRIDFORMAT_END
 95
       16
302
GRIDFORMAT
  1
GRIDFORMAT_BEGIN
 90
        0
 91
        1
 62
     0
 92
       -2
340
0
 93
        0
 40
0.045
309
GRIDFORMAT_END
 95
       32
302
GRIDFORMAT
  1
GRIDFORMAT_BEGIN
 90
        0
 91
        1
 62
     0
 92
       -2
340
0
 93
        0
 40
0.045
309
GRIDFORMAT_END
309
TABLEFORMAT_END
  1
CELLSTYLE_BEGIN
 90
        2
 91
        1
300
_HEADER
309
CELLSTYLE_END
300
CELLSTYLE
  1
TABLEFORMAT_BEGIN
 90
        5
170
     1
 91
        0
 92
        0
 62
   257
 93
        1
300
CONTENTFORMAT
  1
CONTENTFORMAT_BEGIN
 90
        0
 91
        0
 92
        4
 93
        0
300

 40
0.0
140
1.0
 94
        2
 62
     0
340
11
144
4.5
309
CONTENTFORMAT_END
171
     1
301
MARGIN
  1
CELLMARGIN_BEGIN
 40
1.5
 40
1.5
 40
1.5
 40
1.5
 40
0.18
 40
0.18
309
CELLMARGIN_END
 94
        6
 95
        1
302
GRIDFORMAT
  1
GRIDFORMAT_BEGIN
 90
        0
 91
        1
 62
     0
 92
       -2
340
0
 93
        0
 40
0.045
309
GRIDFORMAT_END
 95
        2
302
GRIDFORMAT
  1
GRIDFORMAT_BEGIN
 90
        0
 91
        1
 62
     0
 92
       -2
340
0
 93
        0
 40
0.045
309
GRIDFORMAT_END
 95
        4
302
GRIDFORMAT
  1
GRIDFORMAT_BEGIN
 90
        0
 91
        1
 62
     0
 92
       -2
340
0
 93
        0
 40
0.045
309
GRIDFORMAT_END
 95
        8
302
GRIDFORMAT
  1
GRIDFORMAT_BEGIN
 90
        0
 91
        1
 62
     0
 92
       -2
340
0
 93
        0
 40
0.045
309
GRIDFORMAT_END
 95
       16
302
GRIDFORMAT
  1
GRIDFORMAT_BEGIN
 90
        0
 91
        1
 62
     0
 92
       -2
340
0
 93
        0
 40
0.045
309
GRIDFORMAT_END
 95
       32
302
GRIDFORMAT
  1
GRIDFORMAT_BEGIN
 90
        0
 91
        1
 62
     0
 92
       -2
340
0
 93
        0
 40
0.045
309
GRIDFORMAT_END
309
TABLEFORMAT_END
  1
CELLSTYLE_BEGIN
 90
        3
 91
        2
300
_DATA
309
CELLSTYLE_END
  0
XRECORD
  5
65F2
102
{ACAD_REACTORS
330
65E5
102
}
330
65E5
100
AcDbXrecord
280
     1
102
ACAD_ROUNDTRIP_PRE2007_TABLESTYLE
 90
        4
 91
        0
  1

 92
        4
 93
        0
  2

 94
        4
 95
        0
  3

  0
ACAD_PROXY_OBJECT
  5
6E
330
62
100
AcDbProxyObject
 90
      499
 91
      526
 95
       25
 70
     0
 93
       14
310
6093
 94
        0
1001
ACAD
1000
AcRTDxfName
1000
AMDTEDGESTANDARDISO
1000
AcRTDxfName
1000
AMDTEDGESTANDARDISO
  0
ACAD_PROXY_OBJECT
  5
6F
330
62
100
AcDbProxyObject
 90
      499
 91
      527
 95
       25
 70
     0
 93
       96
310
60AA0E80A0280A0280A0280F00
 94
        0
1001
ACAD
1000
AcRTDxfName
1000
ACMSURFSTANDARDISO
1000
AcRTDxfName
1000
ACMSURFSTANDARDISO
  0
ACAD_PROXY_OBJECT
  5
70
330
62
100
AcDbProxyObject
 90
      499
 91
      528
 95
       25
 70
     0
 93
      272
310
6090E4050140501405014050140501405014050140D01405012C00000000000000406C
340
79
 94
        0
1001
ACAD
1000
AcRTDxfName
1000
ACMFCFSTANDARDISO
1000
AcRTDxfName
1000
ACMFCFSTANDARDISO
  0
ACAD_PROXY_OBJECT
  5
71
330
62
100
AcDbProxyObject
 90
      499
 91
      529
 95
       25
 70
     0
 93
      497
310
60A8666666666667A67E199999999999E99FD2240501405014050140501405014050140501405014050140501405014050140501405014050140501405017F
340
7A
 94
        0
1001
ACAD
1000
AcRTDxfName
1000
ACMWELDSTANDARDISO
1000
AcRTDxfName
1000
ACMWELDSTANDARDISO
  0
ACAD_PROXY_OBJECT
  5
72
330
62
100
AcDbProxyObject
 90
      499
 91
      530
 95
       25
 70
     0
 93
       10
310
60BF
 94
        0
1001
ACAD
1000
AcRTDxfName
1000
ACMIDSTANDARDISO
1000
AcRTDxfName
1000
ACMIDSTANDARDISO
  0
ACAD_PROXY_OBJECT
  5
73
330
62
100
AcDbProxyObject
 90
      499
 91
      531
 95
       25
 70
     0
 93
      257
310
60A290EA22A7D90F49F8000000000000108140000000000000420401000061807F
340
7B
340
7C
 94
        0
1001
ACAD
1000
AcRTDxfName
1000
ACMDATUMSTANDARDISO
1000
AcRTDxfName
1000
ACMDATUMSTANDARDISO
  0
ACAD_PROXY_OBJECT
  5
74
330
62
100
AcDbProxyObject
 90
      499
 91
      532
 95
       25
 70
     0
 93
    13881
310
6090E411255115350141141BDCCB90140501406901000000000000091013347454E545241434F2C4445552C302C506F732E2C47454E54524154582C25732C2847454E4D53472067656E647767203232322940690120281A8AA2CA028220B73D172028120280A0320200000000000012202668E8A9CA8A482869E58888AAA58
310
605882DCF45C588E8A9CA8A482A8B0584AE658508E8A9C9AA68E40CECADCC8EECE406464665280D202405044E414D45405044E616D654051C40640A80000000000004E404CD1D15395149050D3CB1111554B0C0B13985B594B11D15395149055160B095CCB0A11D1539354D1C819D95B991DD9C80C8C8D8A50192C3D494628
310
4953424C414E4B28504152543A4E414D45292C424C4F434B3A4E414D452C504152543A4E414D452940480A0A888AA686A480A1884CAE6C6D0E4CAD2C4EADCCE80A3A80C81D0000000000100A2809DA3A2A72A2920A1A7962222AA9618162132B9B1B43932B4B13AB7339623A2A72A2920AA2C1612B9961423A2A726A9A3903
310
3B2B7323BB39019189B94A034809014214D510539110549110141139BDC9B50147501904A000000000000125013347454E545241434F2C4445552C302C4E6F726D2C47454E54524154582C25732C2847454E4D53472067656E64776720323138294069012028426A0AA22A924A0A62028426B0BA32B934B0B62028EA0320B4
310
0000000000001CA026E8E8A9CA8A482869E58888AAA5860589AC2E8CAE4D2C2D8588E8A9CA8A482A8B0584AE658508E8A9C9AA68E40CECADCC8EECE406464625280D202405044E4F54454050942656D65726B756E674051D40641A80000000000003E404E11D15395149050D3CB1111554B0C0B10995B595C9ADD5B99CB11D
310
15395149055160B095CCB0A11D1539354D1C819D95B991DD9C80C8C8D4A501240480A0CAC8A9C889EA480A1298D2CACCCAE4C2DCE880A3A80C83D00000000000007C809C23A2A72A2920A1A7962222AA9618162634B2B332B930B73A1623A2A72A2920AA2C1612B9961423A2A726A9A39033B2B7323BB39019191A14A02480
310
90141911154D0D48C9014390995CD8DA1C995A589D5B99C80C90147501908A000000000020145013C47454E545241434F2C4445552C302C426573636872656962756E6720322C47454E54524154582C25732C2847454E4D53472067656E6477672033362940490120284A9AA20A72220A92219202832737B93690192028EA0
310
3213400000000000024A026A8E8A9CA8A482869E58888AAA5860589CDEE4DA4064588E8A9CA8A482A8B0584AE658508E8A9C9AA68E40CECADCC8EECE4064646052809202405094D4154455249414C324050A4D6174657269616C20324051D40642A8713D0AD7A37045404E11D15395149050D3CB1111554B0C0B13585D195C
310
9A585B080C8B11D15395149055160B095CCB0A11D1539354D1C819D95B991DD9C80D0C0A501240480A089A82A6A680A0A9AC2E6E6CA80A3A80A0485A068100000000000007C8099A3A2A72A2920A1A7962222AA96181626B0B9B9B29623A2A72A2920AA2C1612B9961423A2A726A9A39033B2B7323BB3901A1914A02480901
310
4154149250D150141541C995A5CD01475014090C409020000000000000F9013347454E545241434F2C4445552C302C50726569732C47454E54524154582C25732C2847454E4D53472067656E6477672034332940490120281A224A6A0285A0B136B2B9B9BAB733B2B72028EA028121A81A040000000000001F202728E8A9CA
310
8A482869E58888AAA58605882C4DACAE6E6EADCCECADC588E8A9CA8A482A8B0584AE658508E8A9C9AA68E40CECADCC8EECE406868528092024050E445020000000000000510201C00030C00010180000000000003E400000000000000F901073D3C4954454D3E4050180000000000003E400000000000000F901073D3C4954
310
454D3E40501800000000000034400000000000000D101073D3C4954454D3E40501800000000000034400000000000000D101073D3C4954454D3E405029010000000000000F9000000000000003E4041CF4F125511534F901418F4F1455164F9014060000000000000F9000000000000003E4041CF4F125511534F901406000
310
0000000000D100000000000000344041CF4F125511534F901901000000000000000F9000000000000003E40A2200000000000008204018000618048220681A048120280A14A6E9F8C6D6D8D2E6E8CA882148420A82A49282988820320A82A49282988520320A82A49282988452028521485214814000000000000F0BF00000
310
00000003C2FD018020000C3008070000C3003373333333333B0FCCDCCCCCCCCCCEC3F000000000000031012034164050341105901A000000000000062040100006180401000061804008000618008098A0280C80FF
340
0
340
0
 94
        0
1001
ACAD
1000
AcRTDxfName
1000
ACMBOMSTANDARDISO
1000
AcRTDxfName
1000
ACMBOMSTANDARDISO
  0
ACAD_PROXY_OBJECT
  5
75
330
62
100
AcDbProxyObject
 90
      499
 91
      533
 95
       25
 70
     0
 93
      898
310
6084000000000000144048CF4F11115510525317D3105091530F880A0F11115510525317D05094D4D0D053114F8A51141C9A9999999999B93F26A666666666724FC000000000000E03F400000000000000400000000000000510000000000000024408070000C30000000000000005103F
340
16
340
6D
 94
        0
1001
ACAD
1000
AcRTDxfName
1000
ACMDETAILSTANDARDISO
1000
AcRTDxfName
1000
ACMDETAILSTANDARDISO
  0
ACAD_PROXY_OBJECT
  5
76
330
62
100
AcDbProxyObject
 90
      499
 91
      534
 95
       25
 70
     0
 93
      823
310
6080B00000000000002880959E9E29A2A1AA24A7A72FA620A122A62FA324A929AA1F169E29A2A1AA24A7A72FA620A122A62FA620A9AA1F000000000000048803FFFE01C00030C0088C0380006180000000000000048800000000000000A2000000000000002881
340
7E
340
6D
 94
        0
1001
ACAD
1000
AcRTDxfName
1000
ACMSECTIONSTANDARDISO
1000
AcRTDxfName
1000
ACMSECTIONSTANDARDISO
  0
ACAD_PROXY_OBJECT
  5
77
330
62
100
AcDbProxyObject
 90
      499
 91
      535
 95
       25
 70
     0
 93
      152
310
60A80000000000000840A3D0A5723F0BD1F20000
 94
        0
1001
ACAD
1000
AcRTDxfName
1000
ACMCENTERLINESTANDARDISO
1000
AcRTDxfName
1000
ACMCENTERLINESTANDARDISO
  0
ACAD_PROXY_OBJECT
  5
78
330
62
100
AcDbProxyObject
 90
      499
 91
      536
 95
       25
 70
     0
 93
     8904
310
609084050BA4050AA405024050A54656D706C61746520314043A013D2525633C486F6C653A63746469613E2078203C486F6C653A637464657074683E20555C503C696628657175616C28486F6C653A7461707065642C223022292C22252563222C486F6C653A6E6F6D696E616C202220782022293E3C696628657175616C28
310
486F6C653A7461707065642C223022292C486F6C653A6469612C486F6C653A706974636864657363293E3C696628657175616C28486F6C653A7461707065642C223122292C22207820222C2222293E3C696628657175616C28486F6C653A7461707065642C223122292C486F6C653A74617064657074682C2222293E203C69
310
6628657175616C28486F6C653A7465726D696E6174696F6E2C223022292C22202F20222C2222293E3C696628657175616C28486F6C653A7465726D696E6174696F6E2C223022292C486F6C653A64657074682C2222293E406901405034050A54656D706C61746520314043B013D2525633C486F6C653A63746469613E20782
310
03C486F6C653A6374616E676C653E2525645C503C696628657175616C28486F6C653A7461707065642C223022292C22252563222C486F6C653A6E6F6D696E616C202220782022293E3C696628657175616C28486F6C653A7461707065642C223022292C486F6C653A6469612C486F6C653A706974636864657363293E3C696
310
628657175616C28486F6C653A7461707065642C223122292C22207820222C2222293E3C696628657175616C28486F6C653A7461707065642C223122292C486F6C653A74617064657074682C2222293E203C696628657175616C28486F6C653A7465726D696E6174696F6E2C223022292C22202F20222C2222293E3C6966286
310
57175616C28486F6C653A7465726D696E6174696F6E2C223022292C486F6C653A64657074682C2222293E406901405014050A54656D706C617465203140416013D3C696628657175616C28486F6C653A7461707065642C223022292C22252563222C486F6C653A6E6F6D696E616C202220782022293E3C696628657175616C
310
28486F6C653A7461707065642C223022292C486F6C653A6469612C486F6C653A706974636864657363293E3C696628657175616C28486F6C653A7461707065642C223122292C22207820222C2222293E3C696628657175616C28486F6C653A7461707065642C223122292C486F6C653A74617064657074682C2222293E203C
310
696628657175616C28486F6C653A7465726D696E6174696F6E2C223022292C22202F20222C2222293E3C696628657175616C28486F6C653A7465726D696E6174696F6E2C223022292C486F6C653A64657074682C2222293E4069014051E40D0A54656D706C6174652032405173D3C535444503A444553433E203C535444503
310
A5354443E40690A54656D706C61746520314050C3D3C535444503A444553433E40690A54656D706C61746520334050B3D3C535444503A5354443E40690340515AAAB5C0000000000000620000000000000018818020000C3008000000C0004450900
360
1CC
330
1CC
360
1CD
330
1CD
360
1CE
330
1CE
360
1D0
360
1CF
360
1D1
330
1D0
330
1CF
330
1D1
 94
        0
1001
ACAD
1000
AcRTDxfName
1000
ACMNOTESTANDARDISO
1000
AcRTDxfName
1000
ACMNOTESTANDARDISO
  0
ACAD_PROXY_OBJECT
  5
7F
330
62
100
AcDbProxyObject
 90
      499
 91
      537
 95
       25
 70
     0
 93
       26
310
60902ABF
340
63
 94
        0
1001
ACAD
1000
AcRTDxfName
1000
ACAMGLAYSTD
1000
AcRTDxfName
1000
ACAMGLAYSTD
  0
ACAD_PROXY_OBJECT
  5
80
330
62
100
AcDbProxyObject
 90
      499
 91
      538
 95
       25
 70
     0
 93
      242
310
609020000000000000A1000000000000002440408F0F9023C3E404C0FFFFBF
340
81
340
4DBB
340
0
340
82
340
83
340
84
340
85
340
86
340
8B
340
0
 94
        0
1001
ACAD
1000
AcRTDxfName
1000
ACAMGDIMSTD
1000
AcRTDxfName
1000
ACAMGDIMSTD
  0
ACAD_PROXY_OBJECT
  5
8C
330
62
100
AcDbProxyObject
 90
      499
 91
      539
 95
       25
 70
     0
 93
    17810
310
6091F023FFFFFFFD030300030000000000000310200800030C01030300030000000000000310200800030C0005104B6F6F7264696E6174656E6C69737465014FD1D15395149050D3CB1111554B0C0B12DBDBDC991A5B985D195B9B1A5CDD194B11D15395149055160B095CCB0A11D1539354D1C819D95B991A5B5E880CCC0A
310
78000C000000000000000000000000000000010000000000000310200800030C010000000000000310200800030C020143CF4F111959985D5B1D151A5D1B194F80512426F6872756E6773646566696E6974696F6E015051D15395149050D3CB1111554B0C0B109BDA1C9D5B99DCD919599A5B9A5D1A5BDB8B11D1539514905
310
5160B095CCB0A11D1539354D1C819D95B991A5B5E880CCC4A78000C000000000000000000000000000000010000000000000310200800030C010000000000000310200800030C020143CF4F111959985D5B1D151A5D1B194F90E44111409034110541D0C4350F4050E44D1540D1241D144400005085572737072756E67014D
310
11D15395149050D3CB1153954B0C0B13DC9A59DA5B8B11D15395149055160B095CCB0A11D1539354D1C819D95B991A5B5E880C4A400040414008850000A08A0DEE65C029923A2A72A2920A1A79622A72A9618162437B6329623A2A72A2920AA2C1612B9961423A2A726A9A39033B2B73234B6BD10191480A7E7A789EE4D2CE
310
D2DC7C78928C509EA45092A68498829C96509EE4D2CED2DC525892A68498829C965092DCC8CAF0525258444458445C44527C7892DCC8CAF07C02020800446800050158014BD1D15395149050D3CB1153954B0C0B160B11D15395149055160B095CCB0A11D1539354D1C819D95B991A5B5E880CCA400040400008150000A02B
310
20297A3A2A72A2920A1A79622A72A9618162C9623A2A72A2920AA2C1612B9961423A2A726A9A39033B2B73234B6BD101A148000808000103A0001405C8052F47454E545241434F2C454E552C302C722C47454E54524154582C25732C2847454E4D53472067656E64696D7A20362900010100002094000283AE2A95981A1A1A
310
00A6A8E8A9CA8A482869E588A9CAA586058B8AA5660686868588E8A9CA8A482A8B0584AE658508E8A9C9AA68E40CECADCC8D2DAF4406E5200020206004168000503252563014C51D15395149050D3CB1153954B0C0B094958CB11D15395149055160B095CCB0A11D1539354D1C819D95B991A5B5E880E0A4000404040083D0
310
000A1884CAE6C6D0E4CAD2C4EADCCE029D23A2A72A2920A1A79622A72A9618162232B9B1B934B83A34B7B71623A2A72A2920AA2C1612B9961423A2A726A9A39033B2B73234B6BD10191814800080020010CA000141139BDC9B4053747454E545241434F2C454E552C302C5374616E646172642C47454E54524154582C25732
310
C2847454E4D53472067656E64696D7A20323129000100040021B40002842AB939B8393AB73380A688E8A9CA8A482869E588A9CAA5860589EE4D2CED2DC588E8A9CA8A482A8B0584AE658508E8A9C9AA68E40CECADCC8D2DAF44062520280988080828010FA000140D41BDCC053347454E545241434F2C454E552C302C49746
310
56D2C47454E54524154582C25732C2847454E4D53472067656E64696D7A2031342900010105002034000282A4B73232BC00A688E8A9CA8A482869E588A9CAA58605892DCC8CAF0588E8A9CA8A482A8B0584AE658508E8A9C9AA68E40CECADCC8D2DAF440626A520002020A0043A800050E426F6872756E67736E756D6D6572
310
014E51D15395149050D3CB1153954B0C0B121BDB1948125B99195E0B11D15395149055160B095CCB0A11D1539354D1C819D95B991A5B5E880C4DCA4000404140089D0000A0E84DED0E4EADCCE0299A3A2A72A2920A1A79622A72A9618162437B6329623A2A72A2920AA2C1612B9961423A2A726A9A39033B2B73234B6BD101
310
89B148000808200112A000140D45D1E4053247454E545241434F2C454E552C302C5174792C47454E54524154582C25732C2847454E4D53472067656E64696D7A2031392900010106002294000287A132B73ABA3D32B932B632B6B2B73A00A708E8A9CA8A482869E588A9CAA586058AAE6CAE44092E8CADA588E8A9CA8A482A
310
8B0584AE658508E8A9C9AA68E40CECADCC8D2DAF4406464520002020A00456910000000000000000E5027FFFFFFF81800000000000068813FFFFFFFC0400000000000034409FFFFFFFE020000000000001A204FFFFFFFF020000000000000D1027FFFFFFF81000000000000068813FFFFFFFC0C00000000000039409FFFFFF
310
FE0600000000000024A04FFFFFFFF03000000000020145027FFFFFFF80000000000000068813FFFFFFFC0000000000000024409FFFFFFFE000000000000001A204FFFFFFFF000000000000000D1027FFFFFFF80000000000000068813FFFFFFFC0C00000000000028409FFFFFFFE000000000000001A204FFFFFFFF4400000
310
000000000039409FFFFFFFE060000000000001A204FFFFFFFF030000000000000D1027FFFFFFF81800000000000068813FFFFFFFC0C00000000000034409FFFFFFFE060000000000001A204FFFFFFFF030000000000000E5027FFFFFFF81800000000000092813FFFFFFFC0C00000000008051409FFFFFFFE0000000000000
310
01A204FFFFFFFF00000000000000091027FFFFFFF80000000000000068813FFFFFFFC0000000000000034409FFFFFFFE060000000000001A204FFFFFFFF030000000000000A1027FFFFFFF80000000000000068813FFFFFFFD074400000010F000000408000001030000004100000010500000041C00000101448000000FFF
310
FFFFF4090100014FCF4F13DC9A59DA5B8F8F12518A13D48A1254D093105392CA13DC9A59DA5B8A4B1254D093105392CA125B99195E0A4A4B08888B088B888A4F8F125B99195E0F9074400000010F000000408000001030000004100000010500000041C000001020001514F4F13DC9A59DA5B8F8F12518A13D48A1254D0931
310
05392CA13DC9A59DA5B8A4B1254D093105392CA155CD95C925D195B4A4A4B08888B088B888A4F8F155CD95C925D195B4F9034400000010F000000454000000FFFFFFFFBF
340
0
340
0
340
0
340
0
340
6D
340
6D
 94
        0
1001
ACAD
1000
AcRTDxfName
1000
ACAMGHOLECHARTSTDISO
1000
AcRTDxfName
1000
ACAMGHOLECHARTSTDISO
  0
ACAD_PROXY_OBJECT
  5
8D
330
62
100
AcDbProxyObject
 90
      499
 91
      540
 95
       25
 70
     0
 93
     7458
310
6099740D254D3D0649534F5F4133429254D3D7D5125513115051349534F5F42525F5265766973696F6E6C697374461124132783520283539347832313032206D6D29421254D3D7D04C9E0D51241347834202832393778383431206D6D2920421254D3D7D04D1E0D10F4133202832393778343230206D6D29419254D3D7D04C
310
D124133783520283432307831343836206D6D29421254D3D7D04CDE0D50F4134202832393778323130206D6D29419254D3D7D04D113413078332028313138397832353233206D6D29421254D3D7D04C1E0CD1141337833202834323078383931206D6D29421254D3D7D04CDE0CD13413078322028313138397831363832206
310
D6D29421254D3D7D04C1E0C9124134783620283239377831323631206D6D29421254D3D7D04D1E0D9104130202838343078313138396D6D2920419254D3D7D04C1124134783820283239377831363832206D6D29421254D3D7D04D1E0E1124132783320283539347831323631206D6D29421254D3D7D04C9E0CD1241337836
310
20283432307831373833206D6D29421254D3D7D04CDE0D9124133783420283432307831313839206D6D29421254D3D7D04CDE0D10F4132202834323078353934206D6D29419254D3D7D04C9124134783520283239377831303531206D6D29421254D3D7D04D1E0D50F4131202835393478383431206D6D29419254D3D7D04C
310
5124134783720283239377831343731206D6D29421254D3D7D04D1E0DD124134783920283239377831383932206D6D29421254D3D7D04D1E0E5124133783720283432307832303830206D6D29421254D3D7D04CDE0DD1141317834202838343178323337386D6D29421254D3D7D04C5E0D1124132783420283539347831363
310
832206D6D29421254D3D7D04C9E0D11141347833202832393778363330206D6D29421254D3D7D04D1E0CD1141317833202838343178313738336D6D29421254D3D7D04C5E0CD02445254D3CB54D8DA1C9A599D19995B19081090A49534F5F5449544C4542445254D3CB54D8DA1C9A599D19995B19081050A49534F5F544954
310
4C4541411145265766973696F6E737665726D65726B5F42525F44D254D3D7D09497D4995D9A5CDA5BDB9B1A5CDD1145265766973696F6E737665726D65726B5F54525F44D254D3D7D51497D4995D9A5CDA5BDB9B1A5CDD1145265766973696F6E737665726D65726B5F424C5F44D254D3D7D09317D4995D9A5CDA5BDB9B1A5
310
CDD1145265766973696F6E737665726D65726B5F544C5F44D254D3D7D51317D4995D9A5CDA5BDB9B1A5CDD3F
 94
        0
1001
ACAD
1000
AcRTDxfName
1000
ACAMGTITLESTD
1000
AcRTDxfName
1000
ACAMGTITLESTD
  0
ACAD_PROXY_OBJECT
  5
10D
330
62
100
AcDbProxyObject
 90
      499
 91
      567
 95
       25
 70
     0
 93
       14
310
60A3
340
0
 94
        0
1001
ACAD
1000
AcRTDxfName
1000
ACMTHREADLINESTANDARDISO
1000
AcRTDxfName
1000
ACMTHREADLINESTANDARDISO
  0
ACAD_PROXY_OBJECT
  5
1CC
330
0
100
AcDbProxyObject
 90
      499
 91
      576
 95
       25
 70
     0
 93
     2648
310
60A014295195B5C1B185D19480C4043A013D2525633C486F6C653A63746469613E2078203C486F6C653A637464657074683E20555C503C696628657175616C28486F6C653A7461707065642C223022292C22252563222C486F6C653A6E6F6D696E616C202220782022293E3C696628657175616C28486F6C653A7461707065
310
642C223022292C486F6C653A6469612C486F6C653A706974636864657363293E3C696628657175616C28486F6C653A7461707065642C223122292C22207820222C2222293E3C696628657175616C28486F6C653A7461707065642C223122292C486F6C653A74617064657074682C2222293E203C696628657175616C28486F
310
6C653A7465726D696E6174696F6E2C223022292C22202F20222C2222293E3C696628657175616C28486F6C653A7465726D696E6174696F6E2C223022292C486F6C653A64657074682C2222293EE2
 94
        0
1001
ACAD
1000
AcRTDxfName
1000
AMDTNOTETEMPLATEDB
1000
AcRTDxfName
1000
AMDTNOTETEMPLATEDB
  0
ACAD_PROXY_OBJECT
  5
1CD
330
0
100
AcDbProxyObject
 90
      499
 91
      576
 95
       25
 70
     0
 93
     2656
310
60A014295195B5C1B185D19480C4043B013D2525633C486F6C653A63746469613E2078203C486F6C653A6374616E676C653E2525645C503C696628657175616C28486F6C653A7461707065642C223022292C22252563222C486F6C653A6E6F6D696E616C202220782022293E3C696628657175616C28486F6C653A74617070
310
65642C223022292C486F6C653A6469612C486F6C653A706974636864657363293E3C696628657175616C28486F6C653A7461707065642C223122292C22207820222C2222293E3C696628657175616C28486F6C653A7461707065642C223122292C486F6C653A74617064657074682C2222293E203C696628657175616C2848
310
6F6C653A7465726D696E6174696F6E2C223022292C22202F20222C2222293E3C696628657175616C28486F6C653A7465726D696E6174696F6E2C223022292C486F6C653A64657074682C2222293EE2
 94
        0
1001
ACAD
1000
AcRTDxfName
1000
AMDTNOTETEMPLATEDB
1000
AcRTDxfName
1000
AMDTNOTETEMPLATEDB
  0
ACAD_PROXY_OBJECT
  5
1CE
330
0
100
AcDbProxyObject
 90
      499
 91
      576
 95
       25
 70
     0
 93
     2360
310
60A014295195B5C1B185D19480C40416013D3C696628657175616C28486F6C653A7461707065642C223022292C22252563222C486F6C653A6E6F6D696E616C202220782022293E3C696628657175616C28486F6C653A7461707065642C223022292C486F6C653A6469612C486F6C653A706974636864657363293E3C696628
310
657175616C28486F6C653A7461707065642C223122292C22207820222C2222293E3C696628657175616C28486F6C653A7461707065642C223122292C486F6C653A74617064657074682C2222293E203C696628657175616C28486F6C653A7465726D696E6174696F6E2C223022292C22202F20222C2222293E3C6966286571
310
75616C28486F6C653A7465726D696E6174696F6E2C223022292C486F6C653A64657074682C2222293E00
 94
        0
1001
ACAD
1000
AcRTDxfName
1000
AMDTNOTETEMPLATEDB
1000
AcRTDxfName
1000
AMDTNOTETEMPLATEDB
  0
ACAD_PROXY_OBJECT
  5
1D0
330
0
100
AcDbProxyObject
 90
      499
 91
      576
 95
       25
 70
     0
 93
      312
310
60A014295195B5C1B185D19480C805173D3C535444503A444553433E203C535444503A5354443E00
 94
        0
1001
ACAD
1000
AcRTDxfName
1000
AMDTNOTETEMPLATEDB
1000
AcRTDxfName
1000
AMDTNOTETEMPLATEDB
  0
ACAD_PROXY_OBJECT
  5
1CF
330
0
100
AcDbProxyObject
 90
      499
 91
      576
 95
       25
 70
     0
 93
      224
310
60A014295195B5C1B185D19480C4050C3D3C535444503A444553433EF6
 94
        0
1001
ACAD
1000
AcRTDxfName
1000
AMDTNOTETEMPLATEDB
1000
AcRTDxfName
1000
AMDTNOTETEMPLATEDB
  0
ACAD_PROXY_OBJECT
  5
1D1
330
0
100
AcDbProxyObject
 90
      499
 91
      576
 95
       25
 70
     0
 93
      216
310
60A014295195B5C1B185D19480CC050B3D3C535444503A5354443E00
 94
        0
1001
ACAD
1000
AcRTDxfName
1000
AMDTNOTETEMPLATEDB
1000
AcRTDxfName
1000
AMDTNOTETEMPLATEDB
  0
ENDSEC
  0
EOF
