  0
SECTION
  2
HEADER
  9
$ACADVER
  1
AC1015
  9
$ACADMAINTVER
 70
    20
  9
$DWGCODEPAGE
  3
ANSI_1252
  9
$INSBASE
 10
0.0
 20
0.0
 30
0.0
  9
$EXTMIN
 10
1077.45439522365
 20
612.8999999999999
 30
0.0
  9
$EXTMAX
 10
1403.348017394822
 20
762.6909959072305
 30
0.0
  9
$LIMMIN
 10
0.0
 20
0.0
  9
$LIMMAX
 10
420.0
 20
297.0
  9
$ORTHOMODE
 70
     1
  9
$REGENMODE
 70
     1
  9
$FILLMODE
 70
     1
  9
$QTEXTMODE
 70
     0
  9
$MIRRTEXT
 70
     1
  9
$LTSCALE
 40
1.0
  9
$ATTMODE
 70
     1
  9
$TEXTSIZE
 40
3.0
  9
$TRACEWID
 40
1.0
  9
$TEXTSTYLE
  7
ROMANS
  9
$CLAYER
  8
DATA
  9
$CELTYPE
  6
ByLayer
  9
$CECOLOR
 62
   256
  9
$CELTSCALE
 40
1.0
  9
$DISPSILH
 70
     0
  9
$DIMSCALE
 40
1.0
  9
$DIMASZ
 40
3.0
  9
$DIMEXO
 40
1.0
  9
$DIMDLI
 40
1.0
  9
$DIMRND
 40
0.0
  9
$DIMDLE
 40
0.0
  9
$DIMEXE
 40
1.0
  9
$DIMTP
 40
0.2
  9
$DIMTM
 40
-0.2
  9
$DIMTXT
 40
3.0
  9
$DIMCEN
 40
-0.05
  9
$DIMTSZ
 40
0.0
  9
$DIMTOL
 70
     0
  9
$DIMLIM
 70
     0
  9
$DIMTIH
 70
     0
  9
$DIMTOH
 70
     0
  9
$DIMSE1
 70
     0
  9
$DIMSE2
 70
     0
  9
$DIMTAD
 70
     1
  9
$DIMZIN
 70
     8
  9
$DIMBLK
  1

  9
$DIMASO
 70
     1
  9
$DIMSHO
 70
     1
  9
$DIMPOST
  1

  9
$DIMAPOST
  1

  9
$DIMALT
 70
     0
  9
$DIMALTD
 70
     2
  9
$DIMALTF
 40
25.4
  9
$DIMLFAC
 40
1.0
  9
$DIMTOFL
 70
     1
  9
$DIMTVP
 40
5.0
  9
$DIMTIX
 70
     0
  9
$DIMSOXD
 70
     0
  9
$DIMSAH
 70
     0
  9
$DIMBLK1
  1

  9
$DIMBLK2
  1

  9
$DIMSTYLE
  2
STANDARD
  9
$DIMCLRD
 70
     3
  9
$DIMCLRE
 70
     3
  9
$DIMCLRT
 70
     6
  9
$DIMTFAC
 40
0.8
  9
$DIMGAP
 40
1.0
  9
$DIMJUST
 70
     0
  9
$DIMSD1
 70
     0
  9
$DIMSD2
 70
     0
  9
$DIMTOLJ
 70
     1
  9
$DIMTZIN
 70
     8
  9
$DIMALTZ
 70
     0
  9
$DIMALTTZ
 70
     0
  9
$DIMUPT
 70
     0
  9
$DIMDEC
 70
     2
  9
$DIMTDEC
 70
     0
  9
$DIMALTU
 70
     2
  9
$DIMALTTD
 70
     2
  9
$DIMTXSTY
  7
STANDARD
  9
$DIMAUNIT
 70
     0
  9
$DIMADEC
 70
     0
  9
$DIMALTRND
 40
0.0
  9
$DIMAZIN
 70
     0
  9
$DIMDSEP
 70
    46
  9
$DIMATFIT
 70
     3
  9
$DIMFRAC
 70
     0
  9
$DIMLDRBLK
  1

  9
$DIMLUNIT
 70
     2
  9
$DIMLWD
 70
    -1
  9
$DIMLWE
 70
    -2
  9
$DIMTMOVE
 70
     0
  9
$LUNITS
 70
     2
  9
$LUPREC
 70
     2
  9
$SKETCHINC
 40
1.0
  9
$FILLETRAD
 40
1.5
  9
$AUNITS
 70
     0
  9
$AUPREC
 70
     0
  9
$MENU
  1
.
  9
$ELEVATION
 40
0.0
  9
$PELEVATION
 40
0.0
  9
$THICKNESS
 40
0.0
  9
$LIMCHECK
 70
     0
  9
$CHAMFERA
 40
2.5
  9
$CHAMFERB
 40
2.5
  9
$CHAMFERC
 40
20.0
  9
$CHAMFERD
 40
0.0
  9
$SKPOLY
 70
     0
  9
$TDCREATE
 40
2453787.394483275
  9
$TDUCREATE
 40
2453787.352816609
  9
$TDUPDATE
 40
2454179.519184155
  9
$TDUUPDATE
 40
2454179.477517488
  9
$TDINDWG
 40
1.2373289468
  9
$TDUSRTIMER
 40
1.2364768634
  9
$USRTIMER
 70
     1
  9
$ANGBASE
 50
0.0
  9
$ANGDIR
 70
     0
  9
$PDMODE
 70
     0
  9
$PDSIZE
 40
0.0
  9
$PLINEWID
 40
0.0
  9
$SPLFRAME
 70
     0
  9
$SPLINETYPE
 70
     6
  9
$SPLINESEGS
 70
     8
  9
$HANDSEED
  5
5E02
  9
$SURFTAB1
 70
     6
  9
$SURFTAB2
 70
     6
  9
$SURFTYPE
 70
     6
  9
$SURFU
 70
     6
  9
$SURFV
 70
     6
  9
$UCSBASE
  2

  9
$UCSNAME
  2

  9
$UCSORG
 10
0.0
 20
0.0
 30
0.0
  9
$UCSXDIR
 10
1.0
 20
0.0
 30
0.0
  9
$UCSYDIR
 10
0.0
 20
1.0
 30
0.0
  9
$UCSORTHOREF
  2

  9
$UCSORTHOVIEW
 70
     0
  9
$UCSORGTOP
 10
0.0
 20
0.0
 30
0.0
  9
$UCSORGBOTTOM
 10
0.0
 20
0.0
 30
0.0
  9
$UCSORGLEFT
 10
0.0
 20
0.0
 30
0.0
  9
$UCSORGRIGHT
 10
0.0
 20
0.0
 30
0.0
  9
$UCSORGFRONT
 10
0.0
 20
0.0
 30
0.0
  9
$UCSORGBACK
 10
0.0
 20
0.0
 30
0.0
  9
$PUCSBASE
  2

  9
$PUCSNAME
  2

  9
$PUCSORG
 10
0.0
 20
0.0
 30
0.0
  9
$PUCSXDIR
 10
1.0
 20
0.0
 30
0.0
  9
$PUCSYDIR
 10
0.0
 20
1.0
 30
0.0
  9
$PUCSORTHOREF
  2

  9
$PUCSORTHOVIEW
 70
     0
  9
$PUCSORGTOP
 10
0.0
 20
0.0
 30
0.0
  9
$PUCSORGBOTTOM
 10
0.0
 20
0.0
 30
0.0
  9
$PUCSORGLEFT
 10
0.0
 20
0.0
 30
0.0
  9
$PUCSORGRIGHT
 10
0.0
 20
0.0
 30
0.0
  9
$PUCSORGFRONT
 10
0.0
 20
0.0
 30
0.0
  9
$PUCSORGBACK
 10
0.0
 20
0.0
 30
0.0
  9
$USERI1
 70
     0
  9
$USERI2
 70
     0
  9
$USERI3
 70
     0
  9
$USERI4
 70
     0
  9
$USERI5
 70
     0
  9
$USERR1
 40
0.0
  9
$USERR2
 40
0.0
  9
$USERR3
 40
0.0
  9
$USERR4
 40
0.0
  9
$USERR5
 40
0.0
  9
$WORLDVIEW
 70
     1
  9
$SHADEDGE
 70
     3
  9
$SHADEDIF
 70
    70
  9
$TILEMODE
 70
     0
  9
$MAXACTVP
 70
    64
  9
$PINSBASE
 10
0.0
 20
0.0
 30
0.0
  9
$PLIMCHECK
 70
     0
  9
$PEXTMIN
 10
-0.0052938850726605
 20
-0.0081411356974286
 30
-0.0015258207003583
  9
$PEXTMAX
 10
282.0477243098575
 20
195.996544055752
 30
0.0000000349246037
  9
$PLIMMIN
 10
-7.473536455652777
 20
-7.003044817478439
  9
$PLIMMAX
 10
289.5159654974722
 20
202.99144675967
  9
$UNITMODE
 70
     0
  9
$VISRETAIN
 70
     1
  9
$PLINEGEN
 70
     0
  9
$PSLTSCALE
 70
     1
  9
$TREEDEPTH
 70
  3020
  9
$CMLSTYLE
  2
Standard
  9
$CMLJUST
 70
     0
  9
$CMLSCALE
 40
20.0
  9
$PROXYGRAPHICS
 70
     1
  9
$MEASUREMENT
 70
     1
  9
$CELWEIGHT
370
    -1
  9
$ENDCAPS
280
     0
  9
$JOINSTYLE
280
     0
  9
$LWDISPLAY
290
     0
  9
$INSUNITS
 70
     4
  9
$HYPERLINKBASE
  1

  9
$STYLESHEET
  1

  9
$XEDIT
290
     1
  9
$CEPSNTYPE
380
     0
  9
$PSTYLEMODE
290
     1
  9
$FINGERPRINTGUID
  2
{65A8C6A1-B973-4B90-93E8-5CEEA7DDEAA7}
  9
$VERSIONGUID
  2
{92854311-EC9D-4146-9CC3-41026FCA9AC7}
  9
$EXTNAMES
290
     1
  9
$PSVPSCALE
 40
1.0
  9
$OLESTARTUP
290
     0
  0
ENDSEC
  0
SECTION
  2
CLASSES
  0
CLASS
  1
ACDBDICTIONARYWDFLT
  2
AcDbDictionaryWithDefault
  3
ObjectDBX Classes
 90
        0
280
     0
281
     0
  0
CLASS
  1
ACDBPLACEHOLDER
  2
AcDbPlaceHolder
  3
ObjectDBX Classes
 90
        0
280
     0
281
     0
  0
CLASS
  1
LAYOUT
  2
AcDbLayout
  3
ObjectDBX Classes
 90
        0
280
     0
281
     0
  0
CLASS
  1
ACME_DOCUMENT
  2
AcMeDbDoc
  3
AcMeServices
 90
        0
280
     0
281
     0
  0
CLASS
  1
AMGSETTINGSOBJ
  2
AmgSettingsObj
  3
"AcadM|Product Description: AutoCAD Mechanical 2000|Company: Autodesk"
 90
        0
280
     0
281
     0
  0
CLASS
  1
ACMESCOPE
  2
AcMeScope
  3
AcMeServices
 90
        0
280
     0
281
     0
  0
CLASS
  1
ACMECOMMANDHISTORY
  2
AcMeCommandHistory
  3
AcMeServices
 90
        0
280
     0
281
     0
  0
CLASS
  1
ACIMSYSVARMAN
  2
AcImSysVarManager
  3
AcMeServices
 90
        0
280
     0
281
     0
  0
CLASS
  1
ACIMREALSYSVAR
  2
AcImRealSysVar
  3
AcMeServices
 90
        0
280
     0
281
     0
  0
CLASS
  1
ACIMINTSYSVAR
  2
AcImIntSysVar
  3
AcMeServices
 90
        0
280
     0
281
     0
  0
CLASS
  1
ACMEDRAWINGMAN
  2
AcMeDrawingMan
  3
AcMeServices
 90
        0
280
     0
281
     0
  0
CLASS
  1
ACMEVIEW
  2
AcMeView
  3
AcMeServices
 90
        0
280
     0
281
     0
  0
CLASS
  1
ACDBENTITYCACHE
  2
AcMeEntityCache
  3
AcMeServices
 90
        0
280
     0
281
     0
  0
CLASS
  1
GSMANAGER
  2
AcMeGSManager
  3
AcMeServices
 90
        0
280
     0
281
     0
  0
CLASS
  1
AMDTINTERNALREACTOR
  2
AmdtInternalReactor
  3
AcMeServices
 90
        0
280
     0
281
     0
  0
CLASS
  1
ACMESTATEMGR
  2
AcMeStateMgr
  3
AcMeServices
 90
        0
280
     0
281
     0
  0
CLASS
  1
ACGREFMASTER
  2
AcGrefMaster
  3
AcAttribServices
 90
        0
280
     0
281
     0
  0
CLASS
  1
ACME_DATABASE
  2
AcMeDbDatabase
  3
AcMeServices
 90
        0
280
     0
281
     0
  0
CLASS
  1
ACRFINSADJUSTERMGR
  2
AcRfInsAdjusterMgr
  3
AcMeServices
 90
        0
280
     0
281
     0
  0
CLASS
  1
ACGREFACADMASTER
  2
AcGrefacadMaster
  3
AcGrefServices
 90
        0
280
     0
281
     0
  0
CLASS
  1
AMIMASTER
  2
AmiMaster
  3
AmiServices
 90
        0
280
     0
281
     0
  0
CLASS
  1
ACMDATADICTIONARY
  2
AcmDataDictionary
  3
"AcmSymBB|Product Description: AutoCAD Mechanical 2004 DX|Company: Autodesk"
 90
        0
280
     0
281
     0
  0
CLASS
  1
ACMDATAENTRYBLOCK
  2
AcmDataEntryBlock
  3
"AcmSymBB|Product Description: AutoCAD Mechanical 2004 DX|Company: Autodesk"
 90
        0
280
     0
281
     0
  0
CLASS
  1
ACIMSTRSYSVAR
  2
AcImStrSysVar
  3
AcMeServices
 90
        0
280
     0
281
     0
  0
CLASS
  1
ACMSTANDARDISO
  2
AcmStandardISO
  3
"Amdt_StdImp|Product Description: AutoCAD Mechanical 2004 DX|Company: Autodesk"
 90
        0
280
     0
281
     0
  0
CLASS
  1
AMGOBJPROPCFG
  2
AmgObjPropCfg
  3
"AmgLay|Product Description: AutoCAD Mechanical 2000|Company: Autodesk"
 90
        1
280
     0
281
     0
  0
CLASS
  1
AMDTEDGESTANDARDISO
  2
AmdtEdgeStdISO
  3
"Amdt_StdImp|Product Description: AutoCAD Mechanical 2004 DX|Company: Autodesk"
 90
        0
280
     0
281
     0
  0
CLASS
  1
ACMSURFSTANDARDISO
  2
AcmSurfTextStdISO
  3
"Amdt_StdImp|Product Description: AutoCAD Mechanical 2004 DX|Company: Autodesk"
 90
        0
280
     0
281
     0
  0
CLASS
  1
ACMFCFSTANDARDISO
  2
AcmFCFStdISO
  3
"Amdt_StdImp|Product Description: AutoCAD Mechanical 2004 DX|Company: Autodesk"
 90
        0
280
     0
281
     0
  0
CLASS
  1
ACMWELDSTANDARDISO
  2
AcmWeldingStdISO
  3
"Amdt_StdImp|Product Description: AutoCAD Mechanical 2004 DX|Company: Autodesk"
 90
        0
280
     0
281
     0
  0
CLASS
  1
ACMIDSTANDARDISO
  2
AcmIdStdISO
  3
"Amdt_StdImp|Product Description: AutoCAD Mechanical 2004 DX|Company: Autodesk"
 90
        0
280
     0
281
     0
  0
CLASS
  1
ACMDATUMSTANDARDISO
  2
AcmDatumStdISO
  3
"Amdt_StdImp|Product Description: AutoCAD Mechanical 2004 DX|Company: Autodesk"
 90
        0
280
     0
281
     0
  0
CLASS
  1
ACMBOMSTANDARDISO
  2
AcmBOMStdISO
  3
"Amdt_StdImp|Product Description: AutoCAD Mechanical 2004 DX|Company: Autodesk"
 90
        0
280
     0
281
     0
  0
CLASS
  1
ACMDETAILSTANDARDISO
  2
AmdtDetailSymStdISO
  3
"Amdt_StdImp|Product Description: AutoCAD Mechanical 2004 DX|Company: Autodesk"
 90
        0
280
     0
281
     0
  0
CLASS
  1
ACMSECTIONSTANDARDISO
  2
AmdtSectionSymStdISO
  3
"Amdt_StdImp|Product Description: AutoCAD Mechanical 2004 DX|Company: Autodesk"
 90
        0
280
     0
281
     0
  0
CLASS
  1
ACMCENTERLINESTANDARDISO
  2
AmdtCenterLineStdISO
  3
"Amdt_StdImp|Product Description: AutoCAD Mechanical 2004 DX|Company: Autodesk"
 90
        0
280
     0
281
     0
  0
CLASS
  1
ACMNOTESTANDARDISO
  2
AmdtNoteStdISO
  3
"Amdt_StdImp|Product Description: AutoCAD Mechanical 2004 DX|Company: Autodesk"
 90
        0
280
     0
281
     0
  0
CLASS
  1
ACAMGLAYSTD
  2
AcAmgLayStd
  3
"AcAmgLayStd|Product Description: AutoCAD Mechanical 2000|Company: Autodesk"
 90
        0
280
     0
281
     0
  0
CLASS
  1
ACAMGDIMSTD
  2
AcAmgDimStd
  3
"AcAmgDimStd|Product Description: AutoCAD Mechanical 2000|Company: Autodesk"
 90
        0
280
     0
281
     0
  0
CLASS
  1
ACAMGHOLECHARTSTDISO
  2
AcAmgHoleChartStdISO
  3
ACMSYMBB_MODULE_NAME
 90
        0
280
     0
281
     0
  0
CLASS
  1
ACAMGTITLESTD
  2
AcAmgTitleStd
  3
"TITLEAPP"
 90
        0
280
     0
281
     0
  0
CLASS
  1
LAYER_INDEX
  2
AcDbLayerIndex
  3
ObjectDBX Classes
 90
    32768
280
     0
281
     0
  0
CLASS
  1
IDBUFFER
  2
AcDbIdBuffer
  3
ObjectDBX Classes
 90
    32768
280
     0
281
     0
  0
CLASS
  1
DICTIONARYVAR
  2
AcDbDictionaryVar
  3
ObjectDBX Classes
 90
        0
280
     0
281
     0
  0
CLASS
  1
AM_DRAWING_MGR
  2
AcDmDwgMgr
  3
AcMechDwgViewMgmt
 90
        0
280
     0
281
     0
  0
CLASS
  1
AM_DWG_DOCUMENT
  2
AcDmDwgDocument
  3
AcMechDwgViewMgmt
 90
        0
280
     0
281
     0
  0
CLASS
  1
AM_DWG_SHEET
  2
AcDmSheet
  3
AcMechDwgViewMgmt
 90
        0
280
     0
281
     0
  0
CLASS
  1
AM_VIEWDIMPARMAP
  2
AcDmViewDimParMap
  3
AcMechDwgViewMgmt
 90
        0
280
     0
281
     0
  0
CLASS
  1
AM_DWGMGR_NAME
  2
AcDmDwgMgrName
  3
AcMechDwgViewMgmt
 90
        0
280
     0
281
     0
  0
CLASS
  1
AMDTMENUSTATEMGR
  2
AmdtMenuStateMgr
  3
McadcomServices
 90
        0
280
     0
281
     0
  0
CLASS
  1
AMDTMCOMMENUSTATE
  2
AmdtMcomMenuState
  3
McadcomServices
 90
        0
280
     0
281
     0
  0
CLASS
  1
MAPIAMMOUDLE
  2
MApiAmModule
  3
MApiAmServices
 90
        0
280
     0
281
     0
  0
CLASS
  1
AMDTADMENUSTATE
  2
AmdtAdMenuState
  3
DesignerServices
 90
        0
280
     0
281
     0
  0
CLASS
  1
ADAPPL
  2
AcAdAppl
  3
DesignerServices
 90
        0
280
     0
281
     0
  0
CLASS
  1
DEPMGR
  2
AcAdDepMgr
  3
DesignerServices
 90
        0
280
     0
281
     0
  0
CLASS
  1
PARAMMGR
  2
AcAdParamMgr
  3
DesignerServices
 90
        0
280
     0
281
     0
  0
CLASS
  1
PARAMSCOPE
  2
AcAdParamScope
  3
DesignerServices
 90
        0
280
     0
281
     0
  0
CLASS
  1
NAMEDAPPL
  2
AcAdNamedAppl
  3
DesignerServices
 90
        0
280
     0
281
     0
  0
CLASS
  1
AMDTDMMENUSTATE
  2
AmdtDmMenuState
  3
AcMechDwgViewMgmt
 90
        0
280
     0
281
     0
  0
CLASS
  1
AMDTAMMENUSTATE
  2
AmdtAmMenuState
  3
DesignerAssemblies
 90
        0
280
     0
281
     0
  0
CLASS
  1
ACAMPROJECT
  2
AcAmProject
  3
DesignerAssemblies
 90
        0
280
     0
281
     0
  0
CLASS
  1
ACAMGRCOMPDEF
  2
AcAmGrCompDef
  3
DesignerAssemblies
 90
        0
280
     0
281
     0
  0
CLASS
  1
ACCMCONTEXT
  2
AcCmContext
  3
DesignerAssemblies
 90
        0
280
     0
281
     0
  0
CLASS
  1
ACAMCOMPDEF
  2
AcAmCompDef
  3
DesignerAssemblies
 90
        0
280
     0
281
     0
  0
CLASS
  1
ACAMCOMPDEFMGR
  2
AcAmCompDefMgr
  3
DesignerAssemblies
 90
        0
280
     0
281
     0
  0
CLASS
  1
AMCONTEXTMGR
  2
AcAmContextMgr
  3
DesignerAssemblies
 90
        0
280
     0
281
     0
  0
CLASS
  1
ACAMCONTEXTMODELER
  2
AcAmContextModeler
  3
DesignerAssemblies
 90
        0
280
     0
281
     0
  0
CLASS
  1
ACMTHREADLINESTANDARDISO
  2
AmdtThreadLineStdISO
  3
"Amdt_StdImp|Product Description: AutoCAD Mechanical 2004 DX|Company: Autodesk"
 90
        0
280
     0
281
     0
  0
CLASS
  1
CATALOGSTATE
  2
AcAmCatalogState
  3
DesignerAssemblies
 90
        0
280
     0
281
     0
  0
CLASS
  1
ACAMGRCOMPDEFSET
  2
AcAmGrCompDefSet
  3
DesignerAssemblies
 90
        0
280
     0
281
     0
  0
CLASS
  1
AMDTBROWSERDBTAB
  2
AmdtBrowserDbTab
  3
McadcomServices
 90
        0
280
     0
281
     0
  0
CLASS
  1
CBROWSERAPPOBJECT
  2
CBrowserAppObject
  3
McadcomServices
 90
        0
280
     0
281
     0
  0
CLASS
  1
DM_PLACEHOLDER
  2
AcDmSelsetPlaceholder
  3
AcMechDwgViewMgmt
 90
        0
280
     0
281
     0
  0
CLASS
  1
TABLESTYLE
  2
AcDbTableStyle
  3
ObjectDBX Classes
 90
     2047
280
     0
281
     0
  0
CLASS
  1
VAACXREFPANELOBJECT
  2
VaAcXREFPanelObject
  3
VAAC_ADDIN
 90
    32768
280
     0
281
     0
  0
CLASS
  1
VAACIMAGEINVENTORY
  2
VaAcImageInventory
  3
VAAC_ADDIN
 90
    32768
280
     0
281
     0
  0
CLASS
  1
AMDTNOTETEMPLATEDB
  2
AmdtNoteTemplateDB
  3
AMDT_STDIMP_MODULE_NAME
 90
        0
280
     0
281
     0
  0
CLASS
  1
ACAMGFILTERDAT
  2
AcAmgFilterDat
  3
"AcadM|Product Description: AutoCAD Mechanical 2000|Company: Autodesk"
 90
        0
280
     0
281
     0
  0
CLASS
  1
ACMBOM
  2
AcmBom
  3
"AcmSymBB|Product Description: AutoCAD Mechanical 2004 DX|Company: Autodesk"
 90
    32768
280
     0
281
     0
  0
CLASS
  1
AMDTFORMULAUPDATEDISPATCHER
  2
AmdtFormulaUpdateDispatcher
  3
AcMeServices
 90
    32768
280
     0
281
     0
  0
CLASS
  1
DIMASSOC
  2
AcDbDimAssoc
  3
"AcDbDimAssoc|Product Desc:     AcDim ARX App For Dimension|Company:          Autodesk, Inc.|WEB Address:      www.autodesk.com"
 90
        0
280
     0
281
     0
  0
CLASS
  1
SORTENTSTABLE
  2
AcDbSortentsTable
  3
ObjectDBX Classes
 90
        0
280
     0
281
     0
  0
CLASS
  1
ACMSTANDARDANSI
  2
AcmStandardANSI
  3
"Amdt_StdImp|Product Description: AutoCAD Mechanical 2004 DX|Company: Autodesk"
 90
        0
280
     0
281
     0
  0
CLASS
  1
ACMSURFSTANDARDANSI
  2
AcmSurfTextStdANSI
  3
"Amdt_StdImp|Product Description: AutoCAD Mechanical 2004 DX|Company: Autodesk"
 90
        0
280
     0
281
     0
  0
CLASS
  1
ACMFCFSTANDARDANSI
  2
AcmFCFStdANSI
  3
"Amdt_StdImp|Product Description: AutoCAD Mechanical 2004 DX|Company: Autodesk"
 90
        0
280
     0
281
     0
  0
CLASS
  1
ACMWELDSTANDARDANSI
  2
AcmWeldingStdANSI
  3
"Amdt_StdImp|Product Description: AutoCAD Mechanical 2004 DX|Company: Autodesk"
 90
        0
280
     0
281
     0
  0
CLASS
  1
ACMIDSTANDARDANSI
  2
AcmIdStdANSI
  3
"Amdt_StdImp|Product Description: AutoCAD Mechanical 2004 DX|Company: Autodesk"
 90
        0
280
     0
281
     0
  0
CLASS
  1
ACMDATUMSTANDARDANSI
  2
AcmDatumStdANSI
  3
"Amdt_StdImp|Product Description: AutoCAD Mechanical 2004 DX|Company: Autodesk"
 90
        0
280
     0
281
     0
  0
CLASS
  1
ACMBOMSTANDARDANSI
  2
AcmBOMStdANSI
  3
"Amdt_StdImp|Product Description: AutoCAD Mechanical 2004 DX|Company: Autodesk"
 90
        0
280
     0
281
     0
  0
CLASS
  1
ACMDETAILSTANDARDANSI
  2
AmdtDetailSymStdANSI
  3
"Amdt_StdImp|Product Description: AutoCAD Mechanical 2004 DX|Company: Autodesk"
 90
        0
280
     0
281
     0
  0
CLASS
  1
ACMSECTIONSTANDARDANSI
  2
AmdtSectionSymStdANSI
  3
"Amdt_StdImp|Product Description: AutoCAD Mechanical 2004 DX|Company: Autodesk"
 90
        0
280
     0
281
     0
  0
CLASS
  1
ACMCENTERLINESTANDARDANSI
  2
AmdtCenterLineStdANSI
  3
"Amdt_StdImp|Product Description: AutoCAD Mechanical 2004 DX|Company: Autodesk"
 90
        0
280
     0
281
     0
  0
CLASS
  1
ACMTHREADLINESTANDARDANSI
  2
AmdtThreadLineStdANSI
  3
"Amdt_StdImp|Product Description: AutoCAD Mechanical 2004 DX|Company: Autodesk"
 90
        0
280
     0
281
     0
  0
CLASS
  1
ACMNOTESTANDARDANSI
  2
AmdtNoteStdANSI
  3
"Amdt_StdImp|Product Description: AutoCAD Mechanical 2004 DX|Company: Autodesk"
 90
        0
280
     0
281
     0
  0
CLASS
  1
ACAMGHOLECHARTSTDANSI
  2
AcAmgHoleChartStdANSI
  3
ACMSYMBB_MODULE_NAME
 90
        0
280
     0
281
     0
  0
CLASS
  1
ACDBCIRCARCRES
  2
AcDbCircArcRes
  3
AcGrefServices
 90
    32768
280
     0
281
     0
  0
CLASS
  1
AMDTNOTE
  2
AmdtNote
  3
"AcmSymBB|Product Description: AutoCAD Mechanical 2004 DX|Company: Autodesk"
 90
    33791
280
     0
281
     1
  0
CLASS
  1
ACAMGHOLECHARTORIGIN
  2
AcAmgHoleChartOrigin
  3
ACMSYMBB_MODULE_NAME
 90
    33663
280
     0
281
     1
  0
CLASS
  1
ACMFCFRAME
  2
AcmFCF
  3
"AcmSymBB|Product Description: AutoCAD Mechanical 2004 DX|Company: Autodesk"
 90
    33791
280
     0
281
     1
  0
CLASS
  1
ACDBLINERES
  2
AcDbLineRes
  3
AcGrefServices
 90
    32768
280
     0
281
     0
  0
CLASS
  1
ACMDATUMID
  2
AcmDatumId
  3
"AcmSymBB|Product Description: AutoCAD Mechanical 2004 DX|Company: Autodesk"
 90
    33791
280
     0
281
     1
  0
CLASS
  1
LARGE_RADIAL_DIMENSION
  2
AcDbRadialDimensionLarge
  3
ObjectDBX Classes
 90
    33793
280
     0
281
     1
  0
CLASS
  1
AMDTEDGESYM
  2
AmdtEdge
  3
"AcmSymBB|Product Description: AutoCAD Mechanical 2004 DX|Company: Autodesk"
 90
    33791
280
     0
281
     1
  0
CLASS
  1
ACMSTANDARDDIN
  2
AcmStandardDIN
  3
"Amdt_StdImp|Product Description: AutoCAD Mechanical 2004 DX|Company: Autodesk"
 90
        0
280
     0
281
     0
  0
CLASS
  1
AMDTEDGESTANDARDDIN13715
  2
AmdtEdgeStdDIN13715
  3
"Amdt_StdImp|Product Description: AutoCAD Mechanical 2004 DX|Company: Autodesk"
 90
        0
280
     0
281
     0
  0
CLASS
  1
ACMSURFSTANDARDDIN
  2
AcmSurfTextStdDIN
  3
"Amdt_StdImp|Product Description: AutoCAD Mechanical 2004 DX|Company: Autodesk"
 90
        0
280
     0
281
     0
  0
CLASS
  1
ACMFCFSTANDARDDIN
  2
AcmFCFStdDIN
  3
"Amdt_StdImp|Product Description: AutoCAD Mechanical 2004 DX|Company: Autodesk"
 90
        0
280
     0
281
     0
  0
CLASS
  1
ACMWELDSTANDARDDIN
  2
AcmWeldingStdDIN
  3
"Amdt_StdImp|Product Description: AutoCAD Mechanical 2004 DX|Company: Autodesk"
 90
        0
280
     0
281
     0
  0
CLASS
  1
ACMIDSTANDARDDIN
  2
AcmIdStdDIN
  3
"Amdt_StdImp|Product Description: AutoCAD Mechanical 2004 DX|Company: Autodesk"
 90
        0
280
     0
281
     0
  0
CLASS
  1
ACMDATUMSTANDARDDIN
  2
AcmDatumStdDIN
  3
"Amdt_StdImp|Product Description: AutoCAD Mechanical 2004 DX|Company: Autodesk"
 90
        0
280
     0
281
     0
  0
CLASS
  1
ACMBOMSTANDARDDIN
  2
AcmBOMStdDIN
  3
"Amdt_StdImp|Product Description: AutoCAD Mechanical 2004 DX|Company: Autodesk"
 90
        0
280
     0
281
     0
  0
CLASS
  1
ACMDETAILSTANDARDDIN
  2
AmdtDetailSymStdDIN
  3
"Amdt_StdImp|Product Description: AutoCAD Mechanical 2004 DX|Company: Autodesk"
 90
        0
280
     0
281
     0
  0
CLASS
  1
ACMSECTIONSTANDARDDIN
  2
AmdtSectionSymStdDIN
  3
"Amdt_StdImp|Product Description: AutoCAD Mechanical 2004 DX|Company: Autodesk"
 90
        0
280
     0
281
     0
  0
CLASS
  1
ACMCENTERLINESTANDARDDIN
  2
AmdtCenterLineStdDIN
  3
"Amdt_StdImp|Product Description: AutoCAD Mechanical 2004 DX|Company: Autodesk"
 90
        0
280
     0
281
     0
  0
CLASS
  1
ACMTHREADLINESTANDARDDIN
  2
AmdtThreadLineStdDIN
  3
"Amdt_StdImp|Product Description: AutoCAD Mechanical 2004 DX|Company: Autodesk"
 90
        0
280
     0
281
     0
  0
CLASS
  1
ACMNOTESTANDARDDIN
  2
AmdtNoteStdDIN
  3
"Amdt_StdImp|Product Description: AutoCAD Mechanical 2004 DX|Company: Autodesk"
 90
        0
280
     0
281
     0
  0
CLASS
  1
ACAMGHOLECHARTSTDDIN
  2
AcAmgHoleChartStdDIN
  3
ACMSYMBB_MODULE_NAME
 90
        0
280
     0
281
     0
  0
CLASS
  1
ACRFATTGENMGR
  2
AcRfAttGeneralMgr
  3
AcAttribServices
 90
        0
280
     0
281
     0
  0
ENDSEC
  0
SECTION
  2
TABLES
  0
TABLE
  2
VPORT
  5
8
330
0
100
AcDbSymbolTable
 70
     2
  0
VPORT
  5
5DDB
330
8
100
AcDbSymbolTableRecord
100
AcDbViewportTableRecord
  2
*Active
 70
     0
 10
0.0
 20
0.0
 11
1.0
 21
1.0
 12
1282.150575108117
 22
671.6556113300437
 13
0.0
 23
0.0
 14
2.5
 24
2.5
 15
10.0
 25
10.0
 16
0.0
 26
0.0
 36
1.0
 17
0.0
 27
0.0
 37
0.0
 40
318.0416387153324
 41
1.361675126903553
 42
50.0
 43
0.0
 44
0.0
 50
0.0
 51
0.0
 71
     0
 72
   100
 73
     1
 74
     3
 75
     0
 76
     0
 77
     0
 78
     0
281
     0
 65
     1
110
0.0
120
0.0
130
0.0
111
1.0
121
0.0
131
0.0
112
0.0
122
1.0
132
0.0
 79
     0
146
0.0
  0
ENDTAB
  0
TABLE
  2
LTYPE
  5
5
330
0
100
AcDbSymbolTable
 70
    27
  0
LTYPE
  5
14
330
5
100
AcDbSymbolTableRecord
100
AcDbLinetypeTableRecord
  2
ByBlock
 70
     0
  3

 72
    65
 73
     0
 40
0.0
  0
LTYPE
  5
15
330
5
100
AcDbSymbolTableRecord
100
AcDbLinetypeTableRecord
  2
ByLayer
 70
     0
  3

 72
    65
 73
     0
 40
0.0
  0
LTYPE
  5
16
330
5
100
AcDbSymbolTableRecord
100
AcDbLinetypeTableRecord
  2
Continuous
 70
     0
  3
Solid line
 72
    65
 73
     0
 40
0.0
  0
LTYPE
  5
64
330
5
100
AcDbSymbolTableRecord
100
AcDbLinetypeTableRecord
  2
AM_ISO02W050
 70
     0
  3
__ __ __ __ __ __ __ __ __ __ __ __ __ __ __
 72
    65
 73
     2
 40
7.5
 49
6.0
 74
     0
 49
-1.5
 74
     0
  0
LTYPE
  5
65
330
5
100
AcDbSymbolTableRecord
100
AcDbLinetypeTableRecord
  2
AM_ISO08W050
 70
     0
  3
____ . ____ . ____ . ____ . ____ . ____ . ____
 72
    65
 73
     4
 40
18.0
 49
12.0
 74
     0
 49
-1.5
 74
     0
 49
3.0
 74
     0
 49
-1.5
 74
     0
  0
LTYPE
  5
66
330
5
100
AcDbSymbolTableRecord
100
AcDbLinetypeTableRecord
  2
AM_ISO09W050
 70
     0
  3
_____ . . _____ . . _____ . . ____ .. ____
 72
    65
 73
     6
 40
22.5
 49
12.0
 74
     0
 49
-1.5
 74
     0
 49
3.0
 74
     0
 49
-1.5
 74
     0
 49
3.0
 74
     0
 49
-1.5
 74
     0
  0
LTYPE
  5
67
330
5
100
AcDbSymbolTableRecord
100
AcDbLinetypeTableRecord
  2
Amconstr
 70
     0
  3
_______________________
 72
    65
 73
     2
 40
9999.0
 49
9999.0
 74
     0
 49
0.0
 74
     0
  0
LTYPE
  5
68
330
5
100
AcDbSymbolTableRecord
100
AcDbLinetypeTableRecord
  2
AM_ISO08W050x2
 70
     0
  3
__ . __ . __ . __ . __ . __
 72
    65
 73
     4
 40
9.0
 49
6.0
 74
     0
 49
-0.75
 74
     0
 49
1.5
 74
     0
 49
-0.75
 74
     0
  0
LTYPE
  5
69
330
5
100
AcDbSymbolTableRecord
100
AcDbLinetypeTableRecord
  2
AM_ISO02W050x2
 70
     0
  3
 _ _ _ _ _ _ _ _ _ _ _ _
 72
    65
 73
     2
 40
3.75
 49
3.0
 74
     0
 49
-0.75
 74
     0
  0
LTYPE
  5
6C
330
5
100
AcDbSymbolTableRecord
100
AcDbLinetypeTableRecord
  2
Amzigzag
 70
     0
  3
/\/-/\/-/\/-/\/-/\/-/\/
 72
    65
 73
     2
 40
11.0001
 49
0.0001
 74
     4
 75
   136
340
22C
 46
0.04
 50
0.0
 44
0.0
 45
0.0
 49
-11.0
 74
     0
  0
LTYPE
  5
7A
330
5
100
AcDbSymbolTableRecord
100
AcDbLinetypeTableRecord
  2
ACISOWELD
 70
     0
  3
_ _ _ _ _
 72
    65
 73
     2
 40
2.0
 49
2.0
 74
     0
 49
-1.0
 74
     0
  0
LTYPE
  5
7B
330
5
100
AcDbSymbolTableRecord
100
AcDbLinetypeTableRecord
  2
ACISOTGB
 70
     0
  3
__ . . __ . .
 72
    65
 73
     6
 40
9.0
 49
4.0
 74
     0
 49
-1.0
 74
     0
 49
1.0
 74
     0
 49
-1.0
 74
     0
 49
1.0
 74
     0
 49
-1.0
 74
     0
  0
LTYPE
  5
7C
330
5
100
AcDbSymbolTableRecord
100
AcDbLinetypeTableRecord
  2
ACISOTGL
 70
     0
  3
_ _ _ _ _
 72
    65
 73
     2
 40
3.0
 49
2.0
 74
     0
 49
-1.0
 74
     0
  0
LTYPE
  5
7E
330
5
100
AcDbSymbolTableRecord
100
AcDbLinetypeTableRecord
  2
CENTER
 70
     0
  3
__ . __
 72
    65
 73
     4
 40
7.0
 49
4.0
 74
     0
 49
-1.0
 74
     0
 49
1.0
 74
     0
 49
-1.0
 74
     0
  0
LTYPE
  5
D8
330
5
100
AcDbSymbolTableRecord
100
AcDbLinetypeTableRecord
  2
HIDDEN
 70
     0
  3
Hidden __ __ __ __ __ __ __ __ __ __ __ __ __ _
 72
    65
 73
     2
 40
9.524999999999998
 49
6.349999999999999
 74
     0
 49
-3.174999999999999
 74
     0
  0
LTYPE
  5
D9
330
5
100
AcDbSymbolTableRecord
100
AcDbLinetypeTableRecord
  2
PHANTOM2
 70
     0
  3
Phantom (.5x) ___ _ _ ___ _ _ ___ _ _ ___ _ _
 72
    65
 73
     6
 40
31.75
 49
15.875
 74
     0
 49
-3.174999999999999
 74
     0
 49
3.174999999999999
 74
     0
 49
-3.174999999999999
 74
     0
 49
3.174999999999999
 74
     0
 49
-3.174999999999999
 74
     0
  0
LTYPE
  5
3BD
330
5
100
AcDbSymbolTableRecord
100
AcDbLinetypeTableRecord
  2
CENTER2
 70
     0
  3
___ _ ___ _ ___ _ ___ _ ___ _ ___ _ ___ _ ___ _
 72
    65
 73
     4
 40
1.125
 49
0.75
 74
     0
 49
-0.125
 74
     0
 49
0.125
 74
     0
 49
-0.125
 74
     0
  0
LTYPE
  5
3AA9
330
5
100
AcDbSymbolTableRecord
100
AcDbLinetypeTableRecord
  2
HIDDEN2
 70
     0
  3
Hidden (.5x) _ _ _ _ _ _ _ _ _ _ _ _ _ _ _ _ _
 72
    65
 73
     2
 40
0.1875
 49
0.125
 74
     0
 49
-0.0625
 74
     0
  0
LTYPE
  5
3AAA
330
5
100
AcDbSymbolTableRecord
100
AcDbLinetypeTableRecord
  2
Amzigzag2
 70
     0
  3
/\/-/\/-/\/-/\/-/\/-/\/
 72
    65
 73
     2
 40
0.4401
 49
0.0001
 74
     4
 75
   135
340
6B
 46
0.0016
 50
0.0
 44
0.0
 45
0.0
 49
-0.4400000000000001
 74
     0
  0
LTYPE
  5
3AAB
330
5
100
AcDbSymbolTableRecord
100
AcDbLinetypeTableRecord
  2
ACANSTGB
 70
     0
  3
__ . . __ . .
 72
    65
 73
     6
 40
0.35433070866
 49
0.15748031496
 74
     0
 49
-0.03937007874
 74
     0
 49
0.03937007874
 74
     0
 49
-0.03937007874
 74
     0
 49
0.03937007874
 74
     0
 49
-0.03937007874
 74
     0
  0
LTYPE
  5
3AAC
330
5
100
AcDbSymbolTableRecord
100
AcDbLinetypeTableRecord
  2
ACANSTGL
 70
     0
  3
_ _ _ _ _
 72
    65
 73
     2
 40
0.11811023622
 49
0.07874015748
 74
     0
 49
-0.03937007874
 74
     0
  0
LTYPE
  5
5B36
330
5
100
AcDbSymbolTableRecord
100
AcDbLinetypeTableRecord
  2
AM_DIN_F_W050
 70
     0
  3
__ __ __ __ __ __ __ __ __ __ __ __ __ __ __
 72
    65
 73
     2
 40
6.25
 49
4.75
 74
     0
 49
-1.5
 74
     0
  0
LTYPE
  5
5B37
330
5
100
AcDbSymbolTableRecord
100
AcDbLinetypeTableRecord
  2
AM_DIN_G_W050
 70
     0
  3
____ . ____ . ____ . ____ . ____ . ____ . ____
 72
    65
 73
     4
 40
13.75
 49
9.75
 74
     0
 49
-1.5
 74
     0
 49
1.0
 74
     0
 49
-1.5
 74
     0
  0
LTYPE
  5
5B38
330
5
100
AcDbSymbolTableRecord
100
AcDbLinetypeTableRecord
  2
AM_DIN_K_W050
 70
     0
  3
_____ . . _____ . . _____ . . ____ .. ____
 72
    65
 73
     6
 40
16.25
 49
9.75
 74
     0
 49
-1.5
 74
     0
 49
1.0
 74
     0
 49
-1.5
 74
     0
 49
1.0
 74
     0
 49
-1.5
 74
     0
  0
LTYPE
  5
5B39
330
5
100
AcDbSymbolTableRecord
100
AcDbLinetypeTableRecord
  2
AM_DIN_G_W050x2
 70
     0
  3
__ . __ . __ . __ . __ . __
 72
    65
 73
     4
 40
6.875
 49
4.75
 74
     0
 49
-0.875
 74
     0
 49
0.375
 74
     0
 49
-0.875
 74
     0
  0
LTYPE
  5
5B3A
330
5
100
AcDbSymbolTableRecord
100
AcDbLinetypeTableRecord
  2
AM_DIN_F_W050x2
 70
     0
  3
 _ _ _ _ _ _ _ _ _ _ _ _
 72
    65
 73
     2
 40
3.125
 49
2.25
 74
     0
 49
-0.875
 74
     0
  0
LTYPE
  5
5B3B
330
5
100
AcDbSymbolTableRecord
100
AcDbLinetypeTableRecord
  2
ACDINWELD
 70
     0
  3
_ _ _ _ _
 72
    65
 73
     2
 40
2.0
 49
2.0
 74
     0
 49
-1.0
 74
     0
  0
LTYPE
  5
5B3C
330
5
100
AcDbSymbolTableRecord
100
AcDbLinetypeTableRecord
  2
ACDINTGB
 70
     0
  3
__ . . __ . .
 72
    65
 73
     6
 40
9.0
 49
4.0
 74
     0
 49
-1.0
 74
     0
 49
1.0
 74
     0
 49
-1.0
 74
     0
 49
1.0
 74
     0
 49
-1.0
 74
     0
  0
LTYPE
  5
5B3D
330
5
100
AcDbSymbolTableRecord
100
AcDbLinetypeTableRecord
  2
ACDINTGL
 70
     0
  3
_ _ _ _ _
 72
    65
 73
     2
 40
3.0
 49
2.0
 74
     0
 49
-1.0
 74
     0
  0
ENDTAB
  0
TABLE
  2
LAYER
  5
2
102
{ACAD_XDICTIONARY
360
2F5
102
}
330
0
100
AcDbSymbolTable
 70
    10
  0
LAYER
  5
10
330
2
100
AcDbSymbolTableRecord
100
AcDbLayerTableRecord
  2
0
 70
     0
 62
     7
  6
Continuous
370
    -3
390
F
  0
LAYER
  5
3BE
330
2
100
AcDbSymbolTableRecord
100
AcDbLayerTableRecord
  2
SPEC
 70
     0
 62
     1
  6
Continuous
370
    -3
390
F
  0
LAYER
  5
3BF
330
2
100
AcDbSymbolTableRecord
100
AcDbLayerTableRecord
  2
CENTER
 70
     0
 62
   252
  6
CENTER2
370
    -3
390
F
  0
LAYER
  5
3C0
330
2
100
AcDbSymbolTableRecord
100
AcDbLayerTableRecord
  2
DATA
 70
     0
 62
     6
  6
Continuous
370
    -3
390
F
  0
LAYER
  5
3C1
330
2
100
AcDbSymbolTableRecord
100
AcDbLayerTableRecord
  2
DIM
 70
     0
 62
     3
  6
Continuous
370
    -3
390
F
  0
LAYER
  5
3C2
330
2
100
AcDbSymbolTableRecord
100
AcDbLayerTableRecord
  2
Defpoints
 70
     0
 62
     7
  6
Continuous
290
     0
370
    -3
390
F
  0
LAYER
  5
3C3
330
2
100
AcDbSymbolTableRecord
100
AcDbLayerTableRecord
  2
FRAME
 70
     0
 62
     1
  6
Continuous
370
    -3
390
F
  0
LAYER
  5
3C4
330
2
100
AcDbSymbolTableRecord
100
AcDbLayerTableRecord
  2
CONNECTOR
 70
     0
 62
     2
  6
Continuous
370
    -3
390
F
  0
LAYER
  5
3C5
330
2
100
AcDbSymbolTableRecord
100
AcDbLayerTableRecord
  2
SCHRIFT
 70
     0
 62
     1
  6
Continuous
370
    -3
390
F
  0
LAYER
  5
4C86
330
2
100
AcDbSymbolTableRecord
100
AcDbLayerTableRecord
  2
AM_5
 70
     0
 62
     3
  6
Continuous
370
    25
390
F
1001
AcAecLayerStandard
1000

1000

  0
ENDTAB
  0
TABLE
  2
STYLE
  5
3
330
0
100
AcDbSymbolTable
 70
    15
  0
STYLE
  5
11
330
3
100
AcDbSymbolTableRecord
100
AcDbTextStyleTableRecord
  2
STANDARD
 70
     0
 40
0.0
 41
1.0
 50
0.0
 71
     0
 42
2.399999999999999
  3
ARIAL.TTF
  4

1001
ACAD
1000
Arial
1071
       34
  0
STYLE
  5
6B
330
3
100
AcDbSymbolTableRecord
100
AcDbTextStyleTableRecord
  2

 70
     1
 40
0.0
 41
1.0
 50
0.0
 71
     0
 42
2.5
  3
ltypeshp.shx
  4

  0
STYLE
  5
6D
330
3
100
AcDbSymbolTableRecord
100
AcDbTextStyleTableRecord
  2
ACISOTS
 70
     0
 40
1.0
 41
1.0
 50
0.0
 71
     0
 42
2.5
  3
isocp.shx
  4
bigfont.shx
  0
STYLE
  5
79
330
3
100
AcDbSymbolTableRecord
100
AcDbTextStyleTableRecord
  2
ACISOGDT
 70
     0
 40
0.0
 41
1.0
 50
0.0
 71
     0
 42
2.5
  3
AMGDT
  4
bigfont.shx
  0
STYLE
  5
1ED
330
3
100
AcDbSymbolTableRecord
100
AcDbTextStyleTableRecord
  2
USER1
 70
     0
 40
0.0
 41
1.0
 50
0.0
 71
     0
 42
2.5
  3
TXT.SHX
  4
bigfont.shx
  0
STYLE
  5
1EE
330
3
100
AcDbSymbolTableRecord
100
AcDbTextStyleTableRecord
  2
USER2
 70
     0
 40
0.0
 41
1.0
 50
0.0
 71
     0
 42
2.5
  3
SIMPLEX.SHX
  4
bigfont.shx
  0
STYLE
  5
1EF
330
3
100
AcDbSymbolTableRecord
100
AcDbTextStyleTableRecord
  2
USER3
 70
     0
 40
0.0
 41
1.0
 50
0.0
 71
     0
 42
2.5
  3
ITALIC.SHX
  4
bigfont.shx
  0
STYLE
  5
22C
330
3
100
AcDbSymbolTableRecord
100
AcDbTextStyleTableRecord
  2

 70
     1
 40
0.0
 41
1.0
 50
0.0
 71
     0
 42
2.5
  3
genltshp.shx
  4

  0
STYLE
  5
3C6
330
3
100
AcDbSymbolTableRecord
100
AcDbTextStyleTableRecord
  2
ITALICT
 70
     0
 40
2.0
 41
1.0
 50
0.0
 71
     0
 42
2.0
  3
ITALICT.shx
  4

  0
STYLE
  5
3C7
330
3
100
AcDbSymbolTableRecord
100
AcDbTextStyleTableRecord
  2
ROMANS
 70
     0
 40
0.0
 41
0.8
 50
0.0
 71
     0
 42
3.0
  3
romans.shx
  4

  0
STYLE
  5
3AAD
330
3
100
AcDbSymbolTableRecord
100
AcDbTextStyleTableRecord
  2
ACANSTS
 70
     0
 40
1.0
 41
1.0
 50
0.0
 71
     0
 42
2.399999999999999
  3
romans.shx
  4

  0
STYLE
  5
3AAE
330
3
100
AcDbSymbolTableRecord
100
AcDbTextStyleTableRecord
  2
ACANSGDT
 70
     0
 40
0.0
 41
1.0
 50
0.0
 71
     0
 42
2.399999999999999
  3
AMGDT
  4

  0
STYLE
  5
5B3E
330
3
100
AcDbSymbolTableRecord
100
AcDbTextStyleTableRecord
  2
ACDINTS
 70
     0
 40
1.0
 41
1.0
 50
0.0
 71
     0
 42
3.0
  3
isocp.shx
  4

  0
STYLE
  5
5B3F
330
3
100
AcDbSymbolTableRecord
100
AcDbTextStyleTableRecord
  2
ACDINGDT
 70
     0
 40
0.0
 41
1.0
 50
0.0
 71
     0
 42
3.0
  3
AMGDT
  4

  0
ENDTAB
  0
TABLE
  2
VIEW
  5
6
330
0
100
AcDbSymbolTable
 70
     3
  0
ENDTAB
  0
TABLE
  2
UCS
  5
7
330
0
100
AcDbSymbolTable
 70
     0
  0
ENDTAB
  0
TABLE
  2
APPID
  5
9
330
0
100
AcDbSymbolTable
 70
    26
  0
APPID
  5
12
330
9
100
AcDbSymbolTableRecord
100
AcDbRegAppTableRecord
  2
ACAD
 70
     0
  0
APPID
  5
46
330
9
100
AcDbSymbolTableRecord
100
AcDbRegAppTableRecord
  2
MCAD_NO_VIS
 70
     0
  0
APPID
  5
47
330
9
100
AcDbSymbolTableRecord
100
AcDbRegAppTableRecord
  2
ACAD_TEMP_GRAPHIC
 70
     0
  0
APPID
  5
58
330
9
100
AcDbSymbolTableRecord
100
AcDbRegAppTableRecord
  2
ACATTRIBSERVICES
 70
     0
  0
APPID
  5
EE
330
9
100
AcDbSymbolTableRecord
100
AcDbRegAppTableRecord
  2
AD_DRAW
 70
     0
  0
APPID
  5
10C
330
9
100
AcDbSymbolTableRecord
100
AcDbRegAppTableRecord
  2
DESIGNERASSEMBLIES
 70
     0
  0
APPID
  5
111
330
9
100
AcDbSymbolTableRecord
100
AcDbRegAppTableRecord
  2
ACADM_DIM_EDIT
 70
     0
  0
APPID
  5
112
330
9
100
AcDbSymbolTableRecord
100
AcDbRegAppTableRecord
  2
AMDT_DM_ADJ
 70
     0
  0
APPID
  5
1A3
330
9
100
AcDbSymbolTableRecord
100
AcDbRegAppTableRecord
  2
ACAD_DSTYLE_DIMARC_LENGTH_SYMBOL
 70
     0
  0
APPID
  5
1A4
330
9
100
AcDbSymbolTableRecord
100
AcDbRegAppTableRecord
  2
ACAD_DSTYLE_DIMJOGGED_JOGANGLE_SYMBOL
 70
     0
  0
APPID
  5
2D9
330
9
100
AcDbSymbolTableRecord
100
AcDbRegAppTableRecord
  2
ACAD_PSEXT
 70
     0
  0
APPID
  5
9AB
330
9
100
AcDbSymbolTableRecord
100
AcDbRegAppTableRecord
  2
ACAD_EXEMPT_FROM_CAD_STANDARDS
 70
     0
  0
APPID
  5
218E
330
9
100
AcDbSymbolTableRecord
100
AcDbRegAppTableRecord
  2
ACAD_DSTYLE_DIMTEXT_FILL
 70
     0
  0
APPID
  5
218F
330
9
100
AcDbSymbolTableRecord
100
AcDbRegAppTableRecord
  2
ACAD_DSTYLE_DIMEXT_LENGTH
 70
     0
  0
APPID
  5
2190
330
9
100
AcDbSymbolTableRecord
100
AcDbRegAppTableRecord
  2
ACAD_DSTYLE_DIMEXT_ENABLED
 70
     0
  0
APPID
  5
2191
330
9
100
AcDbSymbolTableRecord
100
AcDbRegAppTableRecord
  2
ACAD_DSTYLE_DIM_LINETYPE
 70
     0
  0
APPID
  5
2192
330
9
100
AcDbSymbolTableRecord
100
AcDbRegAppTableRecord
  2
ACAD_DSTYLE_DIM_EXT1_LINETYPE
 70
     0
  0
APPID
  5
2193
330
9
100
AcDbSymbolTableRecord
100
AcDbRegAppTableRecord
  2
ACAD_DSTYLE_DIM_EXT2_LINETYPE
 70
     0
  0
APPID
  5
3955
330
9
100
AcDbSymbolTableRecord
100
AcDbRegAppTableRecord
  2
GENIUS_GENSCREG_15
 70
     0
  0
APPID
  5
3956
330
9
100
AcDbSymbolTableRecord
100
AcDbRegAppTableRecord
  2
GENIUS_GENOBJ-N-SDF_13
 70
     0
  0
APPID
  5
3957
330
9
100
AcDbSymbolTableRecord
100
AcDbRegAppTableRecord
  2
GENIUS_GENODEF_13
 70
     0
  0
APPID
  5
3969
330
9
100
AcDbSymbolTableRecord
100
AcDbRegAppTableRecord
  2
GENIUS_GENDIMSH_14
 70
     0
  0
APPID
  5
4C87
330
9
100
AcDbSymbolTableRecord
100
AcDbRegAppTableRecord
  2
AcAecLayerStandard
 70
     0
  0
APPID
  5
4D0F
330
9
100
AcDbSymbolTableRecord
100
AcDbRegAppTableRecord
  2
GENIUS_GENDTOL_13
 70
     0
  0
APPID
  5
5B47
330
9
100
AcDbSymbolTableRecord
100
AcDbRegAppTableRecord
  2
GENIUS_GENREC_14
 70
     0
  0
APPID
  5
5B48
330
9
100
AcDbSymbolTableRecord
100
AcDbRegAppTableRecord
  2
GENIUS_GENOBJ-N-REC_13
 70
     0
  0
ENDTAB
  0
TABLE
  2
DIMSTYLE
  5
A
330
0
100
AcDbSymbolTable
 70
    23
100
AcDbDimStyleTable
 71
     5
340
3C8
340
81
340
3AB4
340
3AB3
340
3AAF
  0
DIMSTYLE
105
81
330
A
100
AcDbSymbolTableRecord
100
AcDbDimStyleTableRecord
  2
AM_ISO
 70
     0
  4
"
 41
2.5
 42
1.0
 43
10.0
 44
1.0
 47
0.1
 48
0.1
 73
     0
 74
     0
 77
     1
 78
     8
 79
     2
140
3.5
141
0.0
143
0.0393701
146
0.71
147
1.5
172
     1
176
   256
177
   256
178
     2
271
     2
272
     3
274
     4
283
     0
284
     8
340
11
371
    -1
372
    -1
1001
ACAD_DSTYLE_DIMARC_LENGTH_SYMBOL
1070
   379
1070
     1
1001
ACAD_DSTYLE_DIMJOGGED_JOGANGLE_SYMBOL
1070
   384
1040
0.7853981633974483
  0
DIMSTYLE
105
82
330
A
100
AcDbSymbolTableRecord
100
AcDbDimStyleTableRecord
  2
AM_ISO$3
 70
     0
  4
"
 41
2.5
 42
1.0
 43
10.0
 44
1.0
 47
0.1
 48
0.1
 73
     0
 77
     1
 78
     8
 79
     2
140
3.5
141
0.0
143
0.0393701
146
0.71
147
1.5
176
   256
177
   256
178
     2
271
     2
272
     3
274
     4
283
     0
284
     8
288
     1
289
     0
340
11
371
    -1
372
    -1
1001
ACAD_DSTYLE_DIMARC_LENGTH_SYMBOL
1070
   379
1070
     1
1001
ACAD_DSTYLE_DIMJOGGED_JOGANGLE_SYMBOL
1070
   384
1040
0.7853981633974483
  0
DIMSTYLE
105
83
330
A
100
AcDbSymbolTableRecord
100
AcDbDimStyleTableRecord
  2
AM_ISO$4
 70
     0
  4
"
 41
2.5
 42
1.0
 43
10.0
 44
1.0
 47
0.1
 48
0.1
 73
     0
 77
     1
 78
     8
 79
     2
140
3.5
141
0.0
143
0.0393701
146
0.71
147
1.5
176
   256
177
   256
178
     2
271
     2
272
     3
274
     4
283
     0
284
     8
288
     1
289
     0
340
11
371
    -1
372
    -1
1001
ACAD_DSTYLE_DIMARC_LENGTH_SYMBOL
1070
   379
1070
     1
1001
ACAD_DSTYLE_DIMJOGGED_JOGANGLE_SYMBOL
1070
   384
1040
0.7853981633974483
  0
DIMSTYLE
105
84
330
A
100
AcDbSymbolTableRecord
100
AcDbDimStyleTableRecord
  2
AM_ISO$6
 70
     0
  4
"
 41
2.5
 42
1.0
 43
10.0
 44
1.0
 47
0.1
 48
0.1
 73
     0
 74
     0
 78
     8
 79
     2
140
3.5
141
0.0
143
0.0393701
146
0.71
147
1.5
172
     1
176
   256
177
   256
178
     2
271
     2
272
     3
274
     4
283
     0
284
     8
340
11
371
    -1
372
    -1
1001
ACAD_DSTYLE_DIMARC_LENGTH_SYMBOL
1070
   379
1070
     1
1001
ACAD_DSTYLE_DIMJOGGED_JOGANGLE_SYMBOL
1070
   384
1040
0.7853981633974483
  0
DIMSTYLE
105
85
330
A
100
AcDbSymbolTableRecord
100
AcDbDimStyleTableRecord
  2
AM_ISO$7
 70
     0
  4
"
 41
2.5
 42
1.0
 43
10.0
 44
1.0
 47
0.1
 48
0.1
 73
     0
 74
     0
 77
     1
 78
     8
 79
     2
140
5.0
141
0.0
143
0.0393701
146
0.71
147
1.5
172
     1
176
   256
177
   256
178
     2
271
     2
272
     3
274
     4
283
     0
284
     8
340
11
371
    -1
372
    -1
1001
ACAD_DSTYLE_DIMARC_LENGTH_SYMBOL
1070
   379
1070
     1
1001
ACAD_DSTYLE_DIMJOGGED_JOGANGLE_SYMBOL
1070
   384
1040
0.7853981633974483
  0
DIMSTYLE
105
86
330
A
100
AcDbSymbolTableRecord
100
AcDbDimStyleTableRecord
  2
AM_ISO$SF
 70
     0
  4
"
 41
2.5
 42
1.0
 43
10.0
 44
1.0
 47
0.1
 48
0.1
 73
     0
 74
     0
 75
     1
 76
     1
 77
     1
 78
     8
 79
     2
140
3.5
141
0.0
143
0.0393701
146
0.71
147
1.5
172
     1
176
   256
177
   256
178
     2
271
     2
272
     3
274
     4
283
     0
284
     8
340
11
371
    -1
372
    -1
1001
ACAD_DSTYLE_DIMARC_LENGTH_SYMBOL
1070
   379
1070
     1
1001
ACAD_DSTYLE_DIMJOGGED_JOGANGLE_SYMBOL
1070
   384
1040
0.7853981633974483
  0
DIMSTYLE
105
8B
330
A
100
AcDbSymbolTableRecord
100
AcDbDimStyleTableRecord
  2
AM_ISO$SH
 70
     0
  4
"
 41
2.5
 42
1.0
 43
10.0
 44
1.0
 47
0.1
 48
0.1
 73
     0
 74
     0
 75
     1
 76
     1
 77
     1
 78
     8
 79
     2
140
3.5
141
0.0
143
0.0393701
144
2.0
146
0.71
147
1.5
172
     1
173
     1
176
   256
177
   256
178
     2
271
     2
272
     3
274
     4
283
     0
284
     8
340
11
343
87
371
    -1
372
    -1
1001
ACAD_DSTYLE_DIMARC_LENGTH_SYMBOL
1070
   379
1070
     1
1001
ACAD_DSTYLE_DIMJOGGED_JOGANGLE_SYMBOL
1070
   384
1040
0.7853981633974483
  0
DIMSTYLE
105
3C8
102
{ACAD_REACTORS
330
19C9
330
3C90
330
3BE5
330
3BED
330
3BF0
330
3BF1
330
3C0C
330
3C16
330
3C17
330
3BF3
330
3BF4
330
3BF5
330
3BF6
330
3C06
330
3C07
330
3C08
330
3C0D
330
3C13
330
3C15
330
19F4
330
2E07
330
2E09
330
2E0A
330
2E5C
102
}
330
A
100
AcDbSymbolTableRecord
100
AcDbDimStyleTableRecord
  2
STANDARD
 70
     0
 41
3.0
 42
1.0
 43
1.0
 44
1.0
 48
0.000000001
 73
     0
 74
     0
 77
     1
 78
     8
140
3.0
141
-0.05
145
5.0
146
0.8
147
1.0
172
     1
176
     3
177
     3
178
     6
271
     2
272
     2
284
     8
340
11
371
    -1
1001
ACAD_DSTYLE_DIMEXT_LENGTH
1070
   378
1040
1.0
1001
ACAD_DSTYLE_DIMEXT_ENABLED
1070
   383
1070
     0
1001
ACAD_DSTYLE_DIMARC_LENGTH_SYMBOL
1070
   379
1070
     0
1001
ACAD_DSTYLE_DIMJOGGED_JOGANGLE_SYMBOL
1070
   384
1040
1.570796326794896
  0
DIMSTYLE
105
3AAF
330
A
100
AcDbSymbolTableRecord
100
AcDbDimStyleTableRecord
  2
AM_ANSI
 70
     0
  4
mm
 41
0.1
 42
0.05
 43
0.5
 44
0.1
 47
0.1
 48
0.1
 78
     7
 79
     2
140
0.12
141
0.0
146
0.71
147
0.06
176
   256
177
   256
178
     2
274
     4
284
     7
340
11
371
    -1
372
    -1
1001
ACAD_DSTYLE_DIMARC_LENGTH_SYMBOL
1070
   379
1070
     1
1001
ACAD_DSTYLE_DIMJOGGED_JOGANGLE_SYMBOL
1070
   384
1040
0.7853981633974483
  0
DIMSTYLE
105
3AB0
330
A
100
AcDbSymbolTableRecord
100
AcDbDimStyleTableRecord
  2
AM_ANSI$3
 70
     0
  4
mm
 41
0.1
 42
0.05
 43
0.5
 44
0.1
 47
0.1
 48
0.1
 78
     7
 79
     2
140
0.12
141
0.0
146
0.71
147
0.06
176
   256
177
   256
178
     2
274
     4
284
     7
288
     1
289
     0
340
11
371
    -1
372
    -1
1001
ACAD_DSTYLE_DIMARC_LENGTH_SYMBOL
1070
   379
1070
     1
1001
ACAD_DSTYLE_DIMJOGGED_JOGANGLE_SYMBOL
1070
   384
1040
0.7853981633974483
  0
DIMSTYLE
105
3AB1
330
A
100
AcDbSymbolTableRecord
100
AcDbDimStyleTableRecord
  2
AM_ANSI$4
 70
     0
  4
mm
 41
0.1
 42
0.05
 43
0.5
 44
0.1
 47
0.1
 48
0.1
 78
     7
 79
     2
140
0.12
141
0.0
146
0.71
147
0.06
176
   256
177
   256
178
     2
274
     4
284
     7
288
     1
289
     0
340
11
371
    -1
372
    -1
1001
ACAD_DSTYLE_DIMARC_LENGTH_SYMBOL
1070
   379
1070
     1
1001
ACAD_DSTYLE_DIMJOGGED_JOGANGLE_SYMBOL
1070
   384
1040
0.7853981633974483
  0
DIMSTYLE
105
3AB2
330
A
100
AcDbSymbolTableRecord
100
AcDbDimStyleTableRecord
  2
AM_ANSI$7
 70
     0
  4
mm
 41
0.1
 42
0.05
 43
0.5
 44
0.1
 47
0.1
 48
0.1
 78
     7
 79
     2
140
0.24
141
0.0
146
0.71
147
0.06
176
   256
177
   256
178
     2
274
     4
284
     7
340
11
371
    -1
372
    -1
1001
ACAD_DSTYLE_DIMARC_LENGTH_SYMBOL
1070
   379
1070
     1
1001
ACAD_DSTYLE_DIMJOGGED_JOGANGLE_SYMBOL
1070
   384
1040
0.7853981633974483
  0
DIMSTYLE
105
3AB3
330
A
100
AcDbSymbolTableRecord
100
AcDbDimStyleTableRecord
  2
AM_ANSI$SF
 70
     0
  4
mm
 41
0.1
 42
0.05
 43
0.5
 44
0.1
 47
0.1
 48
0.1
 75
     1
 76
     1
 78
     7
 79
     2
140
0.12
141
0.0
146
0.71
147
0.06
176
   256
177
   256
178
     2
274
     4
284
     7
340
11
371
    -1
372
    -1
1001
ACAD_DSTYLE_DIMARC_LENGTH_SYMBOL
1070
   379
1070
     1
1001
ACAD_DSTYLE_DIMJOGGED_JOGANGLE_SYMBOL
1070
   384
1040
0.7853981633974483
  0
DIMSTYLE
105
3AB4
330
A
100
AcDbSymbolTableRecord
100
AcDbDimStyleTableRecord
  2
AM_ANSI$SH
 70
     0
  4
mm
 41
0.1
 42
0.05
 43
0.5
 44
0.1
 47
0.1
 48
0.1
 75
     1
 76
     1
 78
     7
 79
     2
140
0.12
141
0.0
146
0.71
147
0.06
173
     1
176
   256
177
   256
178
     2
274
     4
284
     7
340
11
343
87
371
    -1
372
    -1
1001
ACAD_DSTYLE_DIMARC_LENGTH_SYMBOL
1070
   379
1070
     1
1001
ACAD_DSTYLE_DIMJOGGED_JOGANGLE_SYMBOL
1070
   384
1040
0.7853981633974483
  0
DIMSTYLE
105
4C93
102
{ACAD_REACTORS
330
19C9
330
3C90
330
3BE5
330
3BED
330
3BF0
330
3BF1
330
3C0C
330
3C16
330
3C17
330
3BF3
330
3BF5
330
3BF6
330
3C07
330
4C97
330
4CEE
330
4E6F
330
4EBE
330
575C
102
}
330
A
100
AcDbSymbolTableRecord
100
AcDbDimStyleTableRecord
  2
STANDARD$0
 70
     0
 41
3.0
 42
1.0
 43
1.0
 44
1.0
 48
0.000000001
 73
     0
 74
     0
 77
     1
 78
     8
140
3.0
141
-0.05
145
5.0
146
0.8
147
1.0
172
     1
176
     3
177
     3
178
     6
271
     2
272
     2
284
     8
340
11
371
    -1
1001
ACAD_DSTYLE_DIMEXT_LENGTH
1070
   378
1040
1.0
1001
ACAD_DSTYLE_DIMEXT_ENABLED
1070
   383
1070
     0
1001
ACAD_DSTYLE_DIMARC_LENGTH_SYMBOL
1070
   379
1070
     0
1001
ACAD_DSTYLE_DIMJOGGED_JOGANGLE_SYMBOL
1070
   384
1040
1.570796326794896
  0
DIMSTYLE
105
5B40
330
A
100
AcDbSymbolTableRecord
100
AcDbDimStyleTableRecord
  2
AM_DIN
 70
     0
  4
"
 41
2.5
 42
1.0
 43
10.0
 44
1.0
 47
0.1
 48
0.1
 73
     0
 74
     0
 77
     1
 78
     8
 79
     2
140
3.5
141
0.0
143
0.0393701
146
0.71
147
1.5
172
     1
176
   256
177
   256
178
     2
271
     2
272
     3
274
     4
283
     0
284
     8
340
11
371
    -1
372
    -1
1001
ACAD_DSTYLE_DIMARC_LENGTH_SYMBOL
1070
   379
1070
     0
1001
ACAD_DSTYLE_DIMJOGGED_JOGANGLE_SYMBOL
1070
   384
1040
1.570796326794896
  0
DIMSTYLE
105
5B41
330
A
100
AcDbSymbolTableRecord
100
AcDbDimStyleTableRecord
  2
AM_DIN$3
 70
     0
  4
"
 41
2.5
 42
1.0
 43
10.0
 44
1.0
 47
0.1
 48
0.1
 73
     0
 77
     1
 78
     8
 79
     2
140
3.5
141
0.0
143
0.0393701
146
0.71
147
1.5
176
   256
177
   256
178
     2
271
     2
272
     3
274
     4
283
     0
284
     8
288
     1
289
     0
340
11
371
    -1
372
    -1
1001
ACAD_DSTYLE_DIMARC_LENGTH_SYMBOL
1070
   379
1070
     0
1001
ACAD_DSTYLE_DIMJOGGED_JOGANGLE_SYMBOL
1070
   384
1040
1.570796326794896
  0
DIMSTYLE
105
5B42
330
A
100
AcDbSymbolTableRecord
100
AcDbDimStyleTableRecord
  2
AM_DIN$4
 70
     0
  4
"
 41
2.5
 42
1.0
 43
10.0
 44
1.0
 47
0.1
 48
0.1
 73
     0
 77
     1
 78
     8
 79
     2
140
3.5
141
0.0
143
0.0393701
146
0.71
147
1.5
176
   256
177
   256
178
     2
271
     2
272
     3
274
     4
283
     0
284
     8
288
     1
289
     0
340
11
371
    -1
372
    -1
1001
ACAD_DSTYLE_DIMARC_LENGTH_SYMBOL
1070
   379
1070
     0
1001
ACAD_DSTYLE_DIMJOGGED_JOGANGLE_SYMBOL
1070
   384
1040
1.570796326794896
  0
DIMSTYLE
105
5B43
330
A
100
AcDbSymbolTableRecord
100
AcDbDimStyleTableRecord
  2
AM_DIN$6
 70
     0
  4
"
 41
2.5
 42
1.0
 43
10.0
 44
1.0
 47
0.1
 48
0.1
 73
     0
 74
     0
 78
     8
 79
     2
140
3.5
141
0.0
143
0.0393701
146
0.71
147
1.5
172
     1
176
   256
177
   256
178
     2
271
     2
272
     3
274
     4
283
     0
284
     8
340
11
371
    -1
372
    -1
1001
ACAD_DSTYLE_DIMARC_LENGTH_SYMBOL
1070
   379
1070
     0
1001
ACAD_DSTYLE_DIMJOGGED_JOGANGLE_SYMBOL
1070
   384
1040
1.570796326794896
  0
DIMSTYLE
105
5B44
330
A
100
AcDbSymbolTableRecord
100
AcDbDimStyleTableRecord
  2
AM_DIN$7
 70
     0
  4
"
 41
2.5
 42
1.0
 43
10.0
 44
1.0
 47
0.1
 48
0.1
 73
     0
 74
     0
 77
     1
 78
     8
 79
     2
140
5.0
141
0.0
143
0.0393701
146
0.71
147
1.5
172
     1
176
   256
177
   256
178
     2
271
     2
272
     3
274
     4
283
     0
284
     8
340
11
371
    -1
372
    -1
1001
ACAD_DSTYLE_DIMARC_LENGTH_SYMBOL
1070
   379
1070
     0
1001
ACAD_DSTYLE_DIMJOGGED_JOGANGLE_SYMBOL
1070
   384
1040
1.570796326794896
  0
DIMSTYLE
105
5B45
330
A
100
AcDbSymbolTableRecord
100
AcDbDimStyleTableRecord
  2
AM_DIN$SF
 70
     0
  4
"
 41
2.5
 42
1.0
 43
10.0
 44
1.0
 47
0.1
 48
0.1
 73
     0
 74
     0
 75
     1
 76
     1
 77
     1
 78
     8
 79
     2
140
3.5
141
0.0
143
0.0393701
146
0.71
147
1.5
172
     1
176
   256
177
   256
178
     2
271
     2
272
     3
274
     4
283
     0
284
     8
340
11
371
    -1
372
    -1
1001
ACAD_DSTYLE_DIMARC_LENGTH_SYMBOL
1070
   379
1070
     0
1001
ACAD_DSTYLE_DIMJOGGED_JOGANGLE_SYMBOL
1070
   384
1040
1.570796326794896
  0
DIMSTYLE
105
5B46
330
A
100
AcDbSymbolTableRecord
100
AcDbDimStyleTableRecord
  2
AM_DIN$SH
 70
     0
  4
"
 41
2.5
 42
1.0
 43
10.0
 44
1.0
 47
0.1
 48
0.1
 73
     0
 74
     0
 75
     1
 76
     1
 77
     1
 78
     8
 79
     2
140
3.5
141
0.0
143
0.0393701
144
2.0
146
0.71
147
1.5
172
     1
173
     1
176
   256
177
   256
178
     2
271
     2
272
     3
274
     4
283
     0
284
     8
340
11
343
87
371
    -1
372
    -1
1001
ACAD_DSTYLE_DIMARC_LENGTH_SYMBOL
1070
   379
1070
     0
1001
ACAD_DSTYLE_DIMJOGGED_JOGANGLE_SYMBOL
1070
   384
1040
1.570796326794896
  0
ENDTAB
  0
TABLE
  2
BLOCK_RECORD
  5
1
330
0
100
AcDbSymbolTable
 70
    23
  0
BLOCK_RECORD
  5
1F
102
{ACAD_XDICTIONARY
360
8F
102
}
330
1
100
AcDbSymbolTableRecord
100
AcDbBlockTableRecord
  2
*Model_Space
340
22
  0
BLOCK_RECORD
  5
1B
102
{ACAD_XDICTIONARY
360
2D9F
102
}
330
1
100
AcDbSymbolTableRecord
100
AcDbBlockTableRecord
  2
*Paper_Space
340
1E
  0
BLOCK_RECORD
  5
87
330
1
100
AcDbSymbolTableRecord
100
AcDbBlockTableRecord
  2
GENAXEH
340
0
  0
BLOCK_RECORD
  5
2FB
330
1
100
AcDbSymbolTableRecord
100
AcDbBlockTableRecord
  2
_DatumFilled
340
0
  0
BLOCK_RECORD
  5
2FF
330
1
100
AcDbSymbolTableRecord
100
AcDbBlockTableRecord
  2
_None
340
0
  0
BLOCK_RECORD
  5
125D
102
{ACAD_XDICTIONARY
360
128A
102
}
330
1
100
AcDbSymbolTableRecord
100
AcDbBlockTableRecord
  2
A$C75C560CA
340
0
1001
ACAD
1000
DesignCenter Data
1002
{
1070
     1
1070
     4
1002
}
  0
BLOCK_RECORD
  5
1A4C
330
1
100
AcDbSymbolTableRecord
100
AcDbBlockTableRecord
  2
*D5
340
0
  0
BLOCK_RECORD
  5
2CC0
102
{ACAD_XDICTIONARY
360
2CC2
102
}
330
1
100
AcDbSymbolTableRecord
100
AcDbBlockTableRecord
  2
A$C718C4946
340
0
1001
ACAD
1000
DesignCenter Data
1002
{
1070
     1
1070
     4
1002
}
  0
BLOCK_RECORD
  5
2F89
330
1
100
AcDbSymbolTableRecord
100
AcDbBlockTableRecord
  2
_DotSmall
340
0
102
{BLKREFS
331
4DC3
331
4DD9
102
}
  0
BLOCK_RECORD
  5
3CC4
330
1
100
AcDbSymbolTableRecord
100
AcDbBlockTableRecord
  2
*D8
340
0
  0
BLOCK_RECORD
  5
3CE8
330
1
100
AcDbSymbolTableRecord
100
AcDbBlockTableRecord
  2
*D9
340
0
  0
BLOCK_RECORD
  5
3D0C
330
1
100
AcDbSymbolTableRecord
100
AcDbBlockTableRecord
  2
*D10
340
0
  0
BLOCK_RECORD
  5
3D18
330
1
100
AcDbSymbolTableRecord
100
AcDbBlockTableRecord
  2
*D11
340
0
  0
BLOCK_RECORD
  5
3D24
330
1
100
AcDbSymbolTableRecord
100
AcDbBlockTableRecord
  2
*D12
340
0
  0
BLOCK_RECORD
  5
3D42
330
1
100
AcDbSymbolTableRecord
100
AcDbBlockTableRecord
  2
*D13
340
0
  0
BLOCK_RECORD
  5
3D4F
330
1
100
AcDbSymbolTableRecord
100
AcDbBlockTableRecord
  2
*D14
340
0
  0
BLOCK_RECORD
  5
3D5B
330
1
100
AcDbSymbolTableRecord
100
AcDbBlockTableRecord
  2
*D15
340
0
  0
BLOCK_RECORD
  5
4C98
330
1
100
AcDbSymbolTableRecord
100
AcDbBlockTableRecord
  2
*D16
340
0
  0
BLOCK_RECORD
  5
4CEF
330
1
100
AcDbSymbolTableRecord
100
AcDbBlockTableRecord
  2
*D17
340
0
  0
BLOCK_RECORD
  5
4E70
330
1
100
AcDbSymbolTableRecord
100
AcDbBlockTableRecord
  2
*D18
340
0
  0
BLOCK_RECORD
  5
4EBF
330
1
100
AcDbSymbolTableRecord
100
AcDbBlockTableRecord
  2
*D19
340
0
  0
BLOCK_RECORD
  5
577B
330
1
100
AcDbSymbolTableRecord
100
AcDbBlockTableRecord
  2
*D20
340
0
  0
ENDTAB
  0
ENDSEC
  0
SECTION
  2
BLOCKS
  0
BLOCK
  5
20
330
1F
100
AcDbEntity
  8
0
100
AcDbBlockBegin
  2
*Model_Space
 70
     0
 10
0.0
 20
0.0
 30
0.0
  3
*Model_Space
  1

  0
ENDBLK
  5
21
330
1F
100
AcDbEntity
  8
0
100
AcDbBlockEnd
  0
BLOCK
  5
1C
330
1B
100
AcDbEntity
 67
     1
  8
0
100
AcDbBlockBegin
  2
*Paper_Space
 70
     0
 10
0.0
 20
0.0
 30
0.0
  3
*Paper_Space
  1

  0
ENDBLK
  5
1D
330
1B
100
AcDbEntity
 67
     1
  8
0
100
AcDbBlockEnd
  0
BLOCK
  5
89
330
87
100
AcDbEntity
  8
0
100
AcDbBlockBegin
  2
GENAXEH
 70
     0
 10
0.0
 20
0.0
 30
0.0
  3
GENAXEH
  1

  0
LINE
  5
88
330
87
100
AcDbEntity
  8
0
100
AcDbLine
 10
-1.0
 20
0.0
 30
0.0
 11
1.0
 21
0.0
 31
0.0
  0
ENDBLK
  5
8A
330
87
100
AcDbEntity
  8
0
100
AcDbBlockEnd
  0
BLOCK
  5
2FC
330
2FB
100
AcDbEntity
  8
0
100
AcDbBlockBegin
  2
_DatumFilled
 70
     0
 10
0.0
 20
0.0
 30
0.0
  3
_DatumFilled
  1

  0
SOLID
  5
2FD
330
2FB
100
AcDbEntity
  8
0
  6
ByBlock
 62
     0
100
AcDbTrace
 10
0.0
 20
0.5773502700000001
 30
0.0
 11
-1.0
 21
0.0
 31
0.0
 12
0.0
 22
-0.5773502700000001
 32
0.0
 13
0.0
 23
-0.5773502700000001
 33
0.0
  0
ENDBLK
  5
2FE
330
2FB
100
AcDbEntity
  8
0
100
AcDbBlockEnd
  0
BLOCK
  5
300
330
2FF
100
AcDbEntity
  8
0
100
AcDbBlockBegin
  2
_None
 70
     0
 10
0.0
 20
0.0
 30
0.0
  3
_None
  1

  0
ENDBLK
  5
301
330
2FF
100
AcDbEntity
  8
0
100
AcDbBlockEnd
  0
BLOCK
  5
128B
330
125D
100
AcDbEntity
  8
0
100
AcDbBlockBegin
  2
A$C75C560CA
 70
     0
 10
0.0
 20
0.0
 30
0.0
  3
A$C75C560CA
  1

  0
TEXT
  5
125E
330
125D
100
AcDbEntity
  8
FRAME
100
AcDbText
 10
198.0618690923416
 20
18.19796331725411
 30
0.0
 40
2.6
  1
M 1:1.5
 41
0.7
  7
ROMANS
100
AcDbText
  0
MTEXT
  5
125F
330
125D
100
AcDbEntity
  8
DIM
100
AcDbMText
 10
147.8052230115329
 20
14.75214036007798
 30
0.0
 40
2.0
 41
25.0
 71
     1
 72
     5
  1
X       %%p0.5\P1PL     %%p0.2\P2PL     %%p0.1\PANGLE   %%p30'
  7
ROMANS
 73
     1
 44
1.0
1001
ACAD
1000
MTEXTBEGIN
1070
    73
1070
     1
1070
    44
1040
1.0
1070
    74
1070
     0
1000
MTEXTEND
  0
LWPOLYLINE
  5
1260
330
125D
100
AcDbEntity
  8
SPEC
100
AcDbPolyline
 90
        2
 70
     0
 43
0.0
 10
46.10857599724545
 20
22.43272629327407
 10
107.7609609669623
 20
22.43272629327407
  0
LINE
  5
1261
330
125D
100
AcDbEntity
  8
SPEC
  6
HIDDEN
100
AcDbLine
 10
95.76650416238317
 20
4.962468073120362
 30
0.0
 11
130.435771777227
 21
4.962468073120362
 31
0.0
  0
TEXT
  5
1262
330
125D
100
AcDbEntity
  8
DATA
 62
     1
100
AcDbText
 10
93.21139064254088
 20
5.812552698566491
 30
0.0
 40
4.0
  1
(ST4018M0406-B)
 41
0.7
  7
ROMANS
100
AcDbText
  0
TEXT
  5
1263
330
125D
100
AcDbEntity
  8
DATA
 62
     1
100
AcDbText
 10
231.317878293991
 20
2.415962237127928
 30
0.0
 40
4.0
  1
ST4018M0406
 41
0.7
  7
ROMANS
100
AcDbText
  0
TEXT
  5
1264
330
125D
100
AcDbEntity
  8
DATA
 62
     1
100
AcDbText
 10
93.38807665210561
 20
11.87217307676974
 30
0.0
 40
4.0
  1
ST4018M0406-A
 41
0.7
  7
ROMANS
100
AcDbText
  0
LWPOLYLINE
  5
1265
330
125D
100
AcDbEntity
  8
SPEC
100
AcDbPolyline
 90
        2
 70
     0
 43
0.0
 10
0.0
 20
22.43272629327407
 10
46.20410858955392
 20
22.43272629327407
  0
LINE
  5
1266
330
125D
100
AcDbEntity
  8
DIM
100
AcDbLine
 10
146.5280168612521
 20
16.58038901312318
 30
0.0
 11
213.8442914438065
 21
16.58038901312318
 31
0.0
  0
LINE
  5
1267
330
125D
100
AcDbEntity
  8
DIM
100
AcDbLine
 10
228.8020370376457
 20
12.55466422304016
 30
0.0
 11
228.8020370376457
 21
0.466065179059342
 31
0.0
  0
LINE
  5
1268
330
125D
100
AcDbEntity
  8
DIM
100
AcDbLine
 10
195.7433482585834
 20
22.43272629327407
 30
0.0
 11
195.7433482585834
 21
0.0
 31
0.0
  0
LINE
  5
1269
330
125D
100
AcDbEntity
  8
DIM
100
AcDbLine
 10
178.9743605596215
 20
22.40187586043203
 30
0.0
 11
178.9743605596215
 21
6.730972725647461
 31
0.0
  0
LINE
  5
126A
330
125D
100
AcDbEntity
  8
DIM
100
AcDbLine
 10
167.6954380838244
 20
0.0
 30
0.0
 11
167.6954380838244
 21
22.32683486367228
 31
0.0
  0
LINE
  5
126B
330
125D
100
AcDbEntity
  8
DIM
100
AcDbLine
 10
167.9351755979376
 20
22.43272629327407
 30
0.0
 11
167.9351755979376
 21
0.0
 31
0.0
  0
LINE
  5
126C
330
125D
100
AcDbEntity
  8
DIM
100
AcDbLine
 10
213.8442921475325
 20
22.43272629327407
 30
0.0
 11
213.8442921475325
 21
0.0
 31
0.0
  0
LINE
  5
126D
330
125D
100
AcDbEntity
  8
DIM
100
AcDbLine
 10
74.01093817688343
 20
22.44942325395482
 30
0.0
 11
74.01093817688343
 21
0.0031114061869175
 31
0.0
  0
LINE
  5
126E
330
125D
100
AcDbEntity
  8
DIM
100
AcDbLine
 10
89.1300425376794
 20
22.44942325395482
 30
0.0
 11
89.1300425376794
 21
-0.0380746962764533
 31
0.0
  0
LINE
  5
126F
330
125D
100
AcDbEntity
  8
DIM
100
AcDbLine
 10
52.48454273927814
 20
22.43272629327407
 30
0.0
 11
52.48454273927814
 21
-0.0273489207340845
 31
0.0
  0
LINE
  5
1270
330
125D
100
AcDbEntity
  8
DIM
100
AcDbLine
 10
0.0
 20
22.43272629327407
 30
0.0
 11
292.2263229886494
 21
22.43272629327407
 31
0.0
  0
LINE
  5
1271
330
125D
100
AcDbEntity
  8
DIM
100
AcDbLine
 10
89.1300425376794
 20
17.17069886361321
 30
0.0
 11
0.1625959174562013
 21
17.17069886361321
 31
0.0
  0
LINE
  5
1272
330
125D
100
AcDbEntity
  8
DIM
100
AcDbLine
 10
0.1625959174562013
 20
11.90867143395235
 30
0.0
 11
89.1300425376794
 21
11.90867143395235
 31
0.0
  0
LINE
  5
1273
330
125D
100
AcDbEntity
  8
DIM
100
AcDbLine
 10
0.3324718815085816
 20
6.646644004291488
 30
0.0
 11
89.1300425376794
 21
6.646644004291488
 31
0.0
  0
LINE
  5
1274
330
125D
100
AcDbEntity
  8
DIM
100
AcDbLine
 10
11.37444121259409
 20
22.43272629327407
 30
0.0
 11
11.37444121259409
 21
0.0
 31
0.0
  0
LINE
  5
1275
330
125D
100
AcDbEntity
  8
DIM
100
AcDbLine
 10
213.8442921475325
 20
6.719875644631542
 30
0.0
 11
167.6954380838244
 21
6.719875644631542
 31
0.0
  0
LINE
  5
1276
330
125D
100
AcDbEntity
  8
DIM
100
AcDbLine
 10
167.6954380838244
 20
11.60070934481985
 30
0.0
 11
213.8442921475325
 21
11.60070934481985
 31
0.0
  0
TEXT
  5
1277
330
125D
100
AcDbEntity
  8
DIM
100
AcDbText
 10
149.3843128235895
 20
18.01141814143534
 30
0.0
 40
2.5
  1
SCALE FREE
 41
0.7
  7
ROMANS
 72
     2
 11
165.3009794902561
 21
18.01141814143534
 31
0.0
100
AcDbText
  0
LINE
  5
1278
330
125D
100
AcDbEntity
  8
DIM
100
AcDbLine
 10
146.5280168612521
 20
22.43272629327407
 30
0.0
 11
146.5280168612521
 21
0.0
 31
0.0
  0
TEXT
  5
1279
330
125D
100
AcDbEntity
  8
DIM
100
AcDbText
 10
75.4322038344294
 20
2.370654514404577
 30
0.0
 40
3.0
  1
APVD
 41
0.7
  7
ROMANS
100
AcDbText
  0
TEXT
  5
127A
330
125D
100
AcDbEntity
  8
DIM
100
AcDbText
 10
55.94274150779165
 20
2.370654514404577
 30
0.0
 40
3.0
  1
DATE
 41
0.7
  7
ROMANS
100
AcDbText
  0
TEXT
  5
127B
330
125D
100
AcDbEntity
  8
DIM
100
AcDbText
 10
14.2016707071748
 20
2.370654514404577
 30
0.0
 40
3.0
  1
DESCRIPTION
 41
0.7
  7
ROMANS
100
AcDbText
  0
TEXT
  5
127C
330
125D
100
AcDbEntity
  8
DIM
100
AcDbText
 10
2.706016815254362
 20
2.370654514404577
 30
0.0
 40
3.0
  1
REV
 41
0.7
  7
ROMANS
 72
     2
 11
8.406016815254361
 21
2.370654514404577
 31
0.0
100
AcDbText
  0
TEXT
  5
127D
330
125D
100
AcDbEntity
  8
DIM
100
AcDbText
 10
169.8977377686171
 20
17.46653611070155
 30
0.0
 40
3.0
  1
APVD
 41
0.7
  7
ROMANS
 72
     2
 11
177.3977377686171
 21
17.46653611070155
 31
0.0
100
AcDbText
  0
TEXT
  5
127E
330
125D
100
AcDbEntity
  8
DIM
100
AcDbText
 10
169.0333720135623
 20
12.69433802244657
 30
0.0
 40
3.0
  1
CHKD
 41
0.7
  7
ROMANS
 72
     2
 11
177.2333720135623
 21
12.69433802244657
 31
0.0
100
AcDbText
  0
TEXT
  5
127F
330
125D
100
AcDbEntity
  8
DIM
100
AcDbText
 10
170.0393831475915
 20
7.524456556443624
 30
0.0
 40
3.0
  1
DRN
 41
0.7
  7
ROMANS
 72
     2
 11
176.0393831475915
 21
7.524456556443624
 31
0.0
100
AcDbText
  0
TEXT
  5
1280
330
125D
100
AcDbEntity
  8
DIM
100
AcDbText
 10
172.2752627425855
 20
2.329814948448756
 30
0.0
 40
3.0
  1
SIGNATURE
 41
0.7
  7
ROMANS
 72
     2
 11
188.7752627425855
 21
2.329814948448756
 31
0.0
100
AcDbText
  0
TEXT
  5
1281
330
125D
100
AcDbEntity
  8
DIM
100
AcDbText
 10
201.0406724436551
 20
2.224204435222077
 30
0.0
 40
3.0
  1
DATE
 41
0.7
  7
ROMANS
 72
     2
 11
208.240672443655
 21
2.224204435222077
 31
0.0
100
AcDbText
  0
TEXT
  5
1282
330
125D
100
AcDbEntity
  8
DIM
100
AcDbText
 10
218.9507052575232
 20
15.70268350642743
 30
0.0
 40
3.799999999999999
  1
STEPPING MOTOR
 41
0.8
  7
ITALICT
 72
     2
 11
263.9716576384756
 21
15.70268350642743
 31
0.0
100
AcDbText
  0
LINE
  5
1283
330
125D
100
AcDbEntity
  8
DIM
100
AcDbLine
 10
213.8442921475325
 20
12.57581317811855
 30
0.0
 11
291.9564623227739
 21
12.57581317811855
 31
0.0
  0
TEXT
  5
1284
330
125D
100
AcDbEntity
  8
DIM
100
AcDbText
 10
229.779050611357
 20
8.525813178118596
 30
0.0
 40
2.5
  1
DWG.NO
 41
0.7
  7
ROMANS
 72
     2
 11
239.529050611357
 21
8.525813178118596
 31
0.0
100
AcDbText
  0
TEXT
  5
1285
330
125D
100
AcDbEntity
  8
DATA
 62
     1
100
AcDbText
 10
92.69009844013249
 20
17.14709370037587
 30
0.0
 40
3.0
  1
NANOTEC:
 41
0.7
  7
ROMANS
100
AcDbText
  0
TEXT
  5
1286
330
125D
100
AcDbEntity
  8
FRAME
100
AcDbText
 10
196.2632570647433
 20
7.811243394680104
 30
0.0
 40
2.6
  1
14.02.06
 41
0.7
  7
ROMANS
100
AcDbText
  0
LINE
  5
1287
330
125D
100
AcDbEntity
  8
SPEC
100
AcDbLine
 10
0.0
 20
22.43272629327407
 30
0.0
 11
0.0
 21
124.0795686925671
 31
0.0
  0
TEXT
  5
1288
330
125D
100
AcDbEntity
  8
DIM
100
AcDbText
 10
1.48247182125101
 20
198.3559972407229
 30
0.0
 40
3.0
  1
DIMENSION (UNIT : mm)
 41
0.7
  7
ROMANS
100
AcDbText
  0
LWPOLYLINE
  5
1289
330
125D
100
AcDbEntity
  8
DIM
 62
     4
100
AcDbPolyline
 90
        4
 70
     1
 43
0.6
 10
0.0
 20
202.9639180777265
 10
0.0
 20
0.0
 10
291.9564623227739
 20
0.0
 10
291.9564623227739
 20
202.9639180777265
  0
ENDBLK
  5
128C
330
125D
100
AcDbEntity
  8
0
100
AcDbBlockEnd
  0
BLOCK
  5
1A56
330
1A4C
100
AcDbEntity
  8
0
100
AcDbBlockBegin
  2
*D5
 70
     1
 10
0.0
 20
0.0
 30
0.0
  3
*D5
  1

  0
LINE
  5
59CD
330
1A4C
100
AcDbEntity
  8
DIM
 62
     3
370
    -2
100
AcDbLine
 10
139.9063688288351
 20
73.09868988223387
 30
0.0
 11
139.9063688288351
 21
54.91119174080847
 31
0.0
  0
LINE
  5
59CE
330
1A4C
100
AcDbEntity
  8
DIM
 62
     3
370
    -2
100
AcDbLine
 10
149.0972407104071
 20
59.09299455805125
 30
0.0
 11
149.0972407104071
 21
54.91119174080847
 31
0.0
  0
LINE
  5
59CF
330
1A4C
100
AcDbEntity
  8
DIM
 62
     3
100
AcDbLine
 10
142.3063688288351
 20
55.91119174080848
 30
0.0
 11
149.0972407104071
 21
55.91119174080848
 31
0.0
  0
SOLID
  5
59D0
330
1A4C
100
AcDbEntity
  8
DIM
 62
     3
100
AcDbTrace
 10
142.3063688288351
 20
56.31119174080847
 30
0.0
 11
142.3063688288351
 21
55.51119174080848
 31
0.0
 12
139.9063688288351
 22
55.91119174080848
 32
0.0
 13
139.9063688288351
 23
55.91119174080848
 33
0.0
  0
MTEXT
  5
59D1
330
1A4C
100
AcDbEntity
  8
DIM
 62
     6
100
AcDbMText
 10
144.4901433864878
 20
58.11119174080848
 30
0.0
 40
2.399999999999999
 41
0.0
 71
     5
 72
     1
  1
\A1;a
  7
ROMANS
 73
     1
 44
1.0
1001
ACAD
1000
MTEXTBEGIN
1070
    73
1070
     1
1070
    44
1040
1.0
1070
    74
1070
     0
1000
MTEXTEND
  0
POINT
  5
59D2
330
1A4C
100
AcDbEntity
  8
Defpoints
 62
     0
100
AcDbPoint
 10
139.9063688288351
 20
74.09868988223387
 30
0.0
  0
POINT
  5
59D3
330
1A4C
100
AcDbEntity
  8
Defpoints
 62
     0
100
AcDbPoint
 10
149.0972407104071
 20
60.09299455805124
 30
0.0
  0
POINT
  5
59D4
330
1A4C
100
AcDbEntity
  8
Defpoints
 62
     0
100
AcDbPoint
 10
149.0972407104071
 20
55.91119174080848
 30
0.0
  0
ENDBLK
  5
1A57
330
1A4C
100
AcDbEntity
  8
0
100
AcDbBlockEnd
  0
BLOCK
  5
2CC3
330
2CC0
100
AcDbEntity
  8
0
100
AcDbBlockBegin
  2
A$C718C4946
 70
     0
 10
0.0
 20
0.0
 30
0.0
  3
A$C718C4946
  1

  0
TEXT
  5
2CC1
330
2CC0
100
AcDbEntity
  8
DATA
100
AcDbText
 10
-0.3199997827265406
 20
-0.0000001889967507
 30
0.0
 40
2.4
  1
60%%P15%
 41
0.7
  7
ROMANS
100
AcDbText
  0
ENDBLK
  5
2CC4
330
2CC0
100
AcDbEntity
  8
0
100
AcDbBlockEnd
  0
BLOCK
  5
2F8A
330
2F89
100
AcDbEntity
  8
0
100
AcDbBlockBegin
  2
_DotSmall
 70
     0
 10
0.0
 20
0.0
 30
0.0
  3
_DotSmall
  1

  0
LWPOLYLINE
  5
2F8B
330
2F89
100
AcDbEntity
  8
0
  6
ByBlock
 62
     0
100
AcDbPolyline
 90
        2
 70
     1
 43
0.5
 10
-0.0625
 20
0.0
 42
1.0
 10
0.0625
 20
0.0
 42
1.0
  0
ENDBLK
  5
2F8C
330
2F89
100
AcDbEntity
  8
0
100
AcDbBlockEnd
  0
BLOCK
  5
3CCE
330
3CC4
100
AcDbEntity
  8
0
100
AcDbBlockBegin
  2
*D8
 70
     1
 10
0.0
 20
0.0
 30
0.0
  3
*D8
  1

  0
LINE
  5
5D43
330
3CC4
100
AcDbEntity
  8
DIM
  6
ACISOTGL
 62
     3
370
    -2
100
AcDbLine
 10
1352.962695602346
 20
701.1329403909378
 30
0.0
 11
1352.962695602346
 21
736.1485117701866
 31
0.0
  0
LINE
  5
5D44
330
3CC4
100
AcDbEntity
  8
DIM
  6
ACISOTGL
 62
     3
370
    -2
100
AcDbLine
 10
1372.012695602346
 20
701.1329403909385
 30
0.0
 11
1372.012695602346
 21
736.1485117701866
 31
0.0
  0
LINE
  5
5D45
330
3CC4
100
AcDbEntity
  8
DIM
  6
ACISOTGL
 62
     3
100
AcDbLine
 10
1355.962695602346
 20
735.1485117701866
 30
0.0
 11
1369.012695602346
 21
735.1485117701866
 31
0.0
  0
SOLID
  5
5D46
330
3CC4
100
AcDbEntity
  8
DIM
  6
ACISOTGL
 62
     3
100
AcDbTrace
 10
1355.962695602346
 20
735.6485117701866
 30
0.0
 11
1355.962695602346
 21
734.6485117701866
 31
0.0
 12
1352.962695602346
 22
735.1485117701866
 32
0.0
 13
1352.962695602346
 23
735.1485117701866
 33
0.0
  0
SOLID
  5
5D47
330
3CC4
100
AcDbEntity
  8
DIM
  6
ACISOTGL
 62
     3
100
AcDbTrace
 10
1369.012695602346
 20
735.6485117701866
 30
0.0
 11
1369.012695602346
 21
734.6485117701866
 31
0.0
 12
1372.012695602346
 22
735.1485117701866
 32
0.0
 13
1372.012695602346
 23
735.1485117701866
 33
0.0
  0
MTEXT
  5
5D48
330
3CC4
100
AcDbEntity
  8
DIM
  6
ACISOTGL
 62
     6
100
AcDbMText
 10
1362.068797223868
 20
737.6802307333516
 30
0.0
 40
3.0
 41
0.0
 71
     5
 72
     1
  1
\A1;19.05{\H2.400000;±0.1}
 73
     1
 44
1.0
1001
ACAD
1000
MTEXTBEGIN
1070
    73
1070
     1
1070
    44
1040
1.0
1070
    74
1070
     0
1000
MTEXTEND
  0
POINT
  5
5D49
330
3CC4
100
AcDbEntity
  8
Defpoints
  6
ACISOTGL
 62
     0
100
AcDbPoint
 10
1352.962695602346
 20
700.1329403909378
 30
0.0
  0
POINT
  5
5D4A
330
3CC4
100
AcDbEntity
  8
Defpoints
  6
ACISOTGL
 62
     0
100
AcDbPoint
 10
1372.012695602346
 20
700.1329403909385
 30
0.0
  0
POINT
  5
5D4B
330
3CC4
100
AcDbEntity
  8
Defpoints
  6
ACISOTGL
 62
     0
100
AcDbPoint
 10
1372.012695602346
 20
735.1485117701866
 30
0.0
  0
ENDBLK
  5
3CCF
330
3CC4
100
AcDbEntity
  8
0
100
AcDbBlockEnd
  0
BLOCK
  5
3CF2
330
3CE8
100
AcDbEntity
  8
0
100
AcDbBlockBegin
  2
*D9
 70
     1
 10
0.0
 20
0.0
 30
0.0
  3
*D9
  1

  0
LINE
  5
4C05
330
3CE8
100
AcDbEntity
  8
DIM
 62
     3
370
    -2
100
AcDbLine
 10
1215.0256341178
 20
719.101540900662
 30
0.0
 11
1173.873907181456
 21
719.101540900662
 31
0.0
  0
LINE
  5
4C06
330
3CE8
100
AcDbEntity
  8
DIM
 62
     3
370
    -2
100
AcDbLine
 10
1215.0256341178
 20
681.0015409006621
 30
0.0
 11
1173.873907181456
 21
681.0015409006621
 31
0.0
  0
LINE
  5
4C07
330
3CE8
100
AcDbEntity
  8
DIM
 62
     3
100
AcDbLine
 10
1174.873907181456
 20
716.101540900662
 30
0.0
 11
1174.873907181456
 21
684.0015409006621
 31
0.0
  0
SOLID
  5
4C08
330
3CE8
100
AcDbEntity
  8
DIM
 62
     3
100
AcDbTrace
 10
1174.373907181456
 20
716.101540900662
 30
0.0
 11
1175.373907181456
 21
716.101540900662
 31
0.0
 12
1174.873907181456
 22
719.101540900662
 32
0.0
 13
1174.873907181456
 23
719.101540900662
 33
0.0
  0
SOLID
  5
4C09
330
3CE8
100
AcDbEntity
  8
DIM
 62
     3
100
AcDbTrace
 10
1174.373907181456
 20
684.0015409006621
 30
0.0
 11
1175.373907181456
 21
684.0015409006621
 31
0.0
 12
1174.873907181456
 22
681.0015409006621
 32
0.0
 13
1174.873907181456
 23
681.0015409006621
 33
0.0
  0
MTEXT
  5
4C0A
330
3CE8
100
AcDbEntity
  8
DIM
 62
     6
100
AcDbMText
 10
1172.258286444757
 20
700.1049207843391
 30
0.0
 40
3.0
 41
0.0
 71
     5
 72
     1
  1
\A1;%%c38.1{\H2.400000;±0.025}
 11
0.0000000000000001
 21
1.0
 31
0.0
 73
     1
 44
1.0
1001
ACAD
1000
MTEXTBEGIN
1070
    73
1070
     1
1070
    44
1040
1.0
1070
    74
1070
     0
1000
MTEXTEND
  0
POINT
  5
4C0B
330
3CE8
100
AcDbEntity
  8
Defpoints
 62
     0
100
AcDbPoint
 10
1216.0256341178
 20
719.101540900662
 30
0.0
  0
POINT
  5
4C0C
330
3CE8
100
AcDbEntity
  8
Defpoints
 62
     0
100
AcDbPoint
 10
1216.0256341178
 20
681.0015409006621
 30
0.0
  0
POINT
  5
4C0D
330
3CE8
100
AcDbEntity
  8
Defpoints
 62
     0
100
AcDbPoint
 10
1174.873907181456
 20
681.0015409006621
 30
0.0
  0
ENDBLK
  5
3CF3
330
3CE8
100
AcDbEntity
  8
0
100
AcDbBlockEnd
  0
BLOCK
  5
3D16
330
3D0C
100
AcDbEntity
  8
0
100
AcDbBlockBegin
  2
*D10
 70
     1
 10
0.0
 20
0.0
 30
0.0
  3
*D10
  1

  0
LINE
  5
5B2A
330
3D0C
100
AcDbEntity
  8
DATA
 62
     3
370
    -2
100
AcDbLine
 10
1217.625634117805
 20
729.3329403909385
 30
0.0
 11
1217.625634117805
 21
743.1647394120562
 31
0.0
  0
LINE
  5
5B2B
330
3D0C
100
AcDbEntity
  8
DATA
 62
     3
370
    -2
100
AcDbLine
 10
1197.025788588286
 20
704.2330446885204
 30
0.0
 11
1197.025788588286
 21
743.1647394120562
 31
0.0
  0
LINE
  5
5B2C
330
3D0C
100
AcDbEntity
  8
DATA
 62
     3
100
AcDbLine
 10
1214.625634117805
 20
742.1647394120562
 30
0.0
 11
1200.025788588285
 21
742.1647394120562
 31
0.0
  0
SOLID
  5
5B2D
330
3D0C
100
AcDbEntity
  8
DATA
 62
     3
100
AcDbTrace
 10
1214.625634117805
 20
742.6647394120562
 30
0.0
 11
1214.625634117805
 21
741.6647394120563
 31
0.0
 12
1217.625634117805
 22
742.1647394120562
 32
0.0
 13
1217.625634117805
 23
742.1647394120562
 33
0.0
  0
SOLID
  5
5B2E
330
3D0C
100
AcDbEntity
  8
DATA
 62
     3
100
AcDbTrace
 10
1200.025788588285
 20
742.6647394120562
 30
0.0
 11
1200.025788588285
 21
741.6647394120563
 31
0.0
 12
1197.025788588286
 22
742.1647394120562
 32
0.0
 13
1197.025788588286
 23
742.1647394120562
 33
0.0
  0
MTEXT
  5
5B2F
330
3D0C
100
AcDbEntity
  8
DATA
 62
     6
100
AcDbMText
 10
1207.469558530491
 20
744.6964583752214
 30
0.0
 40
3.0
 41
0.0
 71
     5
 72
     1
  1
\A1;20.6{\H2.400000;±0.5}
 73
     1
 44
1.0
1001
ACAD
1000
MTEXTBEGIN
1070
    73
1070
     1
1070
    44
1040
1.0
1070
    74
1070
     0
1000
MTEXTEND
  0
POINT
  5
5B30
330
3D0C
100
AcDbEntity
  8
Defpoints
 62
     0
100
AcDbPoint
 10
1217.625634117805
 20
728.3329403909386
 30
0.0
  0
POINT
  5
5B31
330
3D0C
100
AcDbEntity
  8
Defpoints
 62
     0
100
AcDbPoint
 10
1197.025788588286
 20
703.2330446885204
 30
0.0
  0
POINT
  5
5B32
330
3D0C
100
AcDbEntity
  8
Defpoints
 62
     0
100
AcDbPoint
 10
1197.025788588286
 20
742.1647394120562
 30
0.0
  0
ENDBLK
  5
3D17
330
3D0C
100
AcDbEntity
  8
0
100
AcDbBlockEnd
  0
BLOCK
  5
3E06
330
3D18
100
AcDbEntity
  8
0
100
AcDbBlockBegin
  2
*D11
 70
     1
 10
0.0
 20
0.0
 30
0.0
  3
*D11
  1

  0
LINE
  5
4DD4
330
3D18
100
AcDbEntity
  8
DATA
 62
     3
370
    -2
100
AcDbLine
 10
1216.0256341178
 20
720.101540900662
 30
0.0
 11
1216.0256341178
 21
736.1634005090661
 31
0.0
  0
LINE
  5
4DD5
330
3D18
100
AcDbEntity
  8
DATA
 62
     3
370
    -2
100
AcDbLine
 10
1217.625634117805
 20
729.3329403909385
 30
0.0
 11
1217.625634117805
 21
736.1634005090661
 31
0.0
  0
LINE
  5
4DD6
330
3D18
100
AcDbEntity
  8
DATA
 62
     3
100
AcDbLine
 10
1217.625634117805
 20
735.1634005090661
 30
0.0
 11
1223.625634117805
 21
735.1634005090661
 31
0.0
  0
LINE
  5
4DD7
330
3D18
100
AcDbEntity
  8
DATA
 62
     3
100
AcDbLine
 10
1213.0256341178
 20
735.1634005090661
 30
0.0
 11
1202.848280775371
 21
735.1634005090661
 31
0.0
  0
LINE
  5
4DD8
330
3D18
100
AcDbEntity
  8
DATA
 62
     3
100
AcDbLine
 10
1217.625634117805
 20
735.1634005090661
 30
0.0
 11
1216.0256341178
 21
735.1634005090661
 31
0.0
  0
INSERT
  5
4DD9
330
3D18
100
AcDbEntity
  8
DATA
 62
     3
100
AcDbBlockReference
  2
_DotSmall
 10
1217.625634117805
 20
735.1634005090661
 30
0.0
 41
3.0
 42
3.0
 43
3.0
 50
180.0
  0
SOLID
  5
4DDA
330
3D18
100
AcDbEntity
  8
DATA
 62
     3
100
AcDbTrace
 10
1213.0256341178
 20
735.6634005090661
 30
0.0
 11
1213.0256341178
 21
734.6634005090662
 31
0.0
 12
1216.0256341178
 22
735.1634005090661
 32
0.0
 13
1216.0256341178
 23
735.1634005090661
 33
0.0
  0
MTEXT
  5
4DDB
330
3D18
100
AcDbEntity
  8
DATA
 62
     6
100
AcDbMText
 10
1206.436957446586
 20
737.6951194722312
 30
0.0
 40
3.0
 41
0.0
 71
     5
 72
     1
  1
\A1;1.6
 73
     1
 44
1.0
1001
ACAD
1000
MTEXTBEGIN
1070
    73
1070
     1
1070
    44
1040
1.0
1070
    74
1070
     0
1000
MTEXTEND
  0
POINT
  5
4DDC
330
3D18
100
AcDbEntity
  8
Defpoints
 62
     0
100
AcDbPoint
 10
1216.0256341178
 20
719.101540900662
 30
0.0
  0
POINT
  5
4DDD
330
3D18
100
AcDbEntity
  8
Defpoints
 62
     0
100
AcDbPoint
 10
1217.625634117805
 20
728.3329403909386
 30
0.0
  0
POINT
  5
4DDE
330
3D18
100
AcDbEntity
  8
Defpoints
 62
     0
100
AcDbPoint
 10
1217.625634117805
 20
735.1634005090661
 30
0.0
  0
ENDBLK
  5
3E07
330
3D18
100
AcDbEntity
  8
0
100
AcDbBlockEnd
  0
BLOCK
  5
3E08
330
3D24
100
AcDbEntity
  8
0
100
AcDbBlockBegin
  2
*D12
 70
     1
 10
0.0
 20
0.0
 30
0.0
  3
*D12
  1

  0
LINE
  5
4DBE
330
3D24
100
AcDbEntity
  8
DATA
 62
     3
370
    -2
100
AcDbLine
 10
1217.625634117805
 20
729.3329403909385
 30
0.0
 11
1217.625634117805
 21
736.1425457152456
 31
0.0
  0
LINE
  5
4DBF
330
3D24
100
AcDbEntity
  8
DATA
 62
     3
370
    -2
100
AcDbLine
 10
1222.625634112805
 20
729.3329403909385
 30
0.0
 11
1222.625634112805
 21
736.1425457152456
 31
0.0
  0
LINE
  5
4DC0
330
3D24
100
AcDbEntity
  8
DATA
 62
     3
100
AcDbLine
 10
1217.625634117805
 20
735.1425457152457
 30
0.0
 11
1214.625634117805
 21
735.1425457152457
 31
0.0
  0
LINE
  5
4DC1
330
3D24
100
AcDbEntity
  8
DATA
 62
     3
100
AcDbLine
 10
1225.625634112805
 20
735.1425457152457
 30
0.0
 11
1232.614720060963
 21
735.1425457152457
 31
0.0
  0
LINE
  5
4DC2
330
3D24
100
AcDbEntity
  8
DATA
 62
     3
100
AcDbLine
 10
1217.625634117805
 20
735.1425457152457
 30
0.0
 11
1222.625634112805
 21
735.1425457152457
 31
0.0
  0
INSERT
  5
4DC3
330
3D24
100
AcDbEntity
  8
DATA
 62
     3
100
AcDbBlockReference
  2
_DotSmall
 10
1217.625634117805
 20
735.1425457152457
 30
0.0
 41
3.0
 42
3.0
 43
3.0
  0
SOLID
  5
4DC4
330
3D24
100
AcDbEntity
  8
DATA
 62
     3
100
AcDbTrace
 10
1225.625634112805
 20
735.6425457152456
 30
0.0
 11
1225.625634112805
 21
734.6425457152456
 31
0.0
 12
1222.625634112805
 22
735.1425457152457
 32
0.0
 13
1222.625634112805
 23
735.1425457152457
 33
0.0
  0
MTEXT
  5
4DC5
330
3D24
100
AcDbEntity
  8
DATA
 62
     6
100
AcDbMText
 10
1230.620177086884
 20
737.6681255242496
 30
0.0
 40
3.0
 41
0.0
 71
     5
 72
     1
  1
\A1;5
 73
     1
 44
1.0
1001
ACAD
1000
MTEXTBEGIN
1070
    73
1070
     1
1070
    44
1040
1.0
1070
    74
1070
     0
1000
MTEXTEND
  0
POINT
  5
4DC6
330
3D24
100
AcDbEntity
  8
Defpoints
 62
     0
100
AcDbPoint
 10
1217.625634117805
 20
728.3329403909386
 30
0.0
  0
POINT
  5
4DC7
330
3D24
100
AcDbEntity
  8
Defpoints
 62
     0
100
AcDbPoint
 10
1222.625634112805
 20
728.3329403909386
 30
0.0
  0
POINT
  5
4DC8
330
3D24
100
AcDbEntity
  8
Defpoints
 62
     0
100
AcDbPoint
 10
1222.625634112805
 20
735.1425457152457
 30
0.0
  0
ENDBLK
  5
3E09
330
3D24
100
AcDbEntity
  8
0
100
AcDbBlockEnd
  0
BLOCK
  5
3D4D
330
3D42
100
AcDbEntity
  8
0
100
AcDbBlockBegin
  2
*D13
 70
     1
 10
0.0
 20
0.0
 30
0.0
  3
*D13
  1

  0
LINE
  5
534B
330
3D42
100
AcDbEntity
  8
DIM
 62
     3
370
    -2
100
AcDbLine
 10
1196.02548266903
 20
696.8830447031584
 30
0.0
 11
1185.981205903509
 21
696.8830447031584
 31
0.0
  0
LINE
  5
534C
330
3D42
100
AcDbEntity
  8
DIM
 62
     3
370
    -2
100
AcDbLine
 10
1196.025788588285
 20
703.2330446885204
 30
0.0
 11
1185.981205903509
 21
703.2330446885204
 31
0.0
  0
LINE
  5
534D
330
3D42
100
AcDbEntity
  8
DIM
 62
     3
100
AcDbLine
 10
1186.981205903509
 20
693.8830447031584
 30
0.0
 11
1186.981205903509
 21
690.8830447031585
 31
0.0
  0
LINE
  5
534E
330
3D42
100
AcDbEntity
  8
DIM
 62
     3
100
AcDbLine
 10
1186.981205903509
 20
706.2330446885204
 30
0.0
 11
1186.981205903509
 21
744.0035832178186
 31
0.0
  0
LINE
  5
534F
330
3D42
100
AcDbEntity
  8
DIM
 62
     3
100
AcDbLine
 10
1186.981205903509
 20
696.8830447031584
 30
0.0
 11
1186.981205903509
 21
703.2330446885204
 31
0.0
  0
SOLID
  5
5350
330
3D42
100
AcDbEntity
  8
DIM
 62
     3
100
AcDbTrace
 10
1186.481205903509
 20
693.8830447031584
 30
0.0
 11
1187.481205903509
 21
693.8830447031584
 31
0.0
 12
1186.981205903509
 22
696.8830447031584
 32
0.0
 13
1186.981205903509
 23
696.8830447031584
 33
0.0
  0
SOLID
  5
5351
330
3D42
100
AcDbEntity
  8
DIM
 62
     3
100
AcDbTrace
 10
1186.481205903509
 20
706.2330446885204
 30
0.0
 11
1187.481205903509
 21
706.2330446885204
 31
0.0
 12
1186.981205903509
 22
703.2330446885204
 32
0.0
 13
1186.981205903509
 23
703.2330446885204
 33
0.0
  0
MTEXT
  5
5352
330
3D42
100
AcDbEntity
  8
DIM
 62
     6
100
AcDbMText
 10
1183.069268659307
 20
732.7561070923072
 30
0.0
 40
3.0
 41
0.0
 71
     5
 72
     1
  1
\A1;%%c6.35{\H2.400000;\S 0^ -0.013;}
 11
0.0000000000000001
 21
1.0
 31
0.0
 73
     1
 44
1.0
1001
ACAD
1000
MTEXTBEGIN
1070
    73
1070
     1
1070
    44
1040
1.0
1070
    74
1070
     0
1000
MTEXTEND
  0
POINT
  5
5353
330
3D42
100
AcDbEntity
  8
Defpoints
 62
     0
100
AcDbPoint
 10
1197.02548266903
 20
696.8830447031584
 30
0.0
  0
POINT
  5
5354
330
3D42
100
AcDbEntity
  8
Defpoints
 62
     0
100
AcDbPoint
 10
1197.025788588286
 20
703.2330446885204
 30
0.0
  0
POINT
  5
5355
330
3D42
100
AcDbEntity
  8
Defpoints
 62
     0
100
AcDbPoint
 10
1186.981205903509
 20
703.2330446885204
 30
0.0
  0
ENDBLK
  5
3D4E
330
3D42
100
AcDbEntity
  8
0
100
AcDbBlockEnd
  0
BLOCK
  5
3D59
330
3D4F
100
AcDbEntity
  8
0
100
AcDbBlockBegin
  2
*D14
 70
     1
 10
0.0
 20
0.0
 30
0.0
  3
*D14
  1

  0
LINE
  5
5D2F
330
3D4F
100
AcDbEntity
  8
DIM
  6
ACISOTGL
 62
     3
370
    -2
100
AcDbLine
 10
1268.625634117805
 20
729.3329403909385
 30
0.0
 11
1268.625634117805
 21
743.2930121535539
 31
0.0
  0
LINE
  5
5D30
330
3D4F
100
AcDbEntity
  8
DIM
  6
ACISOTGL
 62
     3
370
    -2
100
AcDbLine
 10
1282.125634117805
 20
704.2265409007121
 30
0.0
 11
1282.125634117805
 21
743.2930121535539
 31
0.0
  0
LINE
  5
5D31
330
3D4F
100
AcDbEntity
  8
DIM
  6
ACISOTGL
 62
     3
100
AcDbLine
 10
1271.625634117805
 20
742.2930121535539
 30
0.0
 11
1279.125634117805
 21
742.2930121535539
 31
0.0
  0
SOLID
  5
5D32
330
3D4F
100
AcDbEntity
  8
DIM
  6
ACISOTGL
 62
     3
100
AcDbTrace
 10
1271.625634117805
 20
742.7930121535539
 30
0.0
 11
1271.625634117805
 21
741.7930121535539
 31
0.0
 12
1268.625634117805
 22
742.2930121535539
 32
0.0
 13
1268.625634117805
 23
742.2930121535539
 33
0.0
  0
SOLID
  5
5D33
330
3D4F
100
AcDbEntity
  8
DIM
  6
ACISOTGL
 62
     3
100
AcDbTrace
 10
1279.125634117805
 20
742.7930121535539
 30
0.0
 11
1279.125634117805
 21
741.7930121535539
 31
0.0
 12
1282.125634117805
 22
742.2930121535539
 32
0.0
 13
1282.125634117805
 23
742.2930121535539
 33
0.0
  0
MTEXT
  5
5D34
330
3D4F
100
AcDbEntity
  8
DIM
  6
ACISOTGL
 62
     6
100
AcDbMText
 10
1274.990384872575
 20
744.8257543090792
 30
0.0
 40
3.0
 41
0.0
 71
     5
 72
     1
  1
\A1;13.5{\H2.400000;±1}
 73
     1
 44
1.0
1001
ACAD
1000
MTEXTBEGIN
1070
    73
1070
     1
1070
    44
1040
1.0
1070
    74
1070
     0
1000
MTEXTEND
  0
POINT
  5
5D35
330
3D4F
100
AcDbEntity
  8
Defpoints
  6
ACISOTGL
 62
     0
100
AcDbPoint
 10
1268.625634117805
 20
728.3329403909386
 30
0.0
  0
POINT
  5
5D36
330
3D4F
100
AcDbEntity
  8
Defpoints
  6
ACISOTGL
 62
     0
100
AcDbPoint
 10
1282.125634117805
 20
703.226540900712
 30
0.0
  0
POINT
  5
5D37
330
3D4F
100
AcDbEntity
  8
Defpoints
  6
ACISOTGL
 62
     0
100
AcDbPoint
 10
1282.125634117805
 20
742.2930121535539
 30
0.0
  0
ENDBLK
  5
3D5A
330
3D4F
100
AcDbEntity
  8
0
100
AcDbBlockEnd
  0
BLOCK
  5
3D67
330
3D5B
100
AcDbEntity
  8
0
100
AcDbBlockBegin
  2
*D15
 70
     1
 10
0.0
 20
0.0
 30
0.0
  3
*D15
  1

  0
LINE
  5
5D38
330
3D5B
100
AcDbEntity
  8
DIM
  6
ACISOTGL
 62
     3
370
    -2
100
AcDbLine
 10
1283.125634117805
 20
696.876540900612
 30
0.0
 11
1293.903908956835
 21
696.876540900612
 31
0.0
  0
LINE
  5
5D39
330
3D5B
100
AcDbEntity
  8
DIM
  6
ACISOTGL
 62
     3
370
    -2
100
AcDbLine
 10
1283.125634117805
 20
703.226540900712
 30
0.0
 11
1293.903908956835
 21
703.226540900712
 31
0.0
  0
LINE
  5
5D3A
330
3D5B
100
AcDbEntity
  8
DIM
  6
ACISOTGL
 62
     3
100
AcDbLine
 10
1292.903908956835
 20
693.8765409006121
 30
0.0
 11
1292.903908956835
 21
690.8765409006121
 31
0.0
  0
LINE
  5
5D3B
330
3D5B
100
AcDbEntity
  8
DIM
  6
ACISOTGL
 62
     3
100
AcDbLine
 10
1292.903908956835
 20
706.226540900712
 30
0.0
 11
1292.903908956835
 21
740.345231214491
 31
0.0
  0
LINE
  5
5D3C
330
3D5B
100
AcDbEntity
  8
DIM
  6
ACISOTGL
 62
     3
100
AcDbLine
 10
1292.903908956835
 20
696.876540900612
 30
0.0
 11
1292.903908956835
 21
703.226540900712
 31
0.0
  0
SOLID
  5
5D3D
330
3D5B
100
AcDbEntity
  8
DIM
  6
ACISOTGL
 62
     3
100
AcDbTrace
 10
1292.403908956835
 20
693.8765409006121
 30
0.0
 11
1293.403908956835
 21
693.8765409006121
 31
0.0
 12
1292.903908956835
 22
696.876540900612
 32
0.0
 13
1292.903908956835
 23
696.876540900612
 33
0.0
  0
SOLID
  5
5D3E
330
3D5B
100
AcDbEntity
  8
DIM
  6
ACISOTGL
 62
     3
100
AcDbTrace
 10
1292.403908956835
 20
706.226540900712
 30
0.0
 11
1293.403908956835
 21
706.226540900712
 31
0.0
 12
1292.903908956835
 22
703.226540900712
 32
0.0
 13
1292.903908956835
 23
703.226540900712
 33
0.0
  0
MTEXT
  5
5D3F
330
3D5B
100
AcDbEntity
  8
DIM
  6
ACISOTGL
 62
     6
100
AcDbMText
 10
1288.991971712633
 20
729.0977550889797
 30
0.0
 40
3.0
 41
0.0
 71
     5
 72
     1
  1
\A1;%%c6.35{\H2.400000;\S 0^ -0.013;}
 11
0.0000000000000001
 21
1.0
 31
0.0
 73
     1
 44
1.0
1001
ACAD
1000
MTEXTBEGIN
1070
    73
1070
     1
1070
    44
1040
1.0
1070
    74
1070
     0
1000
MTEXTEND
  0
POINT
  5
5D40
330
3D5B
100
AcDbEntity
  8
Defpoints
  6
ACISOTGL
 62
     0
100
AcDbPoint
 10
1282.125634117805
 20
696.876540900612
 30
0.0
  0
POINT
  5
5D41
330
3D5B
100
AcDbEntity
  8
Defpoints
  6
ACISOTGL
 62
     0
100
AcDbPoint
 10
1282.125634117805
 20
703.226540900712
 30
0.0
  0
POINT
  5
5D42
330
3D5B
100
AcDbEntity
  8
Defpoints
  6
ACISOTGL
 62
     0
100
AcDbPoint
 10
1292.903908956835
 20
703.226540900712
 30
0.0
  0
ENDBLK
  5
3D68
330
3D5B
100
AcDbEntity
  8
0
100
AcDbBlockEnd
  0
BLOCK
  5
4CA2
330
4C98
100
AcDbEntity
  8
0
100
AcDbBlockBegin
  2
*D16
 70
     1
 10
0.0
 20
0.0
 30
0.0
  3
*D16
  1

  0
LINE
  5
5C1E
330
4C98
100
AcDbEntity
  8
AM_5
 62
     3
370
    -2
100
AcDbLine
 10
1080.99900779116
 20
726.8049207843391
 30
0.0
 11
1080.99900779116
 21
743.2788889703967
 31
0.0
  0
LINE
  5
5C1F
330
4C98
100
AcDbEntity
  8
AM_5
 62
     3
370
    -2
100
AcDbLine
 10
1137.399007791159
 20
726.8049207843391
 30
0.0
 11
1137.399007791159
 21
743.2788889703967
 31
0.0
  0
LINE
  5
5C20
330
4C98
100
AcDbEntity
  8
AM_5
 62
     3
100
AcDbLine
 10
1083.99900779116
 20
742.2788889703967
 30
0.0
 11
1134.39900779116
 21
742.2788889703967
 31
0.0
  0
SOLID
  5
5C21
330
4C98
100
AcDbEntity
  8
AM_5
 62
     3
100
AcDbTrace
 10
1083.99900779116
 20
742.7788889703967
 30
0.0
 11
1083.99900779116
 21
741.7788889703968
 31
0.0
 12
1080.99900779116
 22
742.2788889703967
 32
0.0
 13
1080.99900779116
 23
742.2788889703967
 33
0.0
  0
SOLID
  5
5C22
330
4C98
100
AcDbEntity
  8
AM_5
 62
     3
100
AcDbTrace
 10
1134.39900779116
 20
742.7788889703967
 30
0.0
 11
1134.39900779116
 21
741.7788889703968
 31
0.0
 12
1137.399007791159
 22
742.2788889703967
 32
0.0
 13
1137.399007791159
 23
742.2788889703967
 33
0.0
  0
MTEXT
  5
5C23
330
4C98
100
AcDbEntity
  8
AM_5
 62
     6
100
AcDbMText
 10
1107.8261879299
 20
744.8106079335619
 30
0.0
 40
3.0
 41
0.0
 71
     5
 72
     1
  1
\A1;{\Famgdt|c0;o} 56.4
 73
     1
 44
1.0
1001
ACAD
1000
MTEXTBEGIN
1070
    73
1070
     1
1070
    44
1040
1.0
1070
    74
1070
     0
1000
MTEXTEND
  0
POINT
  5
5C24
330
4C98
100
AcDbEntity
  8
Defpoints
 62
     0
100
AcDbPoint
 10
1080.99900779116
 20
725.8049207843392
 30
0.0
  0
POINT
  5
5C25
330
4C98
100
AcDbEntity
  8
Defpoints
 62
     0
100
AcDbPoint
 10
1137.399007791159
 20
725.8049207843392
 30
0.0
  0
POINT
  5
5C26
330
4C98
100
AcDbEntity
  8
Defpoints
 62
     0
100
AcDbPoint
 10
1137.399007791159
 20
742.2788889703967
 30
0.0
  0
ENDBLK
  5
4CA3
330
4C98
100
AcDbEntity
  8
0
100
AcDbBlockEnd
  0
BLOCK
  5
4CF9
330
4CEF
100
AcDbEntity
  8
0
100
AcDbBlockBegin
  2
*D17
 70
     1
 10
0.0
 20
0.0
 30
0.0
  3
*D17
  1

  0
LINE
  5
5C27
330
4CEF
100
AcDbEntity
  8
AM_5
 62
     3
370
    -2
100
AcDbLine
 10
1085.629007791659
 20
727.6749207843383
 30
0.0
 11
1085.629007791659
 21
736.1863099840505
 31
0.0
  0
LINE
  5
5C28
330
4CEF
100
AcDbEntity
  8
AM_5
 62
     3
370
    -2
100
AcDbLine
 10
1132.769007790659
 20
726.9249207843383
 30
0.0
 11
1132.769007790659
 21
736.1863099840505
 31
0.0
  0
LINE
  5
5C29
330
4CEF
100
AcDbEntity
  8
AM_5
 62
     3
100
AcDbLine
 10
1088.629007791659
 20
735.1863099840504
 30
0.0
 11
1129.769007790659
 21
735.1863099840504
 31
0.0
  0
SOLID
  5
5C2A
330
4CEF
100
AcDbEntity
  8
AM_5
 62
     3
100
AcDbTrace
 10
1088.629007791659
 20
735.6863099840504
 30
0.0
 11
1088.629007791659
 21
734.6863099840504
 31
0.0
 12
1085.629007791659
 22
735.1863099840504
 32
0.0
 13
1085.629007791659
 23
735.1863099840504
 33
0.0
  0
SOLID
  5
5C2B
330
4CEF
100
AcDbEntity
  8
AM_5
 62
     3
100
AcDbTrace
 10
1129.769007790659
 20
735.6863099840504
 30
0.0
 11
1129.769007790659
 21
734.6863099840504
 31
0.0
 12
1132.769007790659
 22
735.1863099840504
 32
0.0
 13
1132.769007790659
 23
735.1863099840504
 33
0.0
  0
MTEXT
  5
5C2C
330
4CEF
100
AcDbEntity
  8
AM_5
 62
     6
100
AcDbMText
 10
1109.199007791159
 20
737.7129129854147
 30
0.0
 40
3.0
 41
0.0
 71
     5
 72
     1
  1
\A1;{\Famgdt|c0;o} 47.14{\H2.400000;±0.2}
 73
     1
 44
1.0
1001
ACAD
1000
MTEXTBEGIN
1070
    73
1070
     1
1070
    44
1040
1.0
1070
    74
1070
     0
1000
MTEXTEND
  0
POINT
  5
5C2D
330
4CEF
100
AcDbEntity
  8
Defpoints
 62
     0
100
AcDbPoint
 10
1085.629007791659
 20
726.6749207843384
 30
0.0
  0
POINT
  5
5C2E
330
4CEF
100
AcDbEntity
  8
Defpoints
 62
     0
100
AcDbPoint
 10
1132.769007790659
 20
725.9249207843383
 30
0.0
  0
POINT
  5
5C2F
330
4CEF
100
AcDbEntity
  8
Defpoints
 62
     0
100
AcDbPoint
 10
1132.769007790659
 20
735.1863099840504
 30
0.0
  0
ENDBLK
  5
4CFA
330
4CEF
100
AcDbEntity
  8
0
100
AcDbBlockEnd
  0
BLOCK
  5
4E7A
330
4E70
100
AcDbEntity
  8
0
100
AcDbBlockBegin
  2
*D18
 70
     1
 10
0.0
 20
0.0
 30
0.0
  3
*D18
  1

  0
LINE
  5
5D4C
330
4E70
100
AcDbEntity
  8
AM_5
 62
     3
370
    -2
100
AcDbLine
 10
1343.137695602347
 20
727.3329453909384
 30
0.0
 11
1343.137695602347
 21
742.9679941516276
 31
0.0
  0
LINE
  5
5D4D
330
4E70
100
AcDbEntity
  8
AM_5
 62
     3
370
    -2
100
AcDbLine
 10
1381.837695602346
 20
727.3329453909386
 30
0.0
 11
1381.837695602346
 21
742.9679941516276
 31
0.0
  0
LINE
  5
5D4E
330
4E70
100
AcDbEntity
  8
AM_5
 62
     3
100
AcDbLine
 10
1346.137695602346
 20
741.9679941516276
 30
0.0
 11
1378.837695602346
 21
741.9679941516276
 31
0.0
  0
SOLID
  5
5D4F
330
4E70
100
AcDbEntity
  8
AM_5
 62
     3
100
AcDbTrace
 10
1346.137695602346
 20
742.4679941516276
 30
0.0
 11
1346.137695602346
 21
741.4679941516276
 31
0.0
 12
1343.137695602347
 22
741.9679941516276
 32
0.0
 13
1343.137695602347
 23
741.9679941516276
 33
0.0
  0
SOLID
  5
5D50
330
4E70
100
AcDbEntity
  8
AM_5
 62
     3
100
AcDbTrace
 10
1378.837695602346
 20
742.4679941516276
 30
0.0
 11
1378.837695602346
 21
741.4679941516276
 31
0.0
 12
1381.837695602346
 22
741.9679941516276
 32
0.0
 13
1381.837695602346
 23
741.9679941516276
 33
0.0
  0
MTEXT
  5
5D51
330
4E70
100
AcDbEntity
  8
AM_5
 62
     6
100
AcDbMText
 10
1361.576491841983
 20
744.5007363071529
 30
0.0
 40
3.0
 41
0.0
 71
     5
 72
     1
  1
\A1;{\Famgdt|c0;o} 38.7
 73
     1
 44
1.0
1001
ACAD
1000
MTEXTBEGIN
1070
    73
1070
     1
1070
    44
1040
1.0
1070
    74
1070
     0
1000
MTEXTEND
  0
POINT
  5
5D52
330
4E70
100
AcDbEntity
  8
Defpoints
 62
     0
100
AcDbPoint
 10
1343.137695602347
 20
726.3329453909384
 30
0.0
  0
POINT
  5
5D53
330
4E70
100
AcDbEntity
  8
Defpoints
 62
     0
100
AcDbPoint
 10
1381.837695602346
 20
726.3329453909385
 30
0.0
  0
POINT
  5
5D54
330
4E70
100
AcDbEntity
  8
Defpoints
 62
     0
100
AcDbPoint
 10
1381.837695602346
 20
741.9679941516276
 30
0.0
  0
ENDBLK
  5
4E7B
330
4E70
100
AcDbEntity
  8
0
100
AcDbBlockEnd
  0
BLOCK
  5
4EC9
330
4EBF
100
AcDbEntity
  8
0
100
AcDbBlockBegin
  2
*D19
 70
     1
 10
0.0
 20
0.0
 30
0.0
  3
*D19
  1

  0
LINE
  5
5D55
330
4EBF
100
AcDbEntity
  8
AM_5
 62
     3
370
    -2
100
AcDbLine
 10
1217.625634117805
 20
729.3329403909385
 30
0.0
 11
1217.625634117805
 21
743.1801624966895
 31
0.0
  0
LINE
  5
5D56
330
4EBF
100
AcDbEntity
  8
AM_5
 62
     3
370
    -2
100
AcDbLine
 10
1268.625634117805
 20
729.3329403909385
 30
0.0
 11
1268.625634117805
 21
743.1801624966895
 31
0.0
  0
LINE
  5
5D57
330
4EBF
100
AcDbEntity
  8
AM_5
 62
     3
100
AcDbLine
 10
1220.625634117805
 20
742.1801624966895
 30
0.0
 11
1265.625634117805
 21
742.1801624966895
 31
0.0
  0
SOLID
  5
5D58
330
4EBF
100
AcDbEntity
  8
AM_5
 62
     3
100
AcDbTrace
 10
1220.625634117805
 20
742.6801624966895
 30
0.0
 11
1220.625634117805
 21
741.6801624966894
 31
0.0
 12
1217.625634117805
 22
742.1801624966895
 32
0.0
 13
1217.625634117805
 23
742.1801624966895
 33
0.0
  0
SOLID
  5
5D59
330
4EBF
100
AcDbEntity
  8
AM_5
 62
     3
100
AcDbTrace
 10
1265.625634117805
 20
742.6801624966895
 30
0.0
 11
1265.625634117805
 21
741.6801624966894
 31
0.0
 12
1268.625634117805
 22
742.1801624966895
 32
0.0
 13
1268.625634117805
 23
742.1801624966895
 33
0.0
  0
MTEXT
  5
5D5A
330
4EBF
100
AcDbEntity
  8
AM_5
 62
     6
100
AcDbMText
 10
1242.814380844771
 20
744.7118814598545
 30
0.0
 40
3.0
 41
0.0
 71
     5
 72
     1
  1
\A1;51Max.
 73
     1
 44
1.0
1001
ACAD
1000
MTEXTBEGIN
1070
    73
1070
     1
1070
    44
1040
1.0
1070
    74
1070
     0
1000
MTEXTEND
  0
POINT
  5
5D5B
330
4EBF
100
AcDbEntity
  8
Defpoints
 62
     0
100
AcDbPoint
 10
1217.625634117805
 20
728.3329403909386
 30
0.0
  0
POINT
  5
5D5C
330
4EBF
100
AcDbEntity
  8
Defpoints
 62
     0
100
AcDbPoint
 10
1268.625634117805
 20
728.3329403909386
 30
0.0
  0
POINT
  5
5D5D
330
4EBF
100
AcDbEntity
  8
Defpoints
 62
     0
100
AcDbPoint
 10
1268.625634117805
 20
742.1801624966895
 30
0.0
  0
ENDBLK
  5
4ECA
330
4EBF
100
AcDbEntity
  8
0
100
AcDbBlockEnd
  0
BLOCK
  5
5782
330
577B
100
AcDbEntity
  8
0
100
AcDbBlockBegin
  2
*D20
 70
     1
 10
0.0
 20
0.0
 30
0.0
  3
*D20
  1

  0
LINE
  5
5784
330
577B
100
AcDbEntity
  8
AM_5
 62
     3
100
AcDbLine
 10
127.1709229537938
 20
75.86098729582364
 30
0.0
 11
131.6962281668468
 21
75.86098729582364
 31
0.0
  0
SOLID
  5
5785
330
577B
100
AcDbEntity
  8
AM_5
 62
     3
100
AcDbTrace
 10
127.1709229537938
 20
76.36098729582363
 30
0.0
 11
127.1709229537938
 21
75.36098729582363
 31
0.0
 12
124.1709229537938
 22
75.86098729582364
 32
0.0
 13
124.1709229537938
 23
75.86098729582364
 33
0.0
  0
SOLID
  5
5786
330
577B
100
AcDbEntity
  8
AM_5
 62
     3
100
AcDbTrace
 10
131.6962281668468
 20
76.36098729582363
 30
0.0
 11
131.6962281668468
 21
75.36098729582363
 31
0.0
 12
134.6962281668468
 22
75.86098729582364
 32
0.0
 13
134.6962281668468
 23
75.86098729582364
 33
0.0
  0
POINT
  5
5787
330
577B
100
AcDbEntity
  8
Defpoints
 62
     0
100
AcDbPoint
 10
124.1709229537938
 20
75.86098729582362
 30
0.0
  0
POINT
  5
5788
330
577B
100
AcDbEntity
  8
Defpoints
 62
     0
100
AcDbPoint
 10
134.6962281668468
 20
75.86098729582364
 30
0.0
  0
POINT
  5
5789
330
577B
100
AcDbEntity
  8
Defpoints
 62
     0
100
AcDbPoint
 10
134.6962281668468
 20
75.86098729582364
 30
0.0
  0
ENDBLK
  5
5783
330
577B
100
AcDbEntity
  8
0
100
AcDbBlockEnd
  0
ENDSEC
  0
SECTION
  2
ENTITIES
  0
TEXT
  5
13FA
330
1F
100
AcDbEntity
  8
SPEC
100
AcDbText
 10
1198.0
 20
654.0
 30
0.0
 40
2.4
  1

 41
0.7
  7
ROMANS
100
AcDbText
  0
LINE
  5
3BC5
330
1F
100
AcDbEntity
  8
SPEC
100
AcDbLine
 10
1268.625634117805
 20
671.9329403909385
 30
0.0
 11
1268.625634117805
 21
728.3329403909386
 31
0.0
  0
LINE
  5
3BC6
330
1F
100
AcDbEntity
  8
SPEC
100
AcDbLine
 10
1228.625584117805
 20
671.9329403909385
 30
0.0
 11
1228.625584117805
 21
728.3329403909386
 31
0.0
  0
LINE
  5
3BC7
330
1F
100
AcDbEntity
  8
SPEC
100
AcDbLine
 10
1216.0256341178
 20
681.0015409006621
 30
0.0
 11
1216.0256341178
 21
719.101540900662
 31
0.0
  0
LINE
  5
3BC8
330
1F
100
AcDbEntity
  8
CENTER
  6
AM_ISO08W050x2
100
AcDbLine
 10
1079.19900779116
 20
700.1049207843388
 30
0.0
 11
1139.19900779116
 21
700.1049207843391
 31
0.0
  0
LINE
  5
3BC9
330
1F
100
AcDbEntity
  8
CENTER
  6
AM_ISO08W050x2
100
AcDbLine
 10
1109.199007791159
 20
670.1049207843388
 30
0.0
 11
1109.199007791159
 21
730.1049207843389
 31
0.0
  0
LINE
  5
3BCA
330
1F
100
AcDbEntity
  8
SPEC
  6
Continuous
 62
     1
100
AcDbLine
 10
1121.203435456228
 20
726.522786169746
 30
0.0
 11
1121.738008182805
 21
727.0573588963229
 31
0.0
  0
LINE
  5
3BCB
330
1F
100
AcDbEntity
  8
SPEC
  6
Continuous
 62
     1
100
AcDbLine
 10
1124.41087181569
 20
726.522786169746
 30
0.0
 11
1123.876299089113
 21
727.0573588963229
 31
0.0
  0
LINE
  5
3BCC
330
1F
100
AcDbEntity
  8
SPEC
  6
Continuous
 62
     1
100
AcDbLine
 10
1124.41087181569
 20
724.3844952634381
 30
0.0
 11
1123.341726362536
 21
725.4536407165919
 31
0.0
  0
LINE
  5
3BCD
330
1F
100
AcDbEntity
  8
SPEC
  6
Continuous
 62
     1
100
AcDbLine
 10
1123.876299089113
 20
723.849922536861
 30
0.0
 11
1122.807153635959
 21
724.919067990015
 31
0.0
  0
LINE
  5
3BCE
330
1F
100
AcDbEntity
  8
SPEC
  6
Continuous
 62
     1
100
AcDbLine
 10
1123.876299089113
 20
723.849922536861
 30
0.0
 11
1124.41087181569
 21
724.3844952634381
 31
0.0
  0
LINE
  5
3BCF
330
1F
100
AcDbEntity
  8
SPEC
  6
Continuous
 62
     1
100
AcDbLine
 10
1121.738008182805
 20
723.849922536861
 30
0.0
 11
1122.807153635959
 21
724.919067990015
 31
0.0
  0
LINE
  5
3BD0
330
1F
100
AcDbEntity
  8
SPEC
  6
Continuous
 62
     1
100
AcDbLine
 10
1121.203435456228
 20
724.3844952634381
 30
0.0
 11
1122.272580909382
 21
725.4536407165919
 31
0.0
  0
LINE
  5
3BD1
330
1F
100
AcDbEntity
  8
SPEC
  6
Continuous
 62
     1
100
AcDbLine
 10
1123.341726362536
 20
725.4536407165919
 30
0.0
 11
1124.41087181569
 21
726.522786169746
 31
0.0
  0
LINE
  5
3BD2
330
1F
100
AcDbEntity
  8
SPEC
  6
Continuous
 62
     1
100
AcDbLine
 10
1122.807153635959
 20
725.9882134431691
 30
0.0
 11
1123.876299089113
 21
727.0573588963229
 31
0.0
  0
LINE
  5
3BD3
330
1F
100
AcDbEntity
  8
SPEC
  6
Continuous
 62
     1
100
AcDbLine
 10
1122.807153635959
 20
725.9882134431691
 30
0.0
 11
1121.738008182805
 21
727.0573588963229
 31
0.0
  0
LINE
  5
3BD4
330
1F
100
AcDbEntity
  8
SPEC
  6
Continuous
 62
     1
100
AcDbLine
 10
1122.272580909382
 20
725.4536407165919
 30
0.0
 11
1121.203435456228
 21
726.522786169746
 31
0.0
  0
LINE
  5
3BD5
330
1F
100
AcDbEntity
  8
SPEC
  6
Continuous
 62
     1
100
AcDbLine
 10
1121.738008182805
 20
723.849922536861
 30
0.0
 11
1121.203435456228
 21
724.3844952634381
 31
0.0
  0
LINE
  5
3BD6
330
1F
100
AcDbEntity
  8
CENTER
  6
AM_ISO08W050x2
100
AcDbLine
 10
1191.760160482628
 20
700.0506544574879
 30
0.0
 11
1285.449393703755
 21
700.0506544574879
 31
0.0
  0
LINE
  5
3BD7
330
1F
100
AcDbEntity
  8
SPEC
100
AcDbLine
 10
1134.89900779116
 20
671.9049207843389
 30
0.0
 11
1083.49900779116
 21
671.9049207843389
 31
0.0
  0
LINE
  5
3BD8
330
1F
100
AcDbEntity
  8
SPEC
100
AcDbLine
 10
1080.999007791159
 20
674.404920784339
 30
0.0
 11
1080.999007791159
 21
725.8049207843392
 31
0.0
  0
LINE
  5
3BD9
330
1F
100
AcDbEntity
  8
SPEC
100
AcDbLine
 10
1083.49900779116
 20
728.3049207843389
 30
0.0
 11
1134.89900779116
 21
728.3049207843389
 31
0.0
  0
LINE
  5
3BDA
330
1F
100
AcDbEntity
  8
SPEC
100
AcDbLine
 10
1137.399007791159
 20
725.8049207843392
 30
0.0
 11
1137.399007791159
 21
674.404920784339
 31
0.0
  0
LINE
  5
3BDB
330
1F
100
AcDbEntity
  8
SPEC
100
AcDbLine
 10
1216.0256341178
 20
681.0015409006621
 30
0.0
 11
1217.625634117805
 21
681.0015409006621
 31
0.0
  0
LINE
  5
3BDC
330
1F
100
AcDbEntity
  8
SPEC
100
AcDbLine
 10
1216.0256341178
 20
719.101540900662
 30
0.0
 11
1217.625634117822
 21
719.101540900662
 31
0.0
  0
LINE
  5
3BDE
330
1F
100
AcDbEntity
  8
SPEC
100
AcDbLine
 10
1222.625634112805
 20
728.3329403909386
 30
0.0
 11
1222.625634112805
 21
719.4829403909387
 31
0.0
  0
LINE
  5
3BDF
330
1F
100
AcDbEntity
  8
SPEC
 62
     1
100
AcDbLine
 10
1217.625634117805
 20
728.3329403909386
 30
0.0
 11
1217.625634117805
 21
671.9329403909385
 31
0.0
  0
LINE
  5
3BE0
102
{ACAD_REACTORS
330
4ECC
102
}
330
1F
100
AcDbEntity
  8
SPEC
100
AcDbLine
 10
1217.625634117805
 20
728.3329403909386
 30
0.0
 11
1268.625634117805
 21
728.3329403909386
 31
0.0
  0
LINE
  5
3BE1
330
1F
100
AcDbEntity
  8
SPEC
100
AcDbLine
 10
1217.625634117805
 20
671.9329403909385
 30
0.0
 11
1268.625634117805
 21
671.9329403909385
 31
0.0
  0
LINE
  5
3BE2
330
1F
100
AcDbEntity
  8
DIM
100
AcDbLine
 10
1360.755458089419
 20
671.0329403909382
 30
0.0
 11
1360.755458089419
 21
658.9362622694181
 31
0.0
  0
LINE
  5
3BE3
330
1F
100
AcDbEntity
  8
DIM
100
AcDbLine
 10
1359.023220576491
 20
671.0329403909382
 30
0.0
 11
1359.023220576491
 21
658.9362622694181
 31
0.0
  0
CIRCLE
  5
3BE4
330
1F
100
AcDbEntity
  8
SPEC
100
AcDbCircle
 10
1122.799215076139
 20
725.454920784339
 30
0.0
 40
2.255431074072102
  0
DIMENSION
  5
3BE5
330
1F
100
AcDbEntity
  8
DIM
100
AcDbDimension
  2
*D9
 10
1174.873907181456
 20
681.0015409006621
 30
0.0
 11
1174.873907181456
 21
700.1049207843391
 31
0.0
 70
   160
  1
%%c<>
 71
     5
 42
38.09999999999991
  3
STANDARD
100
AcDbAlignedDimension
 13
1216.0256341178
 23
719.101540900662
 33
0.0
 14
1216.0256341178
 24
681.0015409006621
 34
0.0
 50
90.0
100
AcDbRotatedDimension
1001
ACAD
1000
DSTYLE
1002
{
1070
   272
1070
     3
1070
    47
1040
0.025
1070
   147
1040
1.0
1070
    48
1040
0.025
1070
    72
1070
     0
1070
    71
1070
     1
1070
    40
1040
1.0
1002
}
  0
LINE
  5
3BEB
330
1F
100
AcDbEntity
  8
SPEC
 62
     1
100
AcDbLine
 10
1216.025546509486
 20
703.2321589455392
 30
0.0
 11
1197.025788588286
 21
703.2330446885204
 31
0.0
  0
LINE
  5
3BEC
330
1F
100
AcDbEntity
  8
SPEC
 62
     1
100
AcDbLine
 10
1197.02548266903
 20
696.8821570194401
 30
0.0
 11
1197.025788588286
 21
703.2330446885204
 31
0.0
  0
DIMENSION
  5
3BED
330
1F
100
AcDbEntity
  8
DATA
 62
     3
100
AcDbDimension
  2
*D10
 10
1197.025788588286
 20
742.1647394120562
 30
0.0
 11
1207.469558530491
 21
742.1647394120562
 31
0.0
 70
   160
  1
<>
 71
     5
 42
20.59984552951937
  3
STANDARD
100
AcDbAlignedDimension
 13
1217.625634117805
 23
728.3329403909386
 33
0.0
 14
1197.025788588286
 24
703.2330446885204
 34
0.0
100
AcDbRotatedDimension
1001
ACAD
1000
DSTYLE
1002
{
1070
   284
1070
     8
1070
   146
1040
0.8
1070
    47
1040
0.5
1070
   147
1040
1.0
1070
    48
1040
0.5
1070
    72
1070
     0
1070
    71
1070
     1
1070
    78
1070
     8
1070
    40
1040
1.0
1002
}
  0
TEXT
  5
3BEE
330
1F
100
AcDbEntity
  8
DATA
100
AcDbText
 10
1209.000019122302
 20
636.2365036434595
 30
0.0
 40
3.0
  1
L=300+10mm
100
AcDbText
  0
TEXT
  5
3BEF
330
1F
100
AcDbEntity
  8
DATA
100
AcDbText
 10
1209.000019122302
 20
640.7592387479029
 30
0.0
 40
3.0
  1
UL1007 AWG 22
100
AcDbText
  0
DIMENSION
  5
3BF0
330
1F
100
AcDbEntity
  8
DATA
 62
     3
100
AcDbDimension
  2
*D11
 10
1217.625634117805
 20
735.1634005090661
 30
0.0
 11
1206.436957446586
 21
735.1634005090661
 31
0.0
 70
   160
  1
<>
 71
     5
 42
1.600000000004911
  3
STANDARD
100
AcDbAlignedDimension
 13
1216.0256341178
 23
719.101540900662
 33
0.0
 14
1217.625634117805
 24
728.3329403909386
 34
0.0
100
AcDbRotatedDimension
1001
ACAD
1000
DSTYLE
1002
{
1070
   173
1070
     1
1070
   344
1005
2F89
1002
}
  0
DIMENSION
  5
3BF1
330
1F
100
AcDbEntity
  8
DATA
 62
     3
100
AcDbDimension
  2
*D12
 10
1222.625634112805
 20
735.1425457152457
 30
0.0
 11
1230.620177086884
 21
735.1425457152457
 31
0.0
 70
   160
  1
<>
 71
     5
 42
4.999999995000052
  3
STANDARD
100
AcDbAlignedDimension
 13
1217.625634117805
 23
728.3329403909386
 33
0.0
 14
1222.625634112805
 24
728.3329403909386
 34
0.0
100
AcDbRotatedDimension
1001
ACAD
1000
DSTYLE
1002
{
1070
   343
1005
2F89
1070
   173
1070
     1
1070
   344
1005
0
1070
    40
1040
1.0
1002
}
  0
TOLERANCE
  5
3BF3
330
1F
100
AcDbEntity
  8
DIM
100
AcDbFcf
  3
STANDARD
 10
1204.864412240206
 20
675.2237299186092
 30
0.0
  1
%%v%%v%%vA%%v%%v
1001
ACAD
1000
DSTYLE
1002
{
1070
    41
1040
2.5
1070
   140
1040
3.0
1070
   147
1040
1.5
1002
}
  0
LEADER
  5
3BF4
330
1F
100
AcDbEntity
  8
DIM
100
AcDbLeader
  3
STANDARD
 76
     2
 10
1207.64036747194
 20
696.8848538583651
 30
0.0
 10
1207.64036747194
 20
678.2237299186093
 30
0.0
1001
ACAD
1000
DSTYLE
1002
{
1070
   341
1005
2FB
1070
    40
1040
1.0
1070
    77
1070
     0
1002
}
  0
TOLERANCE
  5
3BF5
330
1F
100
AcDbEntity
  8
DIM
100
AcDbFcf
  3
STANDARD
 10
1177.873907181456
 20
648.9884473818831
 30
0.0
  1
{\Fgdt;r}%%v0.08%%v%%vA%%v%%v
 11
0.0000000000000001
 21
1.0
 31
0.0
1001
ACAD
1000
DSTYLE
1002
{
1070
    41
1040
2.5
1070
   140
1040
3.0
1070
   147
1040
1.5
1002
}
  0
TOLERANCE
  5
3BF6
330
1F
100
AcDbEntity
  8
DIM
100
AcDbFcf
  3
STANDARD
 10
1189.981205903509
 20
648.9884473818831
 30
0.0
  1
{\Fgdt;h}%%v0.05%%v%%v%%v%%v
 11
0.0000000000000001
 21
1.0
 31
0.0
1001
ACAD
1000
DSTYLE
1002
{
1070
    41
1040
2.5
1070
   140
1040
3.0
1070
   147
1040
1.5
1002
}
  0
LINE
  5
3C05
330
1F
100
AcDbEntity
  8
DIM
100
AcDbLine
 10
1217.625634117805
 20
660.0330693469116
 30
0.0
 11
1217.625634117805
 21
670.9329403909385
 31
0.0
  0
LEADER
  5
3C06
330
1F
100
AcDbEntity
  8
DIM
100
AcDbLeader
  3
STANDARD
 76
     2
 10
1217.625634117805
 20
661.7577301411338
 30
0.0
 10
1228.507930895567
 20
661.7577301411338
 30
0.0
211
-1.0
221
-0.0000000000000058
231
0.0
210
0.0
220
0.0
230
-1.0
1001
ACAD
1000
DSTYLE
1002
{
1070
    40
1040
1.0
1070
    77
1070
     0
1002
}
  0
TOLERANCE
  5
3C07
330
1F
100
AcDbEntity
  8
DIM
100
AcDbFcf
  3
STANDARD
 10
1228.507930895567
 20
661.6486521066333
 30
0.0
  1
{\Fgdt;b}%%v0.1%%v%%vA%%v%%v
1001
ACAD
1000
DSTYLE
1002
{
1070
    41
1040
2.5
1070
   140
1040
3.0
1070
   147
1040
1.5
1002
}
  0
LEADER
  5
3C08
330
1F
100
AcDbEntity
  8
DIM
100
AcDbLeader
  3
STANDARD
 76
     3
 10
1084.229973412088
 20
674.4614230025526
 30
0.0
 10
1079.454251949457
 20
662.7545234225238
 30
0.0
 10
1090.979674778203
 20
662.7545234225238
 30
0.0
1001
ACAD
1000
DSTYLE
1002
{
1070
    40
1040
1.0
1070
    77
1070
     0
1002
}
  0
TEXT
  5
3C0A
330
1F
100
AcDbEntity
  8
DIM
100
AcDbText
 10
1077.45439522365
 20
752.0
 30
0.0
 40
4.5
  1
Front view and mounting
100
AcDbText
  0
TEXT
  5
3C0B
330
1F
100
AcDbEntity
  8
DIM
100
AcDbText
 10
1232.09628723245
 20
752.0
 30
0.0
 40
4.5
  1
Side view
100
AcDbText
  0
DIMENSION
  5
3C0C
330
1F
100
AcDbEntity
  8
DIM
100
AcDbDimension
  2
*D13
 10
1186.981205903509
 20
703.2330446885204
 30
0.0
 11
1186.981205903509
 21
732.7561070923072
 31
0.0
 70
   160
  1
%%c<>
 71
     5
 42
6.349999985361932
  3
STANDARD
100
AcDbAlignedDimension
 13
1197.02548266903
 23
696.8830447031584
 33
0.0
 14
1197.025788588286
 24
703.2330446885204
 34
0.0
 50
90.0
100
AcDbRotatedDimension
1001
ACAD
1000
DSTYLE
1002
{
1070
   146
1040
0.8
1070
   284
1070
     8
1070
   272
1070
     3
1070
    48
1040
0.013
1070
   147
1040
1.0
1070
    72
1070
     0
1070
    71
1070
     1
1070
    78
1070
     8
1070
   271
1070
     2
1070
   144
1040
1.0
1070
    40
1040
1.0
1002
}
  0
LEADER
  5
3C0D
330
1F
100
AcDbEntity
  8
DIM
100
AcDbLeader
  3
STANDARD
 76
     3
 10
1260.545132723238
 20
647.6606753596136
 30
0.0
 10
1247.297429044777
 20
634.3460783146706
 30
0.0
 10
1208.706959725877
 20
634.3460783146706
 30
0.0
211
-1.0
221
0.0
231
0.0
210
0.0
220
0.0
230
-1.0
1001
ACAD
1000
DSTYLE
1002
{
1070
    40
1040
1.0
1070
    77
1070
     0
1002
}
  0
LINE
  5
3C0E
330
1F
100
AcDbEntity
  8
DIM
100
AcDbLine
 10
1174.873907181456
 20
681.0139349529483
 30
0.0
 11
1174.873907181456
 21
673.1112304651028
 31
0.0
  0
LINE
  5
3C0F
330
1F
100
AcDbEntity
  8
DIM
100
AcDbLine
 10
1186.981205903509
 20
695.1095515044506
 30
0.0
 11
1186.981205903509
 21
667.2678763430992
 31
0.0
  0
LINE
  5
3C10
330
1F
100
AcDbEntity
  8
SPEC
  6
ACISOTGL
100
AcDbLine
 10
1268.625634117805
 20
703.226540900712
 30
0.0
 11
1282.125634117805
 21
703.226540900712
 31
0.0
  0
LINE
  5
3C11
330
1F
100
AcDbEntity
  8
SPEC
  6
ACISOTGL
100
AcDbLine
 10
1268.625634117805
 20
696.876540900612
 30
0.0
 11
1282.125634117805
 21
696.876540900612
 31
0.0
  0
LINE
  5
3C12
330
1F
100
AcDbEntity
  8
SPEC
  6
ACISOTGL
100
AcDbLine
 10
1282.125634117805
 20
696.876540900612
 30
0.0
 11
1282.125634117805
 21
703.226540900712
 31
0.0
  0
LEADER
  5
3C13
330
1F
100
AcDbEntity
  8
SPEC
  6
ACISOTGL
100
AcDbLeader
  3
STANDARD
 73
     0
 40
15.90552523874488
 41
28.50613915416098
 76
     3
 10
1274.746712408524
 20
699.6682209015554
 30
0.0
 10
1281.253277786025
 20
660.503118062697
 30
0.0
 10
1285.401579763356
 20
660.503118062697
 30
0.0
213
-0.6081603737004287
223
-2.326072191169657
233
0.0
1001
ACAD
1000
DSTYLE
1002
{
1070
    40
1040
1.0
1070
    77
1070
     0
1002
}
  0
MTEXT
  5
3C14
102
{ACAD_REACTORS
330
3C13
102
}
330
1F
100
AcDbEntity
  8
SPEC
  6
HIDDEN
 62
     6
100
AcDbMText
 10
1287.509740137056
 20
662.8291902538665
 30
0.0
 40
3.0
 41
52.5
 71
     1
 72
     1
  1
(only for type ST5918S1008-B\PReady for encoder +\Pdriver mount)
 73
     1
 44
1.0
1001
ACAD
1000
ACAD_MTEXT_DEFINED_HEIGHT_BEGIN
1070
    46
1040
0.0
1000
ACAD_MTEXT_DEFINED_HEIGHT_END
1000
MTEXTBEGIN
1070
    73
1070
     1
1070
    44
1040
1.0
1070
    74
1070
     0
1000
MTEXTEND
  0
LEADER
  5
3C15
330
1F
100
AcDbEntity
  8
DIM
  6
ACISOTGL
100
AcDbLeader
  3
STANDARD
 76
     3
 10
1353.442384308216
 20
699.5564000667102
 30
0.0
 10
1339.414961777627
 20
652.0
 30
0.0
 10
1328.829904432952
 20
652.0
 30
0.0
1001
ACAD
1000
DSTYLE
1002
{
1070
    40
1040
1.0
1070
    77
1070
     0
1002
}
  0
DIMENSION
  5
3C16
330
1F
100
AcDbEntity
  8
DIM
  6
ACISOTGL
100
AcDbDimension
  2
*D14
 10
1282.125634117805
 20
742.2930121535539
 30
0.0
 11
1274.990384872575
 21
742.2930121535539
 31
0.0
 70
   160
  1
<>
 71
     5
 42
13.5
  3
STANDARD
100
AcDbAlignedDimension
 13
1268.625634117805
 23
728.3329403909386
 33
0.0
 14
1282.125634117805
 24
703.226540900712
 34
0.0
100
AcDbRotatedDimension
1001
ACAD
1000
DSTYLE
1002
{
1070
    47
1040
1.0
1070
   147
1040
1.0
1070
    48
1040
1.0
1070
    72
1070
     0
1070
    71
1070
     1
1070
    40
1040
1.0
1002
}
  0
DIMENSION
  5
3C17
330
1F
100
AcDbEntity
  8
DIM
  6
ACISOTGL
100
AcDbDimension
  2
*D15
 10
1292.903908956835
 20
703.226540900712
 30
0.0
 11
1292.903908956835
 21
729.0977550889797
 31
0.0
 70
   160
  1
%%c<>
 71
     5
 42
6.350000000099953
  3
STANDARD
100
AcDbAlignedDimension
 13
1282.125634117805
 23
696.876540900612
 33
0.0
 14
1282.125634117805
 24
703.226540900712
 34
0.0
 50
90.0
100
AcDbRotatedDimension
1001
ACAD
1000
DSTYLE
1002
{
1070
   271
1070
     2
1070
   146
1040
0.8
1070
   284
1070
     8
1070
   272
1070
     3
1070
    48
1040
0.013
1070
   147
1040
1.0
1070
    72
1070
     0
1070
    71
1070
     1
1070
   144
1040
1.0
1070
    40
1040
1.0
1002
}
  0
ARC
  5
3C23
102
{ACAD_REACTORS
330
4CA5
102
}
330
1F
100
AcDbEntity
  8
SPEC
100
AcDbCircle
 10
1083.49900779116
 20
725.8049207843392
 30
0.0
 40
2.5
100
AcDbArc
 50
90.0
 51
180.0
  0
ARC
  5
3C24
330
1F
100
AcDbEntity
  8
SPEC
100
AcDbCircle
 10
1083.49900779116
 20
674.404920784339
 30
0.0
 40
2.5
100
AcDbArc
 50
180.0
 51
270.0
  0
ARC
  5
3C25
330
1F
100
AcDbEntity
  8
SPEC
100
AcDbCircle
 10
1134.89900779116
 20
674.404920784339
 30
0.0
 40
2.5
100
AcDbArc
 50
270.0
 51
0.0
  0
ARC
  5
3C26
102
{ACAD_REACTORS
330
4CA5
102
}
330
1F
100
AcDbEntity
  8
SPEC
100
AcDbCircle
 10
1134.89900779116
 20
725.8049207843392
 30
0.0
 40
2.5
100
AcDbArc
 50
0.0
 51
90.0
  0
LINE
  5
3C29
102
{ACAD_REACTORS
330
4CFC
102
}
330
1F
100
AcDbEntity
  8
CENTER
  6
AM_ISO08W050x2
100
AcDbLine
 10
1085.629007791659
 20
720.6749207843383
 30
0.0
 11
1085.629007791659
 21
726.6749207843384
 31
0.0
  0
LINE
  5
3C2A
330
1F
100
AcDbEntity
  8
CENTER
  6
AM_ISO08W050x2
100
AcDbLine
 10
1080.999007791159
 20
723.6749207843383
 30
0.0
 11
1088.629007791659
 21
723.6749207843383
 31
0.0
  0
LINE
  5
3C2C
330
1F
100
AcDbEntity
  8
CENTER
  6
AM_ISO08W050x2
100
AcDbLine
 10
1088.634007791159
 20
676.5349207848392
 30
0.0
 11
1082.634007791159
 21
676.5349207848392
 31
0.0
  0
LINE
  5
3C2D
330
1F
100
AcDbEntity
  8
CENTER
  6
AM_ISO08W050x2
100
AcDbLine
 10
1085.634007791159
 20
673.5349207848392
 30
0.0
 11
1085.634007791159
 21
679.5349207848391
 31
0.0
  0
LINE
  5
3C30
330
1F
100
AcDbEntity
  8
CENTER
  6
AM_ISO08W050x2
100
AcDbLine
 10
1132.76900779066
 20
720.6749207843383
 30
0.0
 11
1132.769007790659
 21
726.6749207843384
 31
0.0
  0
LINE
  5
3C31
330
1F
100
AcDbEntity
  8
CENTER
  6
AM_ISO08W050x2
100
AcDbLine
 10
1137.399007791159
 20
723.6749207843383
 30
0.0
 11
1129.473211851521
 21
723.6749207843383
 31
0.0
  0
LINE
  5
3C33
330
1F
100
AcDbEntity
  8
CENTER
  6
AM_ISO08W050x2
100
AcDbLine
 10
1137.399007791159
 20
676.5349207843396
 30
0.0
 11
1129.76900779066
 21
676.5349207843396
 31
0.0
  0
LINE
  5
3C34
330
1F
100
AcDbEntity
  8
CENTER
  6
AM_ISO08W050x2
100
AcDbLine
 10
1132.76900779066
 20
679.5349207843396
 30
0.0
 11
1132.769007790659
 21
673.5349207843395
 31
0.0
  0
ARC
  5
3C35
330
1F
100
AcDbEntity
  8
SPEC
100
AcDbCircle
 10
1122.799215076139
 20
725.454920784339
 30
0.0
 40
3.15
100
AcDbArc
 50
180.0
 51
0.0
  0
LINE
  5
3C36
330
1F
100
AcDbEntity
  8
SPEC
100
AcDbLine
 10
1119.649215076139
 20
728.3049207843389
 30
0.0
 11
1119.649215076139
 21
725.454920784339
 31
0.0
  0
LINE
  5
3C37
330
1F
100
AcDbEntity
  8
SPEC
100
AcDbLine
 10
1125.949215076139
 20
728.3049207843389
 30
0.0
 11
1125.949215076139
 21
725.454920784339
 31
0.0
  0
ARC
  5
3C38
330
1F
100
AcDbEntity
  8
SPEC
100
AcDbCircle
 10
1095.598800506718
 20
674.7549207840506
 30
0.0
 40
3.15
100
AcDbArc
 50
0.0000000012115623
 51
180.0000000012115
  0
CIRCLE
  5
3C39
330
1F
100
AcDbEntity
  8
SPEC
100
AcDbCircle
 10
1095.598800506718
 20
674.7549207840506
 30
0.0
 40
2.255431074072102
  0
LINE
  5
3C3A
330
1F
100
AcDbEntity
  8
SPEC
  6
Continuous
 62
     1
100
AcDbLine
 10
1095.590861946909
 20
674.2216281252203
 30
0.0
 11
1094.521716493778
 21
673.1524826720437
 31
0.0
  0
LINE
  5
3C3B
330
1F
100
AcDbEntity
  8
SPEC
  6
Continuous
 62
     1
100
AcDbLine
 10
1094.52171649371
 20
676.359919031506
 30
0.0
 11
1095.590861946887
 21
675.2907735783747
 31
0.0
  0
LINE
  5
3C3C
330
1F
100
AcDbEntity
  8
SPEC
100
AcDbLine
 10
1098.748800506778
 20
671.9049207841173
 30
0.0
 11
1098.748800506718
 21
674.7549207841175
 31
0.0
  0
LINE
  5
3C3D
330
1F
100
AcDbEntity
  8
SPEC
  6
Continuous
 62
     1
100
AcDbLine
 10
1096.125434673475
 20
674.7562008518088
 30
0.0
 11
1097.194580126652
 21
673.6870553986774
 31
0.0
  0
LINE
  5
3C3E
330
1F
100
AcDbEntity
  8
SPEC
  6
Continuous
 62
     1
100
AcDbLine
 10
1095.590861946909
 20
674.2216281252203
 30
0.0
 11
1096.660007400086
 21
673.152482672089
 31
0.0
  0
LINE
  5
3C3F
330
1F
100
AcDbEntity
  8
SPEC
  6
Continuous
 62
     1
100
AcDbLine
 10
1097.194580126652
 20
673.6870553986774
 30
0.0
 11
1096.660007400086
 21
673.152482672089
 31
0.0
  0
LINE
  5
3C40
330
1F
100
AcDbEntity
  8
SPEC
  6
Continuous
 62
     1
100
AcDbLine
 10
1096.660007400018
 20
676.3599190315512
 30
0.0
 11
1097.194580126606
 21
675.8253463049855
 31
0.0
  0
LINE
  5
3C41
330
1F
100
AcDbEntity
  8
SPEC
  6
Continuous
 62
     1
100
AcDbLine
 10
1096.660007400018
 20
676.3599190315512
 30
0.0
 11
1095.590861946887
 21
675.2907735783744
 31
0.0
  0
LINE
  5
3C42
330
1F
100
AcDbEntity
  8
SPEC
  6
Continuous
 62
     1
100
AcDbLine
 10
1097.194580126606
 20
675.8253463049855
 30
0.0
 11
1096.125434673475
 21
674.7562008518088
 31
0.0
  0
LINE
  5
3C43
330
1F
100
AcDbEntity
  8
SPEC
100
AcDbLine
 10
1092.448800506778
 20
671.9049207839839
 30
0.0
 11
1092.448800506718
 21
674.7549207839838
 31
0.0
  0
LINE
  5
3C44
330
1F
100
AcDbEntity
  8
SPEC
  6
Continuous
 62
     1
100
AcDbLine
 10
1095.056289220321
 20
674.7562008517861
 30
0.0
 11
1093.987143767189
 21
673.6870553986095
 31
0.0
  0
LINE
  5
3C45
330
1F
100
AcDbEntity
  8
SPEC
  6
Continuous
 62
     1
100
AcDbLine
 10
1093.987143767189
 20
673.6870553986095
 30
0.0
 11
1094.521716493778
 21
673.1524826720437
 31
0.0
  0
LINE
  5
3C46
330
1F
100
AcDbEntity
  8
SPEC
  6
Continuous
 62
     1
100
AcDbLine
 10
1094.52171649371
 20
676.3599190315058
 30
0.0
 11
1093.987143767144
 21
675.8253463049174
 31
0.0
  0
LINE
  5
3C47
330
1F
100
AcDbEntity
  8
SPEC
  6
Continuous
 62
     1
100
AcDbLine
 10
1093.987143767144
 20
675.8253463049174
 30
0.0
 11
1095.056289220321
 21
674.7562008517861
 31
0.0
  0
LINE
  5
3C48
330
1F
100
AcDbEntity
  8
SPEC
  6
Continuous
 62
     1
100
AcDbLine
 10
1133.478582270581
 20
684.8930567603233
 30
0.0
 11
1134.547727723712
 21
685.9622022135002
 31
0.0
  0
LINE
  5
3C49
330
1F
100
AcDbEntity
  8
SPEC
  6
Continuous
 62
     1
100
AcDbLine
 10
1134.547727723712
 20
685.9622022135002
 30
0.0
 11
1135.616873176889
 21
684.8930567603688
 31
0.0
  0
LINE
  5
3C4A
330
1F
100
AcDbEntity
  8
SPEC
  6
Continuous
 62
     1
100
AcDbLine
 10
1132.944009543992
 20
685.4276294868891
 30
0.0
 11
1134.013154997123
 21
686.4967749400659
 31
0.0
  0
LINE
  5
3C4B
330
1F
100
AcDbEntity
  8
SPEC
  6
Continuous
 62
     1
100
AcDbLine
 10
1135.082300450278
 20
686.4967749400884
 30
0.0
 11
1136.151445903455
 21
685.4276294869571
 31
0.0
  0
CIRCLE
  5
3C4C
330
1F
100
AcDbEntity
  8
SPEC
100
AcDbCircle
 10
1134.549007791448
 20
686.5047134998972
 30
0.0
 40
2.255431074072102
  0
ARC
  5
3C4D
330
1F
100
AcDbEntity
  8
SPEC
100
AcDbCircle
 10
1134.549007791448
 20
686.5047134998972
 30
0.0
 40
3.15
100
AcDbArc
 50
90.00000000121158
 51
270.0000000012116
  0
LINE
  5
3C4E
330
1F
100
AcDbEntity
  8
SPEC
100
AcDbLine
 10
1137.399007791515
 20
683.3547134999576
 30
0.0
 11
1134.549007791514
 21
683.3547134998971
 31
0.0
  0
LINE
  5
3C4F
330
1F
100
AcDbEntity
  8
SPEC
  6
Continuous
 62
     1
100
AcDbLine
 10
1135.616873176889
 20
684.8930567603688
 30
0.0
 11
1136.151445903455
 21
685.4276294869571
 31
0.0
  0
LINE
  5
3C50
330
1F
100
AcDbEntity
  8
SPEC
  6
Continuous
 62
     1
100
AcDbLine
 10
1132.944009543993
 20
685.4276294868891
 30
0.0
 11
1133.478582270581
 21
684.8930567603233
 31
0.0
  0
LINE
  5
3C51
330
1F
100
AcDbEntity
  8
SPEC
  6
Continuous
 62
     1
100
AcDbLine
 10
1135.082300450278
 20
686.4967749400884
 30
0.0
 11
1136.15144590341
 21
687.5659203932652
 31
0.0
  0
LINE
  5
3C52
330
1F
100
AcDbEntity
  8
SPEC
  6
Continuous
 62
     1
100
AcDbLine
 10
1134.54772772369
 20
687.0313476666543
 30
0.0
 11
1135.616873176821
 21
688.1004931198311
 31
0.0
  0
LINE
  5
3C53
330
1F
100
AcDbEntity
  8
SPEC
100
AcDbLine
 10
1137.399007791381
 20
689.6547134999575
 30
0.0
 11
1134.549007791381
 21
689.6547134998971
 31
0.0
  0
LINE
  5
3C54
330
1F
100
AcDbEntity
  8
SPEC
  6
Continuous
 62
     1
100
AcDbLine
 10
1135.616873176821
 20
688.1004931198311
 30
0.0
 11
1136.15144590341
 21
687.5659203932652
 31
0.0
  0
LINE
  5
3C55
330
1F
100
AcDbEntity
  8
SPEC
  6
Continuous
 62
     1
100
AcDbLine
 10
1133.478582270513
 20
688.1004931197856
 30
0.0
 11
1134.54772772369
 21
687.0313476666543
 31
0.0
  0
LINE
  5
3C56
330
1F
100
AcDbEntity
  8
SPEC
  6
Continuous
 62
     1
100
AcDbLine
 10
1132.944009543947
 20
687.5659203931973
 30
0.0
 11
1134.013154997124
 21
686.4967749400659
 31
0.0
  0
LINE
  5
3C57
330
1F
100
AcDbEntity
  8
SPEC
  6
Continuous
 62
     1
100
AcDbLine
 10
1132.944009543947
 20
687.5659203931973
 30
0.0
 11
1133.478582270513
 21
688.1004931197856
 31
0.0
  0
LINE
  5
3C58
330
1F
100
AcDbEntity
  8
SPEC
  6
Continuous
 62
     1
100
AcDbLine
 10
1084.919433311738
 20
715.3167848083544
 30
0.0
 11
1083.850287858607
 21
714.2476393551778
 31
0.0
  0
LINE
  5
3C59
330
1F
100
AcDbEntity
  8
SPEC
  6
Continuous
 62
     1
100
AcDbLine
 10
1083.850287858607
 20
714.2476393551778
 30
0.0
 11
1082.78114240543
 21
715.3167848083092
 31
0.0
  0
LINE
  5
3C5A
330
1F
100
AcDbEntity
  8
SPEC
  6
Continuous
 62
     1
100
AcDbLine
 10
1085.454006038327
 20
714.7822120817886
 30
0.0
 11
1084.384860585195
 21
713.713066628612
 31
0.0
  0
LINE
  5
3C5B
330
1F
100
AcDbEntity
  8
SPEC
  6
Continuous
 62
     1
100
AcDbLine
 10
1083.315715132041
 20
713.7130666285893
 30
0.0
 11
1082.246569678864
 21
714.7822120817209
 31
0.0
  0
CIRCLE
  5
3C5C
330
1F
100
AcDbEntity
  8
SPEC
100
AcDbCircle
 10
1083.849007790871
 20
713.7051280687808
 30
0.0
 40
2.255431074072102
  0
ARC
  5
3C5D
330
1F
100
AcDbEntity
  8
SPEC
100
AcDbCircle
 10
1083.849007790871
 20
713.7051280687808
 30
0.0
 40
3.15
100
AcDbArc
 50
270.0000000012116
 51
90.00000000121158
  0
LINE
  5
3C5E
330
1F
100
AcDbEntity
  8
SPEC
100
AcDbLine
 10
1080.999007790805
 20
716.8551280687206
 30
0.0
 11
1083.849007790804
 21
716.8551280687808
 31
0.0
  0
LINE
  5
3C5F
330
1F
100
AcDbEntity
  8
SPEC
  6
Continuous
 62
     1
100
AcDbLine
 10
1082.78114240543
 20
715.3167848083092
 30
0.0
 11
1082.246569678864
 21
714.7822120817209
 31
0.0
  0
LINE
  5
3C60
330
1F
100
AcDbEntity
  8
SPEC
  6
Continuous
 62
     1
100
AcDbLine
 10
1085.454006038327
 20
714.7822120817888
 30
0.0
 11
1084.919433311738
 21
715.3167848083544
 31
0.0
  0
LINE
  5
3C61
330
1F
100
AcDbEntity
  8
SPEC
  6
Continuous
 62
     1
100
AcDbLine
 10
1083.315715132041
 20
713.7130666285893
 30
0.0
 11
1082.24656967891
 21
712.6439211754127
 31
0.0
  0
LINE
  5
3C62
330
1F
100
AcDbEntity
  8
SPEC
  6
Continuous
 62
     1
100
AcDbLine
 10
1083.850287858629
 20
713.1784939020238
 30
0.0
 11
1082.781142405498
 21
712.1093484488469
 31
0.0
  0
LINE
  5
3C63
330
1F
100
AcDbEntity
  8
SPEC
100
AcDbLine
 10
1080.999007790938
 20
710.5551280687205
 30
0.0
 11
1083.849007790938
 21
710.555128068781
 31
0.0
  0
LINE
  5
3C64
330
1F
100
AcDbEntity
  8
SPEC
  6
Continuous
 62
     1
100
AcDbLine
 10
1082.781142405498
 20
712.1093484488469
 30
0.0
 11
1082.24656967891
 21
712.6439211754127
 31
0.0
  0
LINE
  5
3C65
330
1F
100
AcDbEntity
  8
SPEC
  6
Continuous
 62
     1
100
AcDbLine
 10
1084.919433311806
 20
712.1093484488924
 30
0.0
 11
1083.850287858629
 21
713.1784939020238
 31
0.0
  0
LINE
  5
3C66
330
1F
100
AcDbEntity
  8
SPEC
  6
Continuous
 62
     1
100
AcDbLine
 10
1085.454006038372
 20
712.6439211754806
 30
0.0
 11
1084.384860585195
 21
713.713066628612
 31
0.0
  0
LINE
  5
3C67
330
1F
100
AcDbEntity
  8
SPEC
  6
Continuous
 62
     1
100
AcDbLine
 10
1085.454006038372
 20
712.6439211754806
 30
0.0
 11
1084.919433311806
 21
712.1093484488924
 31
0.0
  0
LINE
  5
3C68
330
1F
100
AcDbEntity
  8
SPEC
 62
     1
100
AcDbLine
 10
1216.025773729942
 20
696.8821570129174
 30
0.0
 11
1197.02548266903
 21
696.8821570194401
 31
0.0
  0
CIRCLE
  5
3C69
330
1F
100
AcDbEntity
  8
SPEC
100
AcDbCircle
 10
1109.199007791159
 20
700.0235212940624
 30
0.0
 40
19.05
  0
LINE
  5
3C6A
330
1F
100
AcDbEntity
  8
CENTER
  6
AM_ISO08W050x2
100
AcDbLine
 10
1386.057695601846
 20
720.702940390938
 30
0.0
 11
1386.057695601846
 21
726.702940390938
 31
0.0
  0
CIRCLE
  5
3C6B
330
1F
100
AcDbEntity
  8
SPEC
100
AcDbCircle
 10
1386.057695601846
 20
723.702940390938
 30
0.0
 40
2.25
  0
CIRCLE
  5
3C6C
330
1F
100
AcDbEntity
  8
SPEC
100
AcDbCircle
 10
1338.917695602846
 20
723.702940390938
 30
0.0
 40
2.25
  0
LINE
  5
3C6D
330
1F
100
AcDbEntity
  8
CENTER
  6
AM_ISO08W050x2
100
AcDbLine
 10
1338.917695602846
 20
720.702940390938
 30
0.0
 11
1338.917695602846
 21
726.702940390938
 31
0.0
  0
LINE
  5
3C6E
330
1F
100
AcDbEntity
  8
CENTER
  6
AM_ISO08W050x2
100
AcDbLine
 10
1362.487695602346
 20
670.1329403909383
 30
0.0
 11
1362.487695602346
 21
730.1329403909383
 31
0.0
  0
ARC
  5
3C6F
330
1F
100
AcDbEntity
  8
SPEC
100
AcDbCircle
 10
1388.187695602346
 20
674.4329403909384
 30
0.0
 40
2.5
100
AcDbArc
 50
270.0
 51
0.0
  0
ARC
  5
3C70
330
1F
100
AcDbEntity
  8
SPEC
100
AcDbCircle
 10
1336.787695602346
 20
674.4329403909389
 30
0.0
 40
2.5
100
AcDbArc
 50
180.0
 51
270.0
  0
LINE
  5
3C71
330
1F
100
AcDbEntity
  8
SPEC
100
AcDbLine
 10
1388.187695602346
 20
671.9329403909382
 30
0.0
 11
1336.787695602346
 21
671.9329403909382
 31
0.0
  0
LINE
  5
3C72
330
1F
100
AcDbEntity
  8
CENTER
  6
AM_ISO08W050x2
100
AcDbLine
 10
1332.487695602346
 20
700.1329403909385
 30
0.0
 11
1392.487695602346
 21
700.1329403909385
 31
0.0
  0
LINE
  5
3C73
330
1F
100
AcDbEntity
  8
CENTER
  6
AM_ISO08W050x2
100
AcDbLine
 10
1341.922695602346
 20
676.562940391439
 30
0.0
 11
1335.922695602346
 21
676.562940391439
 31
0.0
  0
CIRCLE
  5
3C74
330
1F
100
AcDbEntity
  8
SPEC
100
AcDbCircle
 10
1338.922695602346
 20
676.562940391439
 30
0.0
 40
2.25
  0
LINE
  5
3C75
330
1F
100
AcDbEntity
  8
CENTER
  6
AM_ISO08W050x2
100
AcDbLine
 10
1338.922695602346
 20
673.562940391439
 30
0.0
 11
1338.922695602346
 21
679.562940391439
 31
0.0
  0
LINE
  5
3C76
330
1F
100
AcDbEntity
  8
CENTER
  6
AM_ISO08W050x2
100
AcDbLine
 10
1390.687695602346
 20
676.562940390939
 30
0.0
 11
1383.057695601846
 21
676.562940390939
 31
0.0
  0
CIRCLE
  5
3C77
330
1F
100
AcDbEntity
  8
SPEC
100
AcDbCircle
 10
1386.057695601846
 20
676.562940390939
 30
0.0
 40
2.25
  0
LINE
  5
3C78
330
1F
100
AcDbEntity
  8
CENTER
  6
AM_ISO08W050x2
100
AcDbLine
 10
1386.057695601846
 20
679.562940390939
 30
0.0
 11
1386.057695601846
 21
673.5629403909388
 31
0.0
  0
LINE
  5
3C79
330
1F
100
AcDbEntity
  8
CENTER
  6
AM_ISO08W050x2
100
AcDbLine
 10
1334.287695602346
 20
723.702940390938
 30
0.0
 11
1341.917695602846
 21
723.702940390938
 31
0.0
  0
ARC
  5
3C7A
330
1F
100
AcDbEntity
  8
SPEC
100
AcDbCircle
 10
1336.787695602346
 20
725.8329403909385
 30
0.0
 40
2.5
100
AcDbArc
 50
90.0
 51
180.0
  0
LINE
  5
3C7B
330
1F
100
AcDbEntity
  8
CENTER
  6
AM_ISO08W050x2
100
AcDbLine
 10
1390.687695602346
 20
723.702940390938
 30
0.0
 11
1382.761899662707
 21
723.702940390938
 31
0.0
  0
ARC
  5
3C7C
330
1F
100
AcDbEntity
  8
SPEC
100
AcDbCircle
 10
1388.187695602346
 20
725.8329403909385
 30
0.0
 40
2.5
100
AcDbArc
 50
0.0
 51
90.0
  0
CIRCLE
  5
3C7D
330
1F
100
AcDbEntity
  8
SPEC
  6
ACISOTGL
100
AcDbCircle
 10
1362.487695602346
 20
700.1329403909385
 30
0.0
 40
3.175000000050019
  0
LWPOLYLINE
  5
3C7F
102
{ACAD_REACTORS
330
4E7D
102
}
330
1F
100
AcDbEntity
  8
SPEC
100
AcDbPolyline
 90
        7
 70
     0
 43
0.0
 10
1334.287695602346
 20
700.1329403909385
 10
1334.287695602346
 20
717.4829453909385
 42
-0.4142135623730951
 10
1336.287690602346
 20
719.4829403909384
 10
1338.137700602346
 20
719.4829403909384
 42
0.4142135623730951
 10
1343.137695602347
 20
724.4829353909383
 10
1343.137695602347
 20
726.3329453909384
 42
-0.4142135623730948
 10
1345.137690602346
 20
728.3329403909386
  0
LINE
  5
3C80
330
1F
100
AcDbEntity
  8
SPEC
100
AcDbLine
 10
1345.137690602346
 20
728.3329403909386
 30
0.0
 11
1336.787695602346
 21
728.3329403909383
 31
0.0
  0
LINE
  5
3C81
330
1F
100
AcDbEntity
  8
SPEC
100
AcDbLine
 10
1334.287695602346
 20
725.8329403909385
 30
0.0
 11
1334.287695602346
 21
717.4829453909385
 31
0.0
  0
LWPOLYLINE
  5
3C82
102
{ACAD_REACTORS
330
4E7D
102
}
330
1F
100
AcDbEntity
  8
SPEC
100
AcDbPolyline
 90
        8
 70
     0
 43
0.0
 10
1390.687695602346
 20
700.1329403909385
 10
1390.687695602346
 20
717.4829453909385
 42
0.4142135623730951
 10
1388.687700602346
 20
719.4829403909384
 10
1386.837690602346
 20
719.4829403909384
 42
-0.4142135623730951
 10
1381.837695602346
 20
724.4829353909383
 10
1381.837695602346
 20
726.3329453909384
 42
0.4142135623730948
 10
1379.837700602346
 20
728.3329403909386
 10
1345.137690602346
 20
728.3329403909386
  0
LWPOLYLINE
  5
3C83
330
1F
100
AcDbEntity
  8
SPEC
100
AcDbPolyline
 90
        2
 70
     0
 43
0.0
 10
1345.137690602346
 20
728.3329403909386
 10
1336.787695602346
 20
728.3329403909386
  0
LWPOLYLINE
  5
3C84
330
1F
100
AcDbEntity
  8
SPEC
100
AcDbPolyline
 90
        2
 70
     0
 43
0.0
 10
1379.837700602346
 20
728.3329403909386
 10
1388.187695602346
 20
728.3329403909386
  0
LINE
  5
3C85
330
1F
100
AcDbEntity
  8
SPEC
100
AcDbLine
 10
1390.687695602346
 20
717.4829453909385
 30
0.0
 11
1390.687695602346
 21
725.8329403909385
 31
0.0
  0
LWPOLYLINE
  5
3C86
330
1F
100
AcDbEntity
  8
SPEC
100
AcDbPolyline
 90
        8
 70
     0
 43
0.0
 10
1390.687695602346
 20
700.1329403909378
 10
1390.687695602346
 20
682.7829353909378
 42
-0.4142135623730951
 10
1388.687700602346
 20
680.7829403909379
 10
1386.837690602346
 20
680.7829403909379
 42
0.4142135623730951
 10
1381.837695602346
 20
675.7829453909378
 10
1381.837695602346
 20
673.9329353909379
 42
-0.4142135623730948
 10
1379.837700602346
 20
671.932940390938
 10
1345.137690602346
 20
671.9329403909382
  0
LWPOLYLINE
  5
3C87
330
1F
100
AcDbEntity
  8
SPEC
100
AcDbPolyline
 90
        7
 70
     0
 43
0.0
 10
1334.287695602346
 20
700.1329403909385
 10
1334.287695602346
 20
682.7829353909385
 42
0.4142135623730951
 10
1336.287690602346
 20
680.7829403909384
 10
1338.137700602346
 20
680.7829403909384
 42
-0.4142135623730951
 10
1343.137695602346
 20
675.7829453909384
 10
1343.137695602346
 20
673.9329353909381
 42
0.4142135623730948
 10
1345.137690602346
 20
671.9329403909382
  0
LINE
  5
3C88
330
1F
100
AcDbEntity
  8
SPEC
100
AcDbLine
 10
1334.287695602346
 20
674.432940390938
 30
0.0
 11
1334.287695602346
 21
682.7829353909383
 31
0.0
  0
LINE
  5
3C89
330
1F
100
AcDbEntity
  8
SPEC
100
AcDbLine
 10
1390.687695602346
 20
682.7829353909371
 30
0.0
 11
1390.687695602346
 21
674.4329403909371
 31
0.0
  0
CIRCLE
  5
3C8A
330
1F
100
AcDbEntity
  8
CENTER
  6
AM_ISO08W050x2
100
AcDbCircle
 10
1362.487695602346
 20
700.1329403909378
 30
0.0
 40
9.524999999999998
  0
CIRCLE
  5
3C8B
330
1F
100
AcDbEntity
  8
SPEC
  6
ACISOTGL
 62
     3
100
AcDbCircle
 10
1352.962695602346
 20
700.1329403909378
 30
0.0
 40
1.249999499999999
  0
CIRCLE
  5
3C8C
330
1F
100
AcDbEntity
  8
SPEC
  6
ACISOTGL
 62
     3
100
AcDbCircle
 10
1372.012695602346
 20
700.1329403909378
 30
0.0
 40
1.249999499999999
  0
CIRCLE
  5
3C8D
330
1F
100
AcDbEntity
  8
SPEC
  6
ACISOTGL
100
AcDbCircle
 10
1352.962695602346
 20
700.1329403909378
 30
0.0
 40
0.75
  0
CIRCLE
  5
3C8E
330
1F
100
AcDbEntity
  8
SPEC
  6
ACISOTGL
100
AcDbCircle
 10
1372.012695602346
 20
700.1329403909385
 30
0.0
 40
0.75
  0
DIMENSION
  5
3C90
330
1F
100
AcDbEntity
  8
DIM
  6
ACISOTGL
100
AcDbDimension
  2
*D8
 10
1372.012695602346
 20
735.1485117701866
 30
0.0
 11
1362.068797223868
 21
735.1485117701866
 31
0.0
 70
   160
 71
     5
 42
19.05000000000018
  3
STANDARD
100
AcDbAlignedDimension
 13
1352.962695602346
 23
700.1329403909378
 33
0.0
 14
1372.012695602346
 24
700.1329403909385
 34
0.0
100
AcDbRotatedDimension
1001
ACAD
1000
DSTYLE
1002
{
1070
    47
1040
0.1
1070
   147
1040
1.0
1070
    48
1040
0.1
1070
    72
1070
     0
1070
    71
1070
     1
1070
    40
1040
1.0
1002
}
  0
LINE
  5
3C91
330
1F
100
AcDbEntity
  8
SPEC
100
AcDbLine
 10
1268.625634117805
 20
719.4829403909387
 30
0.0
 11
1222.625634112805
 21
719.4829403909387
 31
0.0
  0
LINE
  5
3C92
330
1F
100
AcDbEntity
  8
SPEC
100
AcDbLine
 10
1268.625634117805
 20
726.3329453909388
 30
0.0
 11
1222.625634112805
 21
726.3329453909387
 31
0.0
  0
LINE
  5
3C93
330
1F
100
AcDbEntity
  8
SPEC
100
AcDbLine
 10
1268.625634117805
 20
673.7683635240375
 30
0.0
 11
1222.625634112805
 21
673.7683635240375
 31
0.0
  0
LINE
  5
3C94
330
1F
100
AcDbEntity
  8
SPEC
100
AcDbLine
 10
1268.625634117805
 20
680.6183685240377
 30
0.0
 11
1222.625634112805
 21
680.6183685240373
 31
0.0
  0
LINE
  5
3C95
330
1F
100
AcDbEntity
  8
SPEC
100
AcDbLine
 10
1222.625634112805
 20
680.6183685240373
 30
0.0
 11
1222.625634112805
 21
671.9329403909385
 31
0.0
  0
LINE
  5
3C96
330
1F
100
AcDbEntity
  8
SPEC
100
AcDbLine
 10
1257.125634117804
 20
728.3329403909386
 30
0.0
 11
1257.125634117804
 21
671.9329403909385
 31
0.0
  0
LINE
  5
3C98
330
1F
100
AcDbEntity
  8
SPEC
100
AcDbLine
 10
1220.125634617805
 20
683.3818466633831
 30
0.0
 11
1220.125634617805
 21
689.6818466633831
 31
0.0
  0
LINE
  5
3C99
330
1F
100
AcDbEntity
  8
SPEC
100
AcDbLine
 10
1217.625634117805
 20
689.6818466633831
 30
0.0
 11
1220.125634617805
 21
689.6818466633831
 31
0.0
  0
LINE
  5
3C9A
330
1F
100
AcDbEntity
  8
SPEC
100
AcDbLine
 10
1217.625634117805
 20
683.3818466633831
 30
0.0
 11
1220.125634617805
 21
683.3818466633831
 31
0.0
  0
LINE
  5
3C9B
330
1F
100
AcDbEntity
  8
SPEC
100
AcDbLine
 10
1218.773755808631
 20
688.7872777373948
 30
0.0
 11
1220.125634617805
 21
688.7872777373948
 31
0.0
  0
LINE
  5
3C9C
330
1F
100
AcDbEntity
  8
SPEC
100
AcDbLine
 10
1218.773755808631
 20
684.2764155892507
 30
0.0
 11
1220.125634617805
 21
684.2764155892504
 31
0.0
  0
LINE
  5
3C9D
330
1F
100
AcDbEntity
  8
SPEC
100
AcDbLine
 10
1218.273755858631
 20
688.2872777873947
 30
0.0
 11
1218.273755858631
 21
684.7764155392508
 31
0.0
  0
ARC
  5
3C9E
330
1F
100
AcDbEntity
  8
SPEC
100
AcDbCircle
 10
1218.773755808631
 20
688.2872777873947
 30
0.0
 40
0.49999995
100
AcDbArc
 50
90.0
 51
179.9999999999935
  0
ARC
  5
3C9F
330
1F
100
AcDbEntity
  8
SPEC
100
AcDbCircle
 10
1218.773755808631
 20
684.7764155392505
 30
0.0
 40
0.49999995
100
AcDbArc
 50
179.9999999999935
 51
270.0
  0
LINE
  5
3CA0
330
1F
100
AcDbEntity
  8
SPEC
100
AcDbLine
 10
1257.225634117805
 20
671.9329403909385
 30
0.0
 11
1257.225634117805
 21
671.0329403909383
 31
0.0
  0
LINE
  5
3CA1
330
1F
100
AcDbEntity
  8
SPEC
100
AcDbLine
 10
1257.225634117805
 20
671.0329403909383
 30
0.0
 11
1267.357615892565
 21
671.0329403909383
 31
0.0
  0
LINE
  5
3CA2
330
1F
100
AcDbEntity
  8
SPEC
100
AcDbLine
 10
1267.357615892565
 20
671.0329403909383
 30
0.0
 11
1267.357615892565
 21
671.9329403909385
 31
0.0
  0
LINE
  5
3CA3
330
1F
100
AcDbEntity
  8
DIM
100
AcDbLine
 10
1362.487695602346
 20
671.0329403909382
 30
0.0
 11
1362.487695602346
 21
658.9362622694181
 31
0.0
  0
LINE
  5
3CA4
330
1F
100
AcDbEntity
  8
DIM
100
AcDbLine
 10
1364.219933115274
 20
671.0329403909382
 30
0.0
 11
1364.219933115274
 21
658.9362622694181
 31
0.0
  0
LINE
  5
3CA5
330
1F
100
AcDbEntity
  8
DIM
100
AcDbLine
 10
1365.952170628202
 20
671.0329403909382
 30
0.0
 11
1365.952170628202
 21
658.9362622694181
 31
0.0
  0
LINE
  5
3CA6
330
1F
100
AcDbEntity
  8
SPEC
100
AcDbLine
 10
1357.421704714967
 20
671.0329403909382
 30
0.0
 11
1367.553686489726
 21
671.0329403909382
 31
0.0
  0
LINE
  5
3CA7
330
1F
100
AcDbEntity
  8
SPEC
100
AcDbLine
 10
1357.421704714967
 20
671.932940390938
 30
0.0
 11
1357.421704714967
 21
671.0329403909382
 31
0.0
  0
LINE
  5
3CA8
330
1F
100
AcDbEntity
  8
SPEC
100
AcDbLine
 10
1367.553686489726
 20
671.0329403909382
 30
0.0
 11
1367.553686489726
 21
671.932940390938
 31
0.0
  0
LINE
  5
3CA9
330
1F
100
AcDbEntity
  8
DIM
100
AcDbLine
 10
1105.734532765304
 20
670.7626965829067
 30
0.0
 11
1105.734532765304
 21
658.6660184613868
 31
0.0
  0
LINE
  5
3CAA
330
1F
100
AcDbEntity
  8
DIM
100
AcDbLine
 10
1107.466770278232
 20
670.7626965829067
 30
0.0
 11
1107.466770278232
 21
658.6660184613868
 31
0.0
  0
LINE
  5
3CAB
330
1F
100
AcDbEntity
  8
DIM
100
AcDbLine
 10
1109.199007791159
 20
670.7626965829067
 30
0.0
 11
1109.199007791159
 21
658.6660184613868
 31
0.0
  0
LINE
  5
3CAC
330
1F
100
AcDbEntity
  8
DIM
100
AcDbLine
 10
1110.931245304087
 20
670.7626965829067
 30
0.0
 11
1110.931245304087
 21
658.6660184613868
 31
0.0
  0
LINE
  5
3CAD
330
1F
100
AcDbEntity
  8
DIM
100
AcDbLine
 10
1112.663482817015
 20
670.7626965829067
 30
0.0
 11
1112.663482817015
 21
658.6660184613868
 31
0.0
  0
LINE
  5
3CAE
330
1F
100
AcDbEntity
  8
SPEC
100
AcDbLine
 10
1104.13301690378
 20
670.7626965829067
 30
0.0
 11
1114.264998678539
 21
670.7626965829067
 31
0.0
  0
LINE
  5
3CAF
330
1F
100
AcDbEntity
  8
SPEC
100
AcDbLine
 10
1104.13301690378
 20
671.6626965829066
 30
0.0
 11
1104.13301690378
 21
670.7626965829067
 31
0.0
  0
LINE
  5
3CB0
330
1F
100
AcDbEntity
  8
SPEC
100
AcDbLine
 10
1114.264998678539
 20
670.7626965829067
 30
0.0
 11
1114.264998678539
 21
671.6626965829066
 31
0.0
  0
LINE
  5
3CB1
330
1F
100
AcDbEntity
  8
DIM
100
AcDbLine
 10
1258.828251503146
 20
671.0329403909383
 30
0.0
 11
1258.828251503146
 21
626.9006180973735
 31
0.0
  0
LINE
  5
3CB2
330
1F
100
AcDbEntity
  8
DIM
100
AcDbLine
 10
1260.560489016074
 20
671.0329403909383
 30
0.0
 11
1260.560489016074
 21
626.9006180973735
 31
0.0
  0
LINE
  5
3CB3
330
1F
100
AcDbEntity
  8
DIM
100
AcDbLine
 10
1262.292726529002
 20
671.0329403909383
 30
0.0
 11
1262.292726529002
 21
626.9006180973735
 31
0.0
  0
LINE
  5
3CB4
330
1F
100
AcDbEntity
  8
DIM
100
AcDbLine
 10
1264.024964041929
 20
671.0329403909383
 30
0.0
 11
1264.024964041929
 21
626.9006180973735
 31
0.0
  0
LINE
  5
3CB5
330
1F
100
AcDbEntity
  8
DIM
100
AcDbLine
 10
1265.757201554857
 20
671.0329403909383
 30
0.0
 11
1265.757201554857
 21
626.9006180973735
 31
0.0
  0
TEXT
  5
3CB7
330
1F
100
AcDbEntity
  8
DIM
100
AcDbText
 10
1350.518682824502
 20
752.0
 30
0.0
 40
4.5
  1
Rear view
100
AcDbText
  0
DIMENSION
  5
4C97
102
{ACAD_XDICTIONARY
360
4CA4
102
}
102
{ACAD_REACTORS
330
4CA5
102
}
330
1F
100
AcDbEntity
  8
AM_5
100
AcDbDimension
  2
*D16
 10
1137.399007791159
 20
742.2788889703967
 30
0.0
 11
1107.8261879299
 21
742.2788889703967
 31
0.0
 70
   160
  1
{\Famgdt;o} <>
 71
     5
 42
56.39999999999986
  3
STANDARD$0
100
AcDbAlignedDimension
 13
1080.99900779116
 23
725.8049207843392
 33
0.0
 14
1137.399007791159
 24
725.8049207843392
 34
0.0
100
AcDbRotatedDimension
  0
DIMENSION
  5
4CEE
102
{ACAD_XDICTIONARY
360
4CFB
102
}
102
{ACAD_REACTORS
330
4CFC
102
}
330
1F
100
AcDbEntity
  8
AM_5
100
AcDbDimension
  2
*D17
 10
1132.769007790659
 20
735.1863099840504
 30
0.0
 11
1109.199007791159
 21
737.7129129854147
 31
0.0
 70
    32
  1
{\Famgdt;o} <>
 71
     5
 42
47.13999999899988
  3
STANDARD$0
100
AcDbAlignedDimension
 13
1085.629007791659
 23
726.6749207843384
 33
0.0
 14
1132.769007790659
 24
725.9249207843383
 34
0.0
100
AcDbRotatedDimension
1001
GENIUS_GENDTOL_13
1000
TolSmNrm
1000

1000
{\H0.71x;$2\S$+$P^ $-$M;}
1040
47.14
1001
ACAD
1000
DSTYLE
1002
{
1070
   147
1040
1.0
1070
    72
1070
     0
1070
    71
1070
     1
1070
   286
1070
     0
1070
   284
1070
     8
1070
   274
1070
     2
1070
   272
1070
     2
1070
    47
1040
0.2
1070
    48
1040
0.2
1002
}
  0
DIMENSION
  5
4E6F
102
{ACAD_XDICTIONARY
360
4E7C
102
}
102
{ACAD_REACTORS
330
4E7D
102
}
330
1F
100
AcDbEntity
  8
AM_5
100
AcDbDimension
  2
*D18
 10
1381.837695602346
 20
741.9679941516276
 30
0.0
 11
1361.576491841983
 21
741.9679941516276
 31
0.0
 70
   160
  1
{\Famgdt;o} <>
 71
     5
 42
38.69999999999959
  3
STANDARD$0
100
AcDbAlignedDimension
 13
1343.137695602347
 23
726.3329453909384
 33
0.0
 14
1381.837695602346
 24
726.3329453909385
 34
0.0
100
AcDbRotatedDimension
1001
ACAD
1000
DSTYLE
1002
{
1070
   286
1070
     0
1070
   284
1070
     8
1070
   274
1070
     2
1070
   272
1070
     2
1070
    47
1040
0.2
1070
    48
1040
-0.2
1002
}
1001
GENIUS_GENDTOL_13
1000
TolSmNrm
1000

1000
{\H0.71x;$2\S$+$P^ $-$M;}
1040
38.7
  0
DIMENSION
  5
4EBE
102
{ACAD_XDICTIONARY
360
4ECB
102
}
102
{ACAD_REACTORS
330
4ECC
102
}
330
1F
100
AcDbEntity
  8
AM_5
100
AcDbDimension
  2
*D19
 10
1268.625634117805
 20
742.1801624966895
 30
0.0
 11
1242.814380844771
 21
742.1801624966895
 31
0.0
 70
   160
  1
<>Max.
 71
     5
 42
51.00000000000022
  3
STANDARD$0
100
AcDbAlignedDimension
 13
1217.625634117805
 23
728.3329403909386
 33
0.0
 14
1268.625634117805
 24
728.3329403909386
 34
0.0
 50
0.0000000000000114
100
AcDbRotatedDimension
1001
ACAD
1000
DSTYLE
1002
{
1070
    47
1040
0.8
1070
    48
1040
0.8
1070
   272
1070
     1
1002
}
  0
TEXT
  5
4F23
330
1F
100
AcDbEntity
  8
DATA
100
AcDbText
 10
1389.139968281589
 20
735.5401375197191
 30
0.0
 40
3.0
  1
2-M2.5 
100
AcDbText
  0
LEADER
  5
4F57
330
1F
100
AcDbEntity
  8
DIM
  6
ACISOTGL
100
AcDbLeader
  3
STANDARD
 76
     3
 10
1372.012695602346
 20
700.1329403909385
 30
0.0
 10
1388.303145760832
 20
734.7385478812773
 30
0.0
 10
1402.492157499501
 20
734.7472307790846
 30
0.0
1001
ACAD
1000
DSTYLE
1002
{
1070
    40
1040
1.0
1070
    77
1070
     0
1002
}
  0
ARC
  5
4FEC
330
1F
100
AcDbEntity
  8
CENTER
  6
AM_ISO08W050x2
100
AcDbCircle
 10
1109.199007791159
 20
700.104920784339
 30
0.0
 40
33.33301366477997
100
AcDbArc
 50
32.21989172118587
 51
57.78010827881395
  0
ARC
  5
4FF7
330
1F
100
AcDbEntity
  8
CENTER
  6
AM_ISO08W050x2
100
AcDbCircle
 10
1109.199007791159
 20
700.104920784339
 30
0.0
 40
33.33301366477997
100
AcDbArc
 50
122.219891721186
 51
147.7801082788141
  0
ARC
  5
4FF9
330
1F
100
AcDbEntity
  8
CENTER
  6
AM_ISO08W050x2
100
AcDbCircle
 10
1109.199007791159
 20
700.104920784339
 30
0.0
 40
33.33301366477997
100
AcDbArc
 50
212.2198917211858
 51
237.7801082788139
  0
ARC
  5
4FFA
330
1F
100
AcDbEntity
  8
CENTER
  6
AM_ISO08W050x2
100
AcDbCircle
 10
1109.199007791159
 20
700.104920784339
 30
0.0
 40
33.33301366477997
100
AcDbArc
 50
302.2198917211861
 51
327.7801082788141
  0
CIRCLE
  5
58E1
330
1F
100
AcDbEntity
  8
SPEC
100
AcDbCircle
 10
1109.199007791159
 20
700.104920784339
 30
0.0
 40
3.180618046083738
  0
CIRCLE
  5
5A4B
330
1F
100
AcDbEntity
  8
SPEC
100
AcDbCircle
 10
1085.629007791659
 20
723.6749207843383
 30
0.0
 40
2.5
  0
CIRCLE
  5
5A4C
330
1F
100
AcDbEntity
  8
SPEC
100
AcDbCircle
 10
1132.769007790909
 20
723.6749207840887
 30
0.0
 40
2.5
  0
CIRCLE
  5
5A4D
330
1F
100
AcDbEntity
  8
SPEC
100
AcDbCircle
 10
1132.76900779091
 20
676.5349207843398
 30
0.0
 40
2.5
  0
CIRCLE
  5
5A4E
330
1F
100
AcDbEntity
  8
SPEC
100
AcDbCircle
 10
1085.634007791159
 20
676.5299218452851
 30
0.0
 40
2.5
  0
LINE
  5
5B70
330
1F
100
AcDbEntity
  8
DIM
100
AcDbLine
 10
1258.828251503146
 20
626.9006180973735
 30
0.0
 11
1265.757201554857
 21
626.9006180973735
 31
0.0
  0
LWPOLYLINE
  5
5B71
330
1F
100
AcDbEntity
  8
DIM
100
AcDbPolyline
 90
        4
 70
     1
 43
0.0
 10
1268.672590142168
 20
626.9006180973735
 10
1255.904513334166
 20
626.9006180973735
 10
1255.904513334166
 20
625.0295660024135
 10
1268.672590142168
 20
625.0295660024135
1001
GENIUS_GENREC_14
1002
{
1000
PYDIR
1011
1268.672590142168
1021
625.0295660024135
1031
0.0
1002
}
1002
{
1000
PXDIR
1011
1255.904513334166
1021
626.9006180973735
1031
0.0
1002
}
1002
{
1000
PORI
1011
1268.672590142168
1021
626.9006180973735
1031
0.0
1002
}
1002
{
1000
PINS
1011
1268.672590142168
1021
626.9006180973735
1031
0.0
1002
}
1002
{
1000
PINS2
1011
1255.904513334166
1021
625.0295660024135
1031
0.0
1002
}
1002
{
1000
C
1070
     1
1002
}
1001
GENIUS_GENODEF_13
1002
{
1000
HIER
1070
     0
1002
}
1002
{
1000
MANEDIT
1070
     0
1002
}
1002
{
1000
NOSEL
1070
     0
1002
}
1002
{
1000
BEHIND
1070
     0
1002
}
1002
{
1000
OTHER
1070
     0
1002
}
1002
{
1000
REACTOR
1002
}
1001
GENIUS_GENOBJ-N-REC_13
1002
{
1000
OWNER
1000
GEN
1002
}
  0
LWPOLYLINE
  5
5B72
330
1F
100
AcDbEntity
  8
DIM
100
AcDbPolyline
 90
        4
 70
     1
 43
0.0
 10
1267.752984723184
 20
625.0295660024135
 10
1257.006581047911
 20
625.0295660024135
 10
1257.006581047911
 20
619.2140036816503
 10
1267.752984723184
 20
619.2140036816503
1001
GENIUS_GENREC_14
1002
{
1000
PYDIR
1011
1267.752984723184
1021
619.2140036816503
1031
0.0
1002
}
1002
{
1000
PXDIR
1011
1257.006581047911
1021
625.0295660024135
1031
0.0
1002
}
1002
{
1000
PORI
1011
1267.752984723184
1021
625.0295660024135
1031
0.0
1002
}
1002
{
1000
PINS
1011
1267.752984723184
1021
625.0295660024135
1031
0.0
1002
}
1002
{
1000
PINS2
1011
1257.006581047911
1021
619.2140036816503
1031
0.0
1002
}
1002
{
1000
C
1070
     1
1002
}
1001
GENIUS_GENOBJ-N-REC_13
1002
{
1000
OWNER
1000
GEN
1002
}
1001
GENIUS_GENODEF_13
1002
{
1000
HIER
1070
     0
1002
}
1002
{
1000
MANEDIT
1070
     0
1002
}
1002
{
1000
NOSEL
1070
     0
1002
}
1002
{
1000
BEHIND
1070
     0
1002
}
1002
{
1000
OTHER
1070
     0
1002
}
1002
{
1000
REACTOR
1002
}
  0
LWPOLYLINE
  5
5B73
330
1F
100
AcDbEntity
  8
DIM
100
AcDbPolyline
 90
        4
 70
     1
 43
0.0
 10
1260.18846925976
 20
623.3817540289339
 10
1259.147938620347
 20
623.3817540289339
 10
1259.147938620347
 20
620.2335051265008
 10
1260.18846925976
 20
620.2335051265008
1001
GENIUS_GENREC_14
1002
{
1000
PYDIR
1011
1260.18846925976
1021
620.2335051265008
1031
0.0
1002
}
1002
{
1000
PXDIR
1011
1259.147938620347
1021
623.3817540289339
1031
0.0
1002
}
1002
{
1000
PORI
1011
1260.18846925976
1021
623.3817540289339
1031
0.0
1002
}
1002
{
1000
PINS
1011
1260.18846925976
1021
623.3817540289339
1031
0.0
1002
}
1002
{
1000
PINS2
1011
1259.147938620347
1021
620.2335051265008
1031
0.0
1002
}
1002
{
1000
C
1070
     1
1002
}
1001
GENIUS_GENOBJ-N-REC_13
1002
{
1000
OWNER
1000
GEN
1002
}
1001
GENIUS_GENODEF_13
1002
{
1000
HIER
1070
     0
1002
}
1002
{
1000
MANEDIT
1070
     0
1002
}
1002
{
1000
NOSEL
1070
     0
1002
}
1002
{
1000
BEHIND
1070
     0
1002
}
1002
{
1000
OTHER
1070
     0
1002
}
1002
{
1000
REACTOR
1002
}
  0
LWPOLYLINE
  5
5B74
330
1F
100
AcDbEntity
  8
DIM
100
AcDbPolyline
 90
        4
 70
     1
 43
0.0
 10
1261.920706772687
 20
623.3817540289339
 10
1260.880176133275
 20
623.3817540289339
 10
1260.880176133275
 20
620.2335051265008
 10
1261.920706772687
 20
620.2335051265008
1001
GENIUS_GENREC_14
1002
{
1000
PYDIR
1011
1261.920706772687
1021
620.2335051265008
1031
0.0
1002
}
1002
{
1000
PXDIR
1011
1260.880176133275
1021
623.3817540289339
1031
0.0
1002
}
1002
{
1000
PORI
1011
1261.920706772687
1021
623.3817540289339
1031
0.0
1002
}
1002
{
1000
PINS
1011
1261.920706772687
1021
623.3817540289339
1031
0.0
1002
}
1002
{
1000
PINS2
1011
1260.880176133275
1021
620.2335051265008
1031
0.0
1002
}
1002
{
1000
C
1070
     1
1002
}
1001
GENIUS_GENOBJ-N-REC_13
1002
{
1000
OWNER
1000
GEN
1002
}
1001
GENIUS_GENODEF_13
1002
{
1000
HIER
1070
     0
1002
}
1002
{
1000
MANEDIT
1070
     0
1002
}
1002
{
1000
NOSEL
1070
     0
1002
}
1002
{
1000
BEHIND
1070
     0
1002
}
1002
{
1000
OTHER
1070
     0
1002
}
1002
{
1000
REACTOR
1002
}
  0
LWPOLYLINE
  5
5B75
330
1F
100
AcDbEntity
  8
DIM
100
AcDbPolyline
 90
        4
 70
     1
 43
0.0
 10
1263.652944285615
 20
623.3817540289339
 10
1262.612413646203
 20
623.3817540289339
 10
1262.612413646203
 20
620.2335051265008
 10
1263.652944285615
 20
620.2335051265008
1001
GENIUS_GENREC_14
1002
{
1000
PYDIR
1011
1263.652944285615
1021
620.2335051265008
1031
0.0
1002
}
1002
{
1000
PXDIR
1011
1262.612413646203
1021
623.3817540289339
1031
0.0
1002
}
1002
{
1000
PORI
1011
1263.652944285615
1021
623.3817540289339
1031
0.0
1002
}
1002
{
1000
PINS
1011
1263.652944285615
1021
623.3817540289339
1031
0.0
1002
}
1002
{
1000
PINS2
1011
1262.612413646203
1021
620.2335051265008
1031
0.0
1002
}
1002
{
1000
C
1070
     1
1002
}
1001
GENIUS_GENOBJ-N-REC_13
1002
{
1000
OWNER
1000
GEN
1002
}
1001
GENIUS_GENODEF_13
1002
{
1000
HIER
1070
     0
1002
}
1002
{
1000
MANEDIT
1070
     0
1002
}
1002
{
1000
NOSEL
1070
     0
1002
}
1002
{
1000
BEHIND
1070
     0
1002
}
1002
{
1000
OTHER
1070
     0
1002
}
1002
{
1000
REACTOR
1002
}
  0
LWPOLYLINE
  5
5B76
330
1F
100
AcDbEntity
  8
DIM
100
AcDbPolyline
 90
        4
 70
     1
 43
0.0
 10
1265.385181798542
 20
623.3817540289339
 10
1264.34465115913
 20
623.3817540289339
 10
1264.34465115913
 20
620.2335051265008
 10
1265.385181798542
 20
620.2335051265008
1001
GENIUS_GENREC_14
1002
{
1000
PYDIR
1011
1265.385181798542
1021
620.2335051265008
1031
0.0
1002
}
1002
{
1000
PXDIR
1011
1264.34465115913
1021
623.3817540289339
1031
0.0
1002
}
1002
{
1000
PORI
1011
1265.385181798542
1021
623.3817540289339
1031
0.0
1002
}
1002
{
1000
PINS
1011
1265.385181798542
1021
623.3817540289339
1031
0.0
1002
}
1002
{
1000
PINS2
1011
1264.34465115913
1021
620.2335051265008
1031
0.0
1002
}
1002
{
1000
C
1070
     1
1002
}
1001
GENIUS_GENOBJ-N-REC_13
1002
{
1000
OWNER
1000
GEN
1002
}
1001
GENIUS_GENODEF_13
1002
{
1000
HIER
1070
     0
1002
}
1002
{
1000
MANEDIT
1070
     0
1002
}
1002
{
1000
NOSEL
1070
     0
1002
}
1002
{
1000
BEHIND
1070
     0
1002
}
1002
{
1000
OTHER
1070
     0
1002
}
1002
{
1000
REACTOR
1002
}
  0
LEADER
  5
5B78
330
1F
100
AcDbEntity
  8
DIM
100
AcDbLeader
  3
STANDARD
 76
     3
 10
1258.122356620781
 20
623.151702753766
 30
0.0
 10
1248.610032740729
 20
612.9033357272475
 30
0.0
 10
1196.971594604449
 20
612.8999999999999
 30
0.0
1001
ACAD
1000
DSTYLE
1002
{
1070
    40
1040
1.0
1070
    77
1070
     0
1002
}
  0
TEXT
  5
5B86
330
1F
100
AcDbEntity
  8
DATA
100
AcDbText
 10
1198.033709426338
 20
619.3541062333639
 30
0.0
 40
3.0
  1
Connector Type: JST XHP-8
100
AcDbText
  0
TEXT
  5
5B87
330
1F
100
AcDbEntity
  8
DATA
100
AcDbText
 10
1198.033709426338
 20
614.6525829919013
 30
0.0
 40
3.0
  1
Contact: SXH-001T-P0.6
100
AcDbText
  0
TEXT
  5
5BBD
330
1F
100
AcDbEntity
  8
DATA
100
AcDbText
 10
1081.202831605077
 20
664.0006181335602
 30
0.0
 40
3.0
  1
4-%%C5
100
AcDbText
  0
VIEWPORT
  5
2D8
102
{ACAD_XDICTIONARY
360
5DFE
102
}
330
1B
100
AcDbEntity
 67
     1
  8
0
100
AcDbViewport
 10
137.1784750998705
 20
106.1027102156362
 30
0.0
 40
389.5886518149122
 41
286.1098393570837
 68
     1
 69
     1
 12
137.1784750998705
 22
106.1027102156362
 13
0.0
 23
0.0
 14
10.0
 24
10.0
 15
10.0
 25
10.0
 16
0.0
 26
0.0
 36
1.0
 17
0.0
 27
0.0
 37
0.0
 42
50.0
 43
0.0
 44
0.0
 45
286.1098393570837
 50
0.0
 51
0.0
 72
   100
 90
    32800
  1

281
     0
 71
     1
 74
     0
110
0.0
120
0.0
130
0.0
111
1.0
121
0.0
131
0.0
112
0.0
122
1.0
132
0.0
 79
     0
146
0.0
  0
MTEXT
  5
1290
330
1B
100
AcDbEntity
 67
     1
  8
DATA
100
AcDbMText
 10
142.6845396305116
 20
14.24154306217638
 30
0.0
 40
1.930697999999999
 41
24.133725
 71
     1
 72
     5
  1
X       %%p0.5\P1PL     %%p0.2\P2PL     %%p0.1\PANGLE   %%p30'
  7
ROMANS
 73
     1
 44
1.0
1001
ACAD
1000
MTEXTBEGIN
1070
    73
1070
     1
1070
    44
1040
1.0
1070
    74
1070
     0
1000
MTEXTEND
  0
LWPOLYLINE
  5
1291
330
1B
100
AcDbEntity
 67
     1
  8
SPEC
100
AcDbPolyline
 90
        2
 70
     0
 43
0.0
 10
44.51178313191621
 20
21.65598901220129
 10
104.0278513100474
 20
21.65598901220129
  0
TEXT
  5
1294
330
1B
100
AcDbEntity
 67
     1
  8
DATA
100
AcDbText
 10
223.3033978947773
 20
2.332825847364669
 30
0.0
 40
3.861395999999999
  1
ST5918S1008
 41
0.7
  7
ROMANS
100
AcDbText
  0
LWPOLYLINE
  5
1296
330
1B
100
AcDbEntity
 67
     1
  8
SPEC
100
AcDbPolyline
 90
        2
 70
     0
 43
0.0
 10
0.0009154015513104
 20
21.65598901220129
 10
44.6040054243686
 20
21.65598901220129
  0
LINE
  5
1297
330
1B
100
AcDbEntity
 67
     1
  8
DATA
100
AcDbLine
 10
141.4515899505442
 20
16.0064410711449
 30
0.0
 11
206.4352883025385
 21
16.0064410711449
 31
0.0
  0
LINE
  5
1299
330
1B
100
AcDbEntity
 67
     1
  8
DATA
100
AcDbLine
 10
188.9615608996265
 20
21.65598901220129
 30
0.0
 11
188.9615608996265
 21
0.0005791177154606
 31
0.0
  0
LINE
  5
129A
330
1B
100
AcDbEntity
 67
     1
  8
DATA
100
AcDbLine
 10
172.7736353934133
 20
21.65598905905817
 30
0.0
 11
172.7736353934214
 21
6.498316907446511
 31
0.0
  0
LINE
  5
129B
330
1B
100
AcDbEntity
 67
     1
  8
DATA
100
AcDbLine
 10
161.8855388603332
 20
0.0005791177154606
 30
0.0
 11
161.8855388603055
 21
21.65598905610526
 31
0.0
  0
LINE
  5
129C
330
1B
100
AcDbEntity
 67
     1
  8
DATA
100
AcDbLine
 10
162.1169692298447
 20
21.65598901220129
 30
0.0
 11
162.1169692298447
 21
0.0005791177154606
 31
0.0
  0
LINE
  5
129D
330
1B
100
AcDbEntity
 67
     1
  8
DATA
100
AcDbLine
 10
206.4352889818797
 20
21.65598901220129
 30
0.0
 11
206.4352889818797
 21
0.0005791177154606
 31
0.0
  0
LINE
  5
129E
330
1B
100
AcDbEntity
 67
     1
  8
DATA
100
AcDbLine
 10
71.44730055966757
 20
21.65598901220129
 30
0.0
 11
71.44730055966755
 21
0.0005791177154606
 31
0.0
  0
LINE
  5
129F
330
1B
100
AcDbEntity
 67
     1
  8
DATA
100
AcDbLine
 10
86.04251283525755
 20
21.65598903553624
 30
0.0
 11
86.0425128352576
 21
0.0005791177154606
 31
0.0
  0
LINE
  5
12A0
330
1B
100
AcDbEntity
 67
     1
  8
DATA
100
AcDbLine
 10
50.66681625037072
 20
21.65598901220129
 30
0.0
 11
50.66681625037072
 21
0.0005791177154606
 31
0.0
  0
LINE
  5
12A2
330
1B
100
AcDbEntity
 67
     1
  8
DATA
100
AcDbLine
 10
86.0425128352576
 20
16.5762960950056
 30
0.0
 11
0.0009154015513104
 21
16.5762960950056
 31
0.0
  0
LINE
  5
12A3
330
1B
100
AcDbEntity
 67
     1
  8
DATA
100
AcDbLine
 10
0.0009154015513104
 20
11.49660317780993
 30
0.0
 11
86.0425128352576
 21
11.49660317780992
 31
0.0
  0
LINE
  5
12A4
330
1B
100
AcDbEntity
 67
     1
  8
DATA
100
AcDbLine
 10
0.0009154015513104
 20
6.416910260614258
 30
0.0
 11
86.0425128352576
 21
6.416910260614244
 31
0.0
  0
LINE
  5
12A5
330
1B
100
AcDbEntity
 67
     1
  8
SPEC
100
AcDbLine
 10
10.9812208516878
 20
21.65598901220129
 30
0.0
 11
10.9812208516878
 21
0.0005791177154606
 31
0.0
  0
LINE
  5
12A6
330
1B
100
AcDbEntity
 67
     1
  8
DATA
100
AcDbLine
 10
206.4352889818797
 20
6.487604351384876
 30
0.0
 11
161.8855388603332
 21
6.487604351384876
 31
0.0
  0
LINE
  5
12A7
330
1B
100
AcDbEntity
 67
     1
  8
DATA
100
AcDbLine
 10
161.8855388603332
 20
11.19931228302795
 30
0.0
 11
206.4352889818797
 21
11.19931228302795
 31
0.0
  0
TEXT
  5
12A8
330
1B
100
AcDbEntity
 67
     1
  8
DATA
100
AcDbText
 10
144.2089124014906
 20
17.38788360913192
 30
0.0
 40
2.413372499999999
  1
SCALE FREE
 41
0.7
  7
ROMANS
 72
     2
 11
159.5740506514906
 21
17.38788360913192
 31
0.0
100
AcDbText
  0
LINE
  5
12A9
330
1B
100
AcDbEntity
 67
     1
  8
DATA
100
AcDbLine
 10
141.4515899505442
 20
21.65598901220129
 30
0.0
 11
141.4515899505442
 21
0.0005791177154606
 31
0.0
  0
TEXT
  5
12AA
330
1B
100
AcDbEntity
 67
     1
  8
DATA
100
AcDbText
 10
72.81931794091391
 20
2.289088082541405
 30
0.0
 40
2.896047
  1
APVD
 41
0.7
  7
ROMANS
100
AcDbText
  0
TEXT
  5
12AB
330
1B
100
AcDbEntity
 67
     1
  8
DATA
100
AcDbText
 10
54.00518497335647
 20
2.289088082541405
 30
0.0
 40
2.896047
  1
DATE
 41
0.7
  7
ROMANS
100
AcDbText
  0
TEXT
  5
12AC
330
1B
100
AcDbEntity
 67
     1
  8
DATA
100
AcDbText
 10
13.71048401705179
 20
2.289088082541405
 30
0.0
 40
2.896047
  1
DESCRIPTION
 41
0.7
  7
ROMANS
100
AcDbText
  0
TEXT
  5
12AD
330
1B
100
AcDbEntity
 67
     1
  8
DATA
100
AcDbText
 10
2.61316602814029
 20
2.289088082541405
 30
0.0
 40
2.896047
  1
REV
 41
0.7
  7
ROMANS
 72
     2
 11
8.11565532814029
 21
2.289088082541405
 31
0.0
100
AcDbText
  0
TEXT
  5
12AE
330
1B
100
AcDbEntity
 67
     1
  8
DATA
100
AcDbText
 10
164.0115266587481
 20
16.86188228564509
 30
0.0
 40
2.896047
  1
APVD
 41
0.7
  7
ROMANS
 72
     2
 11
171.2516441587481
 21
16.86188228564509
 31
0.0
100
AcDbText
  0
TEXT
  5
12AF
330
1B
100
AcDbEntity
 67
     1
  8
DATA
100
AcDbText
 10
163.1771120414716
 20
12.25504563334623
 30
0.0
 40
2.896047
  1
CHKD
 41
0.7
  7
ROMANS
 72
     2
 11
171.0929738414716
 21
12.25504563334623
 31
0.0
100
AcDbText
  0
TEXT
  5
12B0
330
1B
100
AcDbEntity
 67
     1
  8
DATA
100
AcDbText
 10
164.1482638836956
 20
7.264305730021757
 30
0.0
 40
2.896047
  1
DRN
 41
0.7
  7
ROMANS
 72
     2
 11
169.9403578836956
 21
7.264305730021757
 31
0.0
100
AcDbText
  0
TEXT
  5
12B1
330
1B
100
AcDbEntity
 67
     1
  8
DATA
100
AcDbText
 10
166.3066680148434
 20
2.249663648385519
 30
0.0
 40
2.896047
  1
SIGNATURE
 41
0.7
  7
ROMANS
 72
     2
 11
182.2349265148434
 21
2.249663648385519
 31
0.0
100
AcDbText
  0
TEXT
  5
12B2
330
1B
100
AcDbEntity
 67
     1
  8
DATA
100
AcDbText
 10
194.0753275043612
 20
2.147712645052658
 30
0.0
 40
2.896047
  1
DATE
 41
0.7
  7
ROMANS
 72
     2
 11
201.0258403043613
 21
2.147712645052658
 31
0.0
100
AcDbText
  0
TEXT
  5
12B3
330
1B
100
AcDbEntity
 67
     1
  8
DATA
100
AcDbText
 10
211.3647597711961
 20
15.15914893796167
 30
0.0
 40
3.668326199999999
  1
STEPPING MOTOR
 41
0.8
  7
ITALICT
 72
     2
 11
254.825691131196
 21
15.15914893796167
 31
0.0
100
AcDbText
  0
LINE
  5
12B4
330
1B
100
AcDbEntity
 67
     1
  8
DATA
100
AcDbLine
 10
206.4352889818797
 20
12.14062779339902
 30
0.0
 11
282.0457513033824
 21
12.14062786989238
 31
0.0
  0
TEXT
  5
12B5
330
1B
100
AcDbEntity
 67
     1
  8
DATA
100
AcDbText
 10
208.2206521091139
 20
8.230964343399071
 30
0.0
 40
2.413372499999999
  1
DWG.NO
 41
0.7
  7
ROMANS
 72
     2
 11
217.6328048591138
 21
8.230964343399071
 31
0.0
100
AcDbText
  0
TEXT
  5
12B6
330
1B
100
AcDbEntity
 67
     1
  8
DATA
100
AcDbText
 10
89.47920924063479
 20
16.55350887427961
 30
0.0
 40
2.896047
  1
NANOTEC:
 41
0.7
  7
ROMANS
100
AcDbText
  0
TEXT
  5
12B7
330
1B
100
AcDbEntity
 67
     1
  8
DATA
100
AcDbText
 10
189.4634543457442
 20
7.541155117526503
 30
0.0
 40
2.509907399999999
  1
21.11.06
 41
0.7
  7
ROMANS
100
AcDbText
  0
LINE
  5
12B8
330
1B
100
AcDbEntity
 67
     1
  8
SPEC
100
AcDbLine
 10
0.0009154015513104
 20
21.65598901220129
 30
0.0
 11
0.0009154015513104
 21
119.7806666755164
 31
0.0
  0
LWPOLYLINE
  5
12BA
330
1B
100
AcDbEntity
 67
     1
  8
SPEC
100
AcDbPolyline
 90
        4
 70
     1
 43
0.0
 10
0.0009154015513104
 20
195.9882822557255
 10
0.0009154015513104
 20
0.0005791177154606
 10
282.0457558342515
 20
0.0005791177154606
 10
282.045681937342
 20
195.9882822557255
  0
LWPOLYLINE
  5
1708
330
1B
100
AcDbEntity
 67
     1
  8
SPEC
100
AcDbPolyline
 90
        2
 70
     0
 43
0.0
 10
46.10949139879676
 20
21.6559890122013
 10
107.7618763685136
 20
21.6559890122013
  0
TEXT
  5
1948
330
1B
100
AcDbEntity
 67
     1
  8
DATA
100
AcDbText
 10
233.7068271283334
 20
45.63451169454327
 30
0.0
 40
2.4
  1
CCW
 41
0.7
  7
ROMANS
 72
     1
 11
236.3868271283334
 21
45.63451169454327
 31
0.0
100
AcDbText
  0
SOLID
  5
1949
330
1B
100
AcDbEntity
 67
     1
  8
DATA
100
AcDbTrace
 10
235.7922979078902
 20
40.75404862806522
 30
0.0
 11
236.5922979078904
 21
40.75404862806522
 31
0.0
 12
236.1922979078903
 22
43.15404862806508
 32
0.0
 13
236.1922979078903
 23
43.15404862806508
 33
0.0
  0
TEXT
  5
194A
330
1B
100
AcDbEntity
 67
     1
  8
DATA
100
AcDbText
 10
221.2828061425817
 20
45.69725960798746
 30
0.0
 40
2.4
  1
B\
 41
0.7
  7
ROMANS
 72
     1
 11
223.0828061425817
 21
45.69725960798746
 31
0.0
100
AcDbText
  0
TEXT
  5
194B
330
1B
100
AcDbEntity
 67
     1
  8
DATA
100
AcDbText
 10
213.5228061425817
 20
45.69725960798746
 30
0.0
 40
2.4
  1
A\
 41
0.7
  7
ROMANS
 72
     1
 11
215.0828061425817
 21
45.69725960798746
 31
0.0
100
AcDbText
  0
TEXT
  5
194C
330
1B
100
AcDbEntity
 67
     1
  8
DATA
100
AcDbText
 10
222.1854042670655
 20
40.89725960798751
 30
0.0
 40
2.4
  1
-
 41
0.7
  7
ROMANS
 72
     1
 11
223.2254042670655
 21
40.89725960798751
 31
0.0
100
AcDbText
  0
TEXT
  5
194D
330
1B
100
AcDbEntity
 67
     1
  8
DATA
100
AcDbText
 10
222.1854042670655
 20
36.32088795840764
 30
0.0
 40
2.4
  1
-
 41
0.7
  7
ROMANS
 72
     1
 11
223.2254042670655
 21
36.32088795840764
 31
0.0
100
AcDbText
  0
LINE
  5
194E
330
1B
100
AcDbEntity
 67
     1
  8
DATA
100
AcDbLine
 10
230.1012975980283
 20
33.37198757780834
 30
0.0
 11
230.1012975980283
 21
43.82338012719606
 31
0.0
  0
TEXT
  5
194F
330
1B
100
AcDbEntity
 67
     1
  8
DATA
100
AcDbText
 10
214.1854042670655
 20
40.89725960798751
 30
0.0
 40
2.4
  1
-
 41
0.7
  7
ROMANS
 72
     1
 11
215.2254042670655
 21
40.89725960798751
 31
0.0
100
AcDbText
  0
TEXT
  5
1950
330
1B
100
AcDbEntity
 67
     1
  8
DATA
100
AcDbText
 10
214.0428061425817
 20
36.09725960798755
 30
0.0
 40
2.4
  1
+
 41
0.7
  7
ROMANS
 72
     1
 11
215.0828061425817
 21
36.09725960798755
 31
0.0
100
AcDbText
  0
TEXT
  5
1951
330
1B
100
AcDbEntity
 67
     1
  8
DATA
100
AcDbText
 10
206.2028061425817
 20
45.69725960798746
 30
0.0
 40
2.4
  1
B
 41
0.7
  7
ROMANS
 72
     1
 11
207.0828061425817
 21
45.69725960798746
 31
0.0
100
AcDbText
  0
TEXT
  5
1952
330
1B
100
AcDbEntity
 67
     1
  8
DATA
100
AcDbText
 10
198.3628061425817
 20
45.69725960798746
 30
0.0
 40
2.4
  1
A
 41
0.7
  7
ROMANS
 72
     1
 11
199.0828061425817
 21
45.69725960798746
 31
0.0
100
AcDbText
  0
TEXT
  5
1953
330
1B
100
AcDbEntity
 67
     1
  8
DATA
100
AcDbText
 10
205.8138328081032
 20
31.28687885982481
 30
0.0
 40
2.4
  1
-
 41
0.7
  7
ROMANS
 72
     1
 11
206.8538328081032
 21
31.28687885982481
 31
0.0
100
AcDbText
  0
TEXT
  5
1954
330
1B
100
AcDbEntity
 67
     1
  8
DATA
100
AcDbText
 10
197.8138328081032
 20
31.28687885982481
 30
0.0
 40
2.4
  1
-
 41
0.7
  7
ROMANS
 72
     1
 11
198.8538328081032
 21
31.28687885982481
 31
0.0
100
AcDbText
  0
TEXT
  5
1955
330
1B
100
AcDbEntity
 67
     1
  8
DATA
100
AcDbText
 10
222.0428061425817
 20
26.49725960798742
 30
0.0
 40
2.4
  1
+
 41
0.7
  7
ROMANS
 72
     1
 11
223.0828061425817
 21
26.49725960798742
 31
0.0
100
AcDbText
  0
TEXT
  5
1956
330
1B
100
AcDbEntity
 67
     1
  8
DATA
100
AcDbText
 10
214.0568615897135
 20
26.36727902204825
 30
0.0
 40
2.4
  1
-
 41
0.7
  7
ROMANS
 72
     1
 11
215.0968615897135
 21
26.36727902204825
 31
0.0
100
AcDbText
  0
TEXT
  5
1957
330
1B
100
AcDbEntity
 67
     1
  8
DATA
100
AcDbText
 10
206.0568615897135
 20
26.36727902204825
 30
0.0
 40
2.4
  1
-
 41
0.7
  7
ROMANS
 72
     1
 11
207.0968615897135
 21
26.36727902204825
 31
0.0
100
AcDbText
  0
TEXT
  5
1958
330
1B
100
AcDbEntity
 67
     1
  8
DATA
100
AcDbText
 10
198.0428061425817
 20
26.49725960798742
 30
0.0
 40
2.4
  1
+
 41
0.7
  7
ROMANS
 72
     1
 11
199.0828061425817
 21
26.49725960798742
 31
0.0
100
AcDbText
  0
TEXT
  5
1959
330
1B
100
AcDbEntity
 67
     1
  8
DATA
100
AcDbText
 10
228.4913822100839
 20
26.80263448915184
 30
0.0
 40
2.4
  1
CW
 41
0.7
  7
ROMANS
 72
     1
 11
230.3313822100839
 21
26.80263448915184
 31
0.0
100
AcDbText
  0
LINE
  5
195A
330
1B
100
AcDbEntity
 67
     1
  8
DATA
100
AcDbLine
 10
195.0828061425817
 20
49.29725960798737
 30
0.0
 11
195.0828061425817
 21
25.29725960798737
 31
0.0
  0
LINE
  5
195B
330
1B
100
AcDbEntity
 67
     1
  8
DATA
100
AcDbLine
 10
239.2932888244301
 20
49.29725960798737
 30
0.0
 11
239.2932888244301
 21
25.29725960798737
 31
0.0
  0
LINE
  5
195C
330
1B
100
AcDbEntity
 67
     1
  8
DATA
100
AcDbLine
 10
236.1922979078903
 20
40.75404862806522
 30
0.0
 11
236.1922979078903
 21
30.99390184379695
 31
0.0
  0
SOLID
  5
195D
330
1B
100
AcDbEntity
 67
     1
  8
DATA
100
AcDbTrace
 10
230.5012975980284
 20
33.37198757780834
 30
0.0
 11
229.7012975980282
 21
33.37198757780834
 31
0.0
 12
230.1012975980283
 22
30.97198757780825
 32
0.0
 13
230.1012975980283
 23
30.97198757780825
 33
0.0
  0
LINE
  5
195E
330
1B
100
AcDbEntity
 67
     1
  8
DATA
100
AcDbLine
 10
232.943052944977
 20
49.29725960798737
 30
0.0
 11
232.943052944977
 21
25.29725960798737
 31
0.0
  0
TEXT
  5
195F
330
1B
100
AcDbEntity
 67
     1
  8
DATA
100
AcDbText
 10
222.0428061425817
 20
31.29725960798737
 30
0.0
 40
2.4
  1
+
 41
0.7
  7
ROMANS
 72
     1
 11
223.0828061425817
 21
31.29725960798737
 31
0.0
100
AcDbText
  0
TEXT
  5
1960
330
1B
100
AcDbEntity
 67
     1
  8
DATA
100
AcDbText
 10
214.0428061425817
 20
31.29725960798737
 30
0.0
 40
2.4
  1
+
 41
0.7
  7
ROMANS
 72
     1
 11
215.0828061425817
 21
31.29725960798737
 31
0.0
100
AcDbText
  0
LINE
  5
1961
330
1B
100
AcDbEntity
 67
     1
  8
DATA
100
AcDbLine
 10
227.0828061425817
 20
49.29725960798737
 30
0.0
 11
227.0828061425817
 21
25.29725960798737
 31
0.0
  0
LINE
  5
1962
330
1B
100
AcDbEntity
 67
     1
  8
DATA
100
AcDbLine
 10
219.0828061425817
 20
49.29725960798737
 30
0.0
 11
219.0828061425817
 21
25.29725960798737
 31
0.0
  0
LINE
  5
1963
330
1B
100
AcDbEntity
 67
     1
  8
DATA
100
AcDbLine
 10
211.0828061425817
 20
49.29725960798737
 30
0.0
 11
211.0828061425817
 21
25.29725960798737
 31
0.0
  0
TEXT
  5
1964
330
1B
100
AcDbEntity
 67
     1
  8
DATA
100
AcDbText
 10
190.4028061425817
 20
40.89725960798751
 30
0.0
 40
2.4
  1
1
 41
0.7
  7
ROMANS
 72
     1
 11
191.0828061425817
 21
40.89725960798751
 31
0.0
100
AcDbText
  0
TEXT
  5
1965
330
1B
100
AcDbEntity
 67
     1
  8
DATA
100
AcDbText
 10
190.2828061425817
 20
36.09725960798755
 30
0.0
 40
2.4
  1
2
 41
0.7
  7
ROMANS
 72
     1
 11
191.0828061425817
 21
36.09725960798755
 31
0.0
100
AcDbText
  0
TEXT
  5
1966
330
1B
100
AcDbEntity
 67
     1
  8
DATA
100
AcDbText
 10
190.2428061425817
 20
26.49725960798742
 30
0.0
 40
2.4
  1
4
 41
0.7
  7
ROMANS
 72
     1
 11
191.0828061425817
 21
26.49725960798742
 31
0.0
100
AcDbText
  0
TEXT
  5
1967
330
1B
100
AcDbEntity
 67
     1
  8
DATA
100
AcDbText
 10
190.2828061425817
 20
31.29725960798737
 30
0.0
 40
2.4
  1
3
 41
0.7
  7
ROMANS
 72
     1
 11
191.0828061425817
 21
31.29725960798737
 31
0.0
100
AcDbText
  0
LINE
  5
1968
330
1B
100
AcDbEntity
 67
     1
  8
DATA
100
AcDbLine
 10
187.0828061425817
 20
49.29725960798737
 30
0.0
 11
187.0828061425817
 21
25.29725960798737
 31
0.0
  0
TEXT
  5
1969
330
1B
100
AcDbEntity
 67
     1
  8
DATA
100
AcDbText
 10
187.0828061425817
 20
50.70678341751136
 30
0.0
 40
2.8
  1
WHEN FACING MOUNTING END (X)
 41
0.7
  7
ROMANS
100
AcDbText
  0
TEXT
  5
196A
330
1B
100
AcDbEntity
 67
     1
  8
DATA
100
AcDbText
 10
186.9159241000208
 20
55.29725960798737
 30
0.0
 40
2.8
  1
FULL STEP 2 PHASE-Ex.,
 41
0.7
  7
ROMANS
100
AcDbText
  0
LINE
  5
196B
330
1B
100
AcDbEntity
 67
     1
  8
DATA
100
AcDbLine
 10
187.0828061425817
 20
44.49725960798741
 30
0.0
 11
227.0828061425817
 21
44.49725960798741
 31
0.0
  0
LINE
  5
196C
330
1B
100
AcDbEntity
 67
     1
  8
DATA
100
AcDbLine
 10
187.0828061425817
 20
30.09725960798756
 30
0.0
 11
227.0828061425817
 21
30.09725960798756
 31
0.0
  0
LINE
  5
196D
330
1B
100
AcDbEntity
 67
     1
  8
DATA
100
AcDbLine
 10
239.2932888244301
 20
49.29725960798737
 30
0.0
 11
187.0828061425817
 21
49.29725960798737
 31
0.0
  0
LINE
  5
196E
330
1B
100
AcDbEntity
 67
     1
  8
DATA
100
AcDbLine
 10
187.0828061425817
 20
25.29725960798737
 30
0.0
 11
239.2932888244301
 21
25.29725960798737
 31
0.0
  0
TEXT
  5
196F
330
1B
100
AcDbEntity
 67
     1
  8
DATA
100
AcDbText
 10
188.0428061425817
 20
45.69725960798746
 30
0.0
 40
2.4
  1
STEP
 41
0.7
  7
ROMANS
 72
     1
 11
191.0828061425817
 21
45.69725960798746
 31
0.0
100
AcDbText
  0
TEXT
  5
1970
330
1B
100
AcDbEntity
 67
     1
  8
DATA
100
AcDbText
 10
206.0428061425817
 20
40.89725960798751
 30
0.0
 40
2.4
  1
+
 41
0.7
  7
ROMANS
 72
     1
 11
207.0828061425817
 21
40.89725960798751
 31
0.0
100
AcDbText
  0
TEXT
  5
1971
330
1B
100
AcDbEntity
 67
     1
  8
DATA
100
AcDbText
 10
206.0428061425817
 20
36.09725960798755
 30
0.0
 40
2.4
  1
+
 41
0.7
  7
ROMANS
 72
     1
 11
207.0828061425817
 21
36.09725960798755
 31
0.0
100
AcDbText
  0
TEXT
  5
1972
330
1B
100
AcDbEntity
 67
     1
  8
DATA
100
AcDbText
 10
198.0428061425817
 20
40.89725960798751
 30
0.0
 40
2.4
  1
+
 41
0.7
  7
ROMANS
 72
     1
 11
199.0828061425817
 21
40.89725960798751
 31
0.0
100
AcDbText
  0
TEXT
  5
1973
330
1B
100
AcDbEntity
 67
     1
  8
DATA
100
AcDbText
 10
197.8138328081032
 20
36.09206903101699
 30
0.0
 40
2.4
  1
-
 41
0.7
  7
ROMANS
 72
     1
 11
198.8538328081032
 21
36.09206903101699
 31
0.0
100
AcDbText
  0
LINE
  5
1974
330
1B
100
AcDbEntity
 67
     1
  8
DATA
100
AcDbLine
 10
203.0828061425817
 20
49.29725960798737
 30
0.0
 11
203.0828061425817
 21
25.29725960798737
 31
0.0
  0
LINE
  5
1975
330
1B
100
AcDbEntity
 67
     1
  8
DATA
100
AcDbLine
 10
187.0828061425817
 20
39.69725960798746
 30
0.0
 11
227.0828061425817
 21
39.69725960798746
 31
0.0
  0
LINE
  5
1976
330
1B
100
AcDbEntity
 67
     1
  8
DATA
100
AcDbLine
 10
187.0828061425817
 20
34.89725960798751
 30
0.0
 11
227.0828061425817
 21
34.89725960798751
 31
0.0
  0
LINE
  5
19BB
330
1B
100
AcDbEntity
 67
     1
  8
SPEC
100
AcDbLine
 10
180.0009154015513
 20
21.6559890122013
 30
0.0
 11
180.0009154015513
 21
111.6559890122013
 31
0.0
  0
TEXT
  5
19BD
330
1B
100
AcDbEntity
 67
     1
  8
DATA
100
AcDbText
 10
1.828349188375568
 20
73.0
 30
0.0
 40
2.4
  1
DETENT TORQUE (Nm) [lb-in]
 41
0.7
  7
ROMANS
100
AcDbText
  0
TEXT
  5
19BF
330
1B
100
AcDbEntity
 67
     1
  8
SPEC
100
AcDbText
 10
153.8283491883755
 20
48.0
 30
0.0
 40
2.4
  1

 41
0.7
  7
ROMANS
100
AcDbText
  0
TEXT
  5
19C0
330
1B
100
AcDbEntity
 67
     1
  8
DATA
  6
HIDDEN
100
AcDbText
 10
121.8283491883755
 20
105.2917072386782
 30
0.0
 40
3.0
  1
PERMISSIBLE RADIAL+AXIAL FORCE
 41
0.7
  7
ROMANS
100
AcDbText
  0
TEXT
  5
19C1
330
1B
100
AcDbEntity
 67
     1
  8
DATA
100
AcDbText
 10
1.828349188375568
 20
43.0
 30
0.0
 40
2.4
  1
AMBIENT TEMPERATURE -10°~ 50°C [14°F ~ 122°F]
 41
0.7
  7
ROMANS
100
AcDbText
  0
TEXT
  5
19C2
330
1B
100
AcDbEntity
 67
     1
  8
DATA
100
AcDbText
 10
120.8283491883755
 20
48.0
 30
0.0
 40
2.4
  1
AXIAL-FORCE Fa (N)
 41
0.7
  7
ROMANS
100
AcDbText
  0
TEXT
  5
19C4
330
1B
100
AcDbEntity
 67
     1
  8
DATA
100
AcDbText
 10
1.828349188375568
 20
28.0
 30
0.0
 40
2.4
  1
DIELECTRIC STRENGTH 500VAC FOR 1 MIN. (BETWEEN THE MOTOR COILS AND THE MOTOR CASE)
 41
0.65
  7
ROMANS
100
AcDbText
  0
TEXT
  5
19C5
330
1B
100
AcDbEntity
 67
     1
  8
DATA
100
AcDbText
 10
1.828349188375568
 20
33.0
 30
0.0
 40
2.4
  1
INSULATION CLASS B 130° [266°F]
 41
0.7
  7
ROMANS
100
AcDbText
  0
TEXT
  5
19C6
330
1B
100
AcDbEntity
 67
     1
  8
DATA
100
AcDbText
 10
1.828349188375568
 20
38.0
 30
0.0
 40
2.4
  1
INSULATION RESISTANCE 100 MOhm (UNDER NORMAL TEMPERATURE AND HUMIDITY)
 41
0.7
  7
ROMANS
100
AcDbText
  0
TEXT
  5
19C7
330
1B
100
AcDbEntity
 67
     1
  8
DATA
100
AcDbText
 10
1.828349188375568
 20
48.0
 30
0.0
 40
2.4
  1
TEMPERATURE RISE: MAX.80°C (MOTOR STANDSTILL; FOR 2 PHASE ENERGIZED)
 41
0.7
  7
ROMANS
100
AcDbText
  0
MTEXT
  5
19C8
330
1B
100
AcDbEntity
 67
     1
  8
DATA
100
AcDbMText
 10
141.290926933951
 20
85.84775216573845
 30
0.0
 40
2.399999999999999
 41
6.509999999999999
 71
     1
 72
     5
  1
F{\H0.8333x;r}
  7
ROMANS
 73
     1
 44
1.0
1001
ACAD
1000
MTEXTBEGIN
1070
    73
1070
     1
1070
    44
1040
1.0
1070
    74
1070
     0
1000
MTEXTEND
  0
DIMENSION
  5
19C9
330
1B
100
AcDbEntity
 67
     1
  8
DIM
100
AcDbDimension
  2
*D5
 10
149.0972407104071
 20
55.91119174080848
 30
0.0
 11
144.4901433864878
 21
55.91119174080848
 31
0.0
 70
   160
  1
a
 71
     5
 42
9.190871881572007
  3
STANDARD
100
AcDbAlignedDimension
 13
139.9063688288351
 23
74.09868988223387
 33
0.0
 14
149.0972407104071
 24
60.09299455805124
 34
0.0
100
AcDbRotatedDimension
1001
ACAD
1000
DSTYLE
1002
{
1070
   344
1005
2FF
1070
   173
1070
     1
1070
   343
1005
0
1070
    41
1040
2.399999999999999
1070
   340
1005
3C7
1070
   140
1040
2.399999999999999
1070
    40
1040
1.0
1002
}
  0
LINE
  5
19D1
330
1B
100
AcDbEntity
 67
     1
  8
CENTER
  6
AM_ISO08W050x2
100
AcDbLine
 10
136.6677412239615
 20
75.98428938777749
 30
0.0
 11
179.0047821176252
 21
75.98428938777749
 31
0.0
  0
TEXT
  5
19D2
330
1B
100
AcDbEntity
 67
     1
  8
DATA
100
AcDbText
 10
174.0
 20
43.0
 30
0.0
 40
2.4
  1
20
 41
0.7
  7
ROMANS
100
AcDbText
  0
TEXT
  5
19D5
330
1B
100
AcDbEntity
 67
     1
  8
DATA
100
AcDbText
 10
167.0
 20
43.0
 30
0.0
 40
2.4
  1
15
 41
0.7
  7
ROMANS
100
AcDbText
  0
TEXT
  5
19D6
330
1B
100
AcDbEntity
 67
     1
  8
DATA
100
AcDbText
 10
159.0
 20
43.0
 30
0.0
 40
2.4
  1
10
 41
0.7
  7
ROMANS
100
AcDbText
  0
TEXT
  5
19D8
330
1B
100
AcDbEntity
 67
     1
  8
DATA
100
AcDbText
 10
152.0
 20
43.0
 30
0.0
 40
2.4
  1
5
 41
0.7
  7
ROMANS
100
AcDbText
  0
TEXT
  5
19DC
330
1B
100
AcDbEntity
 67
     1
  8
DATA
100
AcDbText
 10
120.8283491883755
 20
38.0
 30
0.0
 40
2.4
  1
RADIAL-FORCE Fr (N)
 41
0.7
  7
ROMANS
100
AcDbText
  0
TEXT
  5
19DD
330
1B
100
AcDbEntity
 67
     1
  8
DATA
100
AcDbText
 10
120.8283491883755
 20
43.0
 30
0.0
 40
2.4
  1
DISTANCE a  (mm)
 41
0.7
  7
ROMANS
100
AcDbText
  0
TEXT
  5
19DF
330
1B
100
AcDbEntity
 67
     1
  8
DATA
100
AcDbText
 10
68.0
 20
68.0
 30
0.0
 40
2.4
  1
1.8%%P5%%% (NON-ACCUM)
 41
0.7
  7
ROMANS
100
AcDbText
  0
TEXT
  5
19E0
330
1B
100
AcDbEntity
 67
     1
  8
DATA
100
AcDbText
 10
81.0
 20
88.0
 30
0.0
 40
2.4
  1
12.4%%P10%%%
 41
0.7
  7
ROMANS
100
AcDbText
  0
TEXT
  5
19E1
330
1B
100
AcDbEntity
 67
     1
  8
DATA
100
AcDbText
 10
81.0
 20
93.0
 30
0.0
 40
2.4
  1
0.71
 41
0.7
  7
ROMANS
100
AcDbText
  0
TEXT
  5
19E2
330
1B
100
AcDbEntity
 67
     1
  8
DATA
100
AcDbText
 10
50.82834918837557
 20
102.617252115867
 30
0.0
 40
2.399999999999999
  1
BIPOLAR-1 WINDING
 41
0.7
  7
ROMANS
100
AcDbText
  0
TEXT
  5
19E3
330
1B
100
AcDbEntity
 67
     1
  8
DATA
100
AcDbText
 10
53.82834918837557
 20
107.617252115867
 30
0.0
 40
2.399999999999999
  1
UNIPOLAR OR
 41
0.7
  7
ROMANS
100
AcDbText
  0
TEXT
  5
19E4
330
1B
100
AcDbEntity
 67
     1
  8
DATA
100
AcDbText
 10
31.82834918837557
 20
107.617252115867
 30
0.0
 40
2.4
  1
CONNECTION
 41
0.7
  7
ROMANS
100
AcDbText
  0
TEXT
  5
19E5
330
1B
100
AcDbEntity
 67
     1
  8
DATA
100
AcDbText
 10
53.82834918837557
 20
83.0
 30
0.0
 40
2.4
  1
9.7%%P20%%%
 41
0.7
  7
ROMANS
100
AcDbText
  0
TEXT
  5
19E6
330
1B
100
AcDbEntity
 67
     1
  8
DATA
100
AcDbText
 10
53.82834918837557
 20
88.0
 30
0.0
 40
2.4
  1
6.2%%P10%%%
 41
0.7
  7
ROMANS
100
AcDbText
  0
TEXT
  5
19E7
330
1B
100
AcDbEntity
 67
     1
  8
DATA
100
AcDbText
 10
53.82834918837557
 20
93.0
 30
0.0
 40
2.4
  1
1.0
 41
0.7
  7
ROMANS
100
AcDbText
  0
TEXT
  5
19E8
330
1B
100
AcDbEntity
 67
     1
  8
DATA
100
AcDbText
 10
53.82834918837557
 20
98.0
 30
0.0
 40
2.4
  1
6.2
 41
0.7
  7
ROMANS
100
AcDbText
  0
TEXT
  5
19E9
330
1B
100
AcDbEntity
 67
     1
  8
DATA
100
AcDbText
 10
1.828349188375568
 20
98.0
 30
0.0
 40
2.4
  1
VOLTAGE (VDC)
 41
0.7
  7
ROMANS
100
AcDbText
  0
TEXT
  5
19EA
330
1B
100
AcDbEntity
 67
     1
  8
DATA
100
AcDbText
 10
1.828349188375568
 20
93.0
 30
0.0
 40
2.4
  1
AMPS/PHASE
 41
0.7
  7
ROMANS
100
AcDbText
  0
TEXT
  5
19EB
330
1B
100
AcDbEntity
 67
     1
  8
DATA
100
AcDbText
 10
1.828349188375568
 20
103.617252115867
 30
0.0
 40
2.4
  1
SPECIFICATION
 41
0.7
  7
ROMANS
100
AcDbText
  0
TEXT
  5
19EC
330
1B
100
AcDbEntity
 67
     1
  8
DATA
100
AcDbText
 10
1.828349188375568
 20
88.0
 30
0.0
 40
2.4
  1
RESISTANCE/PHASE  (Ohms)@25%%DC
 41
0.7
  7
ROMANS
100
AcDbText
  0
TEXT
  5
19ED
330
1B
100
AcDbEntity
 67
     1
  8
DATA
100
AcDbText
 10
1.828349188375568
 20
83.0
 30
0.0
 40
2.4
  1
INDUCTANCE/PHASE (mH) @1KHz
 41
0.7
  7
ROMANS
100
AcDbText
  0
TEXT
  5
19EE
330
1B
100
AcDbEntity
 67
     1
  8
DATA
100
AcDbText
 10
53.82834918837557
 20
78.0
 30
0.0
 40
2.4
  1
0.65 [5.75]
 41
0.7
  7
ROMANS
100
AcDbText
  0
TEXT
  5
19EF
330
1B
100
AcDbEntity
 67
     1
  8
DATA
100
AcDbText
 10
1.828349188375568
 20
78.0
 30
0.0
 40
2.4
  1
HOLDING TORQUE (Nm) [lb-in]
 41
0.7
  7
ROMANS
100
AcDbText
  0
TEXT
  5
19F0
330
1B
100
AcDbEntity
 67
     1
  8
DATA
100
AcDbText
 10
1.828349188375568
 20
53.0
 30
0.0
 40
2.4
  1
WEIGHT (Kg) [lb]
 41
0.7
  7
ROMANS
100
AcDbText
  0
TEXT
  5
19F1
330
1B
100
AcDbEntity
 67
     1
  8
DATA
100
AcDbText
 10
1.828349188375568
 20
68.0
 30
0.0
 40
2.4
  1
STEP ANGLE (°) %%P ACCURACY
 41
0.7
  7
ROMANS
100
AcDbText
  0
TEXT
  5
19F2
330
1B
100
AcDbEntity
 67
     1
  8
DATA
100
AcDbText
 10
1.828349188375568
 20
63.0
 30
0.0
 40
2.4
  1
BACK-EMF (V) (300 U/min)
 41
0.7
  7
ROMANS
100
AcDbText
  0
LEADER
  5
19F4
330
1B
100
AcDbEntity
 67
     1
  8
DIM
100
AcDbLeader
  3
STANDARD
 76
     2
 10
140.0606073289473
 20
78.69222240356484
 30
0.0
 10
140.0606073289473
 20
86.51626982104639
 30
0.0
1001
ACAD
1000
DSTYLE
1002
{
1070
    41
1040
2.399999999999999
1070
   341
1005
0
1070
    40
1040
1.0
1070
    77
1070
     0
1002
}
  0
TEXT
  5
19F6
330
1B
100
AcDbEntity
 67
     1
  8
DATA
100
AcDbText
 10
83.82834918837557
 20
102.617252115867
 30
0.0
 40
2.399999999999999
  1
SERIAL
 41
0.7
  7
ROMANS
100
AcDbText
  0
TEXT
  5
19F7
330
1B
100
AcDbEntity
 67
     1
  8
DATA
100
AcDbText
 10
88.82834918837557
 20
107.617252115867
 30
0.0
 40
2.399999999999999
  1
BIPOLAR
 41
0.7
  7
ROMANS
100
AcDbText
  0
LINE
  5
19F9
330
1B
100
AcDbEntity
 67
     1
  8
SPEC
100
AcDbLine
 10
0.0009154015513104
 20
111.6559890122013
 30
0.0
 11
281.8407943483788
 21
111.6559890122013
 31
0.0
  0
LINE
  5
19FA
330
1B
100
AcDbEntity
 67
     1
  8
SPEC
100
AcDbLine
 10
282.0457477520906
 20
21.65598908869334
 30
0.0
 11
0.0009154015513104
 21
21.6559890122013
 31
0.0
  0
LINE
  5
19FB
330
1B
100
AcDbEntity
 67
     1
  8
SPEC
100
AcDbLine
 10
0.0009154015513104
 20
111.6559890122013
 30
0.0
 11
110.0009154015513
 21
111.6559890122013
 31
0.0
  0
LINE
  5
19FD
330
1B
100
AcDbEntity
 67
     1
  8
SPEC
100
AcDbLine
 10
0.0009154015513104
 20
26.65598901220131
 30
0.0
 11
180.0009154015513
 21
26.65598901220131
 31
0.0
  0
LINE
  5
19FF
330
1B
100
AcDbEntity
 67
     1
  8
SPEC
100
AcDbLine
 10
0.0009154015513104
 20
31.65598901220131
 30
0.0
 11
180.0009154015513
 21
31.65598901220131
 31
0.0
  0
LINE
  5
1A00
330
1B
100
AcDbEntity
 67
     1
  8
SPEC
100
AcDbLine
 10
0.0009154015513104
 20
36.65598901220142
 30
0.0
 11
180.0009154015513
 21
36.65598901220142
 31
0.0
  0
LINE
  5
1A01
330
1B
100
AcDbEntity
 67
     1
  8
SPEC
100
AcDbLine
 10
0.0009154015513104
 20
46.65598901220142
 30
0.0
 11
180.0009154015513
 21
46.65598901220142
 31
0.0
  0
LINE
  5
1A02
330
1B
100
AcDbEntity
 67
     1
  8
SPEC
100
AcDbLine
 10
0.0009154015513104
 20
41.65598901220142
 30
0.0
 11
180.0009154015513
 21
41.65598901220142
 31
0.0
  0
LINE
  5
1A03
330
1B
100
AcDbEntity
 67
     1
  8
SPEC
100
AcDbLine
 10
0.0009154015513104
 20
66.65598901220142
 30
0.0
 11
120.0009154015513
 21
66.6559890122013
 31
0.0
  0
LINE
  5
1A04
330
1B
100
AcDbEntity
 67
     1
  8
SPEC
100
AcDbLine
 10
0.0009154015513104
 20
61.65598901220142
 30
0.0
 11
120.0009154015513
 21
61.65598901220142
 31
0.0
  0
LINE
  5
1A05
330
1B
100
AcDbEntity
 67
     1
  8
SPEC
100
AcDbLine
 10
0.0009154015513104
 20
56.6559890122013
 30
0.0
 11
120.0009154015513
 21
56.6559890122013
 31
0.0
  0
LINE
  5
1A06
330
1B
100
AcDbEntity
 67
     1
  8
SPEC
100
AcDbLine
 10
0.0009154015513104
 20
51.6559890122013
 30
0.0
 11
180.0009154015513
 21
51.6559890122013
 31
0.0
  0
LINE
  5
1A07
330
1B
100
AcDbEntity
 67
     1
  8
SPEC
100
AcDbLine
 10
0.0009154015513104
 20
101.6559890122014
 30
0.0
 11
120.0009154015513
 21
101.6559890122014
 31
0.0
  0
LINE
  5
1A08
330
1B
100
AcDbEntity
 67
     1
  8
SPEC
100
AcDbLine
 10
0.0009154015513104
 20
96.6559890122013
 30
0.0
 11
120.0009154015513
 21
96.6559890122013
 31
0.0
  0
LINE
  5
1A09
330
1B
100
AcDbEntity
 67
     1
  8
SPEC
100
AcDbLine
 10
0.0009154015513104
 20
86.6559890122013
 30
0.0
 11
120.0009154015513
 21
86.6559890122013
 31
0.0
  0
LINE
  5
1A0A
330
1B
100
AcDbEntity
 67
     1
  8
SPEC
100
AcDbLine
 10
0.0009154015513104
 20
91.6559890122013
 30
0.0
 11
120.0009154015513
 21
91.6559890122013
 31
0.0
  0
LINE
  5
1A0B
330
1B
100
AcDbEntity
 67
     1
  8
SPEC
100
AcDbLine
 10
0.0009154015513104
 20
71.6559890122013
 30
0.0
 11
120.0009154015513
 21
71.6559890122013
 31
0.0
  0
LINE
  5
1A0C
330
1B
100
AcDbEntity
 67
     1
  8
SPEC
100
AcDbLine
 10
0.0009154015513104
 20
76.65598901220142
 30
0.0
 11
120.0009154015513
 21
76.65598901220142
 31
0.0
  0
LINE
  5
1A0D
330
1B
100
AcDbEntity
 67
     1
  8
SPEC
100
AcDbLine
 10
0.0009154015513104
 20
81.65598901220141
 30
0.0
 11
120.0009154015513
 21
81.65598901220141
 31
0.0
  0
MTEXT
  5
1A0E
330
1B
100
AcDbEntity
 67
     1
  8
DATA
100
AcDbMText
 10
2.328349188375568
 20
61.11725211586701
 30
0.0
 40
2.399999999999999
 41
110.0
 71
     1
 72
     5
  1
{\W0.7;ROTOR INERTIA (Kg-m²) [lb-in²]}
  7
ROMANS
 73
     1
 44
1.0
1001
ACAD
1000
ACAD_MTEXT_DEFINED_HEIGHT_BEGIN
1070
    46
1040
0.0
1000
ACAD_MTEXT_DEFINED_HEIGHT_END
1000
MTEXTBEGIN
1070
    73
1070
     1
1070
    44
1040
1.0
1070
    74
1070
     0
1000
MTEXTEND
  0
LINE
  5
1A0F
330
1B
100
AcDbEntity
 67
     1
  8
SPEC
100
AcDbLine
 10
0.0009154015513104
 20
91.6559890122013
 30
0.0
 11
50.00091540155131
 21
91.6559890122013
 31
0.0
  0
LINE
  5
1A10
330
1B
100
AcDbEntity
 67
     1
  8
SPEC
100
AcDbLine
 10
50.00091540155131
 20
111.6559890122013
 30
0.0
 11
50.00091540155131
 21
71.6559890122013
 31
0.0
  0
LINE
  5
1A11
330
1B
100
AcDbEntity
 67
     1
  8
SPEC
100
AcDbLine
 10
50.00091540155131
 20
101.6559890122014
 30
0.0
 11
0.0009154015513104
 21
111.6559890122013
 31
0.0
  0
LINE
  5
1A13
330
1B
100
AcDbEntity
 67
     1
  8
SPEC
100
AcDbLine
 10
50.00091540155131
 20
111.6559890122013
 30
0.0
 11
80.0009154015513
 21
111.6559890122013
 31
0.0
  0
LINE
  5
1A14
330
1B
100
AcDbEntity
 67
     1
  8
SPEC
100
AcDbLine
 10
78.00091540155131
 20
111.6559890122013
 30
0.0
 11
78.00091540155131
 21
76.65598901220142
 31
0.0
  0
LINE
  5
1A15
330
1B
100
AcDbEntity
 67
     1
  8
SPEC
100
AcDbLine
 10
110.0009154015513
 20
111.6559890122013
 30
0.0
 11
170.0009154015513
 21
111.6559890122013
 31
0.0
  0
TEXT
  5
1A16
330
1B
100
AcDbEntity
 67
     1
  8
DATA
100
AcDbText
 10
121.8283491883755
 20
28.0
 30
0.0
 40
2.4
  1
SHAFT PLAY (mm)
 41
0.7
  7
ROMANS
100
AcDbText
  0
LINE
  5
1A17
330
1B
100
AcDbEntity
 67
     1
  8
SPEC
100
AcDbLine
 10
110.0009154015513
 20
31.65598901220131
 30
0.0
 11
140.0009154015513
 21
31.65598901220131
 31
0.0
  0
TEXT
  5
1A18
330
1B
100
AcDbEntity
 67
     1
  8
DATA
100
AcDbText
 10
153.0
 20
32.61725211586702
 30
0.0
 40
2.5
  1
AXIAL
 41
0.7
  7
ROMANS
100
AcDbText
  0
TEXT
  5
1A19
330
1B
100
AcDbEntity
 67
     1
  8
DATA
100
AcDbText
 10
167.8283491883755
 20
32.61725211586702
 30
0.0
 40
2.5
  1
RADIAL
 41
0.7
  7
ROMANS
100
AcDbText
  0
TEXT
  5
1A1A
330
1B
100
AcDbEntity
 67
     1
  8
DATA
100
AcDbText
 10
153.0
 20
27.61725211586702
 30
0.0
 40
2.5
  1
0.08
 41
0.7
  7
ROMANS
100
AcDbText
  0
TEXT
  5
1A1B
330
1B
100
AcDbEntity
 67
     1
  8
DATA
100
AcDbText
 10
167.8283491883755
 20
27.61725211586702
 30
0.0
 40
2.5
  1
0.02
 41
0.7
  7
ROMANS
100
AcDbText
  0
TEXT
  5
1A1C
330
1B
100
AcDbEntity
 67
     1
  8
DATA
100
AcDbText
 10
153.0
 20
22.61725211586702
 30
0.0
 40
2.5
  1
4.5
 41
0.7
  7
ROMANS
100
AcDbText
  0
TEXT
  5
1A1D
330
1B
100
AcDbEntity
 67
     1
  8
DATA
100
AcDbText
 10
167.8283491883755
 20
22.61725211586702
 30
0.0
 40
2.5
  1
4.5
 41
0.7
  7
ROMANS
100
AcDbText
  0
LINE
  5
1A1E
330
1B
100
AcDbEntity
 67
     1
  8
SPEC
100
AcDbLine
 10
120.0009154015513
 20
36.65598901220142
 30
0.0
 11
150.0009154015513
 21
31.65598901220131
 31
0.0
  0
LINE
  5
1A1F
330
1B
100
AcDbEntity
 67
     1
  8
SPEC
100
AcDbLine
 10
140.0009154015513
 20
46.65598901220142
 30
0.0
 11
146.0009154015513
 21
46.65598901220142
 31
0.0
  0
LINE
  5
1A21
330
1B
100
AcDbEntity
 67
     1
  8
SPEC
100
AcDbLine
 10
157.5009154015513
 20
46.65598901220142
 30
0.0
 11
157.5009154015513
 21
36.65598901220142
 31
0.0
  0
LINE
  5
1A22
330
1B
100
AcDbEntity
 67
     1
  8
SPEC
100
AcDbLine
 10
165.0009154015513
 20
46.65598901220142
 30
0.0
 11
165.0009154015513
 21
36.65598901220142
 31
0.0
  0
LINE
  5
1A23
330
1B
100
AcDbEntity
 67
     1
  8
SPEC
100
AcDbLine
 10
172.4450687382885
 20
46.65598901220142
 30
0.0
 11
172.4450687382885
 21
36.65598901220142
 31
0.0
  0
LINE
  5
1A6A
330
1B
100
AcDbEntity
 67
     1
  8
SPEC
100
AcDbLine
 10
120.0009154015513
 20
111.6559890122013
 30
0.0
 11
120.0009154015513
 21
21.6559890122013
 31
0.0
  0
VIEWPORT
  5
1E55
102
{ACAD_XDICTIONARY
360
5E00
102
}
330
1B
100
AcDbEntity
 67
     1
  8
SPEC
100
AcDbViewport
 10
141.0232986694466
 20
153.8221356339634
 30
0.0
 40
282.0447665357907
 41
84.33229324352423
 68
     2
 69
     2
 12
1235.720124505414
 22
685.9789199939187
 13
0.0
 23
0.0
 14
2.5
 24
2.5
 15
10.0
 25
10.0
 16
0.0
 26
0.0
 36
1.0
 17
0.0
 27
0.0
 37
0.0
 42
50.0
 43
0.0
 44
0.0
 45
173.0831489032082
 50
0.0
 51
0.0
 72
   100
 90
    32864
  1

281
     0
 71
     1
 74
     0
110
0.0
120
0.0
130
0.0
111
1.0
121
0.0
131
0.0
112
0.0
122
1.0
132
0.0
 79
     0
146
0.0
1001
GENIUS_GENOBJ-N-SDF_13
1002
{
1000
OWNER
1000
GEN
1002
}
1001
GENIUS_GENODEF_13
1002
{
1000
HIER
1070
     0
1002
}
1002
{
1000
MANEDIT
1070
     0
1002
}
1002
{
1000
NOSEL
1070
     0
1002
}
1002
{
1000
BEHIND
1070
     0
1002
}
1002
{
1000
OTHER
1070
     0
1002
}
1002
{
1000
REACTOR
1002
}
1001
GENIUS_GENSCREG_15
1000
PF
1040
0.0
1000
DF
1040
0.0
1000
MIN
1011
0.0009154015513104
1021
111.6559890122013
1031
0.0
1000
MAX
1011
282.045681937342
1021
195.9882822557255
1031
0.0
1000
FLAGS
1070
     2
  0
TEXT
  5
2CB6
330
1B
100
AcDbEntity
 67
     1
  8
DATA
100
AcDbText
 10
78.3133187217968
 20
59.63917838557382
 30
0.0
 40
1.399999999999999
  1
-5
 41
0.7
  7
ROMANS
100
AcDbText
  0
TEXT
  5
2CB7
330
1B
100
AcDbEntity
 67
     1
  8
DATA
100
AcDbText
 10
68.0
 20
53.0
 30
0.0
 40
2.4
  1
0.65 [1.43]
 41
0.7
  7
ROMANS
100
AcDbText
  0
TEXT
  5
2CBF
330
1B
100
AcDbEntity
 67
     1
  8
DATA
100
AcDbText
 10
81.0
 20
83.0
 30
0.0
 40
2.4
  1
38.8%%P20%%%
 41
0.7
  7
ROMANS
100
AcDbText
  0
TEXT
  5
2CCB
330
1B
100
AcDbEntity
 67
     1
  8
DATA
100
AcDbText
 10
81.0
 20
78.0
 30
0.0
 40
2.4
  1
0.92 [8.13]
 41
0.7
  7
ROMANS
100
AcDbText
  0
LWPOLYLINE
  5
2CEB
330
1B
100
AcDbEntity
 67
     1
  8
SPEC
100
AcDbPolyline
 90
        4
 70
     1
 43
0.0
 10
149.0972407104071
 20
91.87558421750372
 10
169.2275531197891
 20
91.87558421750374
 10
169.2275531197891
 20
60.09299455805124
 10
149.0972407104071
 20
60.09299455805124
  0
LWPOLYLINE
  5
2D6D
330
1B
100
AcDbEntity
 67
     1
  8
SPEC
100
AcDbPolyline
 90
        4
 70
     1
 43
0.0
 10
149.0972407104071
 20
87.09730240531003
 10
147.6137908953366
 20
87.09730240531003
 10
147.6137908953366
 20
64.87127637024494
 10
149.0972407104071
 20
64.87127637024494
  0
LINE
  5
2D70
330
1B
100
AcDbEntity
 67
     1
  8
SPEC
100
AcDbLine
 10
178.9451046743791
 20
74.09868988223387
 30
0.0
 11
169.2275531197891
 21
74.09868988223387
 31
0.0
  0
LINE
  5
2D71
330
1B
100
AcDbEntity
 67
     1
  8
SPEC
100
AcDbLine
 10
178.9451046743791
 20
77.86988889332109
 30
0.0
 11
169.2275531197891
 21
77.86988889332109
 31
0.0
  0
LINE
  5
2D72
330
1B
100
AcDbEntity
 67
     1
  8
SPEC
100
AcDbLine
 10
178.9451046743791
 20
74.09868988223387
 30
0.0
 11
178.9451046743791
 21
77.86988889332109
 31
0.0
  0
LWPOLYLINE
  5
2D94
330
1B
100
AcDbEntity
 67
     1
  8
SPEC
100
AcDbPolyline
 90
        4
 70
     1
 43
0.0
 10
167.9302096399492
 20
81.38735029589254
 10
164.6305199228664
 20
81.38735029589254
 10
164.6305199228664
 20
70.58122847966247
 10
167.9302096399492
 20
70.58122847966247
  0
CIRCLE
  5
2D95
330
1B
100
AcDbEntity
 67
     1
  8
SPEC
100
AcDbCircle
 10
166.2803647814078
 20
79.73750543735114
 30
0.0
 40
1.649844858541398
  0
CIRCLE
  5
2D96
330
1B
100
AcDbEntity
 67
     1
  8
SPEC
100
AcDbCircle
 10
166.2803647814078
 20
72.23107333820388
 30
0.0
 40
1.649844858541398
  0
LINE
  5
2D97
330
1B
100
AcDbEntity
 67
     1
  8
SPEC
100
AcDbLine
 10
167.9302096399492
 20
81.38735029589254
 30
0.0
 11
168.5734045934214
 21
80.74081741993238
 31
0.0
  0
LINE
  5
2D98
330
1B
100
AcDbEntity
 67
     1
  8
SPEC
100
AcDbLine
 10
168.6531348075577
 20
77.651473709366
 30
0.0
 11
168.5053768956558
 21
77.48676576983574
 31
0.0
  0
LINE
  5
2D99
330
1B
100
AcDbEntity
 67
     1
  8
SPEC
100
AcDbLine
 10
168.5053768956559
 20
74.48181300571924
 30
0.0
 11
168.6531348075576
 21
74.31710506618914
 31
0.0
  0
LINE
  5
2D9A
330
1B
100
AcDbEntity
 67
     1
  8
SPEC
100
AcDbLine
 10
168.5734045934215
 20
71.2277613556228
 30
0.0
 11
167.9302096399492
 21
70.58122847966247
 31
0.0
  0
ARC
  5
2D9E
330
1B
100
AcDbEntity
 67
     1
  8
SPEC
100
AcDbCircle
 10
166.9783020632643
 20
79.15395009142419
 30
0.0
 40
2.25
100
AcDbArc
 50
318.1050245216237
 51
44.85171410623403
  0
ARC
  5
2DA1
330
1B
100
AcDbEntity
 67
     1
  8
SPEC
100
AcDbCircle
 10
166.9783020632643
 20
72.81462868413088
 30
0.0
 40
2.25
100
AcDbArc
 50
315.1482858937687
 51
41.8949754783788
  0
ARC
  5
2DA2
330
1B
100
AcDbEntity
 67
     1
  8
SPEC
100
AcDbCircle
 10
170.1802096399492
 20
75.98428938777752
 30
0.0
 40
2.25
100
AcDbArc
 50
138.1050245216231
 51
221.8949754783794
  0
LWPOLYLINE
  5
2DA3
330
1B
100
AcDbEntity
 67
     1
  8
SPEC
100
AcDbPolyline
 90
        4
 70
     1
 43
0.0
 10
149.0972407104071
 20
81.38735029589254
 10
152.3969304274899
 20
81.38735029589254
 10
152.3969304274899
 20
70.58122847966247
 10
149.0972407104071
 20
70.58122847966247
  0
CIRCLE
  5
2DA4
330
1B
100
AcDbEntity
 67
     1
  8
SPEC
100
AcDbCircle
 10
150.7470855689485
 20
79.73750543735114
 30
0.0
 40
1.649844858541398
  0
CIRCLE
  5
2DA5
330
1B
100
AcDbEntity
 67
     1
  8
SPEC
100
AcDbCircle
 10
150.7470855689485
 20
72.23107333820388
 30
0.0
 40
1.649844858541398
  0
TEXT
  5
2DC8
330
1B
100
AcDbEntity
 67
     1
  8
DATA
100
AcDbText
 10
1.828349188375568
 20
23.0
 30
0.0
 40
2.4
  1
AMBIENT HUMIDITY MAX. 85% (NO CONDENSATION)
 41
0.7
  7
ROMANS
100
AcDbText
  0
TEXT
  5
2DCB
330
1B
100
AcDbEntity
 67
     1
  8
DATA
100
AcDbText
 10
68.0
 20
58.0
 30
0.0
 40
2.4
  1
2.75x10  [0.094]
 41
0.7
  7
ROMANS
100
AcDbText
  0
LINE
  5
2DD6
330
1B
100
AcDbEntity
 67
     1
  8
SPEC
100
AcDbLine
 10
146.0009154015513
 20
46.65598901220142
 30
0.0
 11
151.0009154015513
 21
46.65598901220142
 31
0.0
  0
LINE
  5
2DD7
330
1B
100
AcDbEntity
 67
     1
  8
SPEC
100
AcDbLine
 10
150.0009154015513
 20
51.6559890122013
 30
0.0
 11
150.0009154015513
 21
21.6559890122013
 31
0.0
  0
LINE
  5
2DD8
330
1B
100
AcDbEntity
 67
     1
  8
SPEC
100
AcDbLine
 10
140.0009154015513
 20
36.65598901220131
 30
0.0
 11
155.0009154015513
 21
36.65598901220136
 31
0.0
  0
LINE
  5
2DD9
330
1B
100
AcDbEntity
 67
     1
  8
SPEC
100
AcDbLine
 10
165.0009154015513
 20
36.65598901220136
 30
0.0
 11
165.0009154015513
 21
21.6559890122013
 31
0.0
  0
TEXT
  5
2DE0
330
1B
100
AcDbEntity
 67
     1
  8
DATA
100
AcDbText
 10
121.8283491883755
 20
23.0
 30
0.0
 40
2.4
  1
AT LOAD MAX: (N)
 41
0.7
  7
ROMANS
100
AcDbText
  0
LINE
  5
2DE5
330
1B
100
AcDbEntity
 67
     1
  8
SPEC
100
AcDbLine
 10
137.8962393407465
 20
74.09868988223387
 30
0.0
 11
147.6137908953366
 21
74.09868988223387
 31
0.0
  0
LINE
  5
2DE6
330
1B
100
AcDbEntity
 67
     1
  8
SPEC
100
AcDbLine
 10
137.8962393407465
 20
77.86988889332109
 30
0.0
 11
147.6137908953366
 21
77.86988889332109
 31
0.0
  0
LINE
  5
2DE7
330
1B
100
AcDbEntity
 67
     1
  8
SPEC
100
AcDbLine
 10
137.8962393407465
 20
74.09868988223387
 30
0.0
 11
137.8962393407465
 21
77.86988889332109
 31
0.0
  0
MTEXT
  5
2E04
330
1B
100
AcDbEntity
 67
     1
  8
SPEC
 62
     6
100
AcDbMText
 10
155.5187721793249
 20
89.62880385942026
 30
0.0
 40
2.0
 41
0.0
 71
     1
 72
     1
  1
BEARING
  7
ROMANS
 73
     1
 44
1.0
1001
ACAD
1000
ACAD_MTEXT_DEFINED_HEIGHT_BEGIN
1070
    46
1040
0.0
1000
ACAD_MTEXT_DEFINED_HEIGHT_END
1000
MTEXTBEGIN
1070
    73
1070
     1
1070
    44
1040
1.0
1070
    74
1070
     0
1000
MTEXTEND
  0
LEADER
  5
2E07
330
1B
100
AcDbEntity
 67
     1
  8
SPEC
100
AcDbLeader
  3
STANDARD
 76
     2
 10
166.2803647814078
 20
79.73750543735114
 30
0.0
 10
160.8271563148611
 20
87.12304269521258
 30
0.0
1001
ACAD
1000
DSTYLE
1002
{
1070
   147
1040
1.0
1070
    77
1070
     0
1002
}
  0
LEADER
  5
2E09
330
1B
100
AcDbEntity
 67
     1
  8
SPEC
100
AcDbLeader
  3
STANDARD
 76
     2
 10
150.7470855689485
 20
79.73750543735114
 30
0.0
 10
156.7956208247884
 20
86.83653569069861
 30
0.0
1001
ACAD
1000
DSTYLE
1002
{
1070
   147
1040
1.0
1070
    77
1070
     0
1002
}
  0
LEADER
  5
2E0A
330
1B
100
AcDbEntity
 67
     1
  8
SPEC
100
AcDbLeader
  3
STANDARD
 73
     0
 75
     1
 40
5.333333333333333
 41
9.066666666666666
 76
     3
 10
168.5734045934214
 20
80.74081741993238
 30
0.0
 10
177.085357489354
 20
94.46023307290511
 30
0.0
 10
174.085357489354
 20
94.46023307290511
 30
0.0
340
2E0B
213
1.161548087573919
223
-4.427990251304436
233
0.0
1001
ACAD
1000
DSTYLE
1002
{
1070
   147
1040
1.0
1070
    77
1070
     0
1002
}
  0
MTEXT
  5
2E0B
102
{ACAD_REACTORS
330
2E0A
102
}
330
1B
100
AcDbEntity
 67
     1
  8
SPEC
 62
     6
100
AcDbMText
 10
171.9238094017801
 20
98.88822332420955
 30
0.0
 40
2.0
 41
0.0
 71
     3
 72
     1
  1
SPRING\PWASHER
  7
ROMANS
 73
     1
 44
1.0
1001
ACAD
1000
ACAD_MTEXT_DEFINED_HEIGHT_BEGIN
1070
    46
1040
0.0
1000
ACAD_MTEXT_DEFINED_HEIGHT_END
1000
MTEXTBEGIN
1070
    73
1070
     1
1070
    44
1040
1.0
1070
    74
1070
     0
1000
MTEXTEND
  0
MTEXT
  5
2E48
330
1B
100
AcDbEntity
 67
     1
  8
SPEC
 62
     6
100
AcDbMText
 10
121.8786983663672
 20
99.27994356100203
 30
0.0
 40
2.0
 41
0.0
 71
     1
 72
     1
  1
ROTOR SPRING-\PMOUNTED IN\PAXIAL DIRECTION
  7
ROMANS
 73
     1
 44
1.0
1001
ACAD
1000
ACAD_MTEXT_DEFINED_HEIGHT_BEGIN
1070
    46
1040
0.0
1000
ACAD_MTEXT_DEFINED_HEIGHT_END
1000
MTEXTBEGIN
1070
    73
1070
     1
1070
    44
1040
1.0
1070
    74
1070
     0
1000
MTEXTEND
  0
LEADER
  5
2E5C
330
1B
100
AcDbEntity
 67
     1
  8
DIM
100
AcDbLeader
  3
STANDARD
 76
     2
 10
141.5179864032658
 20
89.06775256840445
 30
0.0
 10
122.2566843209139
 20
89.06775256840445
 30
0.0
1001
ACAD
1000
DSTYLE
1002
{
1070
   147
1040
1.0
1070
    77
1070
     0
1002
}
  0
TEXT
  5
38D0
330
1B
100
AcDbEntity
 67
     1
  8
DATA
100
AcDbText
 10
244.8078089425095
 20
38.41229961393208
 30
0.0
 40
1.9999999992
  1
(A\) GRN
 41
0.7
  7
ROMANS
 72
     2
 11
254.7411422718695
 21
38.41229961393208
 31
0.0
100
AcDbText
  0
TEXT
  5
38D1
330
1B
100
AcDbEntity
 67
     1
  8
DATA
100
AcDbText
 10
245.2744756089896
 20
46.41229961393207
 30
0.0
 40
1.9999999992
  1
BLK/WHT
 41
0.7
  7
ROMANS
 72
     2
 11
254.7411422718695
 21
46.41229961393207
 31
0.0
100
AcDbText
  0
TEXT
  5
38D2
330
1B
100
AcDbEntity
 67
     1
  8
DATA
100
AcDbText
 10
244.9411422757895
 20
43.41229961393207
 30
0.0
 40
1.9999999992
  1
GRN/WHT
 41
0.7
  7
ROMANS
 72
     2
 11
254.7411422718695
 21
43.41229961393207
 31
0.0
100
AcDbText
  0
TEXT
  5
38D3
330
1B
100
AcDbEntity
 67
     1
  8
DATA
100
AcDbText
 10
246.5411422751495
 20
51.41229961393207
 30
0.0
 40
1.9999999992
  1
(A) BLK
 41
0.7
  7
ROMANS
 72
     2
 11
254.7411422718695
 21
51.41229961393207
 31
0.0
100
AcDbText
  0
ARC
  5
38D4
330
1B
100
AcDbEntity
 67
     1
  8
DATA
100
AcDbCircle
 10
261.2043791218182
 20
42.85949868349812
 30
0.0
 40
0.568285714058395
100
AcDbArc
 50
90.0
 51
270.0
  0
CIRCLE
  5
38D5
330
1B
100
AcDbEntity
 67
     1
  8
DATA
100
AcDbCircle
 10
268.8324323751954
 20
46.06229359063296
 30
0.0
 40
5.453506041597846
  0
ARC
  5
38D6
330
1B
100
AcDbEntity
 67
     1
  8
DATA
100
AcDbCircle
 10
273.1795219741711
 20
38.72721297086531
 30
0.0
 40
0.568285714058395
100
AcDbArc
 50
180.0
 51
0.0
  0
TEXT
  5
38D7
330
1B
100
AcDbEntity
 67
     1
  8
DATA
100
AcDbText
 10
267.7411422710695
 20
22.81229961777208
 30
0.0
 40
1.9999999992
  1
RED/WHT
 50
90.0
 41
0.7
  7
ROMANS
 72
     2
 11
265.7411422718695
 21
32.41229961393208
 31
0.0
100
AcDbText
 73
     3
  0
TEXT
  5
38D8
330
1B
100
AcDbEntity
 67
     1
  8
DATA
100
AcDbText
 10
270.7411422710695
 20
22.87896628441208
 30
0.0
 40
1.9999999992
  1
BLU/WHT
 50
90.0
 41
0.7
  7
ROMANS
 72
     2
 11
268.7411422718696
 21
32.41229961393208
 31
0.0
100
AcDbText
 73
     3
  0
TEXT
  5
38D9
330
1B
100
AcDbEntity
 67
     1
  8
DATA
100
AcDbText
 10
262.7411422710695
 20
23.87896628401208
 30
0.0
 40
1.9999999992
  1
(B) RED
 50
90.0
 41
0.7
  7
ROMANS
 72
     2
 11
260.7411422718695
 21
32.41229961393208
 31
0.0
100
AcDbText
 73
     3
  0
ARC
  5
38DA
330
1B
100
AcDbEntity
 67
     1
  8
DATA
100
AcDbCircle
 10
264.8429505489342
 20
38.72721297086531
 30
0.0
 40
0.568285714058395
100
AcDbArc
 50
180.0
 51
0.0
  0
LINE
  5
38DB
330
1B
100
AcDbEntity
 67
     1
  8
DATA
100
AcDbLine
 10
262.1146648357399
 20
34.37121297260771
 30
0.0
 11
262.1146648357399
 21
38.72721297086531
 31
0.0
  0
CIRCLE
  5
38DC
330
1B
100
AcDbEntity
 67
     1
  8
DATA
100
AcDbCircle
 10
262.1146648357399
 20
33.99064154418849
 30
0.0
 40
0.3805714284191993
  0
LINE
  5
38DD
330
1B
100
AcDbEntity
 67
     1
  8
DATA
100
AcDbLine
 10
261.2043791218182
 20
40.0283558274877
 30
0.0
 11
256.8483791235607
 21
40.0283558274877
 31
0.0
  0
CIRCLE
  5
38DE
330
1B
100
AcDbEntity
 67
     1
  8
DATA
100
AcDbCircle
 10
256.4678076951415
 20
40.0283558274877
 30
0.0
 40
0.3805714284191993
  0
LINE
  5
38DF
330
1B
100
AcDbEntity
 67
     1
  8
DATA
100
AcDbLine
 10
262.1146648357399
 20
38.72721297086531
 30
0.0
 11
263.138093406759
 21
38.72721297086531
 31
0.0
  0
ARC
  5
38E0
330
1B
100
AcDbEntity
 67
     1
  8
DATA
100
AcDbCircle
 10
263.7063791208175
 20
38.72721297086531
 30
0.0
 40
0.568285714058395
100
AcDbArc
 50
180.0
 51
0.0
  0
ARC
  5
38E1
330
1B
100
AcDbEntity
 67
     1
  8
DATA
100
AcDbCircle
 10
261.2043791218182
 20
41.72292725538135
 30
0.0
 40
0.568285714058395
100
AcDbArc
 50
90.0
 51
270.0
  0
LINE
  5
38E2
330
1B
100
AcDbEntity
 67
     1
  8
DATA
100
AcDbLine
 10
261.2043791218182
 20
41.15464154132268
 30
0.0
 11
261.2043791218182
 21
40.0283558274877
 31
0.0
  0
LINE
  5
38E3
330
1B
100
AcDbEntity
 67
     1
  8
DATA
100
AcDbLine
 10
269.3146648328599
 20
34.37121297260771
 30
0.0
 11
269.3146648328599
 21
38.72721297086531
 31
0.0
  0
LINE
  5
38E4
330
1B
100
AcDbEntity
 67
     1
  8
DATA
100
AcDbLine
 10
267.6740934049446
 20
38.72721297086531
 30
0.0
 11
267.6740934049446
 21
34.37121297260771
 31
0.0
  0
CIRCLE
  5
38E5
330
1B
100
AcDbEntity
 67
     1
  8
DATA
100
AcDbCircle
 10
267.6740934049446
 20
33.99064154418849
 30
0.0
 40
0.3805714284191993
  0
CIRCLE
  5
38E6
330
1B
100
AcDbEntity
 67
     1
  8
DATA
100
AcDbCircle
 10
269.3146648328599
 20
33.99064154418849
 30
0.0
 40
0.3805714284191993
  0
ARC
  5
38E7
330
1B
100
AcDbEntity
 67
     1
  8
DATA
100
AcDbCircle
 10
265.9795219770511
 20
38.72721297086531
 30
0.0
 40
0.568285714058395
100
AcDbArc
 50
180.0
 51
0.0
  0
LINE
  5
38E8
330
1B
100
AcDbEntity
 67
     1
  8
DATA
100
AcDbLine
 10
266.5478076911097
 20
38.72721297086531
 30
0.0
 11
267.6740934049446
 21
38.72721297086531
 31
0.0
  0
ARC
  5
38E9
330
1B
100
AcDbEntity
 67
     1
  8
DATA
100
AcDbCircle
 10
270.9063791179374
 20
38.72721297086531
 30
0.0
 40
0.568285714058395
100
AcDbArc
 50
180.0
 51
0.0
  0
LINE
  5
38EA
330
1B
100
AcDbEntity
 67
     1
  8
DATA
100
AcDbLine
 10
269.3146648328599
 20
38.72721297086531
 30
0.0
 11
270.3380934038791
 21
38.72721297086531
 31
0.0
  0
ARC
  5
38EB
330
1B
100
AcDbEntity
 67
     1
  8
DATA
100
AcDbCircle
 10
272.0429505460543
 20
38.72721297086531
 30
0.0
 40
0.568285714058395
100
AcDbArc
 50
180.0
 51
0.0
  0
TEXT
  5
38EC
330
1B
100
AcDbEntity
 67
     1
  8
DATA
100
AcDbText
 10
275.7411422710695
 20
22.54563295121208
 30
0.0
 40
1.9999999992
  1
(B\) BLU
 50
90.0
 41
0.7
  7
ROMANS
 72
     2
 11
273.7411422718695
 21
32.41229961393208
 31
0.0
100
AcDbText
 73
     3
  0
LINE
  5
38ED
330
1B
100
AcDbEntity
 67
     1
  8
DATA
100
AcDbLine
 10
274.8740934020647
 20
38.72721297086531
 30
0.0
 11
274.8740934020647
 21
34.37121297260771
 31
0.0
  0
CIRCLE
  5
38EE
330
1B
100
AcDbEntity
 67
     1
  8
DATA
100
AcDbCircle
 10
274.8740934020647
 20
33.99064154418849
 30
0.0
 40
0.3805714284191993
  0
LINE
  5
38EF
330
1B
100
AcDbEntity
 67
     1
  8
DATA
100
AcDbLine
 10
273.7478076882297
 20
38.72721297086531
 30
0.0
 11
274.8740934020647
 21
38.72721297086531
 31
0.0
  0
ARC
  5
38F0
330
1B
100
AcDbEntity
 67
     1
  8
DATA
100
AcDbCircle
 10
261.2043791218182
 20
48.92292725250136
 30
0.0
 40
0.568285714058395
100
AcDbArc
 50
90.0
 51
270.0
  0
LINE
  5
38F1
330
1B
100
AcDbEntity
 67
     1
  8
DATA
100
AcDbLine
 10
256.8483791235607
 20
45.58778439669251
 30
0.0
 11
261.2043791218182
 21
45.58778439669251
 31
0.0
  0
LINE
  5
38F2
330
1B
100
AcDbEntity
 67
     1
  8
DATA
100
AcDbLine
 10
261.2043791218182
 20
47.22835582460771
 30
0.0
 11
256.8483791235607
 21
47.22835582460771
 31
0.0
  0
CIRCLE
  5
38F3
330
1B
100
AcDbEntity
 67
     1
  8
DATA
100
AcDbCircle
 10
256.4678076951415
 20
45.58778439669251
 30
0.0
 40
0.3805714284191993
  0
CIRCLE
  5
38F4
330
1B
100
AcDbEntity
 67
     1
  8
DATA
100
AcDbCircle
 10
256.4678076951415
 20
47.22835582460771
 30
0.0
 40
0.3805714284191993
  0
LINE
  5
38F5
330
1B
100
AcDbEntity
 67
     1
  8
DATA
100
AcDbLine
 10
261.2043791218182
 20
45.58778439669251
 30
0.0
 11
261.2043791218182
 21
44.56435582567332
 31
0.0
  0
ARC
  5
38F6
330
1B
100
AcDbEntity
 67
     1
  8
DATA
100
AcDbCircle
 10
261.2043791218182
 20
43.99607011161494
 30
0.0
 40
0.568285714058395
100
AcDbArc
 50
90.0
 51
270.0
  0
LINE
  5
38F7
330
1B
100
AcDbEntity
 67
     1
  8
DATA
100
AcDbLine
 10
261.2043791218182
 20
48.3546415384427
 30
0.0
 11
261.2043791218182
 21
47.22835582460771
 31
0.0
  0
LINE
  5
38F8
330
1B
100
AcDbEntity
 67
     1
  8
DATA
100
AcDbLine
 10
256.8483791235607
 20
52.78778439381253
 30
0.0
 11
261.2043791218182
 21
52.78778439381253
 31
0.0
  0
CIRCLE
  5
38F9
330
1B
100
AcDbEntity
 67
     1
  8
DATA
100
AcDbCircle
 10
256.4678076951415
 20
52.78778439381253
 30
0.0
 40
0.3805714284191993
  0
ARC
  5
38FA
330
1B
100
AcDbEntity
 67
     1
  8
DATA
100
AcDbCircle
 10
261.2043791218182
 20
51.19607010873496
 30
0.0
 40
0.568285714058395
100
AcDbArc
 50
90.0
 51
270.0
  0
ARC
  5
38FB
330
1B
100
AcDbEntity
 67
     1
  8
DATA
100
AcDbCircle
 10
261.2043791218182
 20
50.05949868061815
 30
0.0
 40
0.568285714058395
100
AcDbArc
 50
90.0
 51
270.0
  0
LINE
  5
38FC
330
1B
100
AcDbEntity
 67
     1
  8
DATA
100
AcDbLine
 10
261.2043791218182
 20
52.78778439381253
 30
0.0
 11
261.2043791218182
 21
51.76435582279333
 31
0.0
  0
TEXT
  5
38FD
330
1B
100
AcDbEntity
 67
     1
  8
DATA
100
AcDbText
 10
247.4219981061068
 20
55.852166020197
 30
0.0
 40
2.499999999
  1
WIRING DIAGRAM
 41
0.7
  7
ROMANS
100
AcDbText
  0
LINE
  5
390D
330
1B
100
AcDbEntity
 67
     1
  8
SPEC
100
AcDbLine
 10
99.00091540155131
 20
106.6559890122015
 30
0.0
 11
99.00091540155132
 21
76.65598901220142
 31
0.0
  0
TEXT
  5
3919
330
1B
100
AcDbEntity
 67
     1
  8
DATA
100
AcDbText
 10
102.0
 20
88.00000000000002
 30
0.0
 40
2.4
  1
3.1%%P10%%%
 41
0.7
  7
ROMANS
100
AcDbText
  0
TEXT
  5
391A
330
1B
100
AcDbEntity
 67
     1
  8
DATA
100
AcDbText
 10
102.0
 20
93.00000000000002
 30
0.0
 40
2.4
  1
1.41
 41
0.7
  7
ROMANS
100
AcDbText
  0
TEXT
  5
391C
330
1B
100
AcDbEntity
 67
     1
  8
DATA
100
AcDbText
 10
104.8283491883756
 20
102.617252115867
 30
0.0
 40
2.399999999999999
  1
PARALLEL
 41
0.7
  7
ROMANS
100
AcDbText
  0
TEXT
  5
391D
330
1B
100
AcDbEntity
 67
     1
  8
DATA
100
AcDbText
 10
102.0
 20
83.00000000000002
 30
0.0
 40
2.4
  1
9.7%%P20%%%
 41
0.7
  7
ROMANS
100
AcDbText
  0
LINE
  5
391F
330
1B
100
AcDbEntity
 67
     1
  8
SPEC
100
AcDbLine
 10
78.00091540155131
 20
106.6559890122015
 30
0.0
 11
120.0009154015513
 21
106.6559890122015
 31
0.0
  0
TEXT
  5
3926
330
1B
100
AcDbEntity
 67
     1
  8
DATA
100
AcDbText
 10
102.0
 20
78.0
 30
0.0
 40
2.4
  1
0.92 [8.13]
 41
0.7
  7
ROMANS
100
AcDbText
  0
TEXT
  5
4F82
330
1B
100
AcDbEntity
 67
     1
  8
DATA
100
AcDbText
 10
94.6233414402401
 20
4.692527613197721
 30
0.0
 40
3.861395999999999
  1
ST5918S1008
 41
0.7
  7
ROMANS
100
AcDbText
  0
MTEXT
  5
56FA
330
1B
100
AcDbEntity
 67
     1
  8
DATA
100
AcDbMText
 10
128.0295763925582
 20
79.4204407347795
 30
0.0
 40
2.399999999999999
 41
6.509999999999999
 71
     1
 72
     5
  1
F{\H0.8333x;a}
  7
ROMANS
 73
     1
 44
1.0
1001
ACAD
1000
ACAD_MTEXT_DEFINED_HEIGHT_BEGIN
1070
    46
1040
0.0
1000
ACAD_MTEXT_DEFINED_HEIGHT_END
1000
MTEXTBEGIN
1070
    73
1070
     1
1070
    44
1040
1.0
1070
    74
1070
     0
1000
MTEXTEND
  0
TEXT
  5
56FB
330
1B
100
AcDbEntity
 67
     1
  8
DATA
100
AcDbText
 10
242.3737100760261
 20
78.66514701139573
 30
0.0
 40
2.3999999904
  1
GRN
 41
0.7
  7
ROMANS
100
AcDbText
  0
TEXT
  5
56FC
330
1B
100
AcDbEntity
 67
     1
  8
DATA
100
AcDbText
 10
242.3737100760261
 20
74.7794327412243
 30
0.0
 40
2.3999999904
  1
RED
 41
0.7
  7
ROMANS
100
AcDbText
  0
TEXT
  5
56FD
330
1B
100
AcDbEntity
 67
     1
  8
DATA
100
AcDbText
 10
242.3737100760261
 20
70.89371847105288
 30
0.0
 40
2.3999999904
  1
RED/WHT
 41
0.7
  7
ROMANS
100
AcDbText
  0
LINE
  5
56FE
330
1B
100
AcDbEntity
 67
     1
  8
DATA
100
AcDbLine
 10
239.8633158839942
 20
74.13898732888604
 30
0.0
 11
255.8344851184942
 21
74.13898732445762
 31
0.0
  0
LINE
  5
56FF
330
1B
100
AcDbEntity
 67
     1
  8
DATA
100
AcDbLine
 10
239.8633158877757
 20
77.97572213011448
 30
0.0
 11
255.8344851184942
 21
77.97572212294278
 31
0.0
  0
TEXT
  5
5700
330
1B
100
AcDbEntity
 67
     1
  8
DATA
100
AcDbText
 10
242.3737100760261
 20
90.32228982191004
 30
0.0
 40
2.3999999904
  1
BLK
 41
0.7
  7
ROMANS
100
AcDbText
  0
TEXT
  5
5701
330
1B
100
AcDbEntity
 67
     1
  8
DATA
100
AcDbText
 10
242.3737100760261
 20
86.43657555173859
 30
0.0
 40
2.3999999904
  1
BLK/WHT
 41
0.7
  7
ROMANS
100
AcDbText
  0
LINE
  5
5702
330
1B
100
AcDbEntity
 67
     1
  8
DATA
100
AcDbLine
 10
239.8633158992581
 20
89.62544391217432
 30
0.0
 11
255.8344851184942
 21
89.62544390774587
 31
0.0
  0
LINE
  5
5703
330
1B
100
AcDbEntity
 67
     1
  8
DATA
100
AcDbLine
 10
239.8633158915574
 20
81.81245693392664
 30
0.0
 11
255.8344851184942
 21
81.81245692675494
 31
0.0
  0
LINE
  5
5704
330
1B
100
AcDbEntity
 67
     1
  8
DATA
100
AcDbLine
 10
239.863315895339
 20
85.64919173644687
 30
0.0
 11
255.8344851184942
 21
85.64919172798338
 31
0.0
  0
TEXT
  5
5705
330
1B
100
AcDbEntity
 67
     1
  8
DATA
100
AcDbText
 10
242.3737100760261
 20
82.55086128156717
 30
0.0
 40
2.3999999904
  1
GRN/WHT
 41
0.7
  7
ROMANS
100
AcDbText
  0
LINE
  5
5706
330
1B
100
AcDbEntity
 67
     1
  8
DATA
100
AcDbLine
 10
239.8633158800751
 20
70.16273515315868
 30
0.0
 11
255.8344851184942
 21
70.16273514873025
 31
0.0
  0
LINE
  5
5707
330
1B
100
AcDbEntity
 67
     1
  8
DATA
100
AcDbLine
 10
239.8633158762934
 20
66.32600034934654
 30
0.0
 11
255.8344851184942
 21
66.32600034217484
 31
0.0
  0
TEXT
  5
5708
330
1B
100
AcDbEntity
 67
     1
  8
DATA
100
AcDbText
 10
242.3737100760261
 20
67.0154252306278
 30
0.0
 40
2.3999999904
  1
BLU/WHT
 41
0.7
  7
ROMANS
100
AcDbText
  0
TEXT
  5
5709
330
1B
100
AcDbEntity
 67
     1
  8
DATA
100
AcDbText
 10
242.3737100760261
 20
63.12971096045636
 30
0.0
 40
2.3999999904
  1
BLU
 41
0.7
  7
ROMANS
100
AcDbText
  0
LWPOLYLINE
  5
570A
330
1B
100
AcDbEntity
 67
     1
  8
DATA
100
AcDbPolyline
 90
        4
 70
     1
 43
0.0
 10
239.8633159107405
 20
101.2751655164238
 10
255.8344851184942
 20
101.2751652978669
 10
255.8344850802655
 20
62.48926555528981
 10
239.8633158725118
 20
62.48926555528981
  0
LINE
  5
570B
330
1B
100
AcDbEntity
 67
     1
  8
DATA
100
AcDbLine
 10
200.0900023990075
 20
101.2751660090053
 30
0.0
 11
200.0900023607789
 21
62.48926614951452
 31
0.0
  0
TEXT
  5
570C
330
1B
100
AcDbEntity
 67
     1
  8
DATA
100
AcDbText
 10
213.8054881939832
 20
98.07705108849267
 30
0.0
 40
2.3999999904
  1
BIPOLAR
 41
0.65
  7
ROMANS
100
AcDbText
  0
LWPOLYLINE
  5
570D
330
1B
100
AcDbEntity
 67
     1
  8
DATA
100
AcDbPolyline
 90
        4
 70
     0
 43
0.0
 10
232.5396676538494
 20
91.50431976577753
 10
232.5396676538494
 20
91.50431976577753
 10
232.5396676538494
 20
84.03493457971324
 10
236.6896139339041
 20
84.03493455206044
  0
MTEXT
  5
570E
330
1B
100
AcDbEntity
 67
     1
  8
DATA
100
AcDbMText
 10
227.9405880628348
 20
90.15809829153569
 30
0.0
 40
2.3999999904
 41
3.999999983999999
 71
     7
 72
     1
  1
{\W0.65;A}
  7
ROMANS
 73
     1
 44
1.0
1001
ACAD
1000
ACAD_MTEXT_DEFINED_HEIGHT_BEGIN
1070
    46
1040
0.0
1000
ACAD_MTEXT_DEFINED_HEIGHT_END
1000
MTEXTBEGIN
1070
    73
1070
     1
1070
    44
1040
1.0
1070
    74
1070
     0
1000
MTEXTEND
  0
MTEXT
  5
570F
330
1B
100
AcDbEntity
 67
     1
  8
DATA
100
AcDbMText
 10
227.9405880628348
 20
78.32160683304869
 30
0.0
 40
2.3999999904
 41
3.999999983999999
 71
     7
 72
     1
  1
{\W0.65;A\\}
  7
ROMANS
 73
     1
 44
1.0
1001
ACAD
1000
ACAD_MTEXT_DEFINED_HEIGHT_BEGIN
1070
    46
1040
0.0
1000
ACAD_MTEXT_DEFINED_HEIGHT_END
1000
MTEXTBEGIN
1070
    73
1070
     1
1070
    44
1040
1.0
1070
    74
1070
     0
1000
MTEXTEND
  0
LINE
  5
5710
102
{ACAD_REACTORS
330
5712
102
}
330
1B
100
AcDbEntity
 67
     1
  8
DATA
100
AcDbLine
 10
263.6389989617849
 20
91.0195825612644
 30
0.0
 11
263.6389989617849
 21
87.88358257380838
 31
0.0
  0
LINE
  5
5711
102
{ACAD_REACTORS
330
5712
102
}
330
1B
100
AcDbEntity
 67
     1
  8
DATA
100
AcDbLine
 10
264.9829989564088
 20
87.88358257380838
 30
0.0
 11
264.9829989564088
 21
91.0195825612644
 31
0.0
  0
HATCH
  5
5712
330
1B
100
AcDbEntity
 67
     1
  8
DATA
100
AcDbHatch
 10
0.0
 20
0.0
 30
0.0
210
0.0
220
0.0
230
1.0
  2
SOLID
 70
     1
 71
     1
 91
        1
 92
        1
 93
        4
 72
     1
 10
264.9829989564088
 20
91.0195825612644
 11
263.6389989617849
 21
91.0195825612644
 72
     1
 10
263.6389989617849
 20
91.0195825612644
 11
263.6389989617849
 21
87.88358257380838
 72
     1
 10
263.6389989617849
 20
87.88358257380838
 11
264.9829989564088
 21
87.88358257380838
 72
     1
 10
264.9829989564088
 20
87.88358257380838
 11
264.9829989564088
 21
91.0195825612644
 97
        4
330
5716
330
5710
330
5713
330
5711
 75
     0
 76
     1
 98
        1
 10
160.5989993739449
 20
11.94758287755238
  0
LINE
  5
5713
102
{ACAD_REACTORS
330
5712
102
}
330
1B
100
AcDbEntity
 67
     1
  8
DATA
100
AcDbLine
 10
263.6389989617849
 20
87.88358257380838
 30
0.0
 11
264.9829989564088
 21
87.88358257380838
 31
0.0
  0
LINE
  5
5714
330
1B
100
AcDbEntity
 67
     1
  8
DATA
100
AcDbLine
 10
264.310998801864
 20
86.68358257380841
 30
0.0
 11
259.0411910913143
 21
86.68358257380841
 31
0.0
  0
LINE
  5
5715
330
1B
100
AcDbEntity
 67
     1
  8
DATA
100
AcDbLine
 10
264.310998735325
 20
87.8835825738084
 30
0.0
 11
264.310998801864
 21
86.68358257380841
 31
0.0
  0
LINE
  5
5716
102
{ACAD_REACTORS
330
5712
102
}
330
1B
100
AcDbEntity
 67
     1
  8
DATA
100
AcDbLine
 10
264.9829989564088
 20
91.0195825612644
 30
0.0
 11
263.6389989617849
 21
91.0195825612644
 31
0.0
  0
LINE
  5
5717
330
1B
100
AcDbEntity
 67
     1
  8
DATA
100
AcDbLine
 10
264.31099894764
 20
92.21958256126436
 30
0.0
 11
259.0411912370905
 21
92.21958256126436
 31
0.0
  0
LINE
  5
5718
330
1B
100
AcDbEntity
 67
     1
  8
DATA
100
AcDbLine
 10
264.3109989590968
 20
91.01958256126438
 30
0.0
 11
264.3109990489411
 21
92.21958256126436
 31
0.0
  0
MTEXT
  5
5719
330
1B
100
AcDbEntity
 67
     1
  8
DATA
100
AcDbMText
 10
266.5514655421672
 20
90.33537332193397
 30
0.0
 40
2.3999999904
 41
3.999999983999999
 71
     7
 72
     1
  1
{\W0.65;A}
  7
ROMANS
 73
     1
 44
1.0
1001
ACAD
1000
ACAD_MTEXT_DEFINED_HEIGHT_BEGIN
1070
    46
1040
0.0
1000
ACAD_MTEXT_DEFINED_HEIGHT_END
1000
MTEXTBEGIN
1070
    73
1070
     1
1070
    44
1040
1.0
1070
    74
1070
     0
1000
MTEXTEND
  0
MTEXT
  5
571A
330
1B
100
AcDbEntity
 67
     1
  8
DATA
100
AcDbMText
 10
227.9405880628348
 20
74.81344519485147
 30
0.0
 40
2.3999999904
 41
3.999999983999999
 71
     7
 72
     1
  1
{\W0.65;B}
  7
ROMANS
 73
     1
 44
1.0
1001
ACAD
1000
ACAD_MTEXT_DEFINED_HEIGHT_BEGIN
1070
    46
1040
0.0
1000
ACAD_MTEXT_DEFINED_HEIGHT_END
1000
MTEXTBEGIN
1070
    73
1070
     1
1070
    44
1040
1.0
1070
    74
1070
     0
1000
MTEXTEND
  0
LWPOLYLINE
  5
571B
330
1B
100
AcDbEntity
 67
     1
  8
DATA
100
AcDbPolyline
 90
        4
 70
     0
 43
0.0
 10
232.6093813594133
 20
75.9162709884191
 10
232.6093813594133
 20
75.9162709884191
 10
232.6093813594133
 20
68.44688580235483
 10
236.6896137490484
 20
68.44688580055716
  0
LWPOLYLINE
  5
571C
330
1B
100
AcDbEntity
 67
     1
  8
DATA
100
AcDbPolyline
 90
        4
 70
     0
 43
0.0
 10
236.6896137933374
 20
72.18157837359381
 10
234.4496136537029
 20
72.18157839538695
 10
234.4496136539547
 20
64.71222105909337
 10
236.5380249101109
 20
64.71222105826202
  0
MTEXT
  5
571D
330
1B
100
AcDbEntity
 67
     1
  8
DATA
100
AcDbMText
 10
227.9405880628348
 20
62.73355805569027
 30
0.0
 40
2.3999999904
 41
3.999999983999999
 71
     7
 72
     1
  1
{\W0.65;B\\}
  7
ROMANS
 73
     1
 44
1.0
1001
ACAD
1000
ACAD_MTEXT_DEFINED_HEIGHT_BEGIN
1070
    46
1040
0.0
1000
ACAD_MTEXT_DEFINED_HEIGHT_END
1000
MTEXTBEGIN
1070
    73
1070
     1
1070
    44
1040
1.0
1070
    74
1070
     0
1000
MTEXTEND
  0
LEADER
  5
571E
330
1B
100
AcDbEntity
 67
     1
  8
DATA
100
AcDbLeader
  3
STANDARD
 73
     0
 40
3.657142857142857
 41
2.96
 76
     2
 10
223.4322660989582
 20
64.71222105345043
 30
0.0
 10
218.8304282220478
 20
64.71222105345043
 30
0.0
213
0.0
223
0.9896550113095967
233
0.0
1001
ACAD
1000
DSTYLE
1002
{
1070
   176
1070
   256
1070
   341
1005
2FF
1070
    40
1040
1.0
1070
    77
1070
     0
1002
}
  0
LWPOLYLINE
  5
571F
330
1B
100
AcDbEntity
 67
     1
  8
DATA
100
AcDbPolyline
 90
        4
 70
     0
 43
0.0
 10
223.5559790784547
 20
68.44688579555382
 10
221.1259113413158
 20
68.44688579555382
 10
221.1259113413158
 20
72.18157838858598
 10
223.5559790784547
 20
72.18157838858598
  0
LEADER
  5
5720
330
1B
100
AcDbEntity
 67
     1
  8
DATA
100
AcDbLeader
  3
STANDARD
 73
     0
 40
2.4
 41
1.12
 76
     2
 10
223.5559790784547
 20
75.91627098220971
 30
0.0
 10
216.9869141339888
 20
75.91627098220971
 30
0.0
213
0.0
223
1.569879187309369
233
0.0
1001
ACAD
1000
DSTYLE
1002
{
1070
   176
1070
   256
1070
   341
1005
2FF
1070
    40
1040
1.0
1070
    77
1070
     0
1002
}
  0
LWPOLYLINE
  5
5721
330
1B
100
AcDbEntity
 67
     1
  8
DATA
100
AcDbPolyline
 90
        4
 70
     0
 43
0.0
 10
223.5559790784547
 20
84.03493480091126
 10
221.3164902327623
 20
84.03493480091126
 10
221.3164902327623
 20
87.7696273939434
 10
223.5559790784547
 20
87.7696273939434
  0
LEADER
  5
5722
330
1B
100
AcDbEntity
 67
     1
  8
DATA
100
AcDbLeader
  3
STANDARD
 73
     0
 40
3.657142857142857
 41
2.959999999999999
 76
     2
 10
223.5559790784547
 20
80.30027005722516
 30
0.0
 10
219.0210071134942
 20
80.30027005722516
 30
0.0
213
0.0
223
1.199999995199999
233
0.0
1001
ACAD
1000
DSTYLE
1002
{
1070
   176
1070
   256
1070
   341
1005
2FF
1070
    40
1040
1.0
1070
    77
1070
     0
1002
}
  0
LEADER
  5
5723
330
1B
100
AcDbEntity
 67
     1
  8
DATA
100
AcDbLeader
  3
STANDARD
 73
     0
 40
2.4
 41
1.28
 76
     2
 10
223.5559790784547
 20
91.50431998697555
 30
0.0
 10
217.5092860210393
 20
91.50431998697557
 30
0.0
213
0.0
223
1.199999995199999
233
0.0
1001
ACAD
1000
DSTYLE
1002
{
1070
   176
1070
   256
1070
   341
1005
2FF
1070
    40
1040
1.0
1070
    77
1070
     0
1002
}
  0
TEXT
  5
5724
330
1B
100
AcDbEntity
 67
     1
  8
DATA
100
AcDbText
 10
214.6840189114368
 20
94.46028478981743
 30
0.0
 40
2.3999999904
  1
SERIAL
 41
0.65
  7
ROMANS
100
AcDbText
  0
TEXT
  5
5725
330
1B
100
AcDbEntity
 67
     1
  8
DATA
100
AcDbText
 10
227.3629517780483
 20
94.38115575080765
 30
0.0
 40
2.3999999904
  1
PARALLEL
 41
0.65
  7
ROMANS
100
AcDbText
  0
LINE
  5
5726
330
1B
100
AcDbEntity
 67
     1
  8
DATA
100
AcDbLine
 10
200.0900023953591
 20
97.57357170412801
 30
0.0
 11
239.563316208461
 21
97.57357161770672
 31
0.0
  0
CIRCLE
  5
5727
330
1B
100
AcDbEntity
 67
     1
  8
DATA
100
AcDbCircle
 10
232.5396676538495
 20
91.50431976577753
 30
0.0
 40
0.4799999980800001
  0
CIRCLE
  5
5728
330
1B
100
AcDbEntity
 67
     1
  8
DATA
100
AcDbCircle
 10
232.6093813594133
 20
75.91627098765811
 30
0.0
 40
0.4799999980800001
  0
HATCH
  5
5729
330
1B
100
AcDbEntity
 67
     1
  8
DATA
100
AcDbHatch
 10
0.0
 20
0.0
 30
0.0
210
0.0
220
0.0
230
1.0
  2
SOLID
 70
     1
 71
     0
 91
        3
 92
        7
 72
     1
 73
     1
 93
        2
 10
232.0596676557694
 20
91.50431976577747
 42
0.0
 10
233.0196676519293
 20
91.50431976577747
 42
1.0
 97
        0
 92
        7
 72
     1
 73
     1
 93
        3
 10
232.5396676538493
 20
91.50431976577747
 42
0.0
 10
232.0596676557694
 20
91.50431976577747
 42
0.4142135623730827
 10
232.5396676538493
 20
91.02431976769748
 42
0.0
 97
        0
 92
        7
 72
     1
 73
     1
 93
        3
 10
233.0196676519293
 20
91.50431976577747
 42
0.0
 10
232.5396676538493
 20
91.50431976577747
 42
0.0
 10
232.5396676538493
 20
91.02431976769748
 42
0.4142135623730827
 97
        0
 75
     0
 76
     1
 47
0.0084010310380994
 98
        3
 10
232.4386121458193
 20
91.7334863260921
 10
232.341315724174
 20
91.44180540327081
 10
232.7548255161666
 20
91.32027078735749
  0
HATCH
  5
572A
330
1B
100
AcDbEntity
 67
     1
  8
DATA
100
AcDbHatch
 10
0.0
 20
0.0
 30
0.0
210
0.0
220
0.0
230
1.0
  2
SOLID
 70
     1
 71
     0
 91
        3
 92
        7
 72
     1
 73
     1
 93
        2
 10
232.1293813613333
 20
75.91627098765808
 42
0.0
 10
233.0893813574932
 20
75.91627098765808
 42
1.0
 97
        0
 92
        7
 72
     1
 73
     1
 93
        3
 10
232.6093813594133
 20
75.91627098765808
 42
0.0
 10
232.1293813613333
 20
75.91627098765808
 42
0.4142135623730827
 10
232.6093813594133
 20
75.43627098957808
 42
0.0
 97
        0
 92
        7
 72
     1
 73
     1
 93
        3
 10
233.0893813574932
 20
75.91627098765808
 42
0.0
 10
232.6093813594133
 20
75.91627098765809
 42
0.0
 10
232.6093813594133
 20
75.43627098957808
 42
0.4142135623730827
 97
        0
 75
     0
 76
     1
 47
0.007033492173799
 98
        3
 10
232.7129430578203
 20
76.16890549312632
 10
232.4426659519613
 20
75.79753647573125
 10
232.7805128689746
 20
75.79753647573125
  0
CIRCLE
  5
572B
330
1B
100
AcDbEntity
 67
     1
  8
DATA
100
AcDbCircle
 10
234.4496136537029
 20
64.71222105904056
 30
0.0
 40
0.4799999980800001
  0
HATCH
  5
572C
330
1B
100
AcDbEntity
 67
     1
  8
DATA
100
AcDbHatch
 10
0.0
 20
0.0
 30
0.0
210
0.0
220
0.0
230
1.0
  2
SOLID
 70
     1
 71
     0
 91
        3
 92
        7
 72
     1
 73
     1
 93
        2
 10
233.9696136556229
 20
64.71222105904056
 42
0.0
 10
234.9296136517828
 20
64.71222105904056
 42
1.0
 97
        0
 92
        7
 72
     1
 73
     1
 93
        3
 10
234.4496136537029
 20
64.71222105904056
 42
0.0
 10
233.9696136556229
 20
64.71222105904056
 42
0.4142135623730827
 10
234.4496136537029
 20
64.23222106096054
 42
0.0
 97
        0
 92
        7
 72
     1
 73
     1
 93
        3
 10
234.9296136517828
 20
64.71222105904056
 42
0.0
 10
234.4496136537029
 20
64.71222105904056
 42
0.0
 10
234.4496136537029
 20
64.23222106096054
 42
0.4142135623730827
 97
        0
 75
     0
 76
     1
 47
0.007033492173799
 98
        3
 10
234.5531753521099
 20
64.96485556450878
 10
234.282898246251
 20
64.59348654711374
 10
234.6207451632643
 20
64.59348654711374
  0
LWPOLYLINE
  5
572D
330
1B
100
AcDbEntity
 67
     1
  8
DATA
100
AcDbPolyline
 90
        4
 70
     0
 43
0.0
 10
236.6896138881828
 20
87.76962716861062
 10
234.4496139587899
 20
87.76962718986402
 10
234.4496139590416
 20
80.30026985357045
 10
236.5380252151979
 20
80.30026985273909
  0
CIRCLE
  5
572E
330
1B
100
AcDbEntity
 67
     1
  8
DATA
100
AcDbCircle
 10
234.4496139587899
 20
80.30026985370358
 30
0.0
 40
0.4799999980800001
  0
HATCH
  5
572F
330
1B
100
AcDbEntity
 67
     1
  8
DATA
100
AcDbHatch
 10
0.0
 20
0.0
 30
0.0
210
0.0
220
0.0
230
1.0
  2
SOLID
 70
     1
 71
     0
 91
        3
 92
        7
 72
     1
 73
     1
 93
        2
 10
233.9696139607099
 20
80.30026985370355
 42
0.0
 10
234.9296139568699
 20
80.30026985370355
 42
1.0
 97
        0
 92
        7
 72
     1
 73
     1
 93
        3
 10
234.4496139587899
 20
80.30026985370355
 42
0.0
 10
233.9696139607099
 20
80.30026985370355
 42
0.4142135623730827
 10
234.4496139587899
 20
79.82026985562352
 42
0.0
 97
        0
 92
        7
 72
     1
 73
     1
 93
        3
 10
234.9296139568699
 20
80.30026985370355
 42
0.0
 10
234.4496139587899
 20
80.30026985370357
 42
0.0
 10
234.4496139587899
 20
79.82026985562352
 42
0.4142135623730827
 97
        0
 75
     0
 76
     1
 47
0.007033492173799
 98
        3
 10
234.5531756571969
 20
80.55290435917177
 10
234.2828985513381
 20
80.1815353417767
 10
234.6207454683513
 20
80.1815353417767
  0
LWPOLYLINE
  5
5730
330
1B
100
AcDbEntity
 67
     1
  8
DATA
100
AcDbPolyline
 90
        4
 70
     1
 43
0.0
 10
255.8344850802655
 20
101.2751652815092
 10
272.7248125225428
 20
101.2751652815092
 10
272.7248125225428
 20
62.48926553893213
 10
255.8344850802655
 20
62.48926553893213
  0
TEXT
  5
5731
330
1B
100
AcDbEntity
 67
     1
  8
DATA
100
AcDbText
 10
258.6020048602602
 20
96.22111656472675
 30
0.0
 40
2.3999999904
  1
WINDING
 41
0.7
  7
ROMANS
100
AcDbText
  0
LWPOLYLINE
  5
5732
330
1B
100
AcDbEntity
 67
     1
  8
DATA
100
AcDbPolyline
 90
        4
 70
     0
 43
0.0
 10
198.3163687912472
 20
68.44688614694966
 10
195.8863010541085
 20
68.44688614694966
 10
195.8863010541085
 20
72.18157873998181
 10
198.3163687912472
 20
72.18157873998181
  0
MTEXT
  5
5733
102
{ACAD_REACTORS
330
5734
102
}
330
1B
100
AcDbEntity
 67
     1
  8
DATA
100
AcDbMText
 10
187.7629517780484
 20
63.09012486480007
 30
0.0
 40
2.3999999904
 41
3.999999983999999
 71
     7
 72
     1
  1
{\W0.65;B\\}
  7
ROMANS
 73
     1
 44
1.0
1001
ACAD
1000
ACAD_MTEXT_DEFINED_HEIGHT_BEGIN
1070
    46
1040
0.0
1000
ACAD_MTEXT_DEFINED_HEIGHT_END
1000
MTEXTBEGIN
1070
    73
1070
     1
1070
    44
1040
1.0
1070
    74
1070
     0
1000
MTEXTEND
  0
LEADER
  5
5734
330
1B
100
AcDbEntity
 67
     1
  8
DATA
100
AcDbLeader
  3
STANDARD
 73
     0
 40
3.657142857142857
 41
2.96
 76
     2
 10
198.1926558117509
 20
64.71222105345043
 30
0.0
 10
193.8536357601516
 20
64.71222105345043
 30
0.0
213
-1.321142201008449
223
0.9896546599137648
233
0.0
1001
ACAD
1000
DSTYLE
1002
{
1070
   176
1070
   256
1070
   341
1005
2FF
1070
    40
1040
1.0
1070
    77
1070
     0
1002
}
  0
LWPOLYLINE
  5
5735
330
1B
100
AcDbEntity
 67
     1
  8
DATA
100
AcDbPolyline
 90
        4
 70
     0
 43
0.0
 10
198.3163687912472
 20
84.0349351523071
 10
196.0768799455549
 20
84.0349351523071
 10
196.0768799455549
 20
87.76962774533926
 10
198.3163687912472
 20
87.76962774533926
  0
LEADER
  5
5736
330
1B
100
AcDbEntity
 67
     1
  8
DATA
100
AcDbLeader
  3
STANDARD
 73
     0
 40
2.4
 41
1.12
 76
     2
 10
198.3163687912472
 20
75.91627098220971
 30
0.0
 10
193.8536357601516
 20
75.9113732298329
 30
0.0
213
0.5223718870505733
223
1.569878835913537
233
0.0
1001
ACAD
1000
DSTYLE
1002
{
1070
   176
1070
   256
1070
   341
1005
2FF
1070
    40
1040
1.0
1070
    77
1070
     0
1002
}
  0
MTEXT
  5
5737
102
{ACAD_REACTORS
330
5736
102
}
330
1B
100
AcDbEntity
 67
     1
  8
DATA
100
AcDbMText
 10
187.7629517780484
 20
74.13537322983292
 30
0.0
 40
2.3999999904
 41
3.999999983999999
 71
     7
 72
     1
  1
{\W0.65;B}
  7
ROMANS
 73
     1
 44
1.0
1001
ACAD
1000
ACAD_MTEXT_DEFINED_HEIGHT_BEGIN
1070
    46
1040
0.0
1000
ACAD_MTEXT_DEFINED_HEIGHT_END
1000
MTEXTBEGIN
1070
    73
1070
     1
1070
    44
1040
1.0
1070
    74
1070
     0
1000
MTEXTEND
  0
MTEXT
  5
5738
102
{ACAD_REACTORS
330
5739
102
}
330
1B
100
AcDbEntity
 67
     1
  8
DATA
100
AcDbMText
 10
187.7629517780484
 20
77.37537322983292
 30
0.0
 40
2.3999999904
 41
3.999999983999999
 71
     7
 72
     1
  1
{\W0.65;A\\}
  7
ROMANS
 73
     1
 44
1.0
1001
ACAD
1000
ACAD_MTEXT_DEFINED_HEIGHT_BEGIN
1070
    46
1040
0.0
1000
ACAD_MTEXT_DEFINED_HEIGHT_END
1000
MTEXTBEGIN
1070
    73
1070
     1
1070
    44
1040
1.0
1070
    74
1070
     0
1000
MTEXTEND
  0
LEADER
  5
5739
330
1B
100
AcDbEntity
 67
     1
  8
DATA
100
AcDbLeader
  3
STANDARD
 73
     0
 40
3.657142857142857
 41
2.959999999999999
 76
     2
 10
198.3163687912472
 20
80.30027040862099
 30
0.0
 10
193.8536357601516
 20
80.30027040862099
 30
0.0
213
-1.511721092454882
223
1.199999995199999
233
0.0
1001
ACAD
1000
DSTYLE
1002
{
1070
   176
1070
   256
1070
   341
1005
2FF
1070
    40
1040
1.0
1070
    77
1070
     0
1002
}
  0
TEXT
  5
573A
330
1B
100
AcDbEntity
 67
     1
  8
DATA
100
AcDbText
 10
187.2277717085523
 20
96.07217071075226
 30
0.0
 40
2.3999999904
  1
UNIPOLAR
 41
0.65
  7
ROMANS
100
AcDbText
  0
MTEXT
  5
573B
102
{ACAD_REACTORS
330
573C
102
}
330
1B
100
AcDbEntity
 67
     1
  8
DATA
100
AcDbMText
 10
187.7629517780484
 20
89.73537322983291
 30
0.0
 40
2.3999999904
 41
3.999999983999999
 71
     7
 72
     1
  1
{\W0.65;A}
  7
ROMANS
 73
     1
 44
1.0
1001
ACAD
1000
ACAD_MTEXT_DEFINED_HEIGHT_BEGIN
1070
    46
1040
0.0
1000
ACAD_MTEXT_DEFINED_HEIGHT_END
1000
MTEXTBEGIN
1070
    73
1070
     1
1070
    44
1040
1.0
1070
    74
1070
     0
1000
MTEXTEND
  0
LEADER
  5
573C
330
1B
100
AcDbEntity
 67
     1
  8
DATA
100
AcDbLeader
  3
STANDARD
 73
     0
 40
2.4
 41
1.28
 76
     2
 10
198.3163687912472
 20
91.50432033837139
 30
0.0
 10
193.8536357601516
 20
91.50432033837141
 30
0.0
213
0.0
223
1.199999995199999
233
0.0
1001
ACAD
1000
DSTYLE
1002
{
1070
   176
1070
   256
1070
   341
1005
2FF
1070
    40
1040
1.0
1070
    77
1070
     0
1002
}
  0
LINE
  5
573D
330
1B
100
AcDbEntity
 67
     1
  8
DATA
100
AcDbLine
 10
186.8322306996303
 20
62.48926618542802
 30
0.0
 11
251.4476362828983
 21
62.48926541916631
 31
0.0
  0
LINE
  5
573E
330
1B
100
AcDbEntity
 67
     1
  8
DATA
100
AcDbLine
 10
272.7248125225428
 20
93.46217884026499
 30
0.0
 11
186.8322311169117
 21
93.46217885409036
 31
0.0
  0
LINE
  5
573F
330
1B
100
AcDbEntity
 67
     1
  8
DATA
100
AcDbLine
 10
186.8322312221718
 20
101.2751659491758
 30
0.0
 11
186.8322306996303
 21
62.48926615927377
 31
0.0
  0
TEXT
  5
5740
330
1B
100
AcDbEntity
 67
     1
  8
DATA
100
AcDbText
 10
200.8731235944086
 20
94.39303616246229
 30
0.0
 40
2.3999999904
  1
1WINDING
 41
0.65
  7
ROMANS
100
AcDbText
  0
LEADER
  5
5741
330
1B
100
AcDbEntity
 67
     1
  8
DATA
100
AcDbLeader
  3
STANDARD
 73
     0
 40
2.4
 41
1.28
 76
     2
 10
210.8450264271076
 20
91.50431975897655
 30
0.0
 10
205.6567810874476
 20
91.50431998697557
 30
0.0
213
0.0
223
1.914289657710443
233
0.0
1001
ACAD
1000
DSTYLE
1002
{
1070
   176
1070
   256
1070
   341
1005
2FF
1070
    40
1040
1.0
1070
    77
1070
     0
1002
}
  0
MTEXT
  5
5742
102
{ACAD_REACTORS
330
5741
102
}
330
1B
100
AcDbEntity
 67
     1
  8
DATA
100
AcDbMText
 10
202.1629517780484
 20
88.64644644959085
 30
0.0
 40
2.3999999904
 41
3.999999983999999
 71
     7
 72
     1
  1
{\W0.65;A}
  7
ROMANS
 73
     1
 44
1.0
1001
ACAD
1000
ACAD_MTEXT_DEFINED_HEIGHT_BEGIN
1070
    46
1040
0.0
1000
ACAD_MTEXT_DEFINED_HEIGHT_END
1000
MTEXTBEGIN
1070
    73
1070
     1
1070
    44
1040
1.0
1070
    74
1070
     0
1000
MTEXTEND
  0
LEADER
  5
5743
330
1B
100
AcDbEntity
 67
     1
  8
DATA
100
AcDbLeader
  3
STANDARD
 73
     0
 40
2.4
 41
1.12
 76
     2
 10
210.8450264271076
 20
75.91627098220971
 30
0.0
 10
205.6567810874476
 20
75.91627098220971
 30
0.0
213
0.0
223
2.284168849819812
233
0.0
1001
ACAD
1000
DSTYLE
1002
{
1070
   176
1070
   256
1070
   341
1005
2FF
1070
    40
1040
1.0
1070
    77
1070
     0
1002
}
  0
MTEXT
  5
5744
102
{ACAD_REACTORS
330
5743
102
}
330
1B
100
AcDbEntity
 67
     1
  8
DATA
100
AcDbMText
 10
202.1629517780484
 20
73.04644644959084
 30
0.0
 40
2.3999999904
 41
3.999999983999999
 71
     7
 72
     1
  1
{\W0.65;B}
  7
ROMANS
 73
     1
 44
1.0
1001
ACAD
1000
ACAD_MTEXT_DEFINED_HEIGHT_BEGIN
1070
    46
1040
0.0
1000
ACAD_MTEXT_DEFINED_HEIGHT_END
1000
MTEXTBEGIN
1070
    73
1070
     1
1070
    44
1040
1.0
1070
    74
1070
     0
1000
MTEXTEND
  0
LEADER
  5
5745
330
1B
100
AcDbEntity
 67
     1
  8
DATA
100
AcDbLeader
  3
STANDARD
 73
     0
 40
3.657142857142857
 41
2.959999999999999
 76
     2
 10
210.8407810874476
 20
87.76962776889538
 30
0.0
 10
205.6567810874476
 20
87.76962799689437
 30
0.0
213
0.0
223
1.980003374946596
233
0.0
1001
ACAD
1000
DSTYLE
1002
{
1070
   176
1070
   256
1070
   341
1005
2FF
1070
    40
1040
1.0
1070
    77
1070
     0
1002
}
  0
LEADER
  5
5746
330
1B
100
AcDbEntity
 67
     1
  8
DATA
100
AcDbLeader
  3
STANDARD
 73
     0
 40
3.657142857142857
 41
2.96
 76
     2
 10
210.8407810874476
 20
72.18157838858601
 30
0.0
 10
205.6567810874476
 20
72.18157838858601
 30
0.0
213
0.0
223
2.349882566464403
233
0.0
1001
ACAD
1000
DSTYLE
1002
{
1070
   176
1070
   256
1070
   341
1005
2FF
1070
    40
1040
1.0
1070
    77
1070
     0
1002
}
  0
TEXT
  5
5747
330
1B
100
AcDbEntity
 67
     1
  8
DATA
100
AcDbText
 10
242.8532331981398
 20
96.13965680667647
 30
0.0
 40
2.3999999904
  1
LEADS
 41
0.7
  7
ROMANS
100
AcDbText
  0
LINE
  5
5748
330
1B
100
AcDbEntity
 67
     1
  8
DATA
100
AcDbLine
 10
213.3477740389739
 20
97.57357169106072
 30
0.0
 11
213.3477740043937
 21
62.48926592201716
 31
0.0
  0
MLINE
  5
5749
330
1B
100
AcDbEntity
 67
     1
  8
DATA
100
AcDbMline
  2
STANDARD
340
18
 40
0.2999999987999999
 70
     0
 71
     1
 72
     2
 73
     2
 10
200.0900023990075
 20
101.2751658820296
 30
0.0
210
0.0
220
0.0
230
1.0
 11
200.0900023990075
 21
101.2751658820296
 31
0.0
 12
-1.347246216500632E-08
 22
-0.9999999999999998
 32
0.0
 13
1.0
 23
-1.347246250183506E-08
 33
0.0
 74
     2
 41
0.0
 41
0.0
 75
     0
 74
     2
 41
-0.2999999987999999
 41
0.0
 75
     0
 11
200.090001876466
 21
62.48926612327778
 31
0.0
 12
-1.347246216500632E-08
 22
-0.9999999999999998
 32
0.0
 13
1.0
 23
-1.347246250183506E-08
 33
0.0
 74
     2
 41
0.0
 41
0.0
 75
     0
 74
     2
 41
-0.2999999987999999
 41
0.0
 75
     0
  0
MLINE
  5
574A
330
1B
100
AcDbEntity
 67
     1
  8
DATA
100
AcDbMline
  2
STANDARD
340
18
 40
0.2999999987999999
 70
     0
 71
     1
 72
     2
 73
     2
 10
239.8633163205171
 20
109.4436788175664
 30
0.0
210
0.0
220
0.0
230
1.0
 11
239.8633163205171
 21
109.4436788175664
 31
0.0
 12
-9.541281303597569E-09
 22
-1.0
 32
0.0
 13
1.0
 23
-9.541281787545617E-09
 33
0.0
 74
     2
 41
0.0
 41
0.0
 75
     0
 74
     2
 41
-0.2999999987999999
 41
0.0
 75
     0
 11
239.8633158725118
 21
62.4892656087997
 31
0.0
 12
-9.541281303597569E-09
 22
-1.0
 32
0.0
 13
1.0
 23
-9.541281787545617E-09
 33
0.0
 74
     2
 41
0.0
 41
0.0
 75
     0
 74
     2
 41
-0.2999999987999999
 41
0.0
 75
     0
  0
MLINE
  5
574B
330
1B
100
AcDbEntity
 67
     1
  8
DATA
100
AcDbMline
  2
STANDARD
340
18
 40
0.2999999987999999
 70
     0
 71
     1
 72
     2
 73
     2
 10
226.6055447180776
 20
97.57357168558456
 30
0.0
210
0.0
220
0.0
230
1.0
 11
226.6055447180776
 21
97.57357168558456
 31
0.0
 12
-1.033903164515749E-10
 22
-1.0
 32
0.0
 13
1.0
 23
-1.033904302233032E-10
 33
0.0
 74
     2
 41
0.0
 41
0.0
 75
     0
 74
     2
 41
-0.2999999987999999
 41
0.0
 75
     0
 11
226.6055447144502
 21
62.48926573258342
 31
0.0
 12
-1.033903164515749E-10
 22
-1.0
 32
0.0
 13
1.0
 23
-1.033904302233032E-10
 33
0.0
 74
     2
 41
0.0
 41
0.0
 75
     0
 74
     2
 41
-0.2999999987999999
 41
0.0
 75
     0
  0
MLINE
  5
574C
330
1B
100
AcDbEntity
 67
     1
  8
DATA
100
AcDbMline
  2
STANDARD
340
18
 40
0.2999999987999999
 70
     0
 71
     1
 72
     2
 73
     2
 10
213.3477740389739
 20
97.57357169106072
 30
0.0
210
0.0
220
0.0
230
1.0
 11
213.3477740389739
 21
97.57357169106072
 31
0.0
 12
-1.429013405962490E-08
 22
-0.9999999999999998
 32
0.0
 13
1.0
 23
-1.429013465404413E-08
 33
0.0
 74
     2
 41
0.0
 41
0.0
 75
     0
 74
     2
 41
-0.2999999987999999
 41
0.0
 75
     0
 11
213.3477735376145
 21
62.48926573395414
 31
0.0
 12
-1.429013405962490E-08
 22
-0.9999999999999998
 32
0.0
 13
1.0
 23
-1.429013465404413E-08
 33
0.0
 74
     2
 41
0.0
 41
0.0
 75
     0
 74
     2
 41
-0.2999999987999999
 41
0.0
 75
     0
  0
LWPOLYLINE
  5
574D
330
1B
100
AcDbEntity
 67
     1
  8
DATA
100
AcDbPolyline
 90
        4
 70
     1
 43
0.0
 10
186.8322312221718
 20
101.2751661645556
 10
272.7248125225428
 20
101.2751661645556
 10
272.7229517780484
 20
109.4436787960245
 10
186.8269517780483
 20
109.4436787960245
  0
TEXT
  5
574E
330
1B
100
AcDbEntity
 67
     1
  8
DATA
100
AcDbText
 10
194.939423926639
 20
104.335588418594
 30
0.0
 40
2.3999999904
  1
TYPE OF CONNECTION (EXTERN)
 41
0.65
  7
ROMANS
100
AcDbText
  0
TEXT
  5
574F
330
1B
100
AcDbEntity
 67
     1
  8
DATA
100
AcDbText
 10
254.9399308248128
 20
103.9407915476029
 30
0.0
 40
2.3999999904
  1
MOTOR
 41
0.65
  7
ROMANS
100
AcDbText
  0
LINE
  5
5750
330
1B
100
AcDbEntity
 67
     1
  8
DATA
100
AcDbLine
 10
196.0768799455549
 20
85.64919162598474
 30
0.0
 11
193.8536357601516
 21
85.64919162598474
 31
0.0
  0
LINE
  5
5751
330
1B
100
AcDbEntity
 67
     1
  8
DATA
100
AcDbLine
 10
195.8863010541085
 20
70.16273504274941
 30
0.0
 11
193.8536357601516
 21
70.16273504274941
 31
0.0
  0
TEXT
  5
5752
330
1B
100
AcDbEntity
 67
     1
  8
DATA
  6
HIDDEN
100
AcDbText
 10
187.7629517780484
 20
84.33537322983292
 30
0.0
 40
2.399999990399999
  1
COM
 41
0.65
  7
ROMANS
100
AcDbText
  0
TEXT
  5
5753
330
1B
100
AcDbEntity
 67
     1
  8
DATA
  6
HIDDEN
100
AcDbText
 10
187.7629517780484
 20
68.73537322983292
 30
0.0
 40
2.399999990399999
  1
COM
 41
0.65
  7
ROMANS
100
AcDbText
  0
MTEXT
  5
5754
330
1B
100
AcDbEntity
 67
     1
  8
DATA
100
AcDbMText
 10
214.4874375487768
 20
63.09012448290359
 30
0.0
 40
2.3999999904
 41
3.999999983999999
 71
     7
 72
     1
  1
{\W0.65;B\\}
  7
ROMANS
 73
     1
 44
1.0
1001
ACAD
1000
ACAD_MTEXT_DEFINED_HEIGHT_BEGIN
1070
    46
1040
0.0
1000
ACAD_MTEXT_DEFINED_HEIGHT_END
1000
MTEXTBEGIN
1070
    73
1070
     1
1070
    44
1040
1.0
1070
    74
1070
     0
1000
MTEXTEND
  0
MTEXT
  5
5755
330
1B
100
AcDbEntity
 67
     1
  8
DATA
100
AcDbMText
 10
214.4874375487768
 20
74.13537284793642
 30
0.0
 40
2.3999999904
 41
3.999999983999999
 71
     7
 72
     1
  1
{\W0.65;B}
  7
ROMANS
 73
     1
 44
1.0
1001
ACAD
1000
ACAD_MTEXT_DEFINED_HEIGHT_BEGIN
1070
    46
1040
0.0
1000
ACAD_MTEXT_DEFINED_HEIGHT_END
1000
MTEXTBEGIN
1070
    73
1070
     1
1070
    44
1040
1.0
1070
    74
1070
     0
1000
MTEXTEND
  0
MTEXT
  5
5756
330
1B
100
AcDbEntity
 67
     1
  8
DATA
100
AcDbMText
 10
214.4874375487768
 20
77.37537284793643
 30
0.0
 40
2.3999999904
 41
3.999999983999999
 71
     7
 72
     1
  1
{\W0.65;A\\}
  7
ROMANS
 73
     1
 44
1.0
1001
ACAD
1000
ACAD_MTEXT_DEFINED_HEIGHT_BEGIN
1070
    46
1040
0.0
1000
ACAD_MTEXT_DEFINED_HEIGHT_END
1000
MTEXTBEGIN
1070
    73
1070
     1
1070
    44
1040
1.0
1070
    74
1070
     0
1000
MTEXTEND
  0
MTEXT
  5
5757
330
1B
100
AcDbEntity
 67
     1
  8
DATA
100
AcDbMText
 10
214.4874375487768
 20
89.73537284793643
 30
0.0
 40
2.3999999904
 41
3.999999983999999
 71
     7
 72
     1
  1
{\W0.65;A}
  7
ROMANS
 73
     1
 44
1.0
1001
ACAD
1000
ACAD_MTEXT_DEFINED_HEIGHT_BEGIN
1070
    46
1040
0.0
1000
ACAD_MTEXT_DEFINED_HEIGHT_END
1000
MTEXTBEGIN
1070
    73
1070
     1
1070
    44
1040
1.0
1070
    74
1070
     0
1000
MTEXTEND
  0
LEADER
  5
5758
330
1B
100
AcDbEntity
 67
     1
  8
DATA
100
AcDbLeader
  3
STANDARD
 73
     0
 40
2.4
 41
1.28
 76
     2
 10
236.6896139191745
 20
91.50431976451958
 30
0.0
 10
230.4913323894449
 20
91.50431976577753
 30
0.0
213
0.0
223
1.199999995199999
233
0.0
1001
ACAD
1000
DSTYLE
1002
{
1070
   176
1070
   256
1070
   341
1005
2FF
1070
    40
1040
1.0
1070
    77
1070
     0
1002
}
  0
LEADER
  5
5759
330
1B
100
AcDbEntity
 67
     1
  8
DATA
100
AcDbLeader
  3
STANDARD
 73
     0
 40
2.4
 41
1.28
 76
     2
 10
236.6896138896155
 20
80.30026985094144
 30
0.0
 10
230.4913321577826
 20
80.30026985273911
 30
0.0
213
0.0
223
1.199999995199999
233
0.0
1001
ACAD
1000
DSTYLE
1002
{
1070
   176
1070
   256
1070
   341
1005
2FF
1070
    40
1040
1.0
1070
    77
1070
     0
1002
}
  0
LEADER
  5
575A
330
1B
100
AcDbEntity
 67
     1
  8
DATA
100
AcDbLeader
  3
STANDARD
 73
     0
 40
2.4
 41
1.28
 76
     2
 10
236.6896138376264
 20
75.91627098668716
 30
0.0
 10
230.5610460950088
 20
75.91627098765811
 30
0.0
213
0.0
223
1.199999995199999
233
0.0
1001
ACAD
1000
DSTYLE
1002
{
1070
   176
1070
   256
1070
   341
1005
2FF
1070
    40
1040
1.0
1070
    77
1070
     0
1002
}
  0
LEADER
  5
575B
330
1B
100
AcDbEntity
 67
     1
  8
DATA
100
AcDbLeader
  3
STANDARD
 73
     0
 40
2.4
 41
1.28
 76
     2
 10
236.6896137047597
 20
64.71222107364877
 30
0.0
 10
230.5610458633465
 20
64.7122210746197
 30
0.0
213
0.0
223
1.199999995199999
233
0.0
1001
ACAD
1000
DSTYLE
1002
{
1070
   176
1070
   256
1070
   341
1005
2FF
1070
    40
1040
1.0
1070
    77
1070
     0
1002
}
  0
DIMENSION
  5
575C
330
1B
100
AcDbEntity
 67
     1
  8
AM_5
100
AcDbDimension
  2
*D20
 10
134.6962281668468
 20
75.86098729582364
 30
0.0
 11
129.4335755603203
 21
75.86098729582364
 31
0.0
 70
   160
  1
 
 71
     5
 42
10.525305213053
  3
STANDARD$0
100
AcDbAlignedDimension
 13
124.1709229537938
 23
75.86098729582362
 33
0.0
 14
134.6962281668468
 24
75.86098729582364
 34
0.0
100
AcDbRotatedDimension
1001
ACAD
1000
DSTYLE
1002
{
1070
    76
1070
     1
1070
    75
1070
     1
1070
    47
1040
0.2
1070
    48
1040
-0.2
1070
   272
1070
     0
1002
}
  0
LINE
  5
575D
102
{ACAD_REACTORS
330
575F
102
}
330
1B
100
AcDbEntity
 67
     1
  8
DATA
100
AcDbLine
 10
263.6389989694856
 20
83.20659535043896
 30
0.0
 11
263.6389989694856
 21
80.07059536298296
 31
0.0
  0
LINE
  5
575E
102
{ACAD_REACTORS
330
575F
102
}
330
1B
100
AcDbEntity
 67
     1
  8
DATA
100
AcDbLine
 10
264.9829989641095
 20
80.07059536298296
 30
0.0
 11
264.9829989641095
 21
83.20659535043896
 31
0.0
  0
HATCH
  5
575F
330
1B
100
AcDbEntity
 67
     1
  8
DATA
100
AcDbHatch
 10
0.0
 20
0.0
 30
0.0
210
0.0
220
0.0
230
1.0
  2
SOLID
 70
     1
 71
     1
 91
        1
 92
        1
 93
        4
 72
     1
 10
264.9829989641095
 20
83.20659535043896
 11
263.6389989694856
 21
83.20659535043896
 72
     1
 10
263.6389989694856
 20
83.20659535043896
 11
263.6389989694856
 21
80.07059536298296
 72
     1
 10
263.6389989694856
 20
80.07059536298296
 11
264.9829989641095
 21
80.07059536298296
 72
     1
 10
264.9829989641095
 20
80.07059536298296
 11
264.9829989641095
 21
83.20659535043896
 97
        4
330
5763
330
575D
330
5760
330
575E
 75
     0
 76
     1
 98
        1
 10
160.5989993816456
 20
4.134595666726937
  0
LINE
  5
5760
102
{ACAD_REACTORS
330
575F
102
}
330
1B
100
AcDbEntity
 67
     1
  8
DATA
100
AcDbLine
 10
263.6389989694856
 20
80.07059536298296
 30
0.0
 11
264.9829989641095
 21
80.07059536298296
 31
0.0
  0
LINE
  5
5761
330
1B
100
AcDbEntity
 67
     1
  8
DATA
100
AcDbLine
 10
264.3109988095647
 20
78.87059536298297
 30
0.0
 11
259.0411910990151
 21
78.87059536298297
 31
0.0
  0
LINE
  5
5762
330
1B
100
AcDbEntity
 67
     1
  8
DATA
100
AcDbLine
 10
264.3109987430257
 20
80.07059536298298
 30
0.0
 11
264.3109988095647
 21
78.87059536298297
 31
0.0
  0
LINE
  5
5763
102
{ACAD_REACTORS
330
575F
102
}
330
1B
100
AcDbEntity
 67
     1
  8
DATA
100
AcDbLine
 10
264.9829989641095
 20
83.20659535043896
 30
0.0
 11
263.6389989694856
 21
83.20659535043896
 31
0.0
  0
LINE
  5
5764
330
1B
100
AcDbEntity
 67
     1
  8
DATA
100
AcDbLine
 10
264.3109989553408
 20
84.40659535043893
 30
0.0
 11
259.0411912447912
 21
84.40659535043893
 31
0.0
  0
LINE
  5
5765
330
1B
100
AcDbEntity
 67
     1
  8
DATA
100
AcDbLine
 10
264.3109989667976
 20
83.20659535043894
 30
0.0
 11
264.3109990566419
 21
84.40659535043893
 31
0.0
  0
MTEXT
  5
5766
330
1B
100
AcDbEntity
 67
     1
  8
DATA
100
AcDbMText
 10
266.551465549868
 20
78.69537332193397
 30
0.0
 40
2.3999999904
 41
3.999999983999999
 71
     7
 72
     1
  1
{\W0.65;A\\}
  7
ROMANS
 73
     1
 44
1.0
1001
ACAD
1000
ACAD_MTEXT_DEFINED_HEIGHT_BEGIN
1070
    46
1040
0.0
1000
ACAD_MTEXT_DEFINED_HEIGHT_END
1000
MTEXTBEGIN
1070
    73
1070
     1
1070
    44
1040
1.0
1070
    74
1070
     0
1000
MTEXTEND
  0
LINE
  5
5767
102
{ACAD_REACTORS
330
5769
102
}
330
1B
100
AcDbEntity
 67
     1
  8
DATA
100
AcDbLine
 10
263.6389989694856
 20
75.53312574539837
 30
0.0
 11
263.6389989694856
 21
72.39712575794236
 31
0.0
  0
LINE
  5
5768
102
{ACAD_REACTORS
330
5769
102
}
330
1B
100
AcDbEntity
 67
     1
  8
DATA
100
AcDbLine
 10
264.9829989641095
 20
72.39712575794236
 30
0.0
 11
264.9829989641095
 21
75.53312574539837
 31
0.0
  0
HATCH
  5
5769
330
1B
100
AcDbEntity
 67
     1
  8
DATA
100
AcDbHatch
 10
0.0
 20
0.0
 30
0.0
210
0.0
220
0.0
230
1.0
  2
SOLID
 70
     1
 71
     1
 91
        1
 92
        1
 93
        4
 72
     1
 10
264.9829989641095
 20
75.53312574539837
 11
263.6389989694856
 21
75.53312574539837
 72
     1
 10
263.6389989694856
 20
75.53312574539837
 11
263.6389989694856
 21
72.39712575794236
 72
     1
 10
263.6389989694856
 20
72.39712575794236
 11
264.9829989641095
 21
72.39712575794236
 72
     1
 10
264.9829989641095
 20
72.39712575794236
 11
264.9829989641095
 21
75.53312574539837
 97
        4
330
576D
330
5767
330
576A
330
5768
 75
     0
 76
     1
 98
        1
 10
160.5989993816456
 20
-3.538873938313642
  0
LINE
  5
576A
102
{ACAD_REACTORS
330
5769
102
}
330
1B
100
AcDbEntity
 67
     1
  8
DATA
100
AcDbLine
 10
263.6389989694856
 20
72.39712575794236
 30
0.0
 11
264.9829989641095
 21
72.39712575794236
 31
0.0
  0
LINE
  5
576B
330
1B
100
AcDbEntity
 67
     1
  8
DATA
100
AcDbLine
 10
264.3109988095647
 20
71.19712575794238
 30
0.0
 11
259.0411910990151
 21
71.19712575794238
 31
0.0
  0
LINE
  5
576C
330
1B
100
AcDbEntity
 67
     1
  8
DATA
100
AcDbLine
 10
264.3109987430257
 20
72.39712575794237
 30
0.0
 11
264.3109988095647
 21
71.19712575794238
 31
0.0
  0
LINE
  5
576D
102
{ACAD_REACTORS
330
5769
102
}
330
1B
100
AcDbEntity
 67
     1
  8
DATA
100
AcDbLine
 10
264.9829989641095
 20
75.53312574539837
 30
0.0
 11
263.6389989694856
 21
75.53312574539837
 31
0.0
  0
LINE
  5
576E
330
1B
100
AcDbEntity
 67
     1
  8
DATA
100
AcDbLine
 10
264.3109989553408
 20
76.73312574539834
 30
0.0
 11
259.0411912447912
 21
76.73312574539834
 31
0.0
  0
LINE
  5
576F
330
1B
100
AcDbEntity
 67
     1
  8
DATA
100
AcDbLine
 10
264.3109989667976
 20
75.53312574539837
 30
0.0
 11
264.3109990566419
 21
76.73312574539834
 31
0.0
  0
MTEXT
  5
5770
330
1B
100
AcDbEntity
 67
     1
  8
DATA
100
AcDbMText
 10
266.551465549868
 20
74.73537332193398
 30
0.0
 40
2.3999999904
 41
3.999999983999999
 71
     7
 72
     1
  1
{\W0.65;B}
  7
ROMANS
 73
     1
 44
1.0
1001
ACAD
1000
ACAD_MTEXT_DEFINED_HEIGHT_BEGIN
1070
    46
1040
0.0
1000
ACAD_MTEXT_DEFINED_HEIGHT_END
1000
MTEXTBEGIN
1070
    73
1070
     1
1070
    44
1040
1.0
1070
    74
1070
     0
1000
MTEXTEND
  0
LINE
  5
5771
102
{ACAD_REACTORS
330
5773
102
}
330
1B
100
AcDbEntity
 67
     1
  8
DATA
100
AcDbLine
 10
263.6389989388202
 20
67.72013876715077
 30
0.0
 11
263.6389989388202
 21
64.58413877969475
 31
0.0
  0
LINE
  5
5772
102
{ACAD_REACTORS
330
5773
102
}
330
1B
100
AcDbEntity
 67
     1
  8
DATA
100
AcDbLine
 10
264.9829989334441
 20
64.58413877969475
 30
0.0
 11
264.9829989334441
 21
67.72013876715077
 31
0.0
  0
HATCH
  5
5773
330
1B
100
AcDbEntity
 67
     1
  8
DATA
100
AcDbHatch
 10
0.0
 20
0.0
 30
0.0
210
0.0
220
0.0
230
1.0
  2
SOLID
 70
     1
 71
     1
 91
        1
 92
        1
 93
        4
 72
     1
 10
264.9829989334441
 20
67.72013876715077
 11
263.6389989388202
 21
67.72013876715077
 72
     1
 10
263.6389989388202
 20
67.72013876715077
 11
263.6389989388202
 21
64.58413877969475
 72
     1
 10
263.6389989388202
 20
64.58413877969475
 11
264.9829989334441
 21
64.58413877969475
 72
     1
 10
264.9829989334441
 20
64.58413877969475
 11
264.9829989334441
 21
67.72013876715077
 97
        4
330
5777
330
5771
330
5774
330
5772
 75
     0
 76
     1
 98
        1
 10
160.5989993509802
 20
-11.35186091656125
  0
LINE
  5
5774
102
{ACAD_REACTORS
330
5773
102
}
330
1B
100
AcDbEntity
 67
     1
  8
DATA
100
AcDbLine
 10
263.6389989388202
 20
64.58413877969475
 30
0.0
 11
264.9829989334441
 21
64.58413877969475
 31
0.0
  0
LINE
  5
5775
330
1B
100
AcDbEntity
 67
     1
  8
DATA
100
AcDbLine
 10
264.3109987788993
 20
63.38413877969478
 30
0.0
 11
259.0411910683496
 21
63.38413877969478
 31
0.0
  0
LINE
  5
5776
330
1B
100
AcDbEntity
 67
     1
  8
DATA
100
AcDbLine
 10
264.3109987123603
 20
64.58413877969476
 30
0.0
 11
264.3109987788993
 21
63.38413877969478
 31
0.0
  0
LINE
  5
5777
102
{ACAD_REACTORS
330
5773
102
}
330
1B
100
AcDbEntity
 67
     1
  8
DATA
100
AcDbLine
 10
264.9829989334441
 20
67.72013876715077
 30
0.0
 11
263.6389989388202
 21
67.72013876715077
 31
0.0
  0
LINE
  5
5778
330
1B
100
AcDbEntity
 67
     1
  8
DATA
100
AcDbLine
 10
264.3109989246753
 20
68.92013876715073
 30
0.0
 11
259.0411912141258
 21
68.92013876715073
 31
0.0
  0
LINE
  5
5779
330
1B
100
AcDbEntity
 67
     1
  8
DATA
100
AcDbLine
 10
264.3109989361321
 20
67.72013876715075
 30
0.0
 11
264.3109990259765
 21
68.92013876715073
 31
0.0
  0
MTEXT
  5
577A
330
1B
100
AcDbEntity
 67
     1
  8
DATA
100
AcDbMText
 10
266.5514655192026
 20
63.13137332193398
 30
0.0
 40
2.3999999904
 41
3.999999983999999
 71
     7
 72
     1
  1
{\W0.65;B\\}
  7
ROMANS
 73
     1
 44
1.0
1001
ACAD
1000
ACAD_MTEXT_DEFINED_HEIGHT_BEGIN
1070
    46
1040
0.0
1000
ACAD_MTEXT_DEFINED_HEIGHT_END
1000
MTEXTBEGIN
1070
    73
1070
     1
1070
    44
1040
1.0
1070
    74
1070
     0
1000
MTEXTEND
  0
TEXT
  5
5874
330
1B
100
AcDbEntity
 67
     1
  8
DATA
100
AcDbText
 10
175.6829051118027
 20
7.348353290222588
 30
0.0
 40
3.0
  1
J.W.
  7
ITALICT
100
AcDbText
  0
TEXT
  5
5932
330
1B
100
AcDbEntity
 67
     1
  8
DATA
100
AcDbText
 10
174.0
 20
38.0
 30
0.0
 40
2.4
  1
52
 41
0.7
  7
ROMANS
100
AcDbText
  0
TEXT
  5
5933
330
1B
100
AcDbEntity
 67
     1
  8
DATA
100
AcDbText
 10
159.0
 20
38.0
 30
0.0
 40
2.4
  1
90
 41
0.7
  7
ROMANS
100
AcDbText
  0
TEXT
  5
5934
330
1B
100
AcDbEntity
 67
     1
  8
DATA
100
AcDbText
 10
167.0
 20
38.0
 30
0.0
 40
2.4
  1
70
 41
0.7
  7
ROMANS
100
AcDbText
  0
TEXT
  5
5935
330
1B
100
AcDbEntity
 67
     1
  8
DATA
100
AcDbText
 10
152.0
 20
38.0
 30
0.0
 40
2.4
  1
130
 41
0.7
  7
ROMANS
100
AcDbText
  0
MTEXT
  5
5936
330
1B
100
AcDbEntity
 67
     1
  8
DATA
100
AcDbMText
 10
158.4983559025127
 20
50.13711884239956
 30
0.0
 40
2.399999999999999
 41
110.0
 71
     1
 72
     5
  1
{\W0.7;F\H0.8333x;a\H1.2x;=15}
  7
ROMANS
 73
     1
 44
1.0
1001
ACAD
1000
ACAD_MTEXT_DEFINED_HEIGHT_BEGIN
1070
    46
1040
0.0
1000
ACAD_MTEXT_DEFINED_HEIGHT_END
1000
MTEXTBEGIN
1070
    73
1070
     1
1070
    44
1040
1.0
1070
    74
1070
     0
1000
MTEXTEND
  0
LINE
  5
5A43
330
1B
100
AcDbEntity
 67
     1
  8
SPEC
100
AcDbLine
 10
50.00091540155131
 20
71.6559890122013
 30
0.0
 11
50.00091540155131
 21
51.6559890122013
 31
0.0
  0
LINE
  5
5A44
330
1B
100
AcDbEntity
 67
     1
  8
SPEC
100
AcDbLine
 10
78.00091540155129
 20
66.65598901220135
 30
0.0
 11
78.00091540155129
 21
61.65598901220142
 31
0.0
  0
LINE
  5
5A45
330
1B
100
AcDbEntity
 67
     1
  8
SPEC
100
AcDbLine
 10
99.00091540155131
 20
66.65598901220132
 30
0.0
 11
99.00091540155132
 21
61.65598901220142
 31
0.0
  0
TEXT
  5
5C49
330
1B
100
AcDbEntity
 67
     1
  8
DATA
100
AcDbText
 10
68.0
 20
72.99999999999993
 30
0.0
 40
2.4
  1
0.03 [0.266]
 41
0.7
  7
ROMANS
100
AcDbText
  0
TEXT
  5
5DD4
330
1B
100
AcDbEntity
 67
     1
  8
DATA
100
AcDbText
 10
189.4634543457442
 20
17.05999183728654
 30
0.0
 40
2.509907399999999
  1
19.03.07
 41
0.7
  7
ROMANS
100
AcDbText
  0
TEXT
  5
5DD5
330
1B
100
AcDbEntity
 67
     1
  8
DATA
100
AcDbText
 10
175.6829051118027
 20
16.86719000998262
 30
0.0
 40
3.0
  1
S.Ha.
  7
ITALICT
100
AcDbText
  0
ENDSEC
  0
SECTION
  2
OBJECTS
  0
DICTIONARY
  5
C
330
0
100
AcDbDictionary
281
     1
  3
ACAD_COLOR
350
BE
  3
ACAD_GROUP
350
D
  3
ACAD_LAYOUT
350
1A
  3
ACAD_MATERIAL
350
BD
  3
ACAD_MLINESTYLE
350
17
  3
ACAD_PLOTSETTINGS
350
19
  3
ACAD_PLOTSTYLENAME
350
E
  3
ACAD_TABLESTYLE
350
11A
  3
AcadDim
350
2E5B
  3
ACDBHEADERROUNDTRIPXREC
350
5DFA
  3
AcDbVariableDictionary
350
94
  3
AcmDictionary
350
5B
  3
AMG
350
41
  3
AMGSNAPSETTINGS
350
26B
  3
DWGPROPS
350
5DF9
  0
DICTIONARY
  5
2F5
330
2
100
AcDbDictionary
280
     1
281
     1
  3
ACAD_LAYERSTATES
360
2F6
  0
DICTIONARY
  5
8F
330
1F
100
AcDbDictionary
280
     1
281
     1
  3
ACAD_SORTENTS
360
4FF8
  0
DICTIONARY
  5
2D9F
330
1B
100
AcDbDictionary
280
     1
281
     1
  3
ACAD_SORTENTS
360
2DA0
  0
DICTIONARY
  5
128A
330
125D
100
AcDbDictionary
280
     1
281
     1
  0
DICTIONARY
  5
2CC2
330
2CC0
100
AcDbDictionary
280
     1
281
     1
  0
DICTIONARY
  5
4CA4
330
4C97
100
AcDbDictionary
280
     1
281
     1
  3
ACAD_DIMASSOC
360
4CA5
  0
DICTIONARY
  5
4CFB
330
4CEE
100
AcDbDictionary
280
     1
281
     1
  3
ACAD_DIMASSOC
360
4CFC
  0
DICTIONARY
  5
4E7C
330
4E6F
100
AcDbDictionary
280
     1
281
     1
  3
ACAD_DIMASSOC
360
4E7D
  0
DICTIONARY
  5
4ECB
330
4EBE
100
AcDbDictionary
280
     1
281
     1
  3
ACAD_DIMASSOC
360
4ECC
  0
DICTIONARY
  5
5DFE
330
2D8
100
AcDbDictionary
280
     1
281
     1
  3
ACAD_XREC_ROUNDTRIP
360
5DFF
  0
DICTIONARY
  5
5E00
330
1E55
100
AcDbDictionary
280
     1
281
     1
  3
ACAD_XREC_ROUNDTRIP
360
5E01
  0
DICTIONARY
  5
BE
102
{ACAD_REACTORS
330
C
102
}
330
C
100
AcDbDictionary
281
     1
  0
DICTIONARY
  5
D
102
{ACAD_REACTORS
330
C
102
}
330
C
100
AcDbDictionary
281
     1
  0
DICTIONARY
  5
1A
102
{ACAD_REACTORS
330
C
102
}
330
C
100
AcDbDictionary
281
     1
  3
Layout1
350
1E
  3
Model
350
22
  0
DICTIONARY
  5
BD
102
{ACAD_REACTORS
330
C
102
}
330
C
100
AcDbDictionary
281
     1
  0
DICTIONARY
  5
17
102
{ACAD_REACTORS
330
C
102
}
330
C
100
AcDbDictionary
281
     1
  3
Standard
350
18
  0
DICTIONARY
  5
19
102
{ACAD_REACTORS
330
C
102
}
330
C
100
AcDbDictionary
281
     1
  0
ACDBDICTIONARYWDFLT
  5
E
102
{ACAD_REACTORS
330
C
102
}
330
C
100
AcDbDictionary
281
     1
  3
Normal
350
F
100
AcDbDictionaryWithDefault
340
F
  0
DICTIONARY
  5
11A
102
{ACAD_REACTORS
330
C
102
}
330
C
100
AcDbDictionary
281
     1
  3
Standard
350
11B
  0
XRECORD
  5
2E5B
102
{ACAD_REACTORS
330
C
102
}
330
C
100
AcDbXrecord
280
     1
 90
   990106
  3

 60
     0
 61
     0
 62
     1
 63
     3
 64
     0
 65
     0
 66
     0
 67
     3
 68
     1
 69
     0
 70
     0
 71
     0
 72
     0
 40
0.0
170
     0
340
2E0B
  0
DICTIONARY
  5
5DFA
102
{ACAD_REACTORS
330
C
102
}
330
C
100
AcDbDictionary
281
     1
  0
DICTIONARY
  5
94
102
{ACAD_REACTORS
330
C
102
}
330
C
100
AcDbDictionary
281
     1
  3
CTABLESTYLE
350
138
  3
DIMASSOC
350
96
  3
INDEXCTL
350
95
  3
PROJECTNAME
350
1B03
  0
DICTIONARY
  5
5B
102
{ACAD_REACTORS
330
C
102
}
330
C
100
AcDbDictionary
281
     1
  3
AcmBOM
350
272
  3
AcmStdDictionary
350
61
  3
AMDTSECTSYM_ARROWCOLOR
350
123
  0
DICTIONARY
  5
41
102
{ACAD_REACTORS
330
C
102
}
330
C
100
AcDbDictionary
281
     1
  0
DICTIONARY
  5
26B
102
{ACAD_REACTORS
330
C
102
}
330
C
100
AcDbDictionary
281
     1
  0
XRECORD
  5
5DF9
102
{ACAD_REACTORS
330
C
102
}
330
C
100
AcDbXrecord
280
     1
  1
DWGPROPS COOKIE
  2

  3

  4

  6

  7

  8

  9

300
AmdtFileType=84
301
=
302
=
303
=
304
=
305
=
306
=
307
=
308
=
309
=
 40
1.237328587962962
 41
2453787.394483275
 42
2454179.519184155
  1

 90
        1
  0
DICTIONARY
  5
2F6
102
{ACAD_REACTORS
330
2F5
102
}
330
2F5
100
AcDbDictionary
281
     1
  0
SORTENTSTABLE
  5
4FF8
102
{ACAD_REACTORS
330
8F
102
}
330
8F
100
AcDbSortentsTable
330
1F
331
3BE4
  5
3BE4
331
3CA3
  5
3CA3
331
3C2D
  5
3C2D
331
3C6C
  5
3C6C
331
3BEC
  5
3BEC
331
3CAB
  5
3CAB
331
3C35
  5
3C35
331
3C74
  5
3C74
331
3BF4
  5
3BF4
331
3CB3
  5
3CB3
331
3C3D
  5
3C3D
331
3C7C
  5
3C7C
331
4E6F
  5
4E6F
331
3C45
  5
3C45
331
3C84
  5
3C84
331
3C0C
  5
3C0C
331
3BC5
  5
3BC5
331
3C8C
  5
3C8C
331
3C4D
  5
3C4D
331
3BCD
  5
3BCD
331
3C14
  5
3C14
331
3C55
  5
3C55
331
3C94
  5
3C94
331
3C24
  5
3C24
331
3BD5
  5
3BD5
331
3C9C
  5
3C9C
331
3C5D
  5
3C5D
331
3C65
  5
3C65
331
3BE5
  5
3BE5
331
3CA4
  5
3CA4
331
3C6D
  5
3C6D
331
3BED
  5
3BED
331
4F57
  5
4F57
331
3CAC
  5
3CAC
331
3C36
  5
3C36
331
3C75
  5
3C75
331
3BF5
  5
3BF5
331
3CB4
  5
3CB4
331
3C3E
  5
3C3E
331
3C7D
  5
3C7D
331
3C05
  5
3C05
331
3C46
  5
3C46
331
3C85
  5
3C85
331
4FF7
  5
4FF7
331
13FA
  5
13FA
331
3C0D
  5
3C0D
331
3BC6
  5
3BC6
331
3C8D
  5
3C8D
331
3C4E
  5
3C4E
331
3BCE
  5
3BCE
331
3C15
  5
3C15
331
3C56
  5
3C56
331
3C95
  5
3C95
331
3C25
  5
3C25
331
3BD6
  5
3BD6
331
3C9D
  5
3C9D
331
3C5E
  5
3C5E
331
3BDE
  5
3BDE
331
3C66
  5
3C66
331
3CA5
  5
3CA5
331
3BEE
  5
3BEE
331
3C6E
  5
3C6E
331
3CAD
  5
3CAD
331
3BF6
  5
3BF6
331
3C37
  5
3C37
331
3C76
  5
3C76
331
3CB5
  5
3CB5
331
3C06
  5
3C06
331
3C3F
  5
3C3F
331
3C47
  5
3C47
331
3C86
  5
3C86
331
3C0E
  5
3C0E
331
3BC7
  5
3BC7
331
3C8E
  5
3C8E
331
3BCF
  5
3BCF
331
3C16
  5
3C16
331
3C4F
  5
3C4F
331
3C26
  5
3C26
331
3BD7
  5
3BD7
331
3C57
  5
3C57
331
3C96
  5
3C96
331
3C9E
  5
3C9E
331
3BDF
  5
3BDF
331
3C5F
  5
3C5F
331
3C67
  5
3C67
331
3BEF
  5
3BEF
331
3C30
  5
3C30
331
3C6F
  5
3C6F
331
3CA6
  5
3CA6
331
3CAE
  5
3CAE
331
3C77
  5
3C77
331
3C38
  5
3C38
331
3C07
  5
3C07
331
3C40
  5
3C40
331
3C7F
  5
3C7F
331
3C87
  5
3C87
331
3C0F
  5
3C0F
331
3BC8
  5
3BC8
331
3C48
  5
3C48
331
4FF9
  5
4FFA
331
3BD0
  5
3BD0
331
3C17
  5
3C17
331
3C50
  5
3C50
331
3BD8
  5
3BD8
331
3C58
  5
3C58
331
3C9F
  5
3C9F
331
3C60
  5
3C60
331
3BE0
  5
3BE0
331
3C29
  5
3C29
331
3C68
  5
3C68
331
3C31
  5
3C31
331
3C70
  5
3C70
331
3CA7
  5
3CA7
331
3BF0
  5
3BF0
331
3CAF
  5
3CAF
331
3C39
  5
3C39
331
3C78
  5
3C78
331
3C41
  5
3C41
331
3C80
  5
3C80
331
3CB7
  5
3CB7
331
3C08
  5
3C08
331
3C88
  5
3C88
331
3C49
  5
3C49
331
3BC9
  5
3BC9
331
3C10
  5
3C10
331
4FFA
  5
4FFB
331
3C51
  5
3C51
331
3C90
  5
3C90
331
3BD1
  5
3BD1
331
3C98
  5
3C98
331
3C59
  5
3C59
331
3BD9
  5
3BD9
331
3C61
  5
3C61
331
4F23
  5
4F23
331
3BE1
  5
3BE1
331
3CA0
  5
3CA0
331
3C2A
  5
3C2A
331
3C69
  5
3C69
331
3CA8
  5
3CA8
331
3C71
  5
3C71
331
3BF1
  5
3BF1
331
3CB0
  5
3CB0
331
3C3A
  5
3C3A
331
3C79
  5
3C79
331
3C42
  5
3C42
331
3C81
  5
3C81
331
3C89
  5
3C89
331
3C4A
  5
3C4A
331
3BCA
  5
3BCA
331
3C11
  5
3C11
331
3C91
  5
3C91
331
3C52
  5
3C52
331
3BD2
  5
3BD2
331
3C99
  5
3C99
331
3C5A
  5
3C5A
331
3BDA
  5
3BDA
331
3C62
  5
3C62
331
3BE2
  5
3BE2
331
3CA1
  5
3CA1
331
3C6A
  5
3C6A
331
3CA9
  5
3CA9
331
3C33
  5
3C33
331
3C72
  5
3C72
331
4CEE
  5
4CEE
331
3CB1
  5
3CB1
331
3C3B
  5
3C3B
331
3C7A
  5
3C7A
331
4FEC
  5
4FEC
331
3C43
  5
3C43
331
3C82
  5
3C82
331
3C0A
  5
3C0A
331
3C8A
  5
3C8A
331
3C4B
  5
3C4B
331
3BCB
  5
3BCB
331
3C12
  5
3C12
331
3C53
  5
3C53
331
3C92
  5
3C92
331
3BD3
  5
3BD3
331
3C9A
  5
3C9A
331
3C5B
  5
3C5B
331
3BDB
  5
3BDB
331
4C97
  5
4C97
331
3C63
  5
3C63
331
3BE3
  5
3BE3
331
3CA2
  5
3CA2
331
3C2C
  5
3C2C
331
3C6B
  5
3C6B
331
3BEB
  5
3BEB
331
3CAA
  5
3CAA
331
3C34
  5
3C34
331
3C73
  5
3C73
331
3BF3
  5
3BF3
331
3CB2
  5
3CB2
331
3C3C
  5
3C3C
331
3C7B
  5
3C7B
331
3C44
  5
3C44
331
3C83
  5
3C83
331
3C0B
  5
3C0B
331
3C8B
  5
3C8B
331
3C4C
  5
3C4C
331
3C13
  5
3C13
331
3BCC
  5
3BCC
331
3C54
  5
3C54
331
3C93
  5
3C93
331
3C23
  5
3C23
331
3BD4
  5
3BD4
331
4EBE
  5
4EBE
331
3C9B
  5
3C9B
331
3C5C
  5
3C5C
331
3BDC
  5
3BDC
331
3C64
  5
3C64
  0
SORTENTSTABLE
  5
2DA0
102
{ACAD_REACTORS
330
2D9F
102
}
330
2D9F
100
AcDbSortentsTable
330
1B
331
1A6A
  5
1A6A
331
19FB
  5
19FB
331
1A03
  5
1A03
331
1A0B
  5
1A0B
331
19C0
  5
19C0
331
1949
  5
1949
331
129A
  5
129A
331
19C8
  5
19C8
331
1951
  5
1951
331
12A2
  5
12A2
331
1A13
  5
1A13
331
1A1B
  5
1A1B
331
2D71
  5
2D71
331
1A23
  5
1A23
331
2D99
  5
2D9A
331
12AA
  5
12AA
331
1959
  5
1959
331
19D8
  5
19D8
331
1961
  5
1961
331
12B2
  5
12B2
331
19E0
  5
19E0
331
1969
  5
1969
331
12BA
  5
12BA
331
19E8
  5
19E8
331
1971
  5
1971
331
2DA1
  5
2DA2
331
19F4
  5
19F4
331
1A04
  5
1A04
331
1A0C
  5
1A0C
331
19C1
  5
19C1
331
194A
  5
194A
331
129B
  5
129B
331
19C9
  5
19C9
331
1952
  5
1952
331
12A3
  5
12A3
331
19D1
  5
19D1
331
1A14
  5
1A14
331
1A1C
  5
1A1C
331
2D72
  5
2D72
331
2D9A
  5
2DA1
331
12AB
  5
12AB
331
195A
  5
195A
331
1962
  5
1962
331
12B3
  5
12B3
331
19E1
  5
19E1
331
196A
  5
196A
331
19E9
  5
19E9
331
1972
  5
1972
331
2DA2
  5
2D9E
331
19FD
  5
19FD
331
1A05
  5
1A05
331
2CCB
  5
2CCB
331
1A0D
  5
1A0D
331
2CEB
  5
2CEB
331
19C2
  5
19C2
331
1294
  5
1294
331
194B
  5
194B
331
129C
  5
129C
331
1953
  5
1953
331
12A4
  5
12A4
331
19D2
  5
19D2
331
1A15
  5
1A15
331
1A1D
  5
1A1D
331
12AC
  5
12AC
331
195B
  5
195B
331
1963
  5
1963
331
12B4
  5
12B4
331
19E2
  5
19E2
331
196B
  5
196B
331
19EA
  5
19EA
331
1973
  5
1973
331
19F6
  5
19F6
331
1A06
  5
1A06
331
1A0E
  5
1A0E
331
1E55
  5
1E55
331
19BB
  5
19BB
331
194C
  5
194C
331
129D
  5
129D
331
1954
  5
1954
331
12A5
  5
12A5
331
1A16
  5
1A16
331
1A1E
  5
1A1E
331
2D94
  5
2D94
331
12AD
  5
12AD
331
195C
  5
195C
331
1964
  5
1964
331
12B5
  5
12B5
331
19E3
  5
19E3
331
196C
  5
196C
331
19EB
  5
19EB
331
1974
  5
1974
331
19F7
  5
19F7
331
19FF
  5
19FF
331
1A07
  5
1A07
331
1A0F
  5
1A0F
331
2D8
  5
2D8
331
19C4
  5
19C4
331
1296
  5
1296
331
194D
  5
194D
331
129E
  5
129E
331
1955
  5
1955
331
12A6
  5
12A6
331
1A17
  5
1A17
331
2D6D
  5
2D6D
331
1A1F
  5
1A1F
331
2D95
  5
2D95
331
2CB6
  5
2CB6
331
19DC
  5
19DC
331
12AE
  5
12AE
331
195D
  5
195D
331
19E4
  5
19E4
331
1965
  5
1965
331
12B6
  5
12B6
331
19EC
  5
19EC
331
196D
  5
196D
331
1975
  5
1975
331
19F0
  5
19F0
331
1A00
  5
1A00
331
1A08
  5
1A08
331
19BD
  5
19BD
331
19C5
  5
19C5
331
1297
  5
1297
331
194E
  5
194E
331
129F
  5
129F
331
19D5
  5
19D5
331
1956
  5
1956
331
12A7
  5
12A7
331
1A10
  5
1A10
331
1A18
  5
1A18
331
2CB7
  5
2CB7
331
2D96
  5
2D96
331
2D9E
  5
2D99
331
12AF
  5
12AF
331
195E
  5
195E
331
19DD
  5
19DD
331
1966
  5
1966
331
12B7
  5
12B7
331
19E5
  5
19E5
331
196E
  5
196E
331
19ED
  5
19ED
331
1976
  5
1976
331
19F1
  5
19F1
331
19F9
  5
19F9
331
2CBF
  5
2CBF
331
1A01
  5
1A01
331
1A09
  5
1A09
331
1290
  5
1290
331
19C6
  5
19C6
331
194F
  5
194F
331
12A0
  5
12A0
331
1957
  5
1957
331
19D6
  5
19D6
331
1A11
  5
1A11
331
1A19
  5
1A19
331
1A21
  5
1A21
331
2D97
  5
2D97
331
12A8
  5
12A8
331
12B0
  5
12B0
331
195F
  5
195F
331
1967
  5
1967
331
12B8
  5
12B8
331
19E6
  5
19E6
331
196F
  5
196F
331
19EE
  5
19EE
331
19F2
  5
19F2
331
19FA
  5
19FA
331
1A02
  5
1A02
331
1A0A
  5
1A0A
331
1708
  5
1708
331
1291
  5
1291
331
19BF
  5
19BF
331
1948
  5
1948
331
1299
  5
1299
331
19C7
  5
19C7
331
1950
  5
1950
331
1A1A
  5
1A1A
331
2D70
  5
2D70
331
1A22
  5
1A22
331
2D98
  5
2D98
331
12A9
  5
12A9
331
1958
  5
1958
331
1960
  5
1960
331
12B1
  5
12B1
331
19DF
  5
19DF
331
1968
  5
1968
331
19E7
  5
19E7
331
1970
  5
1970
331
19EF
  5
19EF
  0
DIMASSOC
  5
4CA5
102
{ACAD_REACTORS
330
4CA4
102
}
330
4CA4
100
AcDbDimAssoc
330
4C97
 90
        3
 70
     0
 71
     0
  1
AcDbOsnapPointRef
 72
     1
331
3C23
 73
     0
 91
        0
 40
0.0
 10
0.0
 20
0.0
 30
2.000000000000000E+50
 75
     0
  1
AcDbOsnapPointRef
 72
    13
331
3C26
 73
     0
 91
        0
 40
0.0
 10
0.0
 20
0.0
 30
2.000000000000000E+50
 75
     0
  0
DIMASSOC
  5
4CFC
102
{ACAD_REACTORS
330
4CFB
102
}
330
4CFB
100
AcDbDimAssoc
330
4CEE
 90
        1
 70
     0
 71
     0
  1
AcDbOsnapPointRef
 72
     1
331
3C29
 73
     0
 91
        0
 40
0.0
 10
0.0
 20
0.0
 30
2.000000000000000E+50
 75
     0
  0
DIMASSOC
  5
4E7D
102
{ACAD_REACTORS
330
4E7C
102
}
330
4E7C
100
AcDbDimAssoc
330
4E6F
 90
        3
 70
     0
 71
     0
  1
AcDbOsnapPointRef
 72
     1
331
3C7F
 73
     2
 91
        5
 40
0.0
 10
0.0
 20
0.0
 30
2.000000000000000E+50
 75
     0
  1
AcDbOsnapPointRef
 72
     8
331
3C82
 73
     2
 91
        6
 40
6.283185307179586
 10
0.0
 20
0.0
 30
0.0
 75
     1
  1
AcDbOsnapPointRef
 72
     1
331
3C7F
 73
     2
 91
        5
 40
0.0
 10
0.0
 20
0.0
 30
2.000000000000000E+50
 75
     0
  0
DIMASSOC
  5
4ECC
102
{ACAD_REACTORS
330
4ECB
102
}
330
4ECB
100
AcDbDimAssoc
330
4EBE
 90
        1
 70
     0
 71
     0
  1
AcDbOsnapPointRef
 72
    13
331
3BE0
 73
     0
 91
        0
 40
0.0
 10
0.0
 20
0.0
 30
2.000000000000000E+50
 75
     0
  0
XRECORD
  5
5DFF
102
{ACAD_REACTORS
330
5DFE
102
}
330
5DFE
100
AcDbXrecord
280
     1
102
SHADEPLOT
 70
     0
  0
XRECORD
  5
5E01
102
{ACAD_REACTORS
330
5E00
102
}
330
5E00
100
AcDbXrecord
280
     1
102
SHADEPLOT
 70
     0
  0
LAYOUT
  5
1E
102
{ACAD_XDICTIONARY
360
2F8
102
}
102
{ACAD_REACTORS
330
1A
102
}
330
1A
100
AcDbPlotSettings
  1

  2
Win2PDF.pc3
  4
A4
  6

 40
3.174999952316284
 41
3.174999952316284
 42
3.17498779296875
 43
3.175003051757812
 44
296.989501953125
 45
209.9944915771484
 46
4.281918756031529
 47
3.819901690812457
 48
0.0
 49
0.0
140
0.0
141
0.0
142
1.0
143
1.0
 70
   692
 72
     1
 73
     0
 74
     1
  7
monochrome.ctb
 75
    16
147
1.0
148
0.0166177473049629
149
0.0081431743496978
100
AcDbLayout
  1
Layout1
 70
     1
 71
     1
 10
-7.473536455652777
 20
-7.003044817478439
 11
289.5159654974722
 21
202.99144675967
 12
0.0
 22
0.0
 32
0.0
 14
-0.0052938850726605
 24
-0.0081411356974286
 34
-0.0015258207003583
 15
282.0477243098575
 25
195.996544055752
 35
0.0000000349246037
146
0.0
 13
0.0
 23
0.0
 33
0.0
 16
1.0
 26
0.0
 36
0.0
 17
0.0
 27
1.0
 37
0.0
 76
     0
330
1B
331
2D8
1001
ACAD_PSEXT
1000
Win2PDF.pc3
1000
Win2PDF
1000
PDFFILE:
1000

1070
     0
  0
LAYOUT
  5
22
102
{ACAD_XDICTIONARY
360
5DFC
102
}
102
{ACAD_REACTORS
330
1A
102
}
330
1A
100
AcDbPlotSettings
  1

  2
\\pallas\ColorLaserJet Büro
  4
A4
  6

 40
6.805083274841308
 41
5.027085304260253
 42
6.805084228515625
 43
5.027069091796875
 44
209.9733276367187
 45
296.9683227539062
 46
0.0
 47
0.0
 48
0.0
 49
0.0
140
0.0
141
0.0
142
1.0
143
1.82975238375777
 70
 11952
 72
     1
 73
     1
 74
     0
  7

 75
     0
147
0.5465220370126233
148
-1003.732693658126
149
-531.8054935907698
100
AcDbLayout
  1
Model
 70
     1
 71
     0
 10
0.0
 20
0.0
 11
12.0
 21
9.0
 12
0.0
 22
0.0
 32
0.0
 14
0.0
 24
0.0
 34
0.0
 15
0.0
 25
0.0
 35
0.0
146
0.0
 13
0.0
 23
0.0
 33
0.0
 16
1.0
 26
0.0
 36
0.0
 17
0.0
 27
1.0
 37
0.0
 76
     0
330
1F
1001
ACAD_PSEXT
1000
\\pallas\ColorLaserJet Büro
1000
HP Color LaserJet 4550 PCL
1000
Serverraum
1000
HP ColorLaserJet 4550N
1070
     0
  0
MLINESTYLE
  5
18
102
{ACAD_REACTORS
330
17
102
}
330
17
100
AcDbMlineStyle
  2
STANDARD
 70
     0
  3

 62
   256
 51
90.0
 52
90.0
 71
     2
 49
0.5
 62
   256
  6
BYLAYER
 49
-0.5
 62
   256
  6
BYLAYER
  0
ACDBPLACEHOLDER
  5
F
102
{ACAD_REACTORS
330
E
102
}
330
E
  0
TABLESTYLE
  5
11B
102
{ACAD_REACTORS
330
11A
102
}
330
11A
100
AcDbTableStyle
  3
Standard
 70
     0
 71
     0
 40
1.5
 41
1.5
280
     0
281
     0
  7
STANDARD
140
4.5
170
     2
 62
     0
 63
     7
283
     0
274
    -2
284
     1
 64
     0
275
    -2
285
     1
 65
     0
276
    -2
286
     1
 66
     0
277
    -2
287
     1
 67
     0
278
    -2
288
     1
 68
     0
279
    -2
289
     1
 69
     0
  7
STANDARD
140
6.0
170
     5
 62
     0
 63
     7
283
     0
274
    -2
284
     1
 64
     0
275
    -2
285
     1
 65
     0
276
    -2
286
     1
 66
     0
277
    -2
287
     1
 67
     0
278
    -2
288
     1
 68
     0
279
    -2
289
     1
 69
     0
  7
STANDARD
140
4.5
170
     5
 62
     0
 63
     7
283
     0
274
    -2
284
     1
 64
     0
275
    -2
285
     1
 65
     0
276
    -2
286
     1
 66
     0
277
    -2
287
     1
 67
     0
278
    -2
288
     1
 68
     0
279
    -2
289
     1
 69
     0
  0
DICTIONARYVAR
  5
138
102
{ACAD_REACTORS
330
94
102
}
330
94
100
DictionaryVariables
280
     0
  1
STANDARD
  0
DICTIONARYVAR
  5
96
102
{ACAD_REACTORS
330
94
102
}
330
94
100
DictionaryVariables
280
     0
  1
2
  0
DICTIONARYVAR
  5
95
102
{ACAD_REACTORS
330
94
102
}
330
94
100
DictionaryVariables
280
     0
  1
0
  0
DICTIONARYVAR
  5
1B03
102
{ACAD_REACTORS
330
94
102
}
330
94
100
DictionaryVariables
280
     0
  1

  0
DICTIONARY
  5
272
102
{ACAD_REACTORS
330
5B
102
}
330
5B
100
AcDbDictionary
281
     1
  0
DICTIONARY
  5
61
102
{ACAD_REACTORS
330
5B
102
}
330
5B
100
AcDbDictionary
281
     1
  0
XRECORD
  5
123
102
{ACAD_REACTORS
330
5B
102
}
330
5B
100
AcDbXrecord
280
     1
 90
-1023410169
  0
DICTIONARY
  5
2F8
330
1E
100
AcDbDictionary
280
     1
281
     1
  3
ACAD_XREC_ROUNDTRIP
360
5DFB
  3
ADSK_XREC_LAYOUTTHUMBNAIL
360
2F9
  0
DICTIONARY
  5
5DFC
330
22
100
AcDbDictionary
280
     1
281
     1
  3
ACAD_XREC_ROUNDTRIP
360
5DFD
  0
XRECORD
  5
5DFB
102
{ACAD_REACTORS
330
2F8
102
}
330
2F8
100
AcDbXrecord
280
     1
102
SHADEPLOT
 70
     0
102
SHADEPLOTRESLEVEL
 70
     2
102
SHADEPLOTCUSTOMDPI
 70
   300
  0
XRECORD
  5
2F9
102
{ACAD_REACTORS
330
2F8
102
}
330
2F8
100
AcDbXrecord
280
     1
310
28000000B40000007F00000001000800000000004C590000000000000000000000010000000000000000000000000000FFFFFF000000000000000000000000000000000000000000000000000000000000000000330000006600000099000000CC000000FF00000000330000333300006633000099330000CC330000FF3300
310
0000660000336600006666000099660000CC660000FF66000000990000339900006699000099990000CC990000FF99000000CC000033CC000066CC000099CC0000CCCC0000FFCC000000FF000033FF000066FF000099FF0000CCFF0000FFFF000000003300330033006600330099003300CC003300FF003300003333003333
310
33006633330099333300CC333300FF33330000663300336633006666330099663300CC663300FF66330000993300339933006699330099993300CC993300FF99330000CC330033CC330066CC330099CC3300CCCC3300FFCC330000FF330033FF330066FF330099FF3300CCFF3300FFFF330000006600330066006600660099
310
006600CC006600FF00660000336600333366006633660099336600CC336600FF33660000666600336666006666660099666600CC666600FF66660000996600339966006699660099996600CC996600FF99660000CC660033CC660066CC660099CC6600CCCC6600FFCC660000FF660033FF660066FF660099FF6600CCFF6600
310
FFFF660000009900330099006600990099009900CC009900FF00990000339900333399006633990099339900CC339900FF33990000669900336699006666990099669900CC669900FF66990000999900339999006699990099999900CC999900FF99990000CC990033CC990066CC990099CC9900CCCC9900FFCC990000FF99
310
0033FF990066FF990099FF9900CCFF9900FFFF99000000CC003300CC006600CC009900CC00CC00CC00FF00CC000033CC003333CC006633CC009933CC00CC33CC00FF33CC000066CC003366CC006666CC009966CC00CC66CC00FF66CC000099CC003399CC006699CC009999CC00CC99CC00FF99CC0000CCCC0033CCCC0066CC
310
CC0099CCCC00CCCCCC00FFCCCC0000FFCC0033FFCC0066FFCC0099FFCC00CCFFCC00FFFFCC000000FF003300FF006600FF009900FF00CC00FF00FF00FF000033FF003333FF006633FF009933FF00CC33FF00FF33FF000066FF003366FF006666FF009966FF00CC66FF00FF66FF000099FF003399FF006699FF009999FF00CC
310
99FF00FF99FF0000CCFF0033CCFF0066CCFF0099CCFF00CCCCFF00FFCCFF0000FFFF0033FFFF0066FFFF0099FFFF00CCFFFF00FFFFFF00000000000D0D0D001A1A1A00282828003535350043434300505050005D5D5D006B6B6B00787878008686860093939300A1A1A100AEAEAE00BBBBBB00C9C9C900D6D6D600E4E4E400
310
F1F1F100FFFFFF0000000000000000000000000000000000000000000000000000000000000000000000000000000000EFEFF5F5F5F5F5F5F5F5F5F5F5F5F5F5F5F5F5F5F5F5F5F5F5F5F5F5F5F5F5F5F5F5F5F5F5F5F5F5F5F5F5F5F5F5F5F5F5F5F5F5F5F5F5F5F5F5F5F5F5F5F5F5F5F5F5F5F5F5F5F5F5F5F5F5F5F5F5
310
F5F5F5F5F5F5F5F5F5F5F5F5F5F5F5F5F5F5F5F5F5F5F5F5F5F5F5F5F5F5F5F5F5F5F5F5F5F5F5F5F5F5F5F5F5F5F5F5F5F5F5F5F5F5F5F5F5F5F5F5F5F5F5F5F5F5F5F5F5F5F5F5F5F5F5F5F5F5F5F5F5F5F5F5F5F5F5F5F5F5F5F5F5F5F5F5F5F5F5F5F5F5F5F5F5F5F5F5F5F5F5F5F5F5F5F5F5F5F5F5F5F5F5F5F5F5F5
310
F5F5F5F5F5F5F5F5F5F5F5F5F5F5F5F5F5F5F5F5F5F5F5F5F5F5F5F5F5F5F5F5F5F5F5F5F5F5F5F5F5F5F5F5F5F5F5F5F5F5F5F5F5F5F5F5F5F5F5F5F5F5F5F5F5F5F5F5F5F5F5F5F5F5F5F5F5F5F5F5F5F5F5F5F5F5F5F5F5F5F5F5F5F5F5F5F5F5F5F5F5F5F5F5F5F5F5F5F5F5F5F5F5F5F5F5F5F5F5F5F5F5F5F5F5F5F5
310
F5F5F5F5F5F5F5F5F5F5F5F5F5F5F5F5F5F5F5F5F5F5F5F5F5F5F5F5E2E2E2E2E2E2E2E2E2E2E2E2E2E2E2E2E2E2E2E2E2E2E2E2E2E2E2E2E2E2E2E2E2E2E2E2E2E2E2E2E2E2E2E2E2E2E2E2E2E2E2E2E2E2E2E2E2E2E2E2E2E2E2E2E2E2E2E2E2E2E2E2E2E2E2E2E2E2E2E2E2E2E2E2E2E2E2E2E2E2E2E2E2E2E2E2E2E2E2
310
E2E2E2E2E2E2E2E2E2E2E2E2E2E2E2E2E2E2E2E2E2E2E2E2E2E2E2E2E2E2E2E2E2E2E2E2E2E2E2E2E2E2E2E2E2E2E2E2E2E2E2E2E2E2E2E2E2E2E2E2E2E2E2E2E2E2E2E2E2E2E2E2E2E2E2E2E2E2F5F5F5E2F5F5F5F5F5F5F5F5E2E2E2E2E2E2E2E2E2F5F5F5F5F5F5F5F5F5F5F5F5F5F5F5F5E2E2E2E2E2E2E2E2E2F5F5F5
310
F5F5F5F5F5F5F5F5F5F5F5F5F5E2E2E2E2E2E2E2E2E2F5F5F5F5F5F5F5F5F5F5F5F5F5F5F5F5E2E2E2E2E2E2E2E2E2F5F5F5F5F5F5F5F5F5F5F5F5F5F5F5F5E2E2E2E2E2E2E2E2E2F5F5F5F5F5F5F5F5F5F5F5F5F5F5F5F5E2E2E2E2E2E2E2E2E2F5F5F5F5F5F5F5F5F5F5F5F5F5F5F5F5E2E2E2E2E2E2E2E2E2F5F5F5F5F5
310
F5F5F5E2F5F5F5E2F5E2E2E2E2E2E2E2E2E2E2E2E2E2E2E2E2E2E2E2E2E2E2E2E2E2E2E2E2E2E2E2E2E2E2E2E2E2E2E2E2E2E2E2E2E2E2E2E2E2E2E2E2E2E2E2E2E2E2E2E2E2E2E2E2E2E2E2E2E2E2E2E2E2E2E2E2E2E2E2E2E2E2E2E2E2E2E2E2E2E2E2E2E2E2E2E2E2E2E2E2E2E2E2E2E2E2E2E2E2E2E2E2E2E2E2E2E2E2
310
E2E2E2E2E2E2E2E2E2E2E2E2E2E2E2E2E2E2E2E2E2E2E2E2E2E2E2E2E2E2E2E2E2E2E2E2E2E2E2E2E2E2E2E2E2E2E2E2E2E2E2E2E2E2E2F5E2F5F5F5E2F5E2E2BEBEBEBEBEBEBEBEBEBEBEBEBEBEBEBEBEBEBEBEBEBEBEBEBEBEBEBEBEBEBEBEBEBEBEBEBEBEBEBEBEBEBEBEBEBEBEBEBEBEBEBEBEBEBEBEBEBEBEBEBEBEBE
310
BEBEBEBEBEBEBEBEBEBEBEBEBEBEBEBEBEBEBEBEBEBEBEBEBEBEBEBEBEBEBEBEBEBEBEBEBEBEBEBEBEBEBEBEBEBEBEBEBEBEBEBEBEBEBEBEBEBEBEBEBEBEBEBEBEBEBEBEBEBEBEBEBEBEBEBEBEBEBEBEBEBEBEBEBEBEBEBEBEBEBEBEBEBEBEBEBEBEBEBEBEBEBEBEBEBEE2E2F5E2F5F5F5E2F5E2E2BEE2C3C3C3E2BEE2C3C3
310
C3C3C3C3C3C3C3C3C3C3E2E2E2E2E2E2E2E2E2E2C3E2C3C3C3C3C3E2E2E2E2E2E2C3C3C3C3C3E2E2E2C3E2E2E2E2E2E2E2E2E2E2E2E2E2E2E2E2E2E2E2E2E2E2E2E2E2E2E2E2E2E2E2E2C3C3C3C3C3C3E2E2C3C3C3C3C3C3E2C3C3C3C3C3C3C3C3C3C3C3E2E2E2C3E2E2C3C3C3C3C3E2E2C3E2E2E2E2E2E2E2E2E2C3C3C3C3
310
C3C3E2C3C3C3C3C3C3C3C3C3C3E2E2E2E2E2E2E2E2E2E2E2E2E2E2E2E2E2E2BEE2E2F5E2F5F5F5E2F5E2E2BEE2C3C3C3C3BEE2C3C3C3C3C3C3C3C3C3C3C3C3E2E2E2E2E2E2E2E2E2E2C3E2C3C3C3C3C3E2E2E2E2E2E2C3C3C3C3C3C3E2E2C3E2E2E2E2E2E2E2E2E2E2E2E2E2E2E2E2E2E2E2E2E2E2E2E2E2E2E2E2E2E2E2E2
310
C3C3C3C3C3C3E2E2C3C3C3C3C3C3E2C3C3C3C3C3C3C3C3C3C3E2E2E2E2C3E2E2C3C3C3C3E2E2E2C3E2E2E2E2E2E2E2E2E2C3C3C3C3C3C3C3C3C3C3C3C3C3C3C3C3C3E2E2E2E2E2E2E2E2E2E2E2E2E2E2E2E2E2E2BEE2E2F5E2F5F5F5E2F5E2E2BEE2C3C3C3C3BEE2C3C3C3C3C3C3C3C3C3C3C3C3E2E2E2E2E2E2E2E2E2E2C3
310
E2C3C3C3C3C3E2E2E2E2E2E2C3C3C3C3C3C3E2E2C3E2E2E2E2E2C3C3C3C3C3C3C3C3C3C3C3C3C3C3C3C3C3E2E2E2E2E2E2E2E2E2E2C3C3C3C3E2E2E2E2C3C3C3C3C3C3E2C3C3C3C3C3C3C3C3C3C3C3E2E2E2C3E2E2C3C3C3C3C3E2E2C3E2E2E2E2E2E2E2E2E2C3C3C3C3C3C3C3C3C3C3C3C3C3C3C3C3C3E2E2E2E2E2E2E2E2
310
E2E2E2E2E2E2E2E2E2E2BEE2E2F5E2F5F5F5E2F5E2E2BEC3C3C3C3C3BEC3C3C3C3C3C3C3C3C3C3C3C3C3C3C3C3C3C3C3C3C3C3C3C3C3C3C3C3C3C3C3C3C3C3C3C3C3C3C3C3C3C3C3C3C3E2E2E2E2E2C3C3C3C3C3C3C3C3C3C3E2C3C3C3C3C3C3E2E2E2E2E2E2E2E2E2E2C3C3C3C3E2E2E2E2C3C3C3C3C3C3C3C3C3C3C3C3C3
310
C3C3C3C3C3C3C3C3C3C3C3C3C3C3C3C3C3C3C3E2E2E2E2E2E2E2E2E2E2C3C3C3C3C3E2C3C3E2C3C3E2C3C3E2C3E2E2E2E2E2E2E2E2E2E2E2E2E2E2E2E2E2E2BEE2E2F5E2F5F5F5E2F5E2E2BEE2E2E2E2E2BEE2E2E2E2E2E2E2E2E2E2E2E2E2E2E2E2E2E2E2E2E2E2E2C3E2E2E2E2E2E2E2E2E2E2E2E2C3E2E2E2E2E2E2E2C3
310
E2E2E2E2E2C3C3C3C3C3C3C3C3C3C3C3C3C3C3C3C3C3E2E2E2E2E2E2E2E2E2E2C3C3C3C3E2E2E2E2C3C3C3C3C3C3C3C3C3C3E2C3E2C3C3C3C3C3C3E2E2C3C3C3C3C3C3C3C3E2E2C3C3C3C3C3C3C3C3E2E2E2E2E2E2E2E2E2E2E2E2E2E2E2E2E2E2E2E2E2E2E2E2E2E2E2E2E2E2E2E2E2E2E2E2E2BEE2E2F5E2F5F5F5E2E2E2
310
E2BEE2E2E2E2E2BEE2E2E2E2E2E2E2E2E2E2E2E2E2E2E2E2E2E2E2E2E2E2E2C3E2E2E2E2E2E2E2E2E2E2E2E2C3E2E2E2E2E2E2E2C3E2E2E2E2E2E2E2E2E2E2E2E2E2E2E2E2E2E2E2E2E2E2E2E2E2E2E2E2E2E2E2E2C3C3C3C3E2E2E2E2C3C3C3C3C3C3C3C3C3C3E2C3E2E2C3E2C3C3C3E2E2C3C3E2C3C3C3C3C3E2E2C3C3C3
310
C3C3C3C3C3E2E2E2E2E2E2E2E2E2E2E2E2E2E2E2E2E2E2E2E2E2E2E2E2E2E2E2E2E2E2E2E2E2E2E2E2E2BEE2E2E2E2F5F5F5E2E2E2E2BEC3C3C3C3C3BEC3C3C3C3C3C3C3C3C3C3C3C3C3C3C3C3C3C3C3C3C3C3C3C3C3C3C3C3C3C3C3C3C3C3C3C3C3C3C3C3C3C3C3C3C3E2E2E2E2E2E2E2E2E2E2E2E2E2E2E2E2E2E2E2E2E2
310
E2E2E2E2E2E2E2E2E2E2E2C3C3C3E2E2E2E2E2C3C3C3C3C3C3C3C3C3C3C3C3C3C3C3C3C3C3C3C3C3C3C3C3C3C3C3C3C3C3C3C3C3C3C3C3C3C3C3C3C3C3C3C3C3C3C3C3C3C3C3C3C3C3C3C3C3C3C3C3C3C3C3C3C3C3C3C3C3C3C3C3C3C3C3C3BEE2E2E2E2F5F5F5E2E2E2E2BEE2E2E2E2E2BEE2E2E2E2E2E2E2E2E2E2E2E2E2
310
E2E2E2E2E2E2E2E2E2E2C3E2E2E2E2E2E2E2E2E2E2E2E2C3E2E2E2E2E2E2E2C3E2E2E2E2E2E2E2E2E2E2E2E2E2E2E2E2E2E2E2E2E2E2E2E2E2E2E2E2E2E2E2E2C3C3C3E2E2E2E2E2C3C3C3C3C3C3C3C3C3C3C3C3E2E2E2E2E2E2E2E2E2C3E2E2E2E2E2E2E2E2E2C3E2E2E2E2E2E2E2E2E2E2E2E2E2E2E2E2E2E2E2E2E2E2E2
310
E2E2E2E2E2E2E2E2E2E2E2E2E2E2E2E2E2E2E2E2E2BEE2E2E2E2F5F5F5E2E2E2E2BEE2E2E2E2E2BEE2E2E2E2E2E2E2E2E2E2E2E2E2E2E2E2E2E2E2E2E2E2E2C3E2E2E2E2E2E2E2E2E2E2E2E2C3E2E2E2E2E2E2E2C3E2E2E2E2E2E2E2E2E2E2E2E2E2E2E2E2E2E2E2E2E2E2E2E2E2E2E2E2E2E2E2E2C3C3C3C3C3C3C3C3C3C3
310
C3C3C3C3C3C3C3C3C3C3C3C3C3C3C3C3C3C3C3C3C3C3C3C3C3C3C3C3C3C3E2E2C3C3C3C3C3C3C3E2C3C3C3C3C3C3C3E2C3C3C3C3C3C3E2C3C3C3C3E2E2E2E2E2E2E2E2E2E2E2E2E2E2E2BEE2E2E2E2F5F5F5E2E2E2E2BEC3C3C3C3C3BEC3C3C3C3C3C3C3C3C3C3C3C3C3C3C3C3C3C3C3C3C3C3C3C3C3C3C3C3C3C3C3C3C3C3
310
C3C3C3C3C3C3C3C3C3C3C3E2C3C3C3C3C3C3C3C3C3C3E2E2E2E2E2E2E2E2E2E2E2E2E2E2E2E2E2E2E2E2E2C3E2C3C3C3C3C3E2C3C3C3C3C3C3C3C3C3C3C3C3E2C3C3C3C3C3C3C3C3C3C3C3C3C3C3C3E2E2E2C3E2E2C3C3E2C3C3C3C3C3C3C3C3C3C3C3C3E2E2C3C3C3C3E2C3C3C3C3C3E2E2E2E2E2E2E2E2E2E2E2E2E2E2E2
310
BEE2E2E2E2F5F5F5E2E2E2E2BEE2E2E2E2E2BEE2E2E2E2E2E2E2E2E2E2E2E2E2E2E2E2E2E2E2E2E2E2E2C3E2E2E2E2E2E2E2E2E2E2E2E2C3E2E2E2E2E2E2E2C3E2C3C3C3C3C3C3C3C3C3C3E2E2E2E2E2E2E2E2E2E2E2E2E2E2E2E2E2E2E2E2E2C3E2C3C3C3C3C3E2C3C3C3C3C3C3C3C3C3C3C3C3E2C3C3E2C3C3C3C3E2C3C3
310
C3C3C3C3C3C3E2E2C3E2E2C3C3C3C3C3C3C3C3C3C3C3C3C3C3C3E2E2C3C3C3C3C3C3C3C3C3C3E2E2E2E2E2E2E2E2E2E2E2E2E2E2E2BEE2E2E2E2F5F5F5E2E2E2E2BEE2E2E2E2E2BEE2E2E2E2E2E2E2E2E2E2E2E2E2E2E2E2E2E2E2E2E2E2E2C3E2E2E2E2E2E2E2E2E2E2E2E2C3E2E2E2E2E2E2E2C3E2C3C3C3C3C3C3C3C3C3
310
E2E2E2E2E2E2E2E2E2E2E2E2E2E2E2E2E2E2E2E2E2E2C3E2C3C3C3C3C3E2C3C3C3C3C3C3C3C3C3C3C3C3E2C3C3E2C3C3C3E2E2C3C3C3C3C3C3C3C3E2E2C3E2E2E2E2E2E2E2E2E2E2E2E2E2E2E2E2E2E2E2E2E2E2E2E2E2E2E2E2E2E2E2E2E2E2E2E2E2E2E2E2E2E2E2E2BEE2E2E2E2F5F5F5E2E2E2E2BEBEBEBEBEBEBEBEBE
310
BEBEBEBEBEBEBEBEBEBEBEBEBEBEBEBEC3BEBEBEBEBEBEBEBEBEBEBEBEBEC3BEBEBEBEBEBEBEBEBEBEBEBEBEBEBEBEBEBEBEBEBEBEBEBEBEBEBEBEBEBEBEBEBEBEBEBEBEBEBEBEBEBEBEBEBEC3C3BEBEBEBEBEC3C3BEBEBEBEBEBEBEC3C3BEBEBEBEBEBEBEBEBEBEBEBEBEBEBEBEBEBEBEBEBEBEBEBEBEBEBEBEBEBEBEBEBE
310
BEBEBEBEBEBEBEBEBEBEBEBEBEBEBEBEBEBEBEBEBEBEBEBEBEBEBEBEBEBEBEBEBEE2E2E2E2F5F5F5E2E2E2E2BEC3C3C3C3C3C3C3C3C3C3C3C3C3C3E2C3C3C3C3C3C3C3C3C3C3C3C3C3C3C3C3C3C3C3C3C3C3C3C3C3E2E2E2E2E2E2E2E2E2E2E2E2E2E2E2E2E2E2E2E2E2E2E2E2E2E2E2E2E2E2BEE2C3C3C3C3C3C3C3C3C3C3
310
C3E2C3C3C3E2BEE2C3C3C3E2E2E2E2BEE2C3C3C3E2E2E2E2BEE2E2E2E2E2E2E2E2E2E2E2E2E2E2E2E2E2E2E2E2E2E2E2E2E2E2E2E2E2E2E2E2E2E2E2E2E2E2E2E2E2E2E2E2E2E2E2C3C3C3C3C3C3C3E2C3C3C3E2E2BEE2E2E2E2F5F5F5E2F5E2E2BEC3C3C3C3C3C3C3C3C3C3C3C3C3C3C3C3C3C3C3C3C3C3C3C3C3C3C3C3C3
310
C3C3C3C3C3C3C3C3C3C3C3E2E2E2E2E2E2E2E2E2E2E2E2E2E2E2E2E2E2E2E2E2E2E2E2E2E2E2E2E2E2BEE2C3C3C3C3C3C3C3C3C3C3C3E2C3C3E2E2BEE2E2C3C3E2E2E2E2BEE2E2C3C3E2E2E2E2BEE2E2E2C3C3C3C3C3C3C3C3C3C3C3C3C3C3C3C3C3C3C3C3C3C3C3C3C3C3C3C3C3C3C3C3C3E2E2E2E2E2E2E2E2E2E2E2C3C3
310
C3C3C3C3C3E2C3C3E2E2E2BEE2E2F5E2F5F5F5E2F5E2E2BEBEBEBEBEBEBEBEBEBEBEBEBEBEBEBEBEBEBEBEBEBEBEBEBEBEBEBEBEBEBEBEBEBEBEBEBEBEBEBEBEBEBEBEBEBEBEBEBEBEBEBEBEBEBEBEBEBEBEBEBEBEBEBEBEBEBEBEBEBEBEBEBEBEBEBEBEBEBEBEBEBEBEC3BEBEC3BEBEBEBEC3C3C3C3BEBEBEBEBEC3C3C3C3
310
BEBEBEBEE2E2E2C3E2C3C3E2C3E2C3C3E2C3E2C3C3E2C3E2C3C3E2C3E2C3E2C3C3C3C3C3E2E2E2C3E2E2E2E2E2E2E2E2E2E2E2C3C3C3C3C3C3C3C3C3C3C3E2E2BEE2E2F5E2F5F5F5E2F5E2E2BEC3C3C3C3C3C3C3C3E2C3C3C3C3C3C3C3E2C3C3C3C3C3E2C3C3C3E2C3C3C3C3C3C3C3C3C3C3C3C3E2C3C3C3C3C3C3C3C3E2C3
310
C3C3C3C3C3C3C3C3C3C3E2C3C3C3C3C3C3C3C3C3BEE2C3C3C3C3C3C3C3C3C3E2C3C3C3C3C3E2BEE2C3C3C3C3E2E2E2BEE2C3C3C3C3E2E2E2BEE2E2E2C3E2E2C3E2C3E2E2C3E2C3E2E2E2E2C3E2E2E2E2C3E2C3E2C3C3C3C3C3E2E2E2C3E2E2E2E2E2E2E2E2E2E2E2C3C3C3C3C3C3C3E2C3C3E2E2E2BEE2E2F5E2F5F5F5E2F5
310
E2E2BEC3C3C3C3C3C3C3C3E2C3C3C3C3C3C3C3E2C3C3C3C3C3E2C3C3C3C3C3C3C3C3E2C3C3C3C3C3C3C3E2C3C3C3C3C3C3C3C3E2C3C3C3C3E2C3C3C3C3C3C3E2C3C3C3C3C3C3C3C3C3BEE2C3C3C3C3C3C3C3C3C3C3C3C3C3C3C3E2BEE2C3C3C3C3E2E2E2BEE2C3C3C3C3E2E2E2BEE2E2E2C3C3C3C3C3C3C3C3C3C3C3C3C3C3
310
C3C3C3C3C3C3C3C3C3C3C3E2C3E2C3E2C3E2C3E2E2E2E2E2E2E2E2E2E2E2C3C3C3C3C3C3C3E2C3C3E2E2E2BEE2E2F5E2F5F5F5E2F5E2E2BEBEBEBEBEBEBEBEBEBEBEBEBEBEBEBEBEBEBEBEBEBEBEBEBEBEBEBEBEBEBEBEBEBEBEBEBEBEBEBEBEBEBEBEBEBEBEBEBEBEBEBEBEBEBEBEBEBEBEBEBEBEBEBEBEBEBEBEBEBEBEBE
310
BEBEBEBEBEBEBEBEBEBEBEBEBEBEBEBEBEBEBEC3C3C3C3C3BEBEBEBEC3C3C3C3C3C3BEBEE2E2E2C3E2E2C3E2C3E2C3C3E2C3E2C3C3E2C3E2C3C3E2C3E2C3E2C3E2C3E2C3E2C3E2C3E2E2E2E2E2E2E2E2E2E2E2C3C3C3C3C3C3C3E2C3C3E2E2E2BEE2E2F5E2F5F5F5E2F5E2E2BEC3C3C3C3C3C3C3C3C3C3C3C3C3C3C3C3C3C3
310
C3C3C3C3C3C3C3C3C3E2E2E2E2E2E2E2E2E2E2E2E2E2E2E2E2E2E2E2E2E2E2E2E2E2E2E2E2E2E2E2E2E2E2E2E2E2E2E2E2E2E2E2BEE2E2E2E2E2E2E2E2E2BEBEBEBEBEBEE2E2BEE2C3C3C3C3C3E2E2BEE2C3C3C3C3C3E2E2BEE2E2E2C3E2E2C3E2C3E2E2E2E2C3E2E2E2E2C3E2C3E2E2C3E2C3E2C3E2C3E2C3E2C3E2C3E2E2
310
E2E2E2E2E2E2E2E2E2E2C3E2E2C3C3C3E2E2C3E2E2E2BEE2E2F5E2F5F5F5E2F5E2E2BEC3C3C3C3C3C3C3C3C3C3C3C3C3C3C3C3C3C3C3C3C3C3C3C3C3C3C3E2E2E2E2E2E2E2E2E2E2E2E2E2E2E2E2E2E2E2E2E2E2E2E2E2E2E2E2E2E2E2E2E2E2E2E2E2E2E2E2E2E2E2BEE2E2E2BEBEBEBEBEBEE2E2E2E2E2E2E2E2BEE2E2C3
310
C3C3C3E2E2BEE2C3C3C3C3C3E2E2BEE2E2E2C3C3C3C3C3C3C3C3C3C3C3C3C3C3C3C3C3C3C3C3C3C3C3C3C3E2C3E2C3E2C3E2C3E2E2E2E2E2E2E2E2E2E2E2E2C3E2E2E2C3E2E2E2C3E2E2E2BEE2E2F5E2F5F5F5E2F5E2E2BEBEBEBEBEBEBEBEBEBEBEBEBEBEBEBEBEBEBEBEBEBEBEBEBEBEBEBEBEBEBEBEBEBEBEBEBEBEBEBE
310
BEBEBEBEBEBEBEBEBEBEBEBEBEBEBEBEBEBEBEBEBEBEBEBEBEBEBEBEBEBEBEBEBEBEBEBEBEBEBEBEBEBEBEBEBEBEBEBEBEBEBEBEBEBEBEBEBEBEBEBEBEBEBEBEBEBEBEBEE2E2E2C3E2E2C3E2C3E2C3C3E2C3E2C3C3E2C3E2C3C3E2C3E2C3E2C3E2C3E2C3E2C3E2C3E2E2C3E2C3E2E2E2E2E2E2E2C3E2E2E2C3E2E2E2C3E2E2
310
E2BEE2E2F5E2F5F5F5E2F5E2E2BEC3C3C3C3C3C3C3C3C3E2C3C3C3C3C3C3C3C3C3E2C3C3C3C3C3C3C3C3E2C3C3C3C3C3C3C3C3C3C3C3C3C3E2C3C3C3C3C3C3C3C3C3C3C3C3C3C3E2C3C3C3C3C3C3C3E2E2E2E2E2BEC3C3C3C3C3C3C3C3C3C3C3C3C3C3E2C3C3BEE2C3C3C3BEC3C3E2BEE2C3C3E2BEC3C3E2BEE2E2E2C3E2E2
310
C3E2C3E2E2E2E2C3E2C3E2E2C3E2C3E2E2C3E2E2E2C3E2C3E2C3E2C3E2C3E2E2C3C3C3E2C3C3C3E2E2E2C3C3C3C3C3C3C3C3C3E2E2E2BEE2E2F5E2F5F5F5E2F5E2E2BEC3C3C3C3C3C3C3C3C3E2C3C3C3C3C3C3C3C3C3C3C3C3C3C3C3C3C3C3E2C3C3C3C3C3C3C3C3C3C3C3C3C3C3C3C3C3C3C3C3C3C3C3C3E2C3C3C3E2C3C3
310
C3C3C3C3C3E2E2E2E2E2BEC3C3C3C3C3E2C3C3C3C3C3C3C3C3E2C3C3BEE2C3C3C3BEC3C3E2BEE2C3C3E2BEC3C3E2BEE2E2E2C3C3C3C3C3C3C3C3C3C3C3C3C3C3C3C3C3C3C3C3C3C3C3C3C3E2C3E2C3E2C3E2C3E2E2C3C3C3E2C3C3C3C3C3C3C3E2E2E2C3E2E2E2E2E2E2E2BEE2E2F5E2F5F5F5E2F5E2E2BEBEBEBEBEBEBEBE
310
BEBEBEBEBEBEBEBEBEBEBEBEBEBEBEBEBEBEBEBEBEBEBEBEBEBEBEBEBEBEBEBEBEBEBEBEBEBEBEBEBEBEBEBEBEBEBEBEBEBEBEBEBEBEBEBEBEBEBEBEBEBEBEBEBEBEBEBEBEBEBEBEBEBEBEBEBEBEBEBEBEBEBEBEBEBEBEBEBEBEBEBEBEBEBEBEBEBEBEBEE2E2E2C3E2E2C3E2C3E2C3C3E2C3E2C3C3E2C3E2C3C3E2C3E2C3E2
310
C3E2C3E2C3E2C3E2C3E2E2E2E2E2C3E2E2E2E2E2C3C3E2E2C3E2C3C3E2E2E2E2E2BEE2E2F5E2F5F5F5E2F5E2E2BEC3C3C3C3C3C3C3C3C3C3C3C3C3C3C3C3C3C3E2C3C3C3C3C3C3C3C3C3E2C3C3C3C3E2C3E2C3C3C3C3C3E2E2E2E2E2E2E2E2E2E2E2E2E2E2E2E2E2E2E2E2E2E2E2E2E2E2E2E2E2BEC3C3C3C3C3C3C3C3C3C3
310
E2C3C3C3C3C3E2BEE2C3E2E2BEC3C3E2BEE2C3C3E2BEC3C3E2BEE2E2E2C3E2E2C3E2C3E2E2C3E2C3E2C3E2E2C3E2E2E2E2C3E2E2E2C3E2C3E2C3E2C3E2C3E2E2C3C3C3C3C3C3C3E2E2C3C3C3C3E2E2E2E2C3E2E2E2E2BEE2E2F5E2F5F5F5E2F5E2E2BEC3C3C3C3C3C3C3C3C3C3C3C3C3C3C3C3C3C3E2E2C3C3C3E2C3C3C3C3
310
E2C3C3C3C3E2E2E2C3C3C3C3C3E2E2E2E2E2E2E2E2E2E2E2E2E2E2E2E2E2E2E2E2E2E2E2E2E2E2E2E2E2BEC3C3C3C3C3C3C3C3C3C3E2C3C3C3C3C3E2BEE2C3E2E2BEC3C3E2BEE2C3C3E2BEC3C3E2BEE2E2E2C3C3C3C3C3C3C3C3C3C3C3C3C3C3C3C3C3C3C3C3C3C3C3C3C3E2E2E2C3C3C3C3C3E2E2C3C3C3C3C3C3C3C3C3C3
310
C3C3E2E2E2E2E2C3E2E2E2E2BEE2E2F5E2F5F5F5E2F5E2E2BEBEBEBEBEBEBEBEBEBEBEBEBEBEBEBEBEBEBEBEBEBEBEBEBEBEBEBEBEBEBEBEBEBEBEBEBEBEBEBEBEBEBEBEBEBEBEBEBEBEBEBEBEBEBEBEBEBEBEBEBEBEBEBEBEBEBEBEBEBEBEBEBEBEBEBEBEBEBEBEBEBEBEBEBEBEBEBEBEBEBEBEBEBEC3C3C3BEC3C3BEBEBE
310
BEBEBEBEBEE2E2E2C3C3C3C3C3C3E2C3C3E2C3E2C3C3E2C3C3C3C3E2C3C3C3C3C3E2E2E2C3C3C3C3C3E2E2C3C3C3C3C3C3C3C3C3C3C3C3E2E2E2E2E2C3E2E2E2E2BEE2E2F5E2F5F5F5E2F5E2E2BEC3C3C3C3C3C3C3C3C3C3C3E2C3C3C3C3C3C3C3C3C3C3C3C3C3C3C3C3C3C3E2C3C3C3C3C3C3C3C3C3E2C3C3C3C3C3C3C3C3
310
C3C3C3C3C3C3C3C3C3C3C3C3C3E2E2E2E2E2E2E2E2BEC3C3C3C3C3C3C3C3C3C3C3C3C3E2C3C3C3BEE2E2E2E2C3C3C3C3C3C3E2E2E2E2E2E2E2BEE2E2E2C3C3C3C3C3C3C3C3C3C3C3C3C3C3C3C3C3C3C3C3C3C3C3C3C3C3C3C3C3C3C3C3C3E2E2C3C3C3C3C3C3C3E2E2C3C3C3E2E2E2E2E2C3E2E2E2E2BEE2E2F5E2F5F5F5E2
310
E2E2E2BEC3C3C3C3C3C3C3C3C3C3C3E2C3C3C3C3C3C3C3C3C3C3C3C3C3C3C3C3C3C3E2C3C3C3C3C3C3C3C3C3E2C3C3C3C3C3C3C3C3C3C3C3C3C3C3C3C3C3C3C3C3E2E2E2E2E2E2E2E2E2BEC3C3C3C3E2C3C3C3C3C3C3C3C3E2C3C3C3BEE2E2E2E2C3C3E2C3C3C3E2E2E2E2E2E2E2BEE2E2E2E2C3C3C3C3C3E2C3C3C3C3C3C3
310
E2C3C3C3C3C3C3C3C3C3E2C3C3C3C3C3C3C3C3E2E2E2E2C3C3E2E2E2E2E2E2C3C3E2C3C3E2E2C3E2E2E2E2E2BEE2E2E2E2F5F5F5E2E2E2E2BEBEBEBEBEBEBEBEBEBEBEBEBEBEBEBEBEBEBEBEBEBEBEBEBEBEBEBEBEBEBEBEBEBEBEBEBEBEBEBEBEBEBEBEBEC3BEBEBEC3BEBEBEBEBEBEBEBEBEBEBEBEBEBEBEBEBEBEBEBEBE
310
BEBEBEBEBEBEBEBEBEBEBEBEBEBEBEBEBEBEBEBEBEBEBEBEBEBEBEBEBEBEBEBEBEBEBEBEBEE2E2E2E2C3C3C3C3C3E2C3C3C3C3C3C3E2C3C3C3C3C3C3C3C3C3E2C3C3C3C3C3E2C3C3E2E2E2E2C3C3C3C3C3C3C3C3C3C3E2E2E2C3C3E2E2E2E2E2E2BEE2E2E2E2F5F5F5E2E2E2E2BEC3C3C3C3C3C3C3C3C3C3E2C3C3C3E2E2E2
310
E2E2E2E2E2E2E2E2E2E2E2E2BEE2E2E2E2E2E2E2E2E2E2C3C3C3C3C3C3C3C3C3E2E2E2E2E2E2E2E2E2E2E2E2E2E2E2E2E2E2E2E2E2BEE2E2E2E2E2E2E2E2E2E2E2E2E2E2E2E2E2E2E2E2E2E2E2E2E2E2E2E2E2E2E2E2E2E2E2BEE2E2E2E2C3C3C3C3C3E2C3C3C3C3C3C3E2C3C3C3C3C3C3C3C3C3E2C3C3C3C3E2C3C3E2E2E2
310
E2E2C3C3C3C3C3C3C3E2E2E2E2E2E2E2E2E2E2E2E2E2E2BEE2E2E2E2F5F5F5E2E2E2E2BEC3C3C3C3C3C3C3C3C3C3E2C3C3C3E2E2E2E2E2E2E2E2E2E2E2E2E2E2E2BEE2E2E2E2E2E2E2E2E2E2C3C3C3C3C3C3E2C3C3E2E2E2E2E2E2E2E2E2E2E2E2E2E2E2E2E2E2E2E2E2BEE2E2E2E2E2E2E2E2E2E2E228282828282828E2E2
310
E2E2E2E2E2E2E2E2E2E2E2E2E2E2E2BEE2E2E2E2C3C3C3C3E2C3C3C3C3E2C3C3E2C3C3C3C3C3C3E2C3C3C3E2E2E2E2E2E2E2E2E2E2E2E2E2C3C3C3C3C3E2C3C3C3C3C3C3C3E2E2E2E2E2E2E2BEE2E2E2E2F5F5F5E2E2E2E2BEBEBEBEBEBEBEBEBEBEBEBEBEBEC3C3C3BEBEC3BEC3BEBEBEBEC3BEBEBEBEBEBEBEBEBEBEBEBE
310
BEBEBEBEBEBEBEBEBEBEC3BEBEBEBEC3BEBEBEBEBEBEBEBEBEBEBEBEBEBEBEBEBEE2E2E2E2E2E2E2E2E2E2E2282828C3E2E228E2E2E2E2E2E2E2E2E2E2E2E2E2E2E2E2E2BEE2E2E2E2C3C3C3C3E2C3C3C3C3C3C3C3E2C3C3C3C3C3C3C3C3C3E2E2E2E2E2E2E2E2E2E2E2E2E2E2C3C3C3C3C3E2C3C3C3C3C3C3C3E2E2E2E2E2
310
E2E2BEE2E2E2E2F5F5F5E2E2E2E2BEC3C3C3C3C3C3C3C3C3C3C3C3E2C3C3C3C3C3C3C3C3C3C3C3C3C3E2E2E2BEE2E2E2E2E2E2E2E2E2E2C3C3C3C3C3C3E2E2C3C3C3C3C3C3E2E2E2E2E2E2E2E2E2E2E2E2E2E2E2E2BEE2E2E2E2E2E2E2E2E2E2E228E2E2C3E2E228E2E2E2E2E2E2E2E2E2E2E2E2E2E2E2E2E2BEE2E2E2E2C3
310
C3C3C3E2C3C3C3C3C3C3C3E2C3C3C3C3C3C3E2C3E2E2E2E2E2E2E2E2E2E2E2E2E2E2E2C3C3C3C3C3E2C3C3C3C3C3C3C3E2E2E2E2E2E2E2BEE2E2E2E2F5F5F5E2E2E2E2BEC3C3C3C3C3C3C3C3C3C3C3C3E2C3C3C3C3C3C3C3C3C3E2C3C3C3E2E2E2BEE2E2E2E2E2E2E2E2E2E2C3C3C3C3C3C3C3C3C3C3C3C3C3C3E2E2E2E2E2
310
E2E2E2E2E2E2E2E2E2E2E2BEE2E2E2E2E2E2E2E2E2E2E228E2E2E2E2E2BEBEBEBEBEBEBEBEBEBEBEBEBEE2E2E2E2E2BEE2E2E2E2E2E2E2E2E2E2E2E2E2E2E2E2E2E2E2E2E2E2E2E2E2E2E2E2E2E2E2E2E2E2E2E2E2E2E2E2E2E2E2E2E2E2E2E2E2E2E2E2E2E2E2E2E2E2E2E2BEE2E2E2E2F5F5F5E2E2E2E2BEBEBEBEBEBEBE
310
BEBEBEBEBEBEBEBEBEBEBEBEBEBEBEBEBEBEBEBEBEBEBEBEBEBEBEBEBEBEBEBEBEBEBEBEBEBEBEBEBEBEBEBEBEBEBEBEBEBEBEBEBEBEBEBEBEBEBEBEBEBEBEBEBEE2E2E2E2E2E2E2E2E2E2E228E2E2E2E2E2BEE2E2E2E2E2E2E2E2E2E2E2BEE2E2E2E2E2BEE2E2E2C3C3C3C3C3C3C3C3C3C3C3C3C3C3C3C3C3C3C3C3C3C3C3
310
C3C3C3C3C3C3C3C3C3C3C3C3C3C3C3C3C3C3C3C3C3C3C3C3C3C3C3C3C3C3E2E2E2E2BEE2E2E2E2F5F5F5E2E2E2E2BEC3C3C3C3C3C3C3C3C3C3C3C3C3C3C3C3C3C3C3C3C3C3C3E2E2E2E2E2E2BEE2E2E2E2E2E2E2E2E2E2E2E2E2E2E2BEE2E2E2E2E2E2E2E2E2E2E2E2BEE2E2E2E2E2E2E2E2E2E2E2BEE2E2E2E2E2E2E2E2E2
310
E2E228E2E2E2E2E2BEE2E2E2E2E2E2E2E2E2E2E2BEE2E2E2E2E2BEE2E2E2C3C3E2C3E2E2E2E2C3E2E2E2E2E2E2E2C3C3C3E2E2E2E2E2C3C3C3E2E2C3E2E2C3E2C3C3C3E2E2E2E2C3E2C3C3C3C3C3C3C3E2E2C3E2E2E2E2BEE2E2E2E2F5F5F5E2F5E2E2BEC3C3C3C3C3C3C3C3C3C3C3C3C3C3C3C3C3C3C3C3C3C3C3E2E2E2E2
310
E2E2BEE2E2E2E2E2E2E2E2E2E2E2E2E2E2E2BEE2E2E2E2E2E2E2E2E2E2E2E2BEE2E2E2E2E2E2E2E2E2E2E2BEE2E2E2E2E2E2E2E2E2E2E228E2E2E2E2BEBEE2E2E2E2E2E2E2E2E2E2E2BEE2E2E2E2E2BEE2E2E2C3C3E2C3E2C3C3C3C3E2E2E2E2E2E2E2C3C3C3C3C3C3C3E2C3C3C3C3C3C3C3E2C3E2C3C3C3E2E2E2E2C3E2E2
310
E2E2C3C3C3C3E2E2C3E2E2E2E2BEE2E2F5E2F5F5F5E2F5E2E2BEBEBEBEBEBEBEBEBEBEBEBEBEBEBEBEBEBEBEBEBEBEBEBEBEBEBEBEBEBEBEBEBEBEBEBEBEBEBEBEBEBEBEBEBEBEBEBEBEBEBEBEBEBEBEBEBEBEBEBEBEBEBEBEBEBEBEBEBEBEBEBEE2E2E2E2E2E2E2E2E2E2E228E2E2E2E2BEBEE2E2E2E2E2E2E2E2E2E2E2BE
310
E2E2E2E2E2BEE2E2E2C3C3C3E2E2E2E2E2C3E2E2E2E2E2E2E2C3C3C3E2E2E2E2E2C3E2C3E2E2C3E2E2C3C3C3C3C3C3C3C3C3C3E2E2E2E2C3C3C3C3E2E2C3E2E2E2E2BEE2E2F5E2F5F5F5E2F5E2E2BEC3C3C3C3E2C3C3C3C3C3C3E2C3C3C3C3C3C3C3C3C3C3C3E2E2E2E2E2E2BEE2E2E2E2E2E2E2E2E2E2C3C3C3C3C3C3C3C3
310
C3C3C3C3C3C3C3C3C3C3E2E2E2E2E2E2E2E2E2E2E2E2BEE2E2E2E2E2E2E2E2E2E2E228E2E2E2E2BEBEE2E2E2E2E2E2E2E2E2E2E2BEE2E2E2E2E2BEE2E2E2C3C3C3C3C3E2C3C3C3E2E2E2E2E2E2E2C3E2E2E2E2C3C3E2C3E2E2E2C3C3C3E2C3E2C3C3C3C3C3C3C3C3E2C3C3C3C3C3E2E2E2E2C3E2E2E2E2BEE2E2F5E2F5F5F5
310
E2F5E2E2BEC3C3C3C3E2C3C3C3C3C3C3C3C3E2C3E2C3C3C3C3C3C3C3C3E2E2E2E2E2BEE2E2E2E2E2E2E2E2E2E2C3C3C3C3C3C3C3C3C3C3C3E2C3C3C3C3C3C3E2E2E2E2E2E2E2E2E2E2E2E2BEE2E2E2E2E2E2E2E2E2E2E228E2E2E2E2BEBEBEBEE2E2E2E2E2E2BEBEBEBEE2E2E2E2E2BEE2E2E2C3C3C3C3C3C3C3E2C3E2E2E2
310
E2E2E2E2C3E2E2E2E2C3E2E2C3E2E2E2C3C3E2E2C3C3C3C3C3C3C3C3C3C3E2C3C3C3C3C3E2E2E2E2C3E2E2E2E2BEE2E2F5E2F5F5F5E2F5E2E2BEBEBEBEBEBEBEBEBEBEBEBEBEBEBEBEBEBEBEBEBEBEBEBEBEBEBEBEBEBEBEBEBEBEBEBEBEBEBEBEBEBEBEBEBEC3BEBEBEBEC3BEBEBEBEBEBEBEBEBEBEBEBEBEBEBEBEBEBEBE
310
BEBEE2E2E2E2E2E2E2E2E2E2E228E2E2E2E2BEBEE2BEE2E2E2E2E2E2BEE2BEBEE2E2E2E2E2BEE2E2E2C3E2E2E2E2E2C3C3C3E2E2E2C3C3C3C3C3E2E2E2E2C3C3E2C3E2E2E2C3C3C3E2C3E2C3C3C3C3C3C3C3C3E2E2E2E2C3C3E2E2E2E2C3E2E2E2E2BEE2E2F5E2F5F5F5E2F5E2E2BEC3C3C3C3C3C3E2C3C3C3C3C3C3C3C3C3
310
C3C3C3C3C3C3C3C3E2E2E2E2E2BEE2E2E2E2E2E2E2E2E2E2C3C3C3C3C3C3C3C3C3C3E2E2E2E2E2E2E2E2E2E2E2E2E2E2E2E2E2E2E2E2BEE2E2E2E2E2E2E2E2E2E2BEBEBEBEBEBEBEBEBEBEE2E2E2E2E2E2BEBEBEBEBEBEBEBEBEBEE2E2E2C3C3E2E2E2E2E2E2C3C3C3E2E2E2E2E2C3C3E2E2E2E2E2E2C3E2E2E2C3E2E2E2C3
310
C3C3C3C3C3C3C3C3C3E2E2E2E2C3C3E2E2E2E2C3E2E2E2E2BEE2E2F5E2F5F5F5E2F5E2E2BEC3C3C3C3C3C3C3C3C3C3C3C3C3C3C3C3C3C3C3C3C3C3C3C3E2E2E2E2E2BEE2E2E2E2E2E2E2E2E2E2C3C3C3C3C3C3C3C3C3C3E2E2E2E2E2E2E2E2E2E2E2E2E2E2E2E2E2E2E2E2BEE2E228282828282828ECBEECECECECECBEBEEC
310
BEECECECECECECBEECBEBEECECECECECBEE2E2E2C3C3E2E2E2C3C3C3C3C3C3E2C3C3C3C3C3C3C3C3C3C3C3E2C3C3C3C3C3C3C3E2C3E2C3C3C3E2E2E2E2C3E2E2E2E2C3C3C3E2E2E2C3E2E2E2E2BEE2E2F5E2F5F5F5E2F5E2E2BEBEBEBEBEBEBEBEBEBEBEBEBEBEBEBEBEBEBEBEBEBEBEBEBEBEBEBEBEBEBEBEBEBEBEBEBEBE
310
BEBEBEBEBEBEBEBEBEBEBEBEBEBEBEC3BEBEBEC3BEBEBEBEBEBEBEC3C3BEBEC3C3BEE2E2E22828C32828E2E2BEBEBEBEBEBEBEBEE2BEE2E2E2E2E2E2BEE2BEBEBEBEBEBEBEBEE2E2E2C3C3E2C3E2E2E2E2C3E2E2E2E2E2E2E2C3C3C3E2E2E2E2E2C3C3E2E2C3E2E2E2C3E2C3C3C3E2E2E2E2C3E2C3C3C3C3C3C3E2E2E2C3E2
310
E2E2E2BEE2E2F5E2F5F5F5E2F5E2E2BEC3C3C3C3C3C3C3E2C3C3C3C3C3C3C3C3C3C3C3C3C3C3C3C3C3E2E2E2E2BEE2C3C3C3C3E2C3C3C3C3C3E2E2E2E2BEE2C3C3C3C3E2C3C3C3C3C3E2BEE2C3C3C3C3C3C3C3C3C3C3BEE2E2E2E2C3C3C3E2E2E2E228E2E2E2E2BEBEBEBEE2E2E2E2E2E2BEBEBEBEE2E2E2E2E2BEE2E2E2C3
310
C3C3C3E2E2E2E2C3E2E2E2E2E2E2E2C3C3C3E2E2E2E2E2C3C3C3E2E2E2E2E2C3C3C3C3C3C3C3C3C3C3E2C3C3C3C3C3C3C3E2E2C3E2E2E2E2BEE2E2F5E2F5F5F5E2F5E2E2BEC3C3C3C3C3C3C3C3C3C3C3C3C3C3C3C3C3C3C3C3C3E2C3E2C3E2E2E2E2BEE2C3C3C3C3E2C3C3C3C3C3E2E2E2E2BEE2C3C3C3C3E2C3C3C3C3C3E2
310
BEE2C3C3C3C3C3C3C3C3C3C3BEE2E2E2E2E2E2E2E2E2E2E22828E2E2E2BEBE28BEE2E2E2E2E2E2BE2828BEE2E2E2E2E2BEE2E2E2C3C3C3E2E2C3C3C3C3E2E2E2E2E2E2E2C3C3C3E2C3C3C3E2C3C3C3C3C3C3C3E2C3E2C3C3C3E2E2E2E2C3E2E2E2E2C3C3C3C3E2E2C3E2E2E2E2BEE2E2F5E2F5F5F5E2F5E2E2BEBEBEBEBEBE
310
BEBEBEBEBEBEBEBEBEBEBEBEBEBEBEBEBEBEBEBEBEBEBEBEBEBEBEBEBEBEBEBEBEBEBEBEBEBEBEBEBEBEBEBEBEBEBEBEBEBEBEBEBEBEBEBEBEBEBEBEBEBEBEBEBEBEE2E2E2E2E2E2E2E2E2E2E228E2E2E2E2BEBEBE28E2E2E2E2E2E228BEBE28E2E2E2E2E2BEE2E2E2C3E2E2E2E2E2E2E2C3E2E2E2E2E2E2E2C3E2E2E2E2E2
310
E2E2C3C3C3E2E2C3E2E2C3C3C3C3C3C3C3C3C3C3E2E2E2E2C3C3C3C3E2E2C3E2E2E2E2BEE2E2F5E2F5F5F5E2F5E2E2BEC3C3C3C3C3C3C3C3C3C3C3C3C3C3C3C3C3C3C3C3C3C3C3C3C3C3C3E2E2BEE2C3C3C3C3C3C3C3C3E2E2E2E2E2E2BEE2C3C3C3C3C3C3C3C3C3E2E2BEE2C3C3C3C3C3C3C3E2E2E2BEE2E2E2E2E2E2E2E2
310
E2E2E228C3C3E2E2BEBEE2E228E2E2E2E228E2E2E22828E2E2E2E2BEE2E2E2C3C3C3C3C3E2C3C3C3E2E2E2E2E2E2E2C3E2E2E2E2C3C3E2C3E2E2E2C3C3C3E2C3E2C3C3C3C3C3C3C3C3E2C3C3C3C3C3E2E2E2E2C3E2E2E2E2BEE2E2F5E2F5F5F5E2F5E2E2BEC3C3C3C3C3C3C3C3C3C3C3C3C3C3C3C3C3E2C3C3E2C3C3C3C3C3
310
E2E2E2BEE2C3C3C3C3C3C3C3C3E2E2E2E2E2E2BEE2C3C3C3C3C3C3C3C3C3E2E2BEE2C3C3C3C3C3C3C3E2E2E2BEE2E2E2E2E2E2E2E2E2E2E228C3C3E2E2BEBEE2E228E2E2E2E228E2E2E2BE28E2E2E2E2BEE2E2E2C3C3C3C3C3C3C3E2C3E2E2E2E2E2E2E2C3E2E2E2E2C3E2E2C3E2E2E2C3C3E2E2C3C3C3C3C3C3C3C3C3C3E2
310
E2E2E2E2E2E2E2E2E2C3E2E2E2E2BEE2E2F5E2F5F5F5E2F5E2E2BEBEBEBEBEBEBEBEBEBEBEBEBEBEBEBEBEBEBEBEBEBEBEBEBEBEBEBEBEBEBEBEBEBEBEBEBEBEBEBEBEBEBEBEBEBEBEBEBEBEBEBEBEBEBEBEBEBEBEBEBEBEBEBEBEBEBEBEBEBEBEBEE2E2E2E2E2E2E2E2E2E2E228E2E2E2E2BEBEE2E2E228C3C328C3C3E2E2
310
BEE228E2E2E2BEE2E2E2C3C3C3C3C3E2C3C3C3E2E2E2C3C3C3C3C3E2E2E2E2C3C3E2C3E2E2E2C3C3C3E2C3E2C3C3C3C3C3C3C3C3E2C3C3C3C3C3E2E2E2E2C3E2E2E2E2BEE2E2F5E2F5F5F5E2F5E2E2BEC3C3C3C3C3C3C3C3C3C3C3C3C3C3C3C3E2C3C3C3C3C3C3C3C3C3C3C3E2BEE2C3C3C3C3C3C3C3C3E2E2E2E2E2E2BEE2
310
E2C3C3C3C3C3C3C3C3E2E2BEE2C3C3C3C3C3C3C3E2E2E2BEE2282828282828282828282828E2E2E2E2BEE2E2E2C3C3C3C3C3C3E2E2BEE228E2E2E2BEE2E2E2C3E2E2E2E2E2E2E2C3C3C3E2E2E2E2E2C3E2E2E2E2E2E2E2C3E2E2E2C3E2E2E2C3C3C3C3C3C3C3C3C3C3E2E2E2E2C3C3E2E2E2E2C3E2E2E2E2BEE2E2F5E2F5F5
310
F5E2F5E2E2BEC3C3C3C3C3C3C3C3C3C3C3C3C3C3C3C3E2C3C3C3E2E2C3C3C3C3C3C3E2BEE2C3C3C3C3C3C3C3C3E2E2E2E2E2E2BEE2C3C3C3C3C3C3C3C3C3E2E2BEE2C3C3C3C3C3C3C3E2E2E2BEE2C3C3C3C3C3C3C3C3C3C3C3C3E2E2E2E2BEE2E2E2E2E2E2E2E2E2E2E2BEE2E228E2E2BEE2E2E2C3C3C3E2E2E2E2E2C3E2C3
310
E2E2E2E2E2C3C3C3E2E2E2E2E2C3C3C3C3C3E2E2E2C3E2C3C3C3E2E2E2E2C3E2E2E2E2C3C3C3C3E2E2C3E2E2E2E2BEE2E2F5E2F5F5F5E2E2E2E2BEBEBEBEBEBEBEBEBEBEBEBEBEBEBEBEBEBEBEBEBEBEBEBEBEBEBEBEBEBEBEBEBEBEBEBEBEBEBEBEBEBEBEBEBEBEBEBEBEBEBEBEBEBEBEBEBEBEBEBEBEBEBEBEBEBEBEBEBE
310
BEBEBEE2C3C3C3C3C3C3C3C3C3C3C3C3E2E2E2E2BEBEBEBEBEBEBEBEBEBEBEBEBEE2E2E228E2BEE2E2E2C3C3E2E2E2C3C3C3C3E2E2E2C3C3C3C3C3C3E2C3C3C3C3E2C3C3C3C3C3C3C3E2C3E2C3C3C3E2E2E2E2C3E2C3C3C3C3C3C3E2E2E2C3E2E2E2E2BEE2E2E2E2F5F5F5E2E2E2E2BEC3C3C3C3C3C3C3C3C3C3C3E2E2E2E2
310
E2E2E2E2E2E2E2E2E2E2E2E2E2E2BEE2E2C3C3E2E2E2E2E2E2E2E2E2E2E2BEE2C3C3C3C3E2E2E2E2E2E2E2BEE2C3C3C3C3E2E2E2E2E2E2BEE2C3C3C3C3C3C3C3C3C3E2E2E2E2E2E2E2E2E2E2E2E2E2E2E2C3C3C3C3C3C3E2282828BEE2E2E2C3C3C3C3C3C3C3C3C3C3C3C3C3C3C3C3C3C3C3C3C3C3C3C3C3C3C3C3C3C3C3C3
310
C3C3C3C3C3C3C3C3C3C3C3C3C3C3C3C3C3C3C3C3C3E2E2E2E2BEE2E2E2E2F5F5F5E2E2E2E2BEC3C3C3C3C3C3C3C3C3C3C3E2E2E2E2E2E2E2E2E2E2E2E2E2E2E2E2E2E2BEE2C3C3C3E2E2E2E2E2E2E2E2E2E2E2BEE2C3C3C3C3E2E2E2E2E2E2E2BEE2C3E2C3C3E2E2E2E2E2E2BEE2C3C3C3C3C3C3C3C3C3E2E2E2E2E2E2E2E2
310
E2E2E2E2E2E2E2C3C3C3C3C3C3E2E2E2E2BEE2E2E2C3C3C3C3C3C3C3C3C3C3C3C3C3C3C3C3C3C3C3C3C3C3E2E2C3C3C3C3C3C3C3E2C3E2C3C3C3C3C3E2E2C3E2C3C3C3C3C3C3C3E2E2C3E2E2E2E2BEE2E2E2E2F5F5F5E2E2E2E2BEBEBEBEBEBEBEBEBEBEBEBEBEBEBEBEBEBEBEBEBEBEBEBEBEBEBEBEBEBEBEBEBEBEBEBEBE
310
BEBEBEBEBEBEBEBEBEBEBEBEBEBEBEBEBEBEBEBEBEBEBEBEBEBEBEBEBEBEBEBEBEBEBEE2C3C3C3C3C3C3C3C3C3C3C3E2E2E2E2E2E2E2E2E2E2E2E2E2E2C3C3C3C3C3E2E2E2E2BEE2E2E2C3C3C3C3C3C3C3C3C3C3C3C3C3C3C3C3C3C3C3C3C3C3C3C3C3C3C3C3C3C3C3C3C3E2C3C3C3C3C3E2E2C3E2C3C3C3C3C3C3C3E2E2C3
310
E2E2E2E2BEE2E2E2E2F5F5F5E2E2E2E2BEC3C3C3C3C3C3C3C3C3C3C3C3E2E2E2E2E2E2E2E2E2E2E2E2E2E2E2E2E2BEE2C3C3C3E2E2E2E2E2E2E2E2E2E2E2BEE2E2E2E2E2E2E2E2E2E2E2E2BEE2E2E2E2E2E2E2E2E2E2E2BEE2C3C3C3C3C3C3C3C3C3C3C3C3E2E2E2E2E2E2E2E2E2E2E2E2E2C3C3C3C3C3E2E2E2E2BEE2E2E2
310
C3C3C3C3C3C3C3C3C3E2E2E2E2E2E2E2E2C3C3C3C3C3C3E2E2E2E2E2E2E2E2E2C3E2C3C3C3C3C3E2E2C3E2C3C3C3C3C3C3C3E2E2C3E2E2E2E2BEE2E2E2E2F5F5F5E2E2E2E2BEC3C3C3C3C3C3C3C3C3C3C3C3E2E2E2E2E2E2E2E2E2E2E2E2E2E2E2E2E2BEE2C3C3C3E2E2E2E2E2E2E2E2E2E2E2BEE2E2E2E2E2E2E2E2E2E2E2
310
E2BEE2E2E2E2E2E2E2E2E2E2E2BEE2E2E2E2E2E2E2E2E2E2E2E2E2E2E2E2E2E2E2E2E2E2E2E2E2E2E2E2E2E2E2E2E2E2E2BEE2E2E2C3C3C3C3C3C3C3C3C3C3C3C3C3C3C3C3C3C3C3C3C3C3C3C3C3C3C3C3C3C3C3C3C3C3C3C3C3C3C3C3C3C3C3C3C3C3C3C3C3C3C3C3C3E2E2E2E2BEE2E2E2E2F5F5F5E2E2E2E2BEBEBEBEBE
310
BEBEBEBEBEBEBEBEBEBEBEBEBEBEBEBEBEBEBEBEBEBEBEBEBEBEBEBEBEBEBEBEBEBEBEBEBEBEBEBEBEBEBEBEBEBEBEBEBEBEBEBEBEBEBEBEBEBEC3C3C3C3C3C3C3BEBEE2E2E2E2E2E2E2E2E2E2E2E2E2E2E2E2E2E2E2E2E2E2E2E2E2E2E2E2E2E2E2E2E2E2E2BEE2E2E2C3E2E2E2E2E2E2E2E2E2E2E2E2E2E2E2E2E2E2E2E2
310
E2E2E2E2E2E2E2E2E2E2E2C3E2E2E2E2E2E2E2E2E2E2E2E2E2E2E2E2E2E2E2C3E2E2E2E2BEE2E2E2E2F5F5F5E2E2E2E2BEC3C3C3C3C3C3C3C3C3C3C3E2E2E2E2E2E2E2E2E2E2E2BEBEBEBEBEE2E2BEC3C3C3C3C3C3C3C3E2C3C3C3C3C3C3BEE2E2E2C3C3C3C3C3E2E2E2E2BEE2E2E2C3C3C3C3C3C3C3E2BEE2E2E2E2E2E2E2
310
E2E2E2E2E2E2E2E2E2E2E2E2E2E2E2E2E2E2E2E2E2E2E2E2E2E2E2E2BEE2E2E2C3E2E2E2E2E2C3C3C3E2C3C3C3C3C3C3C3C3C3C3C3C3C3C3C3C3C3C3C3E2E2E2C3E2E2E2E2E2E2E2E2C3C3C3C3C3E2E2E2E2E2E2C3E2E2E2E2BEE2E2E2E2F5F5F5E2F5E2E2BEC3C3C3C3C3C3C3C3C3C3C3E2E2E2E2E2E2BEBEBEBEBEE2E2E2
310
E2E2E2E2BEC3C3C3C3C3C3E2C3E2C3C3C3C3C3C3BEE2E2E2C3C3C3C3C3E2E2E2E2BEE2E2E2C3C3C3C3C3C3C3E2BEE2C3C3C3C3C3C3C3C3C3C3C3C3E2C3C3C3C3C3C3C3C3C3C3C3C3C3E2C3C3C3C3C3C3E2BEE2E2E2C3E2E2E2E2E2C3C3C3C3C3C3C3C3C3C3C3C3C3C3C3C3C3C3C3C3C3C3C3E2E2E2C3E2E2E2E2E2E2E2E2C3
310
C3C3C3C3E2E2E2E2E2E2C3E2E2E2E2BEE2E2F5E2F5F5F5E2F5E2E2BEE2E2E2E2E2E2E2E2E2E2E2E2BEBEBEBEBEE2C3C3C3C3C3C3C3C3C3C3E2BEE2C3C3C3C3C3C3C3C3C3C3C3E2E2E2BEBEBEBEBEBEBEBEBEBEBEBEBEBEBEBEBEBEBEBEBEBEBEBEBEBEE2C3C3C3C3C3C3C3C3C3C3C3C3E2C3C3C3C3C3C3C3C3C3C3C3C3E2E2
310
C3C3C3C3C3C3E2BEE2E2E2C3E2E2E2E2C3C3C3C3E2C3C3C3C3C3C3C3C3C3C3C3C3C3C3C3C3C3C3C3E2E2E2C3E2E2E2E2E2E2E2E2E2E2E2E2E2E2E2E2E2E2E2C3E2E2E2E2BEE2E2F5E2F5F5F5E2F5E2E2BEE2E2E2E2E2E2E2BEBEBEBEBEE2E2E2E2E2E2C3C3C3C3C3C3C3C3C3C3E2BEE2C3C3C3C3C3C3C3C3C3C3C3E2E2E2BE
310
E2E2E2E2E2E2C3C3C3C3C3C3C3E2E2E2E2E2E2E2E2E2E2E2BEE2C3C3C3C3C3C3C3C3C3C3C3C3E2C3C3C3C3C3C3E2E2C3C3C3C3E2E2C3C3C3C3C3C3E2BEE2E2E2C3C3C3C3C3C3C3C3C3C3C3C3C3C3C3C3C3C3C3C3C3C3C3C3C3C3C3C3C3C3C3C3C3C3C3C3C3C3C3C3C3C3C3C3C3C3C3C3C3C3C3C3C3E2E2E2E2BEE2E2F5E2F5
310
F5F5E2F5E2E2BEE2E2BEBEBEBEBEE2E2E2E2E2E2E2E2E2E2E2C3C3C3C3C3C3C3C3C3C3E2BEE2C3C3C3C3C3C3C3C3E2C3C3E2E2E2BEE2E2E2E2E2E2C3C3C3C3C3C3C3E2E2E2E2E2E2E2E2E2E2E2BEE2E2E2E2E2E2E2E2E2E2E2E2E2E2E2E2E2E2E2E2E2E2E2E2E2E2E2E2E2E2E2E2E2E2E2BEE2E2E2E2E2E2E2E2E2E2E2E2E2
310
E2E2E2E2E2E2E2E2E2E2E2E2E2E2E2E2E2E2E2E2E2E2E2E2E2E2E2E2E2E2E2E2E2E2E2E2E2E2E2E2E2E2E2E2E2E2E2BEE2E2F5E2F5F5F5E2F5E2E2BEBEBEBEBEBEBEBEBEBEBEBEBEBEBEBEBEBEBEBEBEBEBEBEBEBEBEBEBEBEBEBEBEBEBEBEBEBEBEBEBEBEBEBEBEBEBEBEBEBEBEBEBEBEBEBEBEBEBEBEBEBEBEBEBEBEBEBE
310
BEBEBEBEBEBEBEBEBEBEBEBEBEBEBEBEBEBEBEBEBEBEBEBEBEBEBEBEBEBEBEBEBEBEBEBEBEBEBEBEBEBEBEBEBEBEBEBEBEBEBEBEBEBEBEBEBEBEBEBEBEBEBEBEBEBEBEBEBEBEBEBEBEBEBEBEBEBEBEBEBEBEBEBEBEBEBEBEBEBEBEBEBEBEBEBEBEBEBEBEBEE2E2F5E2F5F5F5E2F5E2E2BEE2E2E2E2E2E2E2E2E2E2E2E2E2E2
310
E2E2E2E2E2E2E2E2E2E2E2E2E2E2E2E2E2E2E2E2E2E2E2E2E2E2E2E2E2E2E2E2E2E2E2E2E2E2E2E2E2E2E2E2E2E2E2E2E2E2E2E2E2E2E2E2E2E2E2E2E2E2E2E2E2E2E2E2E2E2E2E2E2E2E2E2E2E2E2E2E2E2E2E2E2E2E2E2E2E2E2E2E2E2E2E2E2E2E2E2E2E2E2E2E2E2E2E2E2E2E2E2E2E2E2E2E2E2E2E2E2E2E2E2E2E2E2
310
E2E2E2E2E2E2E2E2E2E2E2E2E2E2E2E2E2E2E2E2E2E2E2E2E2E2BEE2E2F5E2F5F5F5E2F5E2E2BEE2E2E2E2E2E2E2E2E2E2E2E2E2E2E2E2E2E2E2E2E2E2E2E2E2E2E2E2E2E2E2E2E2E2E2E2E2E2E2E2E2E2E2E2E2E2E2E2E2E2E2E2E2E2E2E2E2E2E2E2E2E2E2E2E2E2E2E2E2E2E2E2E2E2E2E2E2E2E2E2E2E2E2E2E2E2E2E2
310
E2E2E2E2E2E2E2E2E2E2E2E2E2E2E2E2E2E2E2E2E2E2E2E2E2E2E2E2E2E2E2E2E2E2E2E2E2E2E2E2E2E2E2E2E2E2E2E2E2E2E2E2E2E2E2E2E2E2E2E2E2E2E2E2E2E2E2E2E2E2E2E2E2E2E2E2E2E2E2BEE2E2F5E2F5F5F5E2F5E2E2BEE2E2E2E2E2E2E2E2E2E2E2E2E2E2E2E2E2E2E2E2E2E2E2E2E2E2E2E2E2E2E2E2E2E2E2
310
E2E2E2E2E2E2E2E2E2E2E2E2E2E2E2E2E2E2E2E2E2E2E2E2E2E2E2E2E2E2E2E2E2E2E2E2E2E2E2E2E2E2E2E2E2E2E2E2E2E2E2E2E2E2E2E2E2E2E2E2E2E2E2E2E2E2E2E2E2E2E2E2E2E2E2E2E2E2E2E2E2E2E2E2E2E2E2E2E2E2E2E2E2E2E2E2E2E2E2E2E2E2E2E2E2E2E2E2E2E2E2E2E2E2E2E2E2E2E2E2E2E2E2E2E2E2E2
310
E2E2E2E2E2BEE2E2F5E2F5F5F5E2F5E2E2BEE2E2E2E2E2E2E2E2E2E2E2E2E2E2E2E2E2E2E2E2E2E2E2E2E2E2E2E2E2E2E2E2E2E2E2E2E2E2E2E2E2E2E2E2E2E2E2E2E2E2E2E2E2E2E2E2E2E2E2E2E2E2E2E2E2E2E2E2E2E2E2E2C3C3C3C3C3C3C3C3C3C3C3C3C3C32828E2E2E2E2E2E2E2E2E2E2E2E2E2E2E2E2E2E2E2E2E2
310
E2E2E2E2E2E2E2E2E2E2E2E2E2E2E2E2E2E2E2E2E2E2E2E2E2E2E2E2E2E2E2E2E2E2E2E2E2E2E2E2E2E2E2E2E2E2E2E2E2E2E2E2E2E2E2E2E2E2BEE2E2F5E2F5F5F5E2F5E2E2BEE2E2E2E2E2E2E2E2E2E2E2E2E2E2E2E2E2E2E2E2E2E2E2E2E2E2E2E2E2E2E2E2E2E2E2E2E2E2E2E2E2E2E2E2E2E2E2E2E2E2E2E2E2E2E2E2
310
E2E2E2E2E2E2E2E2E2E2E2E2E2E2E2E2C3C3C3C3C3C3C3C3C3C3C3C3C3C3C3E228E2E2E2E2E2E2E2E2E2E2E2E2E2E2E2E2E2E2E2E2E2E2E2E2E2E2E2E2E2E2E2E2E2E2E2E2E2E2E2E2E2E2E2E2E2E2E2E2E2E2E2E2E2E2E2E2E2E2E2E2E2E2E2E2E2E2E2E2E2E2E2E2E2E2E2E2E2E2BEE2E2F5E2F5F5F5E2F5E2E2BEE2E2E2
310
E2E2E2E2E2E2E2E2E2E2E2E2E2E2E2E2E2E2E2E2E2E2E2E2E2E2E2E2E2E2E2E2E2E2E2E2E2E2E2E2E2E2E2E2E2E2E2E2E2E2E2E2E2E2E2E2E2E2E2E2E2E2E2E2E2E2E2E2E2C3C3C3C3C3C3C3C3C3C3C3C3C3C3C3E2E228282828E2E2E2E2E2E2E2E2E2E2E2E2E2E2E2E2E2E2E2E2E2E2E2E2E2E2E2E2E2E2E2E2E2E2E2E2E2
310
E2E2E2E2E2E2E2E2E2E2E2E2E2E2E2E2E2E2E2E2E2E2E2E2E2E2E2E2E2E2E2E2E2E2E2E2E2BEE2E2F5E2F5F5F5E2F5E2E2BEE2E2E2E2E2E2E2E2E2E2E2E2E2E2E2E2E2E2E2E2E2E2E2E2E2E2E2E2E2E2E2E2E2E2E2E2E2E2E2E2E2E2E2E2E2E2E2E2E2E2E2E2E2E2E2E2E2E2E2E2E2E2E2E2E2E2E2E2E2E2E2E2E2E2E2E2E2
310
E2E2E2E2E2E2E2E2E2E2E2E22828282828E2E2E2E2E2E2E2E2E2E2E2E2E2E2E2E2E2E2E2E2E2E2E2E2E2E2E2E2E2E2E2E2E2E2E2E2E2E2E2E2E2E2E2E2E2E2E2E2E2E2E2E2E2E2E2E2E2E2E2E2E2E2E2E2E2E2E2E2E2E2E2E2E2BEE2E2F5E2F5F5F5E2F5E2E2BEE2E2E2E2E2E2E2E2E2E2E2E2E2E2E2E2E2E2E2E2E2E2E2E2
310
E2E2E2E2E2E2E2E2E2E2E2E2E2E2E2E2E2E2E2E2E2E2E2E2E2E2E2E2E2E2E2E2E2E2E2E2E2E2E2E2E2E2E2E2E2E2E2E2E2E2E2E2E2E2E2E2E2E2E2E2E2E2E2E2E22828282828E2E2E2E2E2E2E2E2E2E2E2E2E2E2E2E2E2E2E2E2E2E2E2E2E2E2E2E2E2E2E2E2E2E2E2E2E2E2E2E2E2E2E2E2E2E2E2E2E2E2E2E2E2E2E2E2E2
310
E2E2E2E2E2E2E2E2E2E2E2E2E2E2E2E2BEE2E2F5E2F5F5F5E2F5E2E2BEE2E2E2E2E2E2E2E2E2E2E2E2E2E2E2E2E2E2E2E2E2E2E2E2E2E2E2E2E2E2E2E2E2E2E2E2E2E2E2E2E2E2E2E2E2E2E2E2E2E2E2E2E2E2E2E2E2E2E2E2E2E2E2E2E2E2E2E2E2E2E2E2E2E2E2E2E2E2E2E2E2E2E2E2E2E2E2E2E2E2282828E2E2E2E2E2
310
E2E2E2E2E2E2E2E2E2E2E2E2E2E2E2E2E2E2E2E2E2E2E2E2E2E2E2E2E2E2E2E2E2E2E2E2E2E2E2E2E2E2E2E2E2E2E2E2E2E2E2E2E2E2E2E2E2E2E2E2E2E2E2E2E2E2E2E2E2BEE2E2F5E2F5F5F5E2F5E2E2BEE2E2E2E2E2E2E2E2E2E2E2E2E2E2E2E2E2E2E2E2E2E2E2E2E2E2E2E2E2E2E2E2E2E2E2E2E2E2E2E2E2E2E2E2E2
310
E2E2E2E2E2E2E2E2E2E2E2E2E2E2E2E2E2E2E2E2E2E2E2E2E2E2E2E2E2E2282828282828282828282828E2E2E2282828E2E2E2E2E2E2E2E2E2E2E2E2E2E2E2E2E2E2E2E2E2E2E2E2E2E2E2E2E2E2E2E2E2E2E2E2E2E2E2E2E2E2E2E2E2E2E2E2E2E2E2E2E2E2E2E2E2E2E2E2E2E2E2E2E2E2E2E2E2E2E2E2E2E2BEE2E2F5E2
310
F5F5F5E2F5E2E2BEE2E2E2E2E2E2E2E2E2E2E2E2E2E2E2E2E2E2E2E2E2E2E2E2E2E2E2E2E2E2E2E2E2E2E2E2E2E2E2E2E2E2E2E2E2E2E2E2E2E2E2E2E2E2E2E2E2E2E2E2E2E2E2E2E2E2E2E2E2E2E2E2E2E2E2C3C3C3C3C3C3C3C3E2E2E2E22828E2282828E2E2E2E2E2E2E2E2E2E2E2E2E2E2E2E2E2E2E2E2E2E2E2E2E2E2
310
E2E2E2E2E2E2E2E2E2E2E2E2E2E2E2E2E2E2E2E2E2E2E2E2E2E2E2E2E2E2E2E2E2E2E2E2E2E2E2E2E2E2E2E2E2E2E2E2BEE2E2F5E2F5F5F5E2E2E2E2BEE2E2E2E2E2E2E2E2E2E2E2E2E2E2E2E2E2E2E2E2E2E2E2E2E2E2E2E2E2E2E2E2E2E2E2E2E2E2E2E2E2E2E2E2E2E2E2E2E2E2E2E2E2E2E2E2E2E2E2E2E2E2E2E2E2E2
310
E2E2E2E2E2E2E2E2E2C3C3C3C3C3C3C3C3C3E2E2E2E2E228282828E2E2E2E2E2E2E2E2E2E2E2E2E2E2E2E2E2E2E2E2E2E2E2E2E2E2E2E2E2E2E2E2E2E2E2E2E2E2E2E2E2E2E2E2E2E2E2E2E2E2E2E2E2E2E2E2E2E2E2E2E2E2E2E2E2E2E2E2E2E2E2E2E2E2BEE2E2E2E2F5F5F5E2E2E2E2BEE2E2E2E2E2E2E2E2E2E2E2E2E2
310
E2E2E2E2E2E2E2E2E2E2E2E2E2E2E2E2E2E2E2E2E2E2E2E2E2E2E2E2E2E2E2E2E2E2E2E2E2E2E2E2E2E2E2E2E2E2E2E2E2E2E2E2E2E2E2E2E2E2E2E2E2E2E2E2E2E2E2E2E2E2E2E2E2E2E2E2E2282828E2E2E2E2E2C3C3C3C3C3C3C3E2E2E2E2E2E2E2E2E2E2E2E2E2E2E2E2E2E2E2E2E2E2E2E2E2E2E2E2E2E2E2E2E2E2E2
310
E2E2E2E2E2E2E2E2E2E2E2E2E2E2E2E2E2E2E2E2E2E2E2E2E2E2E2BEE2E2E2E2F5F5F5E2E2E2E2BEE2E2E2E2E2E2E2E2E2E2E2E2E2E2E2E2E2E2E2E2E2E2E2E2E2E2E2E2E2E2E2E2E2E2E2E2E2E2E2E2E2E2E2E2E2E2E2E2E2E2E2E2E2E2E2E2E2E2E2E2E2E2E2E2E2282828E2282828E2E2E2E2E2E2E2E2E2E2E2E2E2E2E2
310
E2E2E2282828E2E2E2E2E2C3C3C3C3C3C3C3C3C3C3C3E2E2E2E2E2E2E2E2E2E2E2E2E2E2E2E2E2E2E2E2E2E2E2E2E2E2E2E2E2E2E2E2E2E2E2E2E2E2E2E2E2E2E2E2E2E2E2E2E2E2E2E2E2E2E2E2E2E2BEE2E2E2E2F5F5F5E2E2E2E2BEE2E2E2E2E2E2E2E2E2E2E2E2E2E2E2E2E2E2E2E2E2E2E2E2E2E2E2E2E2E2E2E2E2E2
310
E2E2E2E2E2E2E2E2E2E2E2E2E2E2E2E2E2E2E2E2E2E2E2E2E2E2E2E2E2E2E228C328E228C328E2E2E2E2E2E2E2E2E2E2E2E2E2E2E2E2E2E2282828E2E2E2E2E2C3C3C3C3C3C3C3C3C3C3C3E228282828E2E2E2E2E2E2E2E2E2E2E2E2E2E2E2E2E2E2E2E2E2E2E2E2E2E2E2E2E2E2E2E2E2E2E2E2E2E2E2E2E2E2E2E2E2E2E2
310
E2E2E2E2E2E2BEE2E2E2E2F5F5F5E2E2E2E2BEE2E2E2E2E2E2E2E2E2E2E2E2E2E2E2E2E2E2E2E2E2E2E2E2E2E2E2E2E2E2E2E2E2E2E2E2E2E2E2E2E2E2E2E2E2E2E2E2E2E2E2E2E2E2E2E2E2E2E2E2E2E2E2E2E2282828E2282828E2E2E2E2E2E2E2E2E2E2E2E2E2E2C3C3E2E2282828E2E2E2E2E2C3C3C3C3C3C3C3C3C3E2
310
E2E2E2E2E228E2E2E2E2E2E2E2E2E2E2E2E2E2E2E2E2E2E2E2E2E2E2E2E2E2E2E2E2E2E2E2E2E2E2E2E2E2E2E2E2E2E2E2E2E2E2E2E2E2E2E2E2E2BEE2E2E2E2F5F5F5E2E2E2E2BEE2E2E2E2E2E2E2E2E2E2E2E2E2E2E2E2E2E2E2E2E2E2E2E2E2E2E2E2E2E2E2E2E2E2E2E2E2E2E2E2E2E2E2E2E2282828E2E2E2E2E2E2E2
310
E2E2E2E2E2E2E2E2E2E228C328E228E228E2E2E2E2E2E228E2E22828282828282828E2282828E2E2E2E2E2C3C3C3C3C3C3C3E2E2E2E2E2E2E2E2E228E2E2E2E2282828E2E2E2E2E2E2E2E2E2E2E2E2E2E2E2E2E2E2E2E2E2E2E2E2E2E2E2E2E2E2E2E2E2E2E2E2E2E2E2E2E2E2E2E2E2BEE2E2E2E2F5F5F5E2E2E2E2BEE2E2
310
E2E2E2E2E2E2E2E2E2E2E2E2E2E2E2E2E2E2E2E2E2E2E2E2E2E2E2E2E2E2E2E2E2E2E2E2C3C3C328E2E2E2282828E2E2E2E2E2E2E2E2E2E2E2E2E2E2E2E2E228C328E228E228E2E2E2E2E2E228282828C3E2C3C3C3C328E2282828E2E2E22828E2E2E2E2E2E2E2E2E2E2E2E2E2E2E2E228E2E2E2E2282828E2E2E2E2E2E2E2
310
E2E2E2E2E2E2E2E2E2E2E2E2E2E2E2E2E2E2E2E2E2E2E2E2E2E2E2E2E2E2E2E2E2E2E2E2E2E2BEE2E2E2E2F5F5F5E2E2E2E2BEE2E2E2E2E2E2E2E2E2E2E2E2E2E2E2E2E2E2E2E2E2E2E2E2E2E2E2E2E2E2E2E2E2E2E2E2E2E2C3C3C3E2E2E2E2282828E2E2E2E2E2E2E2E2E2E2E2E2E2E2E2E2E228C328E228E228E2E2E2E2
310
E2E228E2E22828282828282828E2282828E2E2E228E2E2E2E2E2E2E2E2E2E2E2E2E2E2E2E2E228E2E2E2E2282828E2E2E2E2E2E2E2E2E2E2E2E2E2E2E2E2E2E2E2E2E2E2E2E2E2E2E2E2E2E2E2E2E2E2E2E2E2E2E2E2E2E2E2E2E2BEE2E2E2E2F5F5F5E2E2E2E2BEE2E2E2E2E2E2E2E2E2E2E2E2E2E2E2E2E2E2E2E2E2E2E2
310
E2E2E2E2E2E2E2E2E2E2E2E2E2E2E2E228E2E2E2E2E2282828E2E2E2E2E2E2E2E2E2E2E2E2E2E2E2E2E228C328E2282828E2E2C3C3E2E228E2E2E2E2E2E2E2E2E2E2E2282828E2E2E228E2E2E2E2E2E2E2E2E2E2E2E2E2E2E2E2E22828E2E2E2282828E2E2E2E2E2E2E2E2E2E2E2E2E2E2E2E2E2E2E2E2E2E2E2E2E2E2E2E2
310
E2E2E2E2E2E2E2E2E2E2E2E2E2E2E2E2E2BEE2E2E2E2F5F5F5E2F5E2E2BEE2E2E2E2E2E2E2E2E2E2E2E2E2E2E2E2E2E2E2E2E2E2E2E2E2E2E2E2E2E2E2E2E2E2E2E2E2E2BEECBEECBEBEBEBEBEBEBEBEBEECBEECBEE2E2E2E2E2E2E2E2E2E2282828E228E2E2E2E2282828E228BEBEBEBEBEBEBEBEBEBEBE282828BEE2E228
310
E2E2E2E2E2E2E2E2E2E2E2E2E2E2E2BEECBEBEBEBEBEBEBEBEBEBEBEBEBEECBEE2E2E2E2E2E2E2E2E2E2E2E2E2E2E2E2E2E2E2E2E2E2E2E2E2E2E2E2E2E2E2E2E2E2E2E2E2E2BEE2E2F5E2F5F5F5E2F5E2E2BEE2E2E2E2E2E2E2E2E2E2E2E2E2E2E2E2E2E2E2E2E2E2E2E2E2E2E2E2E2E2E2E2E2E2E2E2E2E2ECBEBEBEBEBE
310
E2E2ECE2E2E2E2E2BEBEBEE2E2E2E2E2E2E2E2E2E228E2E2E228E2E2E2E228C328E2BEBEE2BEE2E2E2E2E2E2E2BEE2E2E2BEE2E228E2E2E2E2E2E2E2E2E2E2E2E2E2E2E2BEECBE28E2E2E2E2ECE2E2E2E2BEBEECBEE2E2E2E2E2E2E2E2E2E2E2E2E2E2E2E2E2E2E2E2E2E2E2E2E2E2E2E2E2E2E2E2E2E2E2E2E2E2BEE2E2F5
310
E2F5F5F5E2F5E2E2BEE2E2E2E2E2E2E2E2E2E2E2E2E2E2E2E2E2E2E2E2E2E2E2E2E2E2E2E2E2E2E2E2E2E2E2E2E2E2BEBEBEE2BEE2E2E2ECE2E2E2E2E2E2BEBEE2E2E2E2E2E2E2E2E2E228E2E2E228E2E2E2E2282828E2BEBEBEBEBEBEBEBEBEBEBEBEBEBEBEBEE228E2E2E2E2E2E2E2E2E2E2E2E2E2E2E2E2BEBEBE28E2E2
310
E2E2ECE2E2E2E2E2BEBEBEE2E2E2E2E2E2E2E2E2E2E2E2E2E2E2E2E2E2E2E2E2E2E2E2E2E2E2E2E2E2E2E2E2E2E2E2E2E2BEE2E2F5E2F5F5F5E2F5E2E2BEE2E2E2E2E2E2E2E2E2E2E2E2E2E2E2E2E2E2E2E2E2E2E2E2E2E2E2E2E2E2E2E2E2E2E2E2E2E2ECE2E2E2E2E2BEBEBEBEBEE2E2E2E2E2ECE2E2E2E2E2E2E2E2E2E2
310
28282828282828282828282828BEE2E2BEE2E2E2E2E2E2E2BEE2E2E2BEE228E2E2E2E2E2E2E2E2E2E2E2E2E2E2E2E2BEE2E2E228E2E2E2ECE2E2E2E2E2E2E2BEE2E2E2E2E2E2E2E2E2E2E2E2E2E2E2E2E2E2E2E2E2E2E2E2E2E2E2E2E2E2E2E2E2E2E2E2E2E2BEE2E2F5E2F5F5F5E2F5E2E2BEE2E2E2E2E2E2E2E2E2E2E2E2
310
E2E2E2E2E2E2E2E2E2E2E2E2E2E2E2E2E2E2E2E2E2E2E2E2E2E2BEE2E2E2E2BEE2E2ECE2E2BEE2E2E2BEBEE2E2E2E2E2E2E2E2E2E228E2E2E228E2E2E2E2E228E2BEBEE2E2BEE2E2E2E2E2E2E2BEE2E2E2BEE228E2E2E2E2E2E2E2E2E2E2E2E2E2E2E2E2BEE2E2E228E2E2E2ECE2E2E2E2E2E2E2BEE2E2E2E2E2E2E2E2E2E2
310
E2E2E2E2E2E2E2E2E2E2E2E2E2E2E2E2E2E2E2E2E2E2E2E2E2E2E2E2BEE2E2F5E2F5F5F5E2F5E2E2BEE2E2E2E2E2E2E2E2E2E2E2E2E2E2E2E2E2E2E2E2E2E2E2E2E2E2E2E2E2E2E2E2E2E2E2E2E2E2BEE2E2E2BEE2E2E2ECE2E2E2BEBEE2BEBEE2E2E2E2E2E2E2E2E2C328E2E2E228E2E2E2E2E228E2BEBEE2E2BEE2E2E2E2
310
E2E2E2BEE2E2E2BEE228E2E2E2E228E2E2E2E2E2E2E2E2E2E2E2BEE2E2E228E2E2E2ECE2E2E2E2E2E2E2BEE2E2E2E2E2E2E2E2E2E2E2E2E2E2E2E2E2E2E2E2E2E2E2E2E2E2E2E2E2E2E2E2E2E2E2E2E2E2BEE2E2F5E2F5F5F5E2F5E2E2BEE2E2E2E2E2E2E2E2E2E2E2E2E2E2E2E2E2E2E2E2E2E2E2E2E2E2E2E2E2E2E2E2E2
310
E2E2E2E2E2BEE2E2BEE2E2E2E2ECE2E2E2E2BEE2E2BEE2E2E2E2E2E2E2E2E2C328E2E2E228E2E2E2E2E228E2BEBEE2E2BEE2E2E2E2E2E2E2BEE2E2E2BEE228E2E2E22828E2E2E2E2E2E2E2E2E2E2E2BEE2E2E2E228ECECECECECE2E2E2E2E2BEE2E2E2E2E2E2E2E2E2E2E2E2E2E2E2E2E2E2E2E2E2E2E2E2E2E2E2E2E2E2E2
310
E2E2E2E2E2E2E2BEE2E2F5E2F5F5F5E2F5E2E2BEE2E2E2E2E2E2E2E2E2E2E2E2E2E2E2E2E2E2E2E2E2E2E2E2E2E2E2E2E2E2E2E2E2E2E2E2E2E2BEE2E2BEE2E2E2E2BEBEE2E2E2E2BEE2BEE2E2E2E2E2E2E2E2E2C328E2E2E2282828BEBEBEBEBEBEBEE2E2BEE2E2E2E2E2E2E2BEE2E2E2BE28282828282828E2E2E2E2E2E2
310
E2E2E2E2E2BEE2E2E2E2ECE2BEBEBEECE2E2E2E2E2BEE2E2E2E2E2E2E2E2E2E2E2E2E2E2E2E2E2E2E2E2E2E2E2E2E2E2E2E2E2E2E2E2E2E2E2E2E2E2BEE2E2F5E2F5F5F5E2F5E2E2BEE2E2E2E2E2E2E2E2E2E2E2E2E2E2E2E2E2E2E2E2E2E2E2E2E2E2E2E2E2E2E2E2E2E2E2E2E2ECBEECECBEECECECBEECBEECECECECBEEC
310
BEECE2E2E2E2E2E2E2E2C328E2E2E228ECECBEECECECECECBEECECECECECECECECECECBEECECECEC28ECBEECE2E228E2E2E2E2E2E2E2E2E2E2ECBEECECECEC28ECBEECBEBE28ECECECECBEECE2E2E2E2E2E2E2E2E2E2E2E2E2E2E2E2E2E2E2E2E2E2E2E2E2E2E2E2E2E2E2E2E2E2E2E2E2BEE2E2F5E2F5F5F5E2F5E2E2BEE2
310
E2E2E2E2E2E2E2E2E2E2E2E2E2E2E2E2E2E2E2E2E2E2E2E2E2E2E2E2E2E2E2E2E2E2E2E2E2BEE2E2BEE2E2E2E2BEBEE2E2E2E2BEE2BEE2E2E2E2E2E2E2E2E2C328E2E2E228282828BEBEBEBEBEBEE2E2BEE2E2E2E2E2E2E2BEE2E2E2BEBEBE2828282828E2E2E2E2E2E2E2E2E2E2E2BEE2E2E2E228E2BEBEBEE228E2E2E2E2
310
BEE2E2E2E2E2E2E2E2E2E2E2E2E2E2E2E2E2E2E2E2E2E2E2E2E2E2E2E2E2E2E2E2E2E2E2E2E2E2BEE2E2F5E2F5F5F5E2F5E2E2BEE2E2E2E2E2E2E2E2E2E2E2E2E2E2E2E2E2E2E2E2E2E2E2E2E2E2E2E2E2E2E2E2E2E2E2E2E2E2BEE2E2BEE2E2E2E2ECE2E2E2E2BEE2E2BEE2E2E2E2E2E2E2E2E2C328E2E2E228E2E228E2E2
310
E2E2BEBEE2E2BEE2E2E2E2E2E2E2BEE2E2E2BEE2E228E2E22828E2E2E2E2E2E2E2E2E2E2E2BEE2E2E2E228E2E2ECE2EC2828E2E2E2BEE2E2E2E2E2E2E2E2E2E2E2E2E2E2E2E2E2E2E2E2E2E2E2E2E2E2E2E2E2E2E2E2E2E2E2E2E2E2BEE2E2F5E2F5F5F5E2F5E2E2BEE2E2E2E2E2E2E2E2E2E2E2E2E2E2E2E2E2E2E2E2E2E2
310
E2E2E2E2E2E2E2E2E2E2E2E2E2E2E2E2BEBEE2E2BEE2E2E2ECE2E2E2E2BEE2E2BEE2E2E2E2E2E2E2E2E2E228E2E2E228E2E228E2E2E2E2BEBEE2E2BEE2E2E2E2E2E2E2BEE2E2E2BEE2E228E2E2E228E2E2E2E2E2E2E2E2E2E2E2BEE2E2E2E228ECECECECE22828E2E2E2BEE2E2E2E2E2E2E2E2E2E2E2E2E2E2E2E2E2E2E2E2
310
E2E2E2E2E2E2E2E2E2E2E2E2E2E2E2E2E2E2BEE2E2F5E2F5F5F5E2F5E2E2BEE2E2E2E2E2E2E2E2E2E2E2E2E2E2E2E2E2E2E2E2E2E2E2E2E2E2E2E2E2E2E2E2E2E2E2E2E2E2BEBEBEE2E2BEE2E2ECE2E2E2BEE2E2E2BEE2E2E2E2E2E2E2E2E2E228E2E2E228E2E228E2E2E2E2BEBEE2E2BEE2E2E2E2E2E2E2BEE2E2E2BEE2E2
310
28E2E2E228E2E2E2E2E2E2E2E2E2E2E2BEE2E2E2E228E2E2ECE2E2282828E2E2BEE2E2E2E2E2E2E2E2E2E2E2E2E2E2E2E2E2E2E2E2E2E2E2E2E2E2E2E2E2E2E2E2E2E2E2E2E2E2BEE2E2F5E2F5F5F5E2F5E2E2BEE2E2E2E2E2E2E2E2E2E2E2E2E2E2E2E2E2E2E2E2E2E2E2E2E2E2E2E2E2E2E2E2E2E2E2E2E2E2ECBEE2E2E2
310
BEBEE2ECE2BEBEE2E2E2E2ECE2E2E2E2E2E2E2E2E2E228E2E2E228E2E228E2E2E2E2BEBEE2E2BEE2E2E2E2E2E2E2BEE2E2E2BEE2E228E2E2E228E2E2E2E2E2E2E2E2E2E2E2BEE2E2E2E228E2E2ECE2E228E228E2E2BEE2E2E2E2E2E2E2E2E2E2E2E2E2E2E2E2E2E2E2E2E2E2E2E2E2E2E2E2E2E2E2E2E2E2E2E2E2E2BEE2E2
310
F5E2F5F5F5E2F5E2E2BEE2E2E2E2E2E2E2E2E2E2E2E2E2E2E2E2E2E2E2E2E2E2E2E2E2E2E2E2E2E2E2E2E2E2E2E2E2E2BEBEBEE2E2E2E2BEBEBEE2E2E2E2E2BEBEE2E2E2E2E2E2E2E2E2E228282828282828282828282828BEBEBEBEBEBEBEBEBEBEBEBEBEBEBEBEE2E228E2C3E228E2E2E2E2E2E2E2E2E2E2E2BEBEBEE2E2
310
28E2E2ECE2E228E228BEBEBEE2E2E2E2E2E2E2E2E2E2E2E2E2E2E2E2E2E2E2E2E2E2E2E2E2E2E2E2E2E2E2E2E2E2E2E2E2E2BEE2E2F5E2F5F5F5E2E2E2E2BEE2E2E2E2E2E2E2E2E2E2E2E2E2E2E2E2E2E2E2E2E2E2E2E2E2E2E2E2E2E2E2E2E2E2E2E2E2E2ECBEBEE2E2E2E2E2ECE2E2BEBEBEBEBEBEE2E2E2E2E2E2E2E2E2
310
E2E2E2C3E228E2E228E2E2E2E228BEBEE2BEE2E2E2E2E2E2E2BEE2E2E2BEE2E228E2C3E228E2E2E2E2E2E2E2E2E2E2E2BEECBEE2E228E2E2ECE2E228E2BE28ECBEE2E2E2E2E2E2E2E2E2E2E2E2E2E2E2E2E2E2E2E2E2E2E2E2E2E2E2E2E2E2E2E2E2E2E2E2E2E2BEE2E2E2E2F5F5F5E2E2E2E2BEE2E2E2E2E2E2E2E2E2E2E2
310
E2E2E2E2E2E2E2E2E2E2E2E2E2E2E2E2E2E2E2E2E2E2E2E2E2E2E228BEECECBEBEBEBEBEBEBEBEBEECECBE28E2E2E2E2E2E2E2E2E2E2E2E2C3E228E2E228E2E2E2E22828BEBEBEBEBEBEBEBEBEBEBEBEBEBE28E2E228E2C3E228E2E2E2E2E2E2E2E2E2E2E2BEBE28BEBE28BEBEBEBEBE28BE28BE28BEE2E2E2E2E2E2E2E2E2
310
E2E2E2E2E2E2E2E2E2E2E2E2E2E2E2E2E2E2E2E2E2E2E2E2E2E2E2E2E2BEE2E2E2E2F5F5F5E2E2E2E2BEE2E2E2E2E2E2E2E2E2E2E2E2E2E2E2E2E2E2E2E2E2E2E2E2E2E2E2E2E2E2E2E2E2E2E2E2E2E22828E2E2E2E2E2E2ECE2E2E2E2E2E22828E2E2E2E2E2E2E2E2E2E2E2E2C3E228E2E228E2E2E2E2282828E2E2E2E2E2
310
E2E2E2E2E2E2E2E228E2E228C3C3C328E2E2E2E2E2E2E2E2E2E2E2E2E228E2E228E2E2ECE2E228E228E228E2E2E2E2E2E2E2E2E2E2E2E2E2E2E2E2E2E2E2E2E2E2E2E2E2E2E2E2E2E2E2E2E2E2E2E2E2E2E2BEE2E2E2E2F5F5F5E2E2E2E2BEE2E2E2E2E2E2E2E2E2E2E2E2E2E2E2E2E2E2E2E2E2E2E2E2E2E2E2E2E2E2E2E2
310
E2E2E2E2E2E2282828282828C3C3C3C3C3282828282828E2E2E2E2E2E2E2E2E2E2E2E2C3C328E2E22828C3282828282828C3C3E2E2E2E2E2E2E2E2E2E228E2E228E2C3C328E2E2E2E2E2E2E2E2E2E2E2E2E228E2E2C3C3C3C3C32828E228E2282828282828E2E2E2E2E2E2E2E2E2E2E2E2E2E2E2E2E2E2E2E2E2E2E2E2E2E2
310
E2E2E2E2E2E2E2E2BEE2E2E2E2F5F5F5E2E2E2E2BEE2E2E2E2E2E2E2E2E2E2E2E2E2E2E2E2E2E2E2E2E2E2E2E2E2E2E2E2E2E2E2E2E2E2E2E2E2E22828E2E2E2C3C3C3C3C3C3E2E2E2E22828E2E2E2E2E2E2E2E2E2E2E2E2E2C328E2E228E2C3E2E2282828E2C3C3E2E2E2E2E2E2E2E2E2E228E2E228E2C3C328E2E2E2E2E2
310
E2E2E2E2E2E2E2E228E2E2C3C3C3C3C3E228E228E2E2C3C3C3C3E2E2E2E2E2E2E2E2E2E2E2E2E2E2E2E2E2E2E2E2E2E2E2E2E2E2E2E2E2E2E2E2E2E2E2BEE2E2E2E2F5F5F5E2E2E2E2BEE2E2E2E2E2E2E2E2E2E2E2E2E2E2E2E2E2E2E2E2E2E2E2E2E2E2E2E2E2E2E2E2E2E2E2E2E2E228282828282828C3C3C32828282828
310
2828E2E2E2E2E2E2E2E2E2E2E2E2E2C328E2E228C3C32828282828282828C3C3C3C328282828282828C32828E2E2E228E2E2E2E2E2E2E2E2E2E2E2E2E22828282828C3C32828282828E2E2E2E2E2E2E2E2E2E2E2E2E2E2E2E2E2E2E2E2E2E2E2E2E2E2E2E2E2E2E2E2E2E2E2E2E2E2E2E2E2BEE2E2E2E2F5F5F5E2E2E2E2BE
310
E2E2E2E2E2E2E2E2E2E2E2E2E2E2E2E2E2E2E2E2E2E2E2E2E2E2E2E2E2E2E2E2E2E2E2E2E2E22828E2E2E2E2C3C3C3C3E2E2E2E2E2E228E2E2E2E2E2E2E2E2E2E2E2E2E2E228E2E228C3C3C3C3E228E2E2E2E2C3C3C3C3E2E2E2E2E2E228C3C328E2E2E2E2E2E2E2E2E2E2E2E2E2E2E2E2E228E2E2E2C3C3C3E2E2E2E228E2
310
E2E2E2E2E2E2E2E2E2E2E2E2E2E2E2E2E2E2E2E2E2E2E2E2E2E2E2E2E2E2E2E2E2E2E2E2E2E2E2E2BEE2E2E2E2F5F5F5E2E2E2E2BEE2E2E2E2E2E2E2E2E2E2E2E2E2E2E2E2E2E2E2E2E2E2E2E2E2E2E2E2E2E2E2E2E2E2E2E2E2E2E2E2E2E2E2E2C3C3E2E2E2E2E2E2E2E2E2E2E2E2E2E2E2E2E2E2E2E2E2E2E2E2E2E2E2E2
310
E2E2E2E2E2E2E2E2E2E2E2E2E2E2E2E2E2E2E2E2E2E2E2E2E2E2E2E2E2E2E2E2E2E2E2E2E2E2E2E2E2E2E2E2E2E2E2E2E2E2E2E2E2E2E2E2E2E2E2E2E2E2E2E2E2E2E2E2E2E2E2E2E2E2E2E2E2E2E2E2E2E2E2E2E2E2E2E2E2E2E2E2E2BEE2E2E2E2F5F5F5E2E2E2E2BEE2E2E2E2E2E2E2E2E2E2E2E2E2E2E2E2E2E2E2E2E2
310
E2E2E2E2E2E2E2E2E2E2E2E2E2E2E2E22828282828282828282828282828282828282828E2E2E2E2E2E2E2E2E2E2E2E2E2E2E2E2E2E2E2E2E2E2E2E2E22828282828282828E2E2E2E2E2E2E2E2E2E2E2E2E2E2E2E2E2E2E2E2E2E2E2E2E2E2282828282828282828E2E2E2E2E2E2E2E2E2E2E2E2E2E2E2E2E2E2E2E2E2E2E2
310
E2E2E2E2E2E2E2E2E2E2E2E2E2E2E2E2E2E2E2BEE2E2E2E2F5F5F5E2F5E2E2BEE2E2E2E2E2E2E2E2E2E2E2E2E2E2E2E2E2E2E2E2E2E2E2E2E2E2E2E2E2E2E2E2E2E2E2E2E22828282828282828282828282828282828282828E2E2E2E2E2E2E2E2E2E2E2E2E2E2E2E2E2E2E2E2E2E2E2E2E22828282828282828E2E2E2E2E2
310
E2E2E2E2E2E2E2E2E2E2E2E2E2E2E2E2E2E2E2E2E2282828282828282828E2E2E2E2E2E2E2E2E2E2E2E2E2E2E2E2E2E2E2E2E2E2E2E2E2E2E2E2E2E2E2E2E2E2E2E2E2E2E2E2E2E2BEE2E2F5E2F5F5F5E2F5E2E2BEE2E2E2E2E2E2E2E2E2E2E2E2E2E2E2E2E2E2E2E2E2E2E2E2E2E2E2E2E2E2E2E2E2E2E2E2E2E2E2E2E2E2
310
E2E2E2E2E2E2E2E2E2E2E2E2E2E2E2E2E2E2E2E2E2E2E2E2E2E2E2E2E2E2E2E2E2E2E2E2E2E2E2E2E2E2E2E2E2E2E2E2E2E2E2E2E2E2E2E2E2E2E2E2E2E2E2E2E2E2E2E2E2E2E2E2E2E2E2E2E2E2E2E2E2E2E2E2E2E2E2E2E2E2E2E2E2E2E2E2E2E2E2E2E2E2E2E2E2E2E2E2E2E2E2E2E2E2E2E2E2E2E2E2E2E2E2E2E2BEE2
310
E2F5E2F5F5F5E2F5E2E2BEE2E2E2E2E2E2E2E2E2E2E2E2E2E2E2E2E2E2E2E2E2E2E2E2E2E2E2E2E2E2E2E2E2E2E2E2E2E2E2E2E2E2E2E2E2E2E2E2E2E2E2E2E2E2E2E2E2E2E2E2E2E2E2E2E2E2E2E2E2E2E2E2E2E2E2E2E2E2E2E2E2E2E2E2E2E2E2E2E2E2E2E2E2E2E2E2E2E2E2E2E2E2E2E2E2E2E2E2E2E2E2E2E2E2E2E2
310
E2E2E2E2E2E2E2E2E2E2E2E2E2E2E2E2E2E2E2E2E2E2E2E2E2E2E2E2E2E2E2E2E2E2E2E2E2E2E2E2E2E2E2E2E2E2E2E2E2E2E2BEE2E2F5E2F5F5F5E2F5E2E2BEE2E2E2E2E2E2E2E2E2E2E2E2E2E2E2E2E2E2E2E2E2E2E2E2E2E2E2E2E2E2E2E2E2E2E2E2E2E2E2E2E2E2E2E2E2E2E2E2E2E2E2E2E2E2E2E2E2E2E2E2E2E2E2
310
E2E2E2E2E2E2E2E2E2E2E2E2E2E2E2E2E2E2E2E2E2E2E2E2E2E2E2E2E2E2E2E2E2E2E2E2E2E2E2E2E2E2E2E2E2E2E2E2E2E2E2E2E2E2E2E2E2E2E2E2E2E2E2E2E2E2E2E2E2E2E2E2E2E2E2E2E2E2E2E2E2E2E2E2E2E2E2E2E2E2E2E2E2E2E2E2E2E2E2E2E2E2E2E2BEE2E2F5E2F5F5F5E2F5E2E2BEE2E2E2E2E2E2E2E2E2E2
310
E2E2E2E2E2E2E2E2E2E2E2E2E2E2E2E2E2E2E2E2E2E2E2E2E2E2E2E2E2E2E2E2E2E2E2E2E2E2E2E2E2E2E2E2E2E2E2E2E2E2E2E2E2E2E2E2E2E2E2E2E2E2E2E2E2E2E2E2E2E2E2E2E2E2E2E2E2E2E2E2E2E2E2E2E2E2E2E2E2E2E2E2E2E2E2E2E2E2E2E2E2E2E2E2E2E2E2E2E2E2E2E2E2E2E2E2E2E2E2E2E2E2E2E2E2E2E2
310
E2E2E2E2E2E2E2E2E2E2E2E2E2E2E2E2E2E2E2E2E2E2E2E2E2E2E2E2E2E2BEE2E2F5E2F5F5F5E2F5E2E2BEBEBEBEBEBEBEBEBEBEBEBEBEBEBEBEBEBEBEBEBEBEBEBEBEBEBEBEBEBEBEBEBEBEBEBEBEBEBEBEBEBEBEBEBEBEBEBEBEBEBEBEBEBEBEBEBEBEBEBEBEBEBEBEBEBEBEBEBEBEBEBEBEBEBEBEBEBEBEBEBEBEBEBEBE
310
BEBEBEBEBEBEBEBEBEBEBEBEBEBEBEBEBEBEBEBEBEBEBEBEBEBEBEBEBEBEBEBEBEBEBEBEBEBEBEBEBEBEBEBEBEBEBEBEBEBEBEBEBEBEBEBEBEBEBEBEBEBEBEBEBEBEBEBEBEBEBEBEBEBEBEBEBEBEBEBEBEBEBEBEE2E2F5E2F5F5F5E2F5E2E2E2E2E2E2E2E2E2E2E2E2E2E2E2E2E2E2E2E2E2E2E2E2E2E2E2E2E2E2E2E2E2E2
310
E2E2E2E2E2E2E2E2E2E2E2E2E2E2E2E2E2E2E2E2E2E2E2E2E2E2E2E2E2E2E2E2E2E2E2E2E2E2E2E2E2E2E2E2E2E2E2E2E2E2E2E2E2E2E2E2E2E2E2E2E2E2E2E2E2E2E2E2E2E2E2E2E2E2E2E2E2E2E2E2E2E2E2E2E2E2E2E2E2E2E2E2E2E2E2E2E2E2E2E2E2E2E2E2E2E2E2E2E2E2E2E2E2E2E2E2E2E2E2E2E2E2E2E2E2E2E2
310
E2E2E2E2E2E2E2E2E2E2E2E2F5E2F5F5F5E2F5F5F5F5F5F5F5F5E2E2E2E2E2E2E2E2E2F5F5F5F5F5F5F5F5F5F5F5F5F5F5F5F5E2E2E2E2E2E2E2E2E2F5F5F5F5F5F5F5F5F5F5F5F5F5F5F5F5E2E2E2E2E2E2E2E2E2F5F5F5F5F5F5F5F5F5F5F5F5F5F5F5F5E2E2E2E2E2E2E2E2E2F5F5F5F5F5F5F5F5F5F5F5F5F5F5F5F5E2
310
E2E2E2E2E2E2E2E2F5F5F5F5F5F5F5F5F5F5F5F5F5F5F5F5E2E2E2E2E2E2E2E2E2F5F5F5F5F5F5F5F5F5F5F5F5F5F5F5F5E2E2E2E2E2E2E2E2E2F5F5F5F5F5F5F5F5E2F5F5F5E2E2E2E2E2E2E2E2E2E2E2E2E2E2E2E2E2E2E2E2E2E2E2E2E2E2E2E2E2E2E2E2E2E2E2E2E2E2E2E2E2E2E2E2E2E2E2E2E2E2E2E2E2E2E2E2E2
310
E2E2E2E2E2E2E2E2E2E2E2E2E2E2E2E2E2E2E2E2E2E2E2E2E2E2E2E2E2E2E2E2E2E2E2E2E2E2E2E2E2E2E2E2E2E2E2E2E2E2E2E2E2E2E2E2E2E2E2E2E2E2E2E2E2E2E2E2E2E2E2E2E2E2E2E2E2E2E2E2E2E2E2E2E2E2E2E2E2E2E2E2E2E2E2E2E2E2E2E2E2E2E2E2E2E2E2E2E2E2E2E2E2E2E2E2E2E2E2E2F5EFF5F5F5F5F5
310
F5F5F5F5F5F5F5F5F5F5F5F5F5F5F5F5F5F5F5F5F5F5F5F5F5F5F5F5F5F5F5F5F5F5F5F5F5F5F5F5F5F5F5F5F5F5F5F5F5F5F5F5F5F5F5F5F5F5F5F5F5F5F5F5F5F5F5F5F5F5F5F5F5F5F5F5F5F5F5F5F5F5F5F5F5F5F5F5F5F5F5F5F5F5F5F5F5F5F5F5F5F5F5F5F5F5F5F5F5F5F5F5F5F5F5F5F5F5F5F5F5F5F5F5F5F5F5
310
F5F5F5F5F5F5F5F5F5F5F5F5F5F5F5F5F5F5F5F5F5F5F5F5F5F5F5F5F5F5F5F5F5F5F5F5F5F5F5F5F5F5F5F5F5F5F5EF
  0
XRECORD
  5
5DFD
102
{ACAD_REACTORS
330
5DFC
102
}
330
5DFC
100
AcDbXrecord
280
     1
102
SHADEPLOT
 70
     0
102
SHADEPLOTRESLEVEL
 70
     2
102
SHADEPLOTCUSTOMDPI
 70
   300
  0
ENDSEC
  0
EOF
