  0
SECTION
  2
HEADER
  9
$ACADVER
  1
AC1015
  9
$ACADMAINTVER
 70
    20
  9
$DWGCODEPAGE
  3
ANSI_1252
  9
$INSBASE
 10
0.0
 20
0.0
 30
0.0
  9
$EXTMIN
 10
835.6681702897912
 20
613.0041337021545
 30
0.0
  9
$EXTMAX
 10
1192.306981154726
 20
733.6740539515763
 30
272.0000000000001
  9
$LIMMIN
 10
0.0
 20
0.0
  9
$LIMMAX
 10
420.0
 20
297.0
  9
$ORTHOMODE
 70
     1
  9
$REGENMODE
 70
     1
  9
$FILLMODE
 70
     1
  9
$QTEXTMODE
 70
     0
  9
$MIRRTEXT
 70
     1
  9
$LTSCALE
 40
1.0
  9
$ATTMODE
 70
     1
  9
$TEXTSIZE
 40
3.0
  9
$TRACEWID
 40
1.0
  9
$TEXTSTYLE
  7
ROMANS
  9
$CLAYER
  8
DIM
  9
$CELTYPE
  6
ACISOTGL
  9
$CECOLOR
 62
   256
  9
$CELTSCALE
 40
1.0
  9
$DISPSILH
 70
     0
  9
$DIMSCALE
 40
1.0
  9
$DIMASZ
 40
3.0
  9
$DIMEXO
 40
1.0
  9
$DIMDLI
 40
1.0
  9
$DIMRND
 40
0.0
  9
$DIMDLE
 40
0.0
  9
$DIMEXE
 40
1.0
  9
$DIMTP
 40
0.0
  9
$DIMTM
 40
0.000000001
  9
$DIMTXT
 40
3.0
  9
$DIMCEN
 40
-0.05
  9
$DIMTSZ
 40
0.0
  9
$DIMTOL
 70
     0
  9
$DIMLIM
 70
     0
  9
$DIMTIH
 70
     0
  9
$DIMTOH
 70
     0
  9
$DIMSE1
 70
     0
  9
$DIMSE2
 70
     0
  9
$DIMTAD
 70
     1
  9
$DIMZIN
 70
     8
  9
$DIMBLK
  1

  9
$DIMASO
 70
     1
  9
$DIMSHO
 70
     1
  9
$DIMPOST
  1

  9
$DIMAPOST
  1

  9
$DIMALT
 70
     0
  9
$DIMALTD
 70
     2
  9
$DIMALTF
 40
25.4
  9
$DIMLFAC
 40
1.0
  9
$DIMTOFL
 70
     1
  9
$DIMTVP
 40
5.0
  9
$DIMTIX
 70
     0
  9
$DIMSOXD
 70
     0
  9
$DIMSAH
 70
     0
  9
$DIMBLK1
  1

  9
$DIMBLK2
  1

  9
$DIMSTYLE
  2
STANDARD
  9
$DIMCLRD
 70
     3
  9
$DIMCLRE
 70
     3
  9
$DIMCLRT
 70
     6
  9
$DIMTFAC
 40
0.8
  9
$DIMGAP
 40
1.0
  9
$DIMJUST
 70
     0
  9
$DIMSD1
 70
     0
  9
$DIMSD2
 70
     0
  9
$DIMTOLJ
 70
     1
  9
$DIMTZIN
 70
     8
  9
$DIMALTZ
 70
     0
  9
$DIMALTTZ
 70
     0
  9
$DIMUPT
 70
     0
  9
$DIMDEC
 70
     2
  9
$DIMTDEC
 70
     2
  9
$DIMALTU
 70
     2
  9
$DIMALTTD
 70
     2
  9
$DIMTXSTY
  7
STANDARD
  9
$DIMAUNIT
 70
     0
  9
$DIMADEC
 70
     0
  9
$DIMALTRND
 40
0.0
  9
$DIMAZIN
 70
     0
  9
$DIMDSEP
 70
    46
  9
$DIMATFIT
 70
     3
  9
$DIMFRAC
 70
     0
  9
$DIMLDRBLK
  1

  9
$DIMLUNIT
 70
     2
  9
$DIMLWD
 70
    -1
  9
$DIMLWE
 70
    -2
  9
$DIMTMOVE
 70
     0
  9
$LUNITS
 70
     2
  9
$LUPREC
 70
     2
  9
$SKETCHINC
 40
1.0
  9
$FILLETRAD
 40
1.5
  9
$AUNITS
 70
     0
  9
$AUPREC
 70
     0
  9
$MENU
  1
.
  9
$ELEVATION
 40
0.0
  9
$PELEVATION
 40
0.0
  9
$THICKNESS
 40
0.0
  9
$LIMCHECK
 70
     0
  9
$CHAMFERA
 40
2.5
  9
$CHAMFERB
 40
2.5
  9
$CHAMFERC
 40
20.0
  9
$CHAMFERD
 40
0.0
  9
$SKPOLY
 70
     0
  9
$TDCREATE
 40
2453787.394483275
  9
$TDUCREATE
 40
2453787.352816609
  9
$TDUPDATE
 40
2454130.502397998
  9
$TDUUPDATE
 40
2454130.460731331
  9
$TDINDWG
 40
1.5002765972
  9
$TDUSRTIMER
 40
1.4994245139
  9
$USRTIMER
 70
     1
  9
$ANGBASE
 50
0.0
  9
$ANGDIR
 70
     0
  9
$PDMODE
 70
     0
  9
$PDSIZE
 40
0.0
  9
$PLINEWID
 40
0.0
  9
$SPLFRAME
 70
     0
  9
$SPLINETYPE
 70
     6
  9
$SPLINESEGS
 70
     8
  9
$HANDSEED
  5
7F2C
  9
$SURFTAB1
 70
     6
  9
$SURFTAB2
 70
     6
  9
$SURFTYPE
 70
     6
  9
$SURFU
 70
     6
  9
$SURFV
 70
     6
  9
$UCSBASE
  2

  9
$UCSNAME
  2

  9
$UCSORG
 10
0.0
 20
0.0
 30
0.0
  9
$UCSXDIR
 10
1.0
 20
0.0
 30
0.0
  9
$UCSYDIR
 10
0.0
 20
1.0
 30
0.0
  9
$UCSORTHOREF
  2

  9
$UCSORTHOVIEW
 70
     0
  9
$UCSORGTOP
 10
0.0
 20
0.0
 30
0.0
  9
$UCSORGBOTTOM
 10
0.0
 20
0.0
 30
0.0
  9
$UCSORGLEFT
 10
0.0
 20
0.0
 30
0.0
  9
$UCSORGRIGHT
 10
0.0
 20
0.0
 30
0.0
  9
$UCSORGFRONT
 10
0.0
 20
0.0
 30
0.0
  9
$UCSORGBACK
 10
0.0
 20
0.0
 30
0.0
  9
$PUCSBASE
  2

  9
$PUCSNAME
  2

  9
$PUCSORG
 10
0.0
 20
0.0
 30
0.0
  9
$PUCSXDIR
 10
1.0
 20
0.0
 30
0.0
  9
$PUCSYDIR
 10
0.0
 20
1.0
 30
0.0
  9
$PUCSORTHOREF
  2

  9
$PUCSORTHOVIEW
 70
     0
  9
$PUCSORGTOP
 10
0.0
 20
0.0
 30
0.0
  9
$PUCSORGBOTTOM
 10
0.0
 20
0.0
 30
0.0
  9
$PUCSORGLEFT
 10
0.0
 20
0.0
 30
0.0
  9
$PUCSORGRIGHT
 10
0.0
 20
0.0
 30
0.0
  9
$PUCSORGFRONT
 10
0.0
 20
0.0
 30
0.0
  9
$PUCSORGBACK
 10
0.0
 20
0.0
 30
0.0
  9
$USERI1
 70
     0
  9
$USERI2
 70
     0
  9
$USERI3
 70
     0
  9
$USERI4
 70
     0
  9
$USERI5
 70
     0
  9
$USERR1
 40
0.0
  9
$USERR2
 40
0.0
  9
$USERR3
 40
0.0
  9
$USERR4
 40
0.0
  9
$USERR5
 40
0.0
  9
$WORLDVIEW
 70
     1
  9
$SHADEDGE
 70
     3
  9
$SHADEDIF
 70
    70
  9
$TILEMODE
 70
     0
  9
$MAXACTVP
 70
    64
  9
$PINSBASE
 10
0.0
 20
0.0
 30
0.0
  9
$PLIMCHECK
 70
     0
  9
$PEXTMIN
 10
-0.0018808509735209
 20
-0.0090717929824109
 30
-0.0000000349181948
  9
$PEXTMAX
 10
282.0511373439566
 20
196.0436773232919
 30
0.0000000814935746
  9
$PLIMMIN
 10
-7.470123421553637
 20
-6.971932858213506
  9
$PLIMMAX
 10
289.5193785315714
 20
203.0225587189349
  9
$UNITMODE
 70
     0
  9
$VISRETAIN
 70
     1
  9
$PLINEGEN
 70
     0
  9
$PSLTSCALE
 70
     1
  9
$TREEDEPTH
 70
  3020
  9
$CMLSTYLE
  2
Standard
  9
$CMLJUST
 70
     0
  9
$CMLSCALE
 40
20.0
  9
$PROXYGRAPHICS
 70
     1
  9
$MEASUREMENT
 70
     1
  9
$CELWEIGHT
370
    -1
  9
$ENDCAPS
280
     0
  9
$JOINSTYLE
280
     0
  9
$LWDISPLAY
290
     0
  9
$INSUNITS
 70
     4
  9
$HYPERLINKBASE
  1

  9
$STYLESHEET
  1

  9
$XEDIT
290
     1
  9
$CEPSNTYPE
380
     0
  9
$PSTYLEMODE
290
     1
  9
$FINGERPRINTGUID
  2
{65A8C6A1-B973-4B90-93E8-5CEEA7DDEAA7}
  9
$VERSIONGUID
  2
{91F15C67-A769-43E2-8B73-B19FF717EF3F}
  9
$EXTNAMES
290
     1
  9
$PSVPSCALE
 40
1.0
  9
$OLESTARTUP
290
     0
  0
ENDSEC
  0
SECTION
  2
CLASSES
  0
CLASS
  1
ACDBDICTIONARYWDFLT
  2
AcDbDictionaryWithDefault
  3
ObjectDBX Classes
 90
        0
280
     0
281
     0
  0
CLASS
  1
ACDBPLACEHOLDER
  2
AcDbPlaceHolder
  3
ObjectDBX Classes
 90
        0
280
     0
281
     0
  0
CLASS
  1
LAYOUT
  2
AcDbLayout
  3
ObjectDBX Classes
 90
        0
280
     0
281
     0
  0
CLASS
  1
ACME_DOCUMENT
  2
AcMeDbDoc
  3
AcMeServices
 90
        0
280
     0
281
     0
  0
CLASS
  1
AMGSETTINGSOBJ
  2
AmgSettingsObj
  3
"AcadM|Product Description: AutoCAD Mechanical 2000|Company: Autodesk"
 90
        0
280
     0
281
     0
  0
CLASS
  1
ACMESCOPE
  2
AcMeScope
  3
AcMeServices
 90
        0
280
     0
281
     0
  0
CLASS
  1
ACMECOMMANDHISTORY
  2
AcMeCommandHistory
  3
AcMeServices
 90
        0
280
     0
281
     0
  0
CLASS
  1
ACIMSYSVARMAN
  2
AcImSysVarManager
  3
AcMeServices
 90
        0
280
     0
281
     0
  0
CLASS
  1
ACIMREALSYSVAR
  2
AcImRealSysVar
  3
AcMeServices
 90
        0
280
     0
281
     0
  0
CLASS
  1
ACIMINTSYSVAR
  2
AcImIntSysVar
  3
AcMeServices
 90
        0
280
     0
281
     0
  0
CLASS
  1
ACMEDRAWINGMAN
  2
AcMeDrawingMan
  3
AcMeServices
 90
        0
280
     0
281
     0
  0
CLASS
  1
ACMEVIEW
  2
AcMeView
  3
AcMeServices
 90
        0
280
     0
281
     0
  0
CLASS
  1
ACDBENTITYCACHE
  2
AcMeEntityCache
  3
AcMeServices
 90
        0
280
     0
281
     0
  0
CLASS
  1
GSMANAGER
  2
AcMeGSManager
  3
AcMeServices
 90
        0
280
     0
281
     0
  0
CLASS
  1
AMDTINTERNALREACTOR
  2
AmdtInternalReactor
  3
AcMeServices
 90
        0
280
     0
281
     0
  0
CLASS
  1
ACMESTATEMGR
  2
AcMeStateMgr
  3
AcMeServices
 90
        0
280
     0
281
     0
  0
CLASS
  1
ACGREFMASTER
  2
AcGrefMaster
  3
AcAttribServices
 90
        0
280
     0
281
     0
  0
CLASS
  1
ACME_DATABASE
  2
AcMeDbDatabase
  3
AcMeServices
 90
        0
280
     0
281
     0
  0
CLASS
  1
ACRFINSADJUSTERMGR
  2
AcRfInsAdjusterMgr
  3
AcMeServices
 90
        0
280
     0
281
     0
  0
CLASS
  1
ACGREFACADMASTER
  2
AcGrefacadMaster
  3
AcGrefServices
 90
        0
280
     0
281
     0
  0
CLASS
  1
AMIMASTER
  2
AmiMaster
  3
AmiServices
 90
        0
280
     0
281
     0
  0
CLASS
  1
ACMDATADICTIONARY
  2
AcmDataDictionary
  3
"AcmSymBB|Product Description: AutoCAD Mechanical 2004 DX|Company: Autodesk"
 90
        0
280
     0
281
     0
  0
CLASS
  1
ACMDATAENTRYBLOCK
  2
AcmDataEntryBlock
  3
"AcmSymBB|Product Description: AutoCAD Mechanical 2004 DX|Company: Autodesk"
 90
        0
280
     0
281
     0
  0
CLASS
  1
ACIMSTRSYSVAR
  2
AcImStrSysVar
  3
AcMeServices
 90
        0
280
     0
281
     0
  0
CLASS
  1
ACMSTANDARDISO
  2
AcmStandardISO
  3
"Amdt_StdImp|Product Description: AutoCAD Mechanical 2004 DX|Company: Autodesk"
 90
        0
280
     0
281
     0
  0
CLASS
  1
AMGOBJPROPCFG
  2
AmgObjPropCfg
  3
"AmgLay|Product Description: AutoCAD Mechanical 2000|Company: Autodesk"
 90
        1
280
     0
281
     0
  0
CLASS
  1
AMDTEDGESTANDARDISO
  2
AmdtEdgeStdISO
  3
"Amdt_StdImp|Product Description: AutoCAD Mechanical 2004 DX|Company: Autodesk"
 90
        0
280
     0
281
     0
  0
CLASS
  1
ACMSURFSTANDARDISO
  2
AcmSurfTextStdISO
  3
"Amdt_StdImp|Product Description: AutoCAD Mechanical 2004 DX|Company: Autodesk"
 90
        0
280
     0
281
     0
  0
CLASS
  1
ACMFCFSTANDARDISO
  2
AcmFCFStdISO
  3
"Amdt_StdImp|Product Description: AutoCAD Mechanical 2004 DX|Company: Autodesk"
 90
        0
280
     0
281
     0
  0
CLASS
  1
ACMWELDSTANDARDISO
  2
AcmWeldingStdISO
  3
"Amdt_StdImp|Product Description: AutoCAD Mechanical 2004 DX|Company: Autodesk"
 90
        0
280
     0
281
     0
  0
CLASS
  1
ACMIDSTANDARDISO
  2
AcmIdStdISO
  3
"Amdt_StdImp|Product Description: AutoCAD Mechanical 2004 DX|Company: Autodesk"
 90
        0
280
     0
281
     0
  0
CLASS
  1
ACMDATUMSTANDARDISO
  2
AcmDatumStdISO
  3
"Amdt_StdImp|Product Description: AutoCAD Mechanical 2004 DX|Company: Autodesk"
 90
        0
280
     0
281
     0
  0
CLASS
  1
ACMBOMSTANDARDISO
  2
AcmBOMStdISO
  3
"Amdt_StdImp|Product Description: AutoCAD Mechanical 2004 DX|Company: Autodesk"
 90
        0
280
     0
281
     0
  0
CLASS
  1
ACMDETAILSTANDARDISO
  2
AmdtDetailSymStdISO
  3
"Amdt_StdImp|Product Description: AutoCAD Mechanical 2004 DX|Company: Autodesk"
 90
        0
280
     0
281
     0
  0
CLASS
  1
ACMSECTIONSTANDARDISO
  2
AmdtSectionSymStdISO
  3
"Amdt_StdImp|Product Description: AutoCAD Mechanical 2004 DX|Company: Autodesk"
 90
        0
280
     0
281
     0
  0
CLASS
  1
ACMCENTERLINESTANDARDISO
  2
AmdtCenterLineStdISO
  3
"Amdt_StdImp|Product Description: AutoCAD Mechanical 2004 DX|Company: Autodesk"
 90
        0
280
     0
281
     0
  0
CLASS
  1
ACMNOTESTANDARDISO
  2
AmdtNoteStdISO
  3
"Amdt_StdImp|Product Description: AutoCAD Mechanical 2004 DX|Company: Autodesk"
 90
        0
280
     0
281
     0
  0
CLASS
  1
ACAMGLAYSTD
  2
AcAmgLayStd
  3
"AcAmgLayStd|Product Description: AutoCAD Mechanical 2000|Company: Autodesk"
 90
        0
280
     0
281
     0
  0
CLASS
  1
ACAMGDIMSTD
  2
AcAmgDimStd
  3
"AcAmgDimStd|Product Description: AutoCAD Mechanical 2000|Company: Autodesk"
 90
        0
280
     0
281
     0
  0
CLASS
  1
ACAMGHOLECHARTSTDISO
  2
AcAmgHoleChartStdISO
  3
ACMSYMBB_MODULE_NAME
 90
        0
280
     0
281
     0
  0
CLASS
  1
ACAMGTITLESTD
  2
AcAmgTitleStd
  3
"TITLEAPP"
 90
        0
280
     0
281
     0
  0
CLASS
  1
LAYER_INDEX
  2
AcDbLayerIndex
  3
ObjectDBX Classes
 90
    32768
280
     0
281
     0
  0
CLASS
  1
IDBUFFER
  2
AcDbIdBuffer
  3
ObjectDBX Classes
 90
    32768
280
     0
281
     0
  0
CLASS
  1
DICTIONARYVAR
  2
AcDbDictionaryVar
  3
ObjectDBX Classes
 90
        0
280
     0
281
     0
  0
CLASS
  1
AM_DRAWING_MGR
  2
AcDmDwgMgr
  3
AcMechDwgViewMgmt
 90
        0
280
     0
281
     0
  0
CLASS
  1
AM_DWG_DOCUMENT
  2
AcDmDwgDocument
  3
AcMechDwgViewMgmt
 90
        0
280
     0
281
     0
  0
CLASS
  1
AM_DWG_SHEET
  2
AcDmSheet
  3
AcMechDwgViewMgmt
 90
        0
280
     0
281
     0
  0
CLASS
  1
AM_VIEWDIMPARMAP
  2
AcDmViewDimParMap
  3
AcMechDwgViewMgmt
 90
        0
280
     0
281
     0
  0
CLASS
  1
AM_DWGMGR_NAME
  2
AcDmDwgMgrName
  3
AcMechDwgViewMgmt
 90
        0
280
     0
281
     0
  0
CLASS
  1
AMDTMENUSTATEMGR
  2
AmdtMenuStateMgr
  3
McadcomServices
 90
        0
280
     0
281
     0
  0
CLASS
  1
AMDTMCOMMENUSTATE
  2
AmdtMcomMenuState
  3
McadcomServices
 90
        0
280
     0
281
     0
  0
CLASS
  1
MAPIAMMOUDLE
  2
MApiAmModule
  3
MApiAmServices
 90
        0
280
     0
281
     0
  0
CLASS
  1
AMDTADMENUSTATE
  2
AmdtAdMenuState
  3
DesignerServices
 90
        0
280
     0
281
     0
  0
CLASS
  1
ADAPPL
  2
AcAdAppl
  3
DesignerServices
 90
        0
280
     0
281
     0
  0
CLASS
  1
DEPMGR
  2
AcAdDepMgr
  3
DesignerServices
 90
        0
280
     0
281
     0
  0
CLASS
  1
PARAMMGR
  2
AcAdParamMgr
  3
DesignerServices
 90
        0
280
     0
281
     0
  0
CLASS
  1
PARAMSCOPE
  2
AcAdParamScope
  3
DesignerServices
 90
        0
280
     0
281
     0
  0
CLASS
  1
NAMEDAPPL
  2
AcAdNamedAppl
  3
DesignerServices
 90
        0
280
     0
281
     0
  0
CLASS
  1
AMDTDMMENUSTATE
  2
AmdtDmMenuState
  3
AcMechDwgViewMgmt
 90
        0
280
     0
281
     0
  0
CLASS
  1
AMDTAMMENUSTATE
  2
AmdtAmMenuState
  3
DesignerAssemblies
 90
        0
280
     0
281
     0
  0
CLASS
  1
ACAMPROJECT
  2
AcAmProject
  3
DesignerAssemblies
 90
        0
280
     0
281
     0
  0
CLASS
  1
ACAMGRCOMPDEF
  2
AcAmGrCompDef
  3
DesignerAssemblies
 90
        0
280
     0
281
     0
  0
CLASS
  1
ACCMCONTEXT
  2
AcCmContext
  3
DesignerAssemblies
 90
        0
280
     0
281
     0
  0
CLASS
  1
ACAMCOMPDEF
  2
AcAmCompDef
  3
DesignerAssemblies
 90
        0
280
     0
281
     0
  0
CLASS
  1
ACAMCOMPDEFMGR
  2
AcAmCompDefMgr
  3
DesignerAssemblies
 90
        0
280
     0
281
     0
  0
CLASS
  1
AMCONTEXTMGR
  2
AcAmContextMgr
  3
DesignerAssemblies
 90
        0
280
     0
281
     0
  0
CLASS
  1
ACAMCONTEXTMODELER
  2
AcAmContextModeler
  3
DesignerAssemblies
 90
        0
280
     0
281
     0
  0
CLASS
  1
ACMTHREADLINESTANDARDISO
  2
AmdtThreadLineStdISO
  3
"Amdt_StdImp|Product Description: AutoCAD Mechanical 2004 DX|Company: Autodesk"
 90
        0
280
     0
281
     0
  0
CLASS
  1
CATALOGSTATE
  2
AcAmCatalogState
  3
DesignerAssemblies
 90
        0
280
     0
281
     0
  0
CLASS
  1
ACAMGRCOMPDEFSET
  2
AcAmGrCompDefSet
  3
DesignerAssemblies
 90
        0
280
     0
281
     0
  0
CLASS
  1
AMDTBROWSERDBTAB
  2
AmdtBrowserDbTab
  3
McadcomServices
 90
        0
280
     0
281
     0
  0
CLASS
  1
CBROWSERAPPOBJECT
  2
CBrowserAppObject
  3
McadcomServices
 90
        0
280
     0
281
     0
  0
CLASS
  1
DM_PLACEHOLDER
  2
AcDmSelsetPlaceholder
  3
AcMechDwgViewMgmt
 90
        0
280
     0
281
     0
  0
CLASS
  1
TABLESTYLE
  2
AcDbTableStyle
  3
ObjectDBX Classes
 90
     2047
280
     0
281
     0
  0
CLASS
  1
VAACXREFPANELOBJECT
  2
VaAcXREFPanelObject
  3
VAAC_ADDIN
 90
    32768
280
     0
281
     0
  0
CLASS
  1
VAACIMAGEINVENTORY
  2
VaAcImageInventory
  3
VAAC_ADDIN
 90
    32768
280
     0
281
     0
  0
CLASS
  1
AMDTNOTETEMPLATEDB
  2
AmdtNoteTemplateDB
  3
AMDT_STDIMP_MODULE_NAME
 90
        0
280
     0
281
     0
  0
CLASS
  1
ACAMGFILTERDAT
  2
AcAmgFilterDat
  3
"AcadM|Product Description: AutoCAD Mechanical 2000|Company: Autodesk"
 90
        0
280
     0
281
     0
  0
CLASS
  1
ACMBOM
  2
AcmBom
  3
"AcmSymBB|Product Description: AutoCAD Mechanical 2004 DX|Company: Autodesk"
 90
    32768
280
     0
281
     0
  0
CLASS
  1
AMDTFORMULAUPDATEDISPATCHER
  2
AmdtFormulaUpdateDispatcher
  3
AcMeServices
 90
        0
280
     0
281
     0
  0
CLASS
  1
DIMASSOC
  2
AcDbDimAssoc
  3
"AcDbDimAssoc|Product Desc:     AcDim ARX App For Dimension|Company:          Autodesk, Inc.|WEB Address:      www.autodesk.com"
 90
        0
280
     0
281
     0
  0
CLASS
  1
SORTENTSTABLE
  2
AcDbSortentsTable
  3
ObjectDBX Classes
 90
        0
280
     0
281
     0
  0
CLASS
  1
ACMSTANDARDANSI
  2
AcmStandardANSI
  3
"Amdt_StdImp|Product Description: AutoCAD Mechanical 2004 DX|Company: Autodesk"
 90
        0
280
     0
281
     0
  0
CLASS
  1
ACMSURFSTANDARDANSI
  2
AcmSurfTextStdANSI
  3
"Amdt_StdImp|Product Description: AutoCAD Mechanical 2004 DX|Company: Autodesk"
 90
        0
280
     0
281
     0
  0
CLASS
  1
ACMFCFSTANDARDANSI
  2
AcmFCFStdANSI
  3
"Amdt_StdImp|Product Description: AutoCAD Mechanical 2004 DX|Company: Autodesk"
 90
        0
280
     0
281
     0
  0
CLASS
  1
ACMWELDSTANDARDANSI
  2
AcmWeldingStdANSI
  3
"Amdt_StdImp|Product Description: AutoCAD Mechanical 2004 DX|Company: Autodesk"
 90
        0
280
     0
281
     0
  0
CLASS
  1
ACMIDSTANDARDANSI
  2
AcmIdStdANSI
  3
"Amdt_StdImp|Product Description: AutoCAD Mechanical 2004 DX|Company: Autodesk"
 90
        0
280
     0
281
     0
  0
CLASS
  1
ACMDATUMSTANDARDANSI
  2
AcmDatumStdANSI
  3
"Amdt_StdImp|Product Description: AutoCAD Mechanical 2004 DX|Company: Autodesk"
 90
        0
280
     0
281
     0
  0
CLASS
  1
ACMBOMSTANDARDANSI
  2
AcmBOMStdANSI
  3
"Amdt_StdImp|Product Description: AutoCAD Mechanical 2004 DX|Company: Autodesk"
 90
        0
280
     0
281
     0
  0
CLASS
  1
ACMDETAILSTANDARDANSI
  2
AmdtDetailSymStdANSI
  3
"Amdt_StdImp|Product Description: AutoCAD Mechanical 2004 DX|Company: Autodesk"
 90
        0
280
     0
281
     0
  0
CLASS
  1
ACMSECTIONSTANDARDANSI
  2
AmdtSectionSymStdANSI
  3
"Amdt_StdImp|Product Description: AutoCAD Mechanical 2004 DX|Company: Autodesk"
 90
        0
280
     0
281
     0
  0
CLASS
  1
ACMCENTERLINESTANDARDANSI
  2
AmdtCenterLineStdANSI
  3
"Amdt_StdImp|Product Description: AutoCAD Mechanical 2004 DX|Company: Autodesk"
 90
        0
280
     0
281
     0
  0
CLASS
  1
ACMTHREADLINESTANDARDANSI
  2
AmdtThreadLineStdANSI
  3
"Amdt_StdImp|Product Description: AutoCAD Mechanical 2004 DX|Company: Autodesk"
 90
        0
280
     0
281
     0
  0
CLASS
  1
ACMNOTESTANDARDANSI
  2
AmdtNoteStdANSI
  3
"Amdt_StdImp|Product Description: AutoCAD Mechanical 2004 DX|Company: Autodesk"
 90
        0
280
     0
281
     0
  0
CLASS
  1
ACAMGHOLECHARTSTDANSI
  2
AcAmgHoleChartStdANSI
  3
ACMSYMBB_MODULE_NAME
 90
        0
280
     0
281
     0
  0
CLASS
  1
ACDBCIRCARCRES
  2
AcDbCircArcRes
  3
AcGrefServices
 90
        0
280
     0
281
     0
  0
CLASS
  1
AMDTNOTE
  2
AmdtNote
  3
"AcmSymBB|Product Description: AutoCAD Mechanical 2004 DX|Company: Autodesk"
 90
     1023
280
     0
281
     1
  0
CLASS
  1
ACAMGHOLECHARTORIGIN
  2
AcAmgHoleChartOrigin
  3
ACMSYMBB_MODULE_NAME
 90
    33663
280
     0
281
     1
  0
CLASS
  1
ACMFCFRAME
  2
AcmFCF
  3
"AcmSymBB|Product Description: AutoCAD Mechanical 2004 DX|Company: Autodesk"
 90
    33791
280
     0
281
     1
  0
CLASS
  1
ACDBLINERES
  2
AcDbLineRes
  3
AcGrefServices
 90
    32768
280
     0
281
     0
  0
CLASS
  1
ACMDATUMID
  2
AcmDatumId
  3
"AcmSymBB|Product Description: AutoCAD Mechanical 2004 DX|Company: Autodesk"
 90
    33791
280
     0
281
     1
  0
CLASS
  1
LARGE_RADIAL_DIMENSION
  2
AcDbRadialDimensionLarge
  3
ObjectDBX Classes
 90
    33793
280
     0
281
     1
  0
CLASS
  1
AMDTEDGESYM
  2
AmdtEdge
  3
"AcmSymBB|Product Description: AutoCAD Mechanical 2004 DX|Company: Autodesk"
 90
    33791
280
     0
281
     1
  0
CLASS
  1
ACDBDIMENSIONRES
  2
AcDbDimensionRes
  3
"AcDbDimensionRes|Product Description: AutoCAD Mechanical 2000|Company: Autodesk"
 90
    32768
280
     0
281
     0
  0
CLASS
  1
ACRFATTGENMGR
  2
AcRfAttGeneralMgr
  3
AcAttribServices
 90
        0
280
     0
281
     0
  0
ENDSEC
  0
SECTION
  2
TABLES
  0
TABLE
  2
VPORT
  5
8
330
0
100
AcDbSymbolTable
 70
     8
  0
VPORT
  5
7EE6
330
8
100
AcDbSymbolTableRecord
100
AcDbViewportTableRecord
  2
*Active
 70
     0
 10
0.0
 20
0.0
 11
1.0
 21
1.0
 12
1064.03755920347
 22
672.2662057701119
 13
0.0
 23
0.0
 14
2.5
 24
2.5
 15
10.0
 25
10.0
 16
0.0
 26
0.0
 36
1.0
 17
0.0
 27
0.0
 37
0.0
 40
333.1069434076598
 41
1.347553324968632
 42
50.0
 43
0.0
 44
0.0
 50
0.0
 51
0.0
 71
     0
 72
   100
 73
     1
 74
     3
 75
     0
 76
     0
 77
     0
 78
     0
281
     0
 65
     1
110
0.0
120
0.0
130
0.0
111
1.0
121
0.0
131
0.0
112
0.0
122
1.0
132
0.0
 79
     0
146
0.0
  0
ENDTAB
  0
TABLE
  2
LTYPE
  5
5
330
0
100
AcDbSymbolTable
 70
    20
  0
LTYPE
  5
14
330
5
100
AcDbSymbolTableRecord
100
AcDbLinetypeTableRecord
  2
ByBlock
 70
     0
  3

 72
    65
 73
     0
 40
0.0
  0
LTYPE
  5
15
330
5
100
AcDbSymbolTableRecord
100
AcDbLinetypeTableRecord
  2
ByLayer
 70
     0
  3

 72
    65
 73
     0
 40
0.0
  0
LTYPE
  5
16
330
5
100
AcDbSymbolTableRecord
100
AcDbLinetypeTableRecord
  2
Continuous
 70
     0
  3
Solid line
 72
    65
 73
     0
 40
0.0
  0
LTYPE
  5
64
330
5
100
AcDbSymbolTableRecord
100
AcDbLinetypeTableRecord
  2
AM_ISO02W050
 70
     0
  3
__ __ __ __ __ __ __ __ __ __ __ __ __ __ __
 72
    65
 73
     2
 40
7.5
 49
6.0
 74
     0
 49
-1.5
 74
     0
  0
LTYPE
  5
65
330
5
100
AcDbSymbolTableRecord
100
AcDbLinetypeTableRecord
  2
AM_ISO08W050
 70
     0
  3
____ . ____ . ____ . ____ . ____ . ____ . ____
 72
    65
 73
     4
 40
18.0
 49
12.0
 74
     0
 49
-1.5
 74
     0
 49
3.0
 74
     0
 49
-1.5
 74
     0
  0
LTYPE
  5
66
330
5
100
AcDbSymbolTableRecord
100
AcDbLinetypeTableRecord
  2
AM_ISO09W050
 70
     0
  3
_____ . . _____ . . _____ . . ____ .. ____
 72
    65
 73
     6
 40
22.5
 49
12.0
 74
     0
 49
-1.5
 74
     0
 49
3.0
 74
     0
 49
-1.5
 74
     0
 49
3.0
 74
     0
 49
-1.5
 74
     0
  0
LTYPE
  5
67
330
5
100
AcDbSymbolTableRecord
100
AcDbLinetypeTableRecord
  2
Amconstr
 70
     0
  3
_______________________
 72
    65
 73
     2
 40
9999.0
 49
9999.0
 74
     0
 49
0.0
 74
     0
  0
LTYPE
  5
68
330
5
100
AcDbSymbolTableRecord
100
AcDbLinetypeTableRecord
  2
AM_ISO08W050x2
 70
     0
  3
__ . __ . __ . __ . __ . __
 72
    65
 73
     4
 40
9.0
 49
6.0
 74
     0
 49
-0.75
 74
     0
 49
1.5
 74
     0
 49
-0.75
 74
     0
  0
LTYPE
  5
69
330
5
100
AcDbSymbolTableRecord
100
AcDbLinetypeTableRecord
  2
AM_ISO02W050x2
 70
     0
  3
 _ _ _ _ _ _ _ _ _ _ _ _
 72
    65
 73
     2
 40
3.75
 49
3.0
 74
     0
 49
-0.75
 74
     0
  0
LTYPE
  5
6C
330
5
100
AcDbSymbolTableRecord
100
AcDbLinetypeTableRecord
  2
Amzigzag
 70
     0
  3
/\/-/\/-/\/-/\/-/\/-/\/
 72
    65
 73
     2
 40
11.0001
 49
0.0001
 74
     4
 75
   136
340
22C
 46
0.04
 50
0.0
 44
0.0
 45
0.0
 49
-11.0
 74
     0
  0
LTYPE
  5
7A
330
5
100
AcDbSymbolTableRecord
100
AcDbLinetypeTableRecord
  2
ACISOWELD
 70
     0
  3
_ _ _ _ _
 72
    65
 73
     2
 40
2.0
 49
2.0
 74
     0
 49
-1.0
 74
     0
  0
LTYPE
  5
7B
330
5
100
AcDbSymbolTableRecord
100
AcDbLinetypeTableRecord
  2
ACISOTGB
 70
     0
  3
__ . . __ . .
 72
    65
 73
     6
 40
9.0
 49
4.0
 74
     0
 49
-1.0
 74
     0
 49
1.0
 74
     0
 49
-1.0
 74
     0
 49
1.0
 74
     0
 49
-1.0
 74
     0
  0
LTYPE
  5
7C
330
5
100
AcDbSymbolTableRecord
100
AcDbLinetypeTableRecord
  2
ACISOTGL
 70
     0
  3
_ _ _ _ _
 72
    65
 73
     2
 40
3.0
 49
2.0
 74
     0
 49
-1.0
 74
     0
  0
LTYPE
  5
7E
330
5
100
AcDbSymbolTableRecord
100
AcDbLinetypeTableRecord
  2
CENTER
 70
     0
  3
__ . __
 72
    65
 73
     4
 40
7.0
 49
4.0
 74
     0
 49
-1.0
 74
     0
 49
1.0
 74
     0
 49
-1.0
 74
     0
  0
LTYPE
  5
D8
330
5
100
AcDbSymbolTableRecord
100
AcDbLinetypeTableRecord
  2
HIDDEN
 70
     0
  3
Hidden __ __ __ __ __ __ __ __ __ __ __ __ __ _
 72
    65
 73
     2
 40
9.524999999999998
 49
6.349999999999999
 74
     0
 49
-3.174999999999999
 74
     0
  0
LTYPE
  5
D9
330
5
100
AcDbSymbolTableRecord
100
AcDbLinetypeTableRecord
  2
PHANTOM2
 70
     0
  3
Phantom (.5x) ___ _ _ ___ _ _ ___ _ _ ___ _ _
 72
    65
 73
     6
 40
31.75
 49
15.875
 74
     0
 49
-3.174999999999999
 74
     0
 49
3.174999999999999
 74
     0
 49
-3.174999999999999
 74
     0
 49
3.174999999999999
 74
     0
 49
-3.174999999999999
 74
     0
  0
LTYPE
  5
3BD
330
5
100
AcDbSymbolTableRecord
100
AcDbLinetypeTableRecord
  2
CENTER2
 70
     0
  3
___ _ ___ _ ___ _ ___ _ ___ _ ___ _ ___ _ ___ _
 72
    65
 73
     4
 40
1.125
 49
0.75
 74
     0
 49
-0.125
 74
     0
 49
0.125
 74
     0
 49
-0.125
 74
     0
  0
LTYPE
  5
3AA9
330
5
100
AcDbSymbolTableRecord
100
AcDbLinetypeTableRecord
  2
HIDDEN2
 70
     0
  3
Hidden (.5x) _ _ _ _ _ _ _ _ _ _ _ _ _ _ _ _ _
 72
    65
 73
     2
 40
0.1875
 49
0.125
 74
     0
 49
-0.0625
 74
     0
  0
LTYPE
  5
3AAA
330
5
100
AcDbSymbolTableRecord
100
AcDbLinetypeTableRecord
  2
Amzigzag2
 70
     0
  3
/\/-/\/-/\/-/\/-/\/-/\/
 72
    65
 73
     2
 40
0.4401
 49
0.0001
 74
     4
 75
   135
340
6B
 46
0.0016
 50
0.0
 44
0.0
 45
0.0
 49
-0.4400000000000001
 74
     0
  0
LTYPE
  5
3AAB
330
5
100
AcDbSymbolTableRecord
100
AcDbLinetypeTableRecord
  2
ACANSTGB
 70
     0
  3
__ . . __ . .
 72
    65
 73
     6
 40
0.35433070866
 49
0.15748031496
 74
     0
 49
-0.03937007874
 74
     0
 49
0.03937007874
 74
     0
 49
-0.03937007874
 74
     0
 49
0.03937007874
 74
     0
 49
-0.03937007874
 74
     0
  0
LTYPE
  5
3AAC
330
5
100
AcDbSymbolTableRecord
100
AcDbLinetypeTableRecord
  2
ACANSTGL
 70
     0
  3
_ _ _ _ _
 72
    65
 73
     2
 40
0.11811023622
 49
0.07874015748
 74
     0
 49
-0.03937007874
 74
     0
  0
LTYPE
  5
644C
330
5
100
AcDbSymbolTableRecord
100
AcDbLinetypeTableRecord
  2
GESTRICHELT2
 70
     0
  3
_ _ _ _ _ _ _ _ _ _ _ _ _ _ _ _ _ _ _ _ _ _ _ _
 72
    65
 73
     2
 40
0.375
 49
0.25
 74
     0
 49
-0.125
 74
     0
  0
ENDTAB
  0
TABLE
  2
LAYER
  5
2
102
{ACAD_XDICTIONARY
360
2F5
102
}
330
0
100
AcDbSymbolTable
 70
    13
  0
LAYER
  5
10
330
2
100
AcDbSymbolTableRecord
100
AcDbLayerTableRecord
  2
0
 70
     0
 62
     7
  6
Continuous
370
    -3
390
F
  0
LAYER
  5
3BE
330
2
100
AcDbSymbolTableRecord
100
AcDbLayerTableRecord
  2
SPEC
 70
     0
 62
     1
  6
Continuous
370
    -3
390
F
  0
LAYER
  5
3BF
330
2
100
AcDbSymbolTableRecord
100
AcDbLayerTableRecord
  2
CENTER
 70
     0
 62
   252
  6
CENTER2
370
    -3
390
F
  0
LAYER
  5
3C0
330
2
100
AcDbSymbolTableRecord
100
AcDbLayerTableRecord
  2
DATA
 70
     0
 62
     6
  6
Continuous
370
    -3
390
F
  0
LAYER
  5
3C1
330
2
100
AcDbSymbolTableRecord
100
AcDbLayerTableRecord
  2
DIM
 70
     0
 62
     3
  6
Continuous
370
    -3
390
F
  0
LAYER
  5
3C2
330
2
100
AcDbSymbolTableRecord
100
AcDbLayerTableRecord
  2
Defpoints
 70
     0
 62
     7
  6
Continuous
290
     0
370
    -3
390
F
  0
LAYER
  5
3C3
330
2
100
AcDbSymbolTableRecord
100
AcDbLayerTableRecord
  2
FRAME
 70
     0
 62
     1
  6
Continuous
370
    -3
390
F
  0
LAYER
  5
3C4
330
2
100
AcDbSymbolTableRecord
100
AcDbLayerTableRecord
  2
CONNECTOR
 70
     0
 62
     2
  6
Continuous
370
    -3
390
F
  0
LAYER
  5
3C5
330
2
100
AcDbSymbolTableRecord
100
AcDbLayerTableRecord
  2
SCHRIFT
 70
     0
 62
     1
  6
Continuous
370
    -3
390
F
  0
LAYER
  5
4C86
330
2
100
AcDbSymbolTableRecord
100
AcDbLayerTableRecord
  2
AM_5
 70
     0
 62
     3
  6
Continuous
370
    25
390
F
1001
AcAecLayerStandard
1000

1000

  0
LAYER
  5
5DDA
330
2
100
AcDbSymbolTableRecord
100
AcDbLayerTableRecord
  2
AM_7
 70
     0
 62
     4
  6
AM_ISO08W050
370
    25
390
F
1001
AcAecLayerStandard
1000

1000

  0
LAYER
  5
644D
330
2
100
AcDbSymbolTableRecord
100
AcDbLayerTableRecord
  2
KANTE
 70
     0
 62
     5
  6
Continuous
370
    -3
390
F
  0
LAYER
  5
644E
330
2
100
AcDbSymbolTableRecord
100
AcDbLayerTableRecord
  2
VERDECKT
 70
     0
 62
     4
  6
GESTRICHELT2
370
    -3
390
F
  0
ENDTAB
  0
TABLE
  2
STYLE
  5
3
330
0
100
AcDbSymbolTable
 70
    15
  0
STYLE
  5
11
330
3
100
AcDbSymbolTableRecord
100
AcDbTextStyleTableRecord
  2
STANDARD
 70
     0
 40
0.0
 41
1.0
 50
0.0
 71
     0
 42
2.399999999999999
  3
ARIAL.TTF
  4

1001
ACAD
1000
Arial
1071
       34
  0
STYLE
  5
6B
330
3
100
AcDbSymbolTableRecord
100
AcDbTextStyleTableRecord
  2

 70
     1
 40
0.0
 41
1.0
 50
0.0
 71
     0
 42
2.5
  3
ltypeshp.shx
  4

  0
STYLE
  5
6D
330
3
100
AcDbSymbolTableRecord
100
AcDbTextStyleTableRecord
  2
ACISOTS
 70
     0
 40
1.0
 41
1.0
 50
0.0
 71
     0
 42
2.5
  3
isocp.shx
  4
bigfont.shx
  0
STYLE
  5
79
330
3
100
AcDbSymbolTableRecord
100
AcDbTextStyleTableRecord
  2
ACISOGDT
 70
     0
 40
0.0
 41
1.0
 50
0.0
 71
     0
 42
2.5
  3
AMGDT
  4
bigfont.shx
  0
STYLE
  5
1ED
330
3
100
AcDbSymbolTableRecord
100
AcDbTextStyleTableRecord
  2
USER1
 70
     0
 40
0.0
 41
1.0
 50
0.0
 71
     0
 42
2.5
  3
TXT.SHX
  4
bigfont.shx
  0
STYLE
  5
1EE
330
3
100
AcDbSymbolTableRecord
100
AcDbTextStyleTableRecord
  2
USER2
 70
     0
 40
0.0
 41
1.0
 50
0.0
 71
     0
 42
2.5
  3
SIMPLEX.SHX
  4
bigfont.shx
  0
STYLE
  5
1EF
330
3
100
AcDbSymbolTableRecord
100
AcDbTextStyleTableRecord
  2
USER3
 70
     0
 40
0.0
 41
1.0
 50
0.0
 71
     0
 42
2.5
  3
ITALIC.SHX
  4
bigfont.shx
  0
STYLE
  5
22C
330
3
100
AcDbSymbolTableRecord
100
AcDbTextStyleTableRecord
  2

 70
     1
 40
0.0
 41
1.0
 50
0.0
 71
     0
 42
2.5
  3
genltshp.shx
  4

  0
STYLE
  5
3C6
330
3
100
AcDbSymbolTableRecord
100
AcDbTextStyleTableRecord
  2
ITALICT
 70
     0
 40
2.0
 41
1.0
 50
0.0
 71
     0
 42
2.0
  3
ITALICT.shx
  4

  0
STYLE
  5
3C7
330
3
100
AcDbSymbolTableRecord
100
AcDbTextStyleTableRecord
  2
ROMANS
 70
     0
 40
0.0
 41
0.8
 50
0.0
 71
     0
 42
3.0
  3
romans.shx
  4

  0
STYLE
  5
3AAD
330
3
100
AcDbSymbolTableRecord
100
AcDbTextStyleTableRecord
  2
ACANSTS
 70
     0
 40
1.0
 41
1.0
 50
0.0
 71
     0
 42
2.399999999999999
  3
romans.shx
  4

  0
STYLE
  5
3AAE
330
3
100
AcDbSymbolTableRecord
100
AcDbTextStyleTableRecord
  2
ACANSGDT
 70
     0
 40
0.0
 41
1.0
 50
0.0
 71
     0
 42
2.399999999999999
  3
AMGDT
  4

  0
STYLE
  5
644F
330
3
100
AcDbSymbolTableRecord
100
AcDbTextStyleTableRecord
  2
ISO8
 70
     0
 40
0.0
 41
1.0
 50
0.0
 71
     0
 42
2.549999999999999
  3
ISO8.shx
  4

  0
ENDTAB
  0
TABLE
  2
VIEW
  5
6
330
0
100
AcDbSymbolTable
 70
     4
  0
ENDTAB
  0
TABLE
  2
UCS
  5
7
330
0
100
AcDbSymbolTable
 70
     0
  0
ENDTAB
  0
TABLE
  2
APPID
  5
9
330
0
100
AcDbSymbolTable
 70
    28
  0
APPID
  5
12
330
9
100
AcDbSymbolTableRecord
100
AcDbRegAppTableRecord
  2
ACAD
 70
     0
  0
APPID
  5
46
330
9
100
AcDbSymbolTableRecord
100
AcDbRegAppTableRecord
  2
MCAD_NO_VIS
 70
     0
  0
APPID
  5
47
330
9
100
AcDbSymbolTableRecord
100
AcDbRegAppTableRecord
  2
ACAD_TEMP_GRAPHIC
 70
     0
  0
APPID
  5
58
330
9
100
AcDbSymbolTableRecord
100
AcDbRegAppTableRecord
  2
ACATTRIBSERVICES
 70
     0
  0
APPID
  5
EE
330
9
100
AcDbSymbolTableRecord
100
AcDbRegAppTableRecord
  2
AD_DRAW
 70
     0
  0
APPID
  5
10C
330
9
100
AcDbSymbolTableRecord
100
AcDbRegAppTableRecord
  2
DESIGNERASSEMBLIES
 70
     0
  0
APPID
  5
111
330
9
100
AcDbSymbolTableRecord
100
AcDbRegAppTableRecord
  2
ACADM_DIM_EDIT
 70
     0
  0
APPID
  5
112
330
9
100
AcDbSymbolTableRecord
100
AcDbRegAppTableRecord
  2
AMDT_DM_ADJ
 70
     0
  0
APPID
  5
1A3
330
9
100
AcDbSymbolTableRecord
100
AcDbRegAppTableRecord
  2
ACAD_DSTYLE_DIMARC_LENGTH_SYMBOL
 70
     0
  0
APPID
  5
1A4
330
9
100
AcDbSymbolTableRecord
100
AcDbRegAppTableRecord
  2
ACAD_DSTYLE_DIMJOGGED_JOGANGLE_SYMBOL
 70
     0
  0
APPID
  5
2D9
330
9
100
AcDbSymbolTableRecord
100
AcDbRegAppTableRecord
  2
ACAD_PSEXT
 70
     0
  0
APPID
  5
9AB
330
9
100
AcDbSymbolTableRecord
100
AcDbRegAppTableRecord
  2
ACAD_EXEMPT_FROM_CAD_STANDARDS
 70
     0
  0
APPID
  5
218E
330
9
100
AcDbSymbolTableRecord
100
AcDbRegAppTableRecord
  2
ACAD_DSTYLE_DIMTEXT_FILL
 70
     0
  0
APPID
  5
218F
330
9
100
AcDbSymbolTableRecord
100
AcDbRegAppTableRecord
  2
ACAD_DSTYLE_DIMEXT_LENGTH
 70
     0
  0
APPID
  5
2190
330
9
100
AcDbSymbolTableRecord
100
AcDbRegAppTableRecord
  2
ACAD_DSTYLE_DIMEXT_ENABLED
 70
     0
  0
APPID
  5
2191
330
9
100
AcDbSymbolTableRecord
100
AcDbRegAppTableRecord
  2
ACAD_DSTYLE_DIM_LINETYPE
 70
     0
  0
APPID
  5
2192
330
9
100
AcDbSymbolTableRecord
100
AcDbRegAppTableRecord
  2
ACAD_DSTYLE_DIM_EXT1_LINETYPE
 70
     0
  0
APPID
  5
2193
330
9
100
AcDbSymbolTableRecord
100
AcDbRegAppTableRecord
  2
ACAD_DSTYLE_DIM_EXT2_LINETYPE
 70
     0
  0
APPID
  5
3955
330
9
100
AcDbSymbolTableRecord
100
AcDbRegAppTableRecord
  2
GENIUS_GENSCREG_15
 70
     0
  0
APPID
  5
3956
330
9
100
AcDbSymbolTableRecord
100
AcDbRegAppTableRecord
  2
GENIUS_GENOBJ-N-SDF_13
 70
     0
  0
APPID
  5
3957
330
9
100
AcDbSymbolTableRecord
100
AcDbRegAppTableRecord
  2
GENIUS_GENODEF_13
 70
     0
  0
APPID
  5
3969
330
9
100
AcDbSymbolTableRecord
100
AcDbRegAppTableRecord
  2
GENIUS_GENDIMSH_14
 70
     0
  0
APPID
  5
4C87
330
9
100
AcDbSymbolTableRecord
100
AcDbRegAppTableRecord
  2
AcAecLayerStandard
 70
     0
  0
APPID
  5
4D0F
330
9
100
AcDbSymbolTableRecord
100
AcDbRegAppTableRecord
  2
GENIUS_GENDTOL_13
 70
     0
  0
APPID
  5
5DE0
330
9
100
AcDbSymbolTableRecord
100
AcDbRegAppTableRecord
  2
GENIUS_GENOLIS_13
 70
     0
  0
APPID
  5
5DE1
330
9
100
AcDbSymbolTableRecord
100
AcDbRegAppTableRecord
  2
GENIUS_GENOENT_13
 70
     0
  0
APPID
  5
5DE2
330
9
100
AcDbSymbolTableRecord
100
AcDbRegAppTableRecord
  2
GENIUS_GENOBJ-N-CRS_13
 70
     0
  0
APPID
  5
5DE3
330
9
100
AcDbSymbolTableRecord
100
AcDbRegAppTableRecord
  2
GENIUS_GENOREF_13
 70
     0
  0
ENDTAB
  0
TABLE
  2
DIMSTYLE
  5
A
330
0
100
AcDbSymbolTable
 70
    17
100
AcDbDimStyleTable
 71
     5
340
3C8
340
3AAF
340
3AB3
340
81
340
3AB4
  0
DIMSTYLE
105
81
330
A
100
AcDbSymbolTableRecord
100
AcDbDimStyleTableRecord
  2
AM_ISO
 70
     0
  4
"
 41
2.5
 42
1.0
 43
10.0
 44
1.0
 47
0.1
 48
0.1
 73
     0
 74
     0
 77
     1
 78
     8
 79
     2
140
3.5
141
0.0
143
0.0393701
146
0.71
147
1.5
172
     1
176
   256
177
   256
178
     2
271
     2
272
     3
274
     4
283
     0
284
     8
340
11
371
    -1
372
    -1
1001
ACAD_DSTYLE_DIMARC_LENGTH_SYMBOL
1070
   379
1070
     1
1001
ACAD_DSTYLE_DIMJOGGED_JOGANGLE_SYMBOL
1070
   384
1040
0.7853981633974483
  0
DIMSTYLE
105
82
330
A
100
AcDbSymbolTableRecord
100
AcDbDimStyleTableRecord
  2
AM_ISO$3
 70
     0
  4
"
 41
2.5
 42
1.0
 43
10.0
 44
1.0
 47
0.1
 48
0.1
 73
     0
 77
     1
 78
     8
 79
     2
140
3.5
141
0.0
143
0.0393701
146
0.71
147
1.5
176
   256
177
   256
178
     2
271
     2
272
     3
274
     4
283
     0
284
     8
288
     1
289
     0
340
11
371
    -1
372
    -1
1001
ACAD_DSTYLE_DIMARC_LENGTH_SYMBOL
1070
   379
1070
     1
1001
ACAD_DSTYLE_DIMJOGGED_JOGANGLE_SYMBOL
1070
   384
1040
0.7853981633974483
  0
DIMSTYLE
105
83
330
A
100
AcDbSymbolTableRecord
100
AcDbDimStyleTableRecord
  2
AM_ISO$4
 70
     0
  4
"
 41
2.5
 42
1.0
 43
10.0
 44
1.0
 47
0.1
 48
0.1
 73
     0
 77
     1
 78
     8
 79
     2
140
3.5
141
0.0
143
0.0393701
146
0.71
147
1.5
176
   256
177
   256
178
     2
271
     2
272
     3
274
     4
283
     0
284
     8
288
     1
289
     0
340
11
371
    -1
372
    -1
1001
ACAD_DSTYLE_DIMARC_LENGTH_SYMBOL
1070
   379
1070
     1
1001
ACAD_DSTYLE_DIMJOGGED_JOGANGLE_SYMBOL
1070
   384
1040
0.7853981633974483
  0
DIMSTYLE
105
84
330
A
100
AcDbSymbolTableRecord
100
AcDbDimStyleTableRecord
  2
AM_ISO$6
 70
     0
  4
"
 41
2.5
 42
1.0
 43
10.0
 44
1.0
 47
0.1
 48
0.1
 73
     0
 74
     0
 78
     8
 79
     2
140
3.5
141
0.0
143
0.0393701
146
0.71
147
1.5
172
     1
176
   256
177
   256
178
     2
271
     2
272
     3
274
     4
283
     0
284
     8
340
11
371
    -1
372
    -1
1001
ACAD_DSTYLE_DIMARC_LENGTH_SYMBOL
1070
   379
1070
     1
1001
ACAD_DSTYLE_DIMJOGGED_JOGANGLE_SYMBOL
1070
   384
1040
0.7853981633974483
  0
DIMSTYLE
105
85
330
A
100
AcDbSymbolTableRecord
100
AcDbDimStyleTableRecord
  2
AM_ISO$7
 70
     0
  4
"
 41
2.5
 42
1.0
 43
10.0
 44
1.0
 47
0.1
 48
0.1
 73
     0
 74
     0
 77
     1
 78
     8
 79
     2
140
5.0
141
0.0
143
0.0393701
146
0.71
147
1.5
172
     1
176
   256
177
   256
178
     2
271
     2
272
     3
274
     4
283
     0
284
     8
340
11
371
    -1
372
    -1
1001
ACAD_DSTYLE_DIMARC_LENGTH_SYMBOL
1070
   379
1070
     1
1001
ACAD_DSTYLE_DIMJOGGED_JOGANGLE_SYMBOL
1070
   384
1040
0.7853981633974483
  0
DIMSTYLE
105
86
330
A
100
AcDbSymbolTableRecord
100
AcDbDimStyleTableRecord
  2
AM_ISO$SF
 70
     0
  4
"
 41
2.5
 42
1.0
 43
10.0
 44
1.0
 47
0.1
 48
0.1
 73
     0
 74
     0
 75
     1
 76
     1
 77
     1
 78
     8
 79
     2
140
3.5
141
0.0
143
0.0393701
146
0.71
147
1.5
172
     1
176
   256
177
   256
178
     2
271
     2
272
     3
274
     4
283
     0
284
     8
340
11
371
    -1
372
    -1
1001
ACAD_DSTYLE_DIMARC_LENGTH_SYMBOL
1070
   379
1070
     1
1001
ACAD_DSTYLE_DIMJOGGED_JOGANGLE_SYMBOL
1070
   384
1040
0.7853981633974483
  0
DIMSTYLE
105
8B
330
A
100
AcDbSymbolTableRecord
100
AcDbDimStyleTableRecord
  2
AM_ISO$SH
 70
     0
  4
"
 41
2.5
 42
1.0
 43
10.0
 44
1.0
 47
0.1
 48
0.1
 73
     0
 74
     0
 75
     1
 76
     1
 77
     1
 78
     8
 79
     2
140
3.5
141
0.0
143
0.0393701
144
2.0
146
0.71
147
1.5
172
     1
173
     1
176
   256
177
   256
178
     2
271
     2
272
     3
274
     4
283
     0
284
     8
340
11
343
87
371
    -1
372
    -1
1001
ACAD_DSTYLE_DIMARC_LENGTH_SYMBOL
1070
   379
1070
     1
1001
ACAD_DSTYLE_DIMJOGGED_JOGANGLE_SYMBOL
1070
   384
1040
0.7853981633974483
  0
DIMSTYLE
105
3C8
102
{ACAD_REACTORS
330
19F4
330
2E07
330
2E09
330
2E0A
330
2E5C
330
5B41
330
5B43
330
5B45
330
5B46
330
5B57
330
5B59
330
5B5C
330
5B5F
330
5B64
330
5B66
330
5B68
330
5B69
330
5B7B
330
5B7C
330
5B7D
330
5B7E
102
}
330
A
100
AcDbSymbolTableRecord
100
AcDbDimStyleTableRecord
  2
STANDARD
 70
     0
 41
3.0
 42
1.0
 43
1.0
 44
1.0
 48
0.000000001
 73
     0
 74
     0
 77
     1
 78
     8
140
3.0
141
-0.05
145
5.0
146
0.8
147
1.0
172
     1
176
     3
177
     3
178
     6
271
     2
272
     2
284
     8
340
11
371
    -1
1001
ACAD_DSTYLE_DIMEXT_LENGTH
1070
   378
1040
1.0
1001
ACAD_DSTYLE_DIMEXT_ENABLED
1070
   383
1070
     0
1001
ACAD_DSTYLE_DIMARC_LENGTH_SYMBOL
1070
   379
1070
     0
1001
ACAD_DSTYLE_DIMJOGGED_JOGANGLE_SYMBOL
1070
   384
1040
1.570796326794896
  0
DIMSTYLE
105
3AAF
330
A
100
AcDbSymbolTableRecord
100
AcDbDimStyleTableRecord
  2
AM_ANSI
 70
     0
  4
mm
 41
0.1
 42
0.05
 43
0.5
 44
0.1
 47
0.1
 48
0.1
 78
     7
 79
     2
140
0.12
141
0.0
146
0.71
147
0.06
176
   256
177
   256
178
     2
274
     4
284
     7
340
11
371
    -1
372
    -1
1001
ACAD_DSTYLE_DIMARC_LENGTH_SYMBOL
1070
   379
1070
     1
1001
ACAD_DSTYLE_DIMJOGGED_JOGANGLE_SYMBOL
1070
   384
1040
0.7853981633974483
  0
DIMSTYLE
105
3AB0
330
A
100
AcDbSymbolTableRecord
100
AcDbDimStyleTableRecord
  2
AM_ANSI$3
 70
     0
  4
mm
 41
0.1
 42
0.05
 43
0.5
 44
0.1
 47
0.1
 48
0.1
 78
     7
 79
     2
140
0.12
141
0.0
146
0.71
147
0.06
176
   256
177
   256
178
     2
274
     4
284
     7
288
     1
289
     0
340
11
371
    -1
372
    -1
1001
ACAD_DSTYLE_DIMARC_LENGTH_SYMBOL
1070
   379
1070
     1
1001
ACAD_DSTYLE_DIMJOGGED_JOGANGLE_SYMBOL
1070
   384
1040
0.7853981633974483
  0
DIMSTYLE
105
3AB1
330
A
100
AcDbSymbolTableRecord
100
AcDbDimStyleTableRecord
  2
AM_ANSI$4
 70
     0
  4
mm
 41
0.1
 42
0.05
 43
0.5
 44
0.1
 47
0.1
 48
0.1
 78
     7
 79
     2
140
0.12
141
0.0
146
0.71
147
0.06
176
   256
177
   256
178
     2
274
     4
284
     7
288
     1
289
     0
340
11
371
    -1
372
    -1
1001
ACAD_DSTYLE_DIMARC_LENGTH_SYMBOL
1070
   379
1070
     1
1001
ACAD_DSTYLE_DIMJOGGED_JOGANGLE_SYMBOL
1070
   384
1040
0.7853981633974483
  0
DIMSTYLE
105
3AB2
330
A
100
AcDbSymbolTableRecord
100
AcDbDimStyleTableRecord
  2
AM_ANSI$7
 70
     0
  4
mm
 41
0.1
 42
0.05
 43
0.5
 44
0.1
 47
0.1
 48
0.1
 78
     7
 79
     2
140
0.24
141
0.0
146
0.71
147
0.06
176
   256
177
   256
178
     2
274
     4
284
     7
340
11
371
    -1
372
    -1
1001
ACAD_DSTYLE_DIMARC_LENGTH_SYMBOL
1070
   379
1070
     1
1001
ACAD_DSTYLE_DIMJOGGED_JOGANGLE_SYMBOL
1070
   384
1040
0.7853981633974483
  0
DIMSTYLE
105
3AB3
330
A
100
AcDbSymbolTableRecord
100
AcDbDimStyleTableRecord
  2
AM_ANSI$SF
 70
     0
  4
mm
 41
0.1
 42
0.05
 43
0.5
 44
0.1
 47
0.1
 48
0.1
 75
     1
 76
     1
 78
     7
 79
     2
140
0.12
141
0.0
146
0.71
147
0.06
176
   256
177
   256
178
     2
274
     4
284
     7
340
11
371
    -1
372
    -1
1001
ACAD_DSTYLE_DIMARC_LENGTH_SYMBOL
1070
   379
1070
     1
1001
ACAD_DSTYLE_DIMJOGGED_JOGANGLE_SYMBOL
1070
   384
1040
0.7853981633974483
  0
DIMSTYLE
105
3AB4
330
A
100
AcDbSymbolTableRecord
100
AcDbDimStyleTableRecord
  2
AM_ANSI$SH
 70
     0
  4
mm
 41
0.1
 42
0.05
 43
0.5
 44
0.1
 47
0.1
 48
0.1
 75
     1
 76
     1
 78
     7
 79
     2
140
0.12
141
0.0
146
0.71
147
0.06
173
     1
176
   256
177
   256
178
     2
274
     4
284
     7
340
11
343
87
371
    -1
372
    -1
1001
ACAD_DSTYLE_DIMARC_LENGTH_SYMBOL
1070
   379
1070
     1
1001
ACAD_DSTYLE_DIMJOGGED_JOGANGLE_SYMBOL
1070
   384
1040
0.7853981633974483
  0
DIMSTYLE
105
4C93
102
{ACAD_REACTORS
330
19C9
330
5B7F
330
6567
330
72AC
330
72E8
330
77A4
330
77FE
330
787D
330
7982
330
79F7
330
7A59
330
7B71
330
7C0A
330
7C78
330
7CA2
330
7D1B
102
}
330
A
100
AcDbSymbolTableRecord
100
AcDbDimStyleTableRecord
  2
STANDARD$0
 70
     0
 41
3.0
 42
1.0
 43
1.0
 44
1.0
 48
0.000000001
 73
     0
 74
     0
 77
     1
 78
     8
140
3.0
141
-0.05
145
5.0
146
0.8
147
1.0
172
     1
176
     3
177
     3
178
     6
271
     2
272
     2
284
     8
340
11
371
    -1
1001
ACAD_DSTYLE_DIMEXT_LENGTH
1070
   378
1040
1.0
1001
ACAD_DSTYLE_DIMEXT_ENABLED
1070
   383
1070
     0
1001
ACAD_DSTYLE_DIMARC_LENGTH_SYMBOL
1070
   379
1070
     0
1001
ACAD_DSTYLE_DIMJOGGED_JOGANGLE_SYMBOL
1070
   384
1040
1.570796326794896
  0
ENDTAB
  0
TABLE
  2
BLOCK_RECORD
  5
1
330
0
100
AcDbSymbolTable
 70
    29
  0
BLOCK_RECORD
  5
1F
102
{ACAD_XDICTIONARY
360
8F
102
}
330
1
100
AcDbSymbolTableRecord
100
AcDbBlockTableRecord
  2
*Model_Space
340
22
  0
BLOCK_RECORD
  5
1B
102
{ACAD_XDICTIONARY
360
2D9F
102
}
330
1
100
AcDbSymbolTableRecord
100
AcDbBlockTableRecord
  2
*Paper_Space
340
1E
  0
BLOCK_RECORD
  5
87
330
1
100
AcDbSymbolTableRecord
100
AcDbBlockTableRecord
  2
GENAXEH
340
0
  0
BLOCK_RECORD
  5
2FB
330
1
100
AcDbSymbolTableRecord
100
AcDbBlockTableRecord
  2
_DatumFilled
340
0
  0
BLOCK_RECORD
  5
2FF
330
1
100
AcDbSymbolTableRecord
100
AcDbBlockTableRecord
  2
_None
340
0
  0
BLOCK_RECORD
  5
125D
102
{ACAD_XDICTIONARY
360
128A
102
}
330
1
100
AcDbSymbolTableRecord
100
AcDbBlockTableRecord
  2
A$C75C560CA
340
0
1001
ACAD
1000
DesignCenter Data
1002
{
1070
     1
1070
     4
1002
}
  0
BLOCK_RECORD
  5
1A4C
330
1
100
AcDbSymbolTableRecord
100
AcDbBlockTableRecord
  2
*D5
340
0
  0
BLOCK_RECORD
  5
2CC0
102
{ACAD_XDICTIONARY
360
2CC2
102
}
330
1
100
AcDbSymbolTableRecord
100
AcDbBlockTableRecord
  2
A$C718C4946
340
0
1001
ACAD
1000
DesignCenter Data
1002
{
1070
     1
1070
     4
1002
}
  0
BLOCK_RECORD
  5
2F89
330
1
100
AcDbSymbolTableRecord
100
AcDbBlockTableRecord
  2
_DotSmall
340
0
102
{BLKREFS
331
7947
102
}
  0
BLOCK_RECORD
  5
5B9E
330
1
100
AcDbSymbolTableRecord
100
AcDbBlockTableRecord
  2
*D8
340
0
  0
BLOCK_RECORD
  5
66C9
330
1
100
AcDbSymbolTableRecord
100
AcDbBlockTableRecord
  2
*D9
340
0
  0
BLOCK_RECORD
  5
72AD
330
1
100
AcDbSymbolTableRecord
100
AcDbBlockTableRecord
  2
*D10
340
0
  0
BLOCK_RECORD
  5
72E9
330
1
100
AcDbSymbolTableRecord
100
AcDbBlockTableRecord
  2
*D11
340
0
  0
BLOCK_RECORD
  5
77A5
330
1
100
AcDbSymbolTableRecord
100
AcDbBlockTableRecord
  2
*D12
340
0
  0
BLOCK_RECORD
  5
77FF
330
1
100
AcDbSymbolTableRecord
100
AcDbBlockTableRecord
  2
*D13
340
0
  0
BLOCK_RECORD
  5
787E
330
1
100
AcDbSymbolTableRecord
100
AcDbBlockTableRecord
  2
*D14
340
0
  0
BLOCK_RECORD
  5
78DC
330
1
100
AcDbSymbolTableRecord
100
AcDbBlockTableRecord
  2
_Dot
340
0
102
{BLKREFS
331
7952
102
}
  0
BLOCK_RECORD
  5
7983
330
1
100
AcDbSymbolTableRecord
100
AcDbBlockTableRecord
  2
*D16
340
0
  0
BLOCK_RECORD
  5
79F8
330
1
100
AcDbSymbolTableRecord
100
AcDbBlockTableRecord
  2
*D17
340
0
  0
BLOCK_RECORD
  5
7A5A
330
1
100
AcDbSymbolTableRecord
100
AcDbBlockTableRecord
  2
*D18
340
0
  0
BLOCK_RECORD
  5
7B72
330
1
100
AcDbSymbolTableRecord
100
AcDbBlockTableRecord
  2
*D19
340
0
  0
BLOCK_RECORD
  5
7C0B
330
1
100
AcDbSymbolTableRecord
100
AcDbBlockTableRecord
  2
*D20
340
0
  0
BLOCK_RECORD
  5
7C79
330
1
100
AcDbSymbolTableRecord
100
AcDbBlockTableRecord
  2
*D21
340
0
  0
BLOCK_RECORD
  5
7CA3
330
1
100
AcDbSymbolTableRecord
100
AcDbBlockTableRecord
  2
*D22
340
0
  0
BLOCK_RECORD
  5
7D1C
330
1
100
AcDbSymbolTableRecord
100
AcDbBlockTableRecord
  2
*D23
340
0
  0
BLOCK_RECORD
  5
7F10
330
1
100
AcDbSymbolTableRecord
100
AcDbBlockTableRecord
  2
*S27
340
0
  0
BLOCK_RECORD
  5
7F19
330
1
100
AcDbSymbolTableRecord
100
AcDbBlockTableRecord
  2
*S28
340
0
  0
ENDTAB
  0
ENDSEC
  0
SECTION
  2
BLOCKS
  0
BLOCK
  5
20
330
1F
100
AcDbEntity
  8
0
100
AcDbBlockBegin
  2
*Model_Space
 70
     0
 10
0.0
 20
0.0
 30
0.0
  3
*Model_Space
  1

  0
ENDBLK
  5
21
330
1F
100
AcDbEntity
  8
0
100
AcDbBlockEnd
  0
BLOCK
  5
1C
330
1B
100
AcDbEntity
 67
     1
  8
0
100
AcDbBlockBegin
  2
*Paper_Space
 70
     0
 10
0.0
 20
0.0
 30
0.0
  3
*Paper_Space
  1

  0
ENDBLK
  5
1D
330
1B
100
AcDbEntity
 67
     1
  8
0
100
AcDbBlockEnd
  0
BLOCK
  5
89
330
87
100
AcDbEntity
  8
0
100
AcDbBlockBegin
  2
GENAXEH
 70
     0
 10
0.0
 20
0.0
 30
0.0
  3
GENAXEH
  1

  0
LINE
  5
88
330
87
100
AcDbEntity
  8
0
100
AcDbLine
 10
-1.0
 20
0.0
 30
0.0
 11
1.0
 21
0.0
 31
0.0
  0
ENDBLK
  5
8A
330
87
100
AcDbEntity
  8
0
100
AcDbBlockEnd
  0
BLOCK
  5
2FC
330
2FB
100
AcDbEntity
  8
0
100
AcDbBlockBegin
  2
_DatumFilled
 70
     0
 10
0.0
 20
0.0
 30
0.0
  3
_DatumFilled
  1

  0
SOLID
  5
2FD
330
2FB
100
AcDbEntity
  8
0
  6
ByBlock
 62
     0
100
AcDbTrace
 10
0.0
 20
0.5773502700000001
 30
0.0
 11
-1.0
 21
0.0
 31
0.0
 12
0.0
 22
-0.5773502700000001
 32
0.0
 13
0.0
 23
-0.5773502700000001
 33
0.0
  0
ENDBLK
  5
2FE
330
2FB
100
AcDbEntity
  8
0
100
AcDbBlockEnd
  0
BLOCK
  5
300
330
2FF
100
AcDbEntity
  8
0
100
AcDbBlockBegin
  2
_None
 70
     0
 10
0.0
 20
0.0
 30
0.0
  3
_None
  1

  0
ENDBLK
  5
301
330
2FF
100
AcDbEntity
  8
0
100
AcDbBlockEnd
  0
BLOCK
  5
128B
330
125D
100
AcDbEntity
  8
0
100
AcDbBlockBegin
  2
A$C75C560CA
 70
     0
 10
0.0
 20
0.0
 30
0.0
  3
A$C75C560CA
  1

  0
TEXT
  5
125E
330
125D
100
AcDbEntity
  8
FRAME
100
AcDbText
 10
198.0618690923416
 20
18.19796331725411
 30
0.0
 40
2.6
  1
M 1:1.5
 41
0.7
  7
ROMANS
100
AcDbText
  0
MTEXT
  5
125F
330
125D
100
AcDbEntity
  8
DIM
100
AcDbMText
 10
147.8052230115329
 20
14.75214036007798
 30
0.0
 40
2.0
 41
25.0
 71
     1
 72
     5
  1
X       %%p0.5\P1PL     %%p0.2\P2PL     %%p0.1\PANGLE   %%p30'
  7
ROMANS
 73
     1
 44
1.0
1001
ACAD
1000
MTEXTBEGIN
1070
    73
1070
     1
1070
    44
1040
1.0
1070
    74
1070
     0
1000
MTEXTEND
  0
LWPOLYLINE
  5
1260
330
125D
100
AcDbEntity
  8
SPEC
100
AcDbPolyline
 90
        2
 70
     0
 43
0.0
 10
46.10857599724545
 20
22.43272629327407
 10
107.7609609669623
 20
22.43272629327407
  0
LINE
  5
1261
330
125D
100
AcDbEntity
  8
SPEC
  6
HIDDEN
100
AcDbLine
 10
95.76650416238317
 20
4.962468073120362
 30
0.0
 11
130.435771777227
 21
4.962468073120362
 31
0.0
  0
TEXT
  5
1262
330
125D
100
AcDbEntity
  8
DATA
 62
     1
100
AcDbText
 10
93.21139064254088
 20
5.812552698566491
 30
0.0
 40
4.0
  1
(ST4018M0406-B)
 41
0.7
  7
ROMANS
100
AcDbText
  0
TEXT
  5
1263
330
125D
100
AcDbEntity
  8
DATA
 62
     1
100
AcDbText
 10
231.317878293991
 20
2.415962237127928
 30
0.0
 40
4.0
  1
ST4018M0406
 41
0.7
  7
ROMANS
100
AcDbText
  0
TEXT
  5
1264
330
125D
100
AcDbEntity
  8
DATA
 62
     1
100
AcDbText
 10
93.38807665210561
 20
11.87217307676974
 30
0.0
 40
4.0
  1
ST4018M0406-A
 41
0.7
  7
ROMANS
100
AcDbText
  0
LWPOLYLINE
  5
1265
330
125D
100
AcDbEntity
  8
SPEC
100
AcDbPolyline
 90
        2
 70
     0
 43
0.0
 10
0.0
 20
22.43272629327407
 10
46.20410858955392
 20
22.43272629327407
  0
LINE
  5
1266
330
125D
100
AcDbEntity
  8
DIM
100
AcDbLine
 10
146.5280168612521
 20
16.58038901312318
 30
0.0
 11
213.8442914438065
 21
16.58038901312318
 31
0.0
  0
LINE
  5
1267
330
125D
100
AcDbEntity
  8
DIM
100
AcDbLine
 10
228.8020370376457
 20
12.55466422304016
 30
0.0
 11
228.8020370376457
 21
0.466065179059342
 31
0.0
  0
LINE
  5
1268
330
125D
100
AcDbEntity
  8
DIM
100
AcDbLine
 10
195.7433482585834
 20
22.43272629327407
 30
0.0
 11
195.7433482585834
 21
0.0
 31
0.0
  0
LINE
  5
1269
330
125D
100
AcDbEntity
  8
DIM
100
AcDbLine
 10
178.9743605596215
 20
22.40187586043203
 30
0.0
 11
178.9743605596215
 21
6.730972725647461
 31
0.0
  0
LINE
  5
126A
330
125D
100
AcDbEntity
  8
DIM
100
AcDbLine
 10
167.6954380838244
 20
0.0
 30
0.0
 11
167.6954380838244
 21
22.32683486367228
 31
0.0
  0
LINE
  5
126B
330
125D
100
AcDbEntity
  8
DIM
100
AcDbLine
 10
167.9351755979376
 20
22.43272629327407
 30
0.0
 11
167.9351755979376
 21
0.0
 31
0.0
  0
LINE
  5
126C
330
125D
100
AcDbEntity
  8
DIM
100
AcDbLine
 10
213.8442921475325
 20
22.43272629327407
 30
0.0
 11
213.8442921475325
 21
0.0
 31
0.0
  0
LINE
  5
126D
330
125D
100
AcDbEntity
  8
DIM
100
AcDbLine
 10
74.01093817688343
 20
22.44942325395482
 30
0.0
 11
74.01093817688343
 21
0.0031114061869175
 31
0.0
  0
LINE
  5
126E
330
125D
100
AcDbEntity
  8
DIM
100
AcDbLine
 10
89.1300425376794
 20
22.44942325395482
 30
0.0
 11
89.1300425376794
 21
-0.0380746962764533
 31
0.0
  0
LINE
  5
126F
330
125D
100
AcDbEntity
  8
DIM
100
AcDbLine
 10
52.48454273927814
 20
22.43272629327407
 30
0.0
 11
52.48454273927814
 21
-0.0273489207340845
 31
0.0
  0
LINE
  5
1270
330
125D
100
AcDbEntity
  8
DIM
100
AcDbLine
 10
0.0
 20
22.43272629327407
 30
0.0
 11
292.2263229886494
 21
22.43272629327407
 31
0.0
  0
LINE
  5
1271
330
125D
100
AcDbEntity
  8
DIM
100
AcDbLine
 10
89.1300425376794
 20
17.17069886361321
 30
0.0
 11
0.1625959174562013
 21
17.17069886361321
 31
0.0
  0
LINE
  5
1272
330
125D
100
AcDbEntity
  8
DIM
100
AcDbLine
 10
0.1625959174562013
 20
11.90867143395235
 30
0.0
 11
89.1300425376794
 21
11.90867143395235
 31
0.0
  0
LINE
  5
1273
330
125D
100
AcDbEntity
  8
DIM
100
AcDbLine
 10
0.3324718815085816
 20
6.646644004291488
 30
0.0
 11
89.1300425376794
 21
6.646644004291488
 31
0.0
  0
LINE
  5
1274
330
125D
100
AcDbEntity
  8
DIM
100
AcDbLine
 10
11.37444121259409
 20
22.43272629327407
 30
0.0
 11
11.37444121259409
 21
0.0
 31
0.0
  0
LINE
  5
1275
330
125D
100
AcDbEntity
  8
DIM
100
AcDbLine
 10
213.8442921475325
 20
6.719875644631542
 30
0.0
 11
167.6954380838244
 21
6.719875644631542
 31
0.0
  0
LINE
  5
1276
330
125D
100
AcDbEntity
  8
DIM
100
AcDbLine
 10
167.6954380838244
 20
11.60070934481985
 30
0.0
 11
213.8442921475325
 21
11.60070934481985
 31
0.0
  0
TEXT
  5
1277
330
125D
100
AcDbEntity
  8
DIM
100
AcDbText
 10
149.3843128235895
 20
18.01141814143534
 30
0.0
 40
2.5
  1
SCALE FREE
 41
0.7
  7
ROMANS
 72
     2
 11
165.3009794902561
 21
18.01141814143534
 31
0.0
100
AcDbText
  0
LINE
  5
1278
330
125D
100
AcDbEntity
  8
DIM
100
AcDbLine
 10
146.5280168612521
 20
22.43272629327407
 30
0.0
 11
146.5280168612521
 21
0.0
 31
0.0
  0
TEXT
  5
1279
330
125D
100
AcDbEntity
  8
DIM
100
AcDbText
 10
75.4322038344294
 20
2.370654514404577
 30
0.0
 40
3.0
  1
APVD
 41
0.7
  7
ROMANS
100
AcDbText
  0
TEXT
  5
127A
330
125D
100
AcDbEntity
  8
DIM
100
AcDbText
 10
55.94274150779165
 20
2.370654514404577
 30
0.0
 40
3.0
  1
DATE
 41
0.7
  7
ROMANS
100
AcDbText
  0
TEXT
  5
127B
330
125D
100
AcDbEntity
  8
DIM
100
AcDbText
 10
14.2016707071748
 20
2.370654514404577
 30
0.0
 40
3.0
  1
DESCRIPTION
 41
0.7
  7
ROMANS
100
AcDbText
  0
TEXT
  5
127C
330
125D
100
AcDbEntity
  8
DIM
100
AcDbText
 10
2.706016815254362
 20
2.370654514404577
 30
0.0
 40
3.0
  1
REV
 41
0.7
  7
ROMANS
 72
     2
 11
8.406016815254361
 21
2.370654514404577
 31
0.0
100
AcDbText
  0
TEXT
  5
127D
330
125D
100
AcDbEntity
  8
DIM
100
AcDbText
 10
169.8977377686171
 20
17.46653611070155
 30
0.0
 40
3.0
  1
APVD
 41
0.7
  7
ROMANS
 72
     2
 11
177.3977377686171
 21
17.46653611070155
 31
0.0
100
AcDbText
  0
TEXT
  5
127E
330
125D
100
AcDbEntity
  8
DIM
100
AcDbText
 10
169.0333720135623
 20
12.69433802244657
 30
0.0
 40
3.0
  1
CHKD
 41
0.7
  7
ROMANS
 72
     2
 11
177.2333720135623
 21
12.69433802244657
 31
0.0
100
AcDbText
  0
TEXT
  5
127F
330
125D
100
AcDbEntity
  8
DIM
100
AcDbText
 10
170.0393831475915
 20
7.524456556443624
 30
0.0
 40
3.0
  1
DRN
 41
0.7
  7
ROMANS
 72
     2
 11
176.0393831475915
 21
7.524456556443624
 31
0.0
100
AcDbText
  0
TEXT
  5
1280
330
125D
100
AcDbEntity
  8
DIM
100
AcDbText
 10
172.2752627425855
 20
2.329814948448756
 30
0.0
 40
3.0
  1
SIGNATURE
 41
0.7
  7
ROMANS
 72
     2
 11
188.7752627425855
 21
2.329814948448756
 31
0.0
100
AcDbText
  0
TEXT
  5
1281
330
125D
100
AcDbEntity
  8
DIM
100
AcDbText
 10
201.0406724436551
 20
2.224204435222077
 30
0.0
 40
3.0
  1
DATE
 41
0.7
  7
ROMANS
 72
     2
 11
208.240672443655
 21
2.224204435222077
 31
0.0
100
AcDbText
  0
TEXT
  5
1282
330
125D
100
AcDbEntity
  8
DIM
100
AcDbText
 10
218.9507052575232
 20
15.70268350642743
 30
0.0
 40
3.799999999999999
  1
STEPPING MOTOR
 41
0.8
  7
ITALICT
 72
     2
 11
263.9716576384756
 21
15.70268350642743
 31
0.0
100
AcDbText
  0
LINE
  5
1283
330
125D
100
AcDbEntity
  8
DIM
100
AcDbLine
 10
213.8442921475325
 20
12.57581317811855
 30
0.0
 11
291.9564623227739
 21
12.57581317811855
 31
0.0
  0
TEXT
  5
1284
330
125D
100
AcDbEntity
  8
DIM
100
AcDbText
 10
229.779050611357
 20
8.525813178118596
 30
0.0
 40
2.5
  1
DWG.NO
 41
0.7
  7
ROMANS
 72
     2
 11
239.529050611357
 21
8.525813178118596
 31
0.0
100
AcDbText
  0
TEXT
  5
1285
330
125D
100
AcDbEntity
  8
DATA
 62
     1
100
AcDbText
 10
92.69009844013249
 20
17.14709370037587
 30
0.0
 40
3.0
  1
NANOTEC:
 41
0.7
  7
ROMANS
100
AcDbText
  0
TEXT
  5
1286
330
125D
100
AcDbEntity
  8
FRAME
100
AcDbText
 10
196.2632570647433
 20
7.811243394680104
 30
0.0
 40
2.6
  1
14.02.06
 41
0.7
  7
ROMANS
100
AcDbText
  0
LINE
  5
1287
330
125D
100
AcDbEntity
  8
SPEC
100
AcDbLine
 10
0.0
 20
22.43272629327407
 30
0.0
 11
0.0
 21
124.0795686925671
 31
0.0
  0
TEXT
  5
1288
330
125D
100
AcDbEntity
  8
DIM
100
AcDbText
 10
1.48247182125101
 20
198.3559972407229
 30
0.0
 40
3.0
  1
DIMENSION (UNIT : mm)
 41
0.7
  7
ROMANS
100
AcDbText
  0
LWPOLYLINE
  5
1289
330
125D
100
AcDbEntity
  8
DIM
 62
     4
100
AcDbPolyline
 90
        4
 70
     1
 43
0.6
 10
0.0
 20
202.9639180777265
 10
0.0
 20
0.0
 10
291.9564623227739
 20
0.0
 10
291.9564623227739
 20
202.9639180777265
  0
ENDBLK
  5
128C
330
125D
100
AcDbEntity
  8
0
100
AcDbBlockEnd
  0
BLOCK
  5
1A56
330
1A4C
100
AcDbEntity
  8
0
100
AcDbBlockBegin
  2
*D5
 70
     1
 10
0.0
 20
0.0
 30
0.0
  3
*D5
  1

  0
LINE
  5
7E16
330
1A4C
100
AcDbEntity
  8
DIM
 62
     3
370
    -2
100
AcDbLine
 10
139.9063688288351
 20
73.09868988223387
 30
0.0
 11
139.9063688288351
 21
54.91119174080847
 31
0.0
  0
LINE
  5
7E17
330
1A4C
100
AcDbEntity
  8
DIM
 62
     3
370
    -2
100
AcDbLine
 10
149.0972407104071
 20
59.09299455805125
 30
0.0
 11
149.0972407104071
 21
54.91119174080847
 31
0.0
  0
LINE
  5
7E18
330
1A4C
100
AcDbEntity
  8
DIM
 62
     3
100
AcDbLine
 10
142.3063688288351
 20
55.91119174080848
 30
0.0
 11
149.0972407104071
 21
55.91119174080848
 31
0.0
  0
SOLID
  5
7E19
330
1A4C
100
AcDbEntity
  8
DIM
 62
     3
100
AcDbTrace
 10
142.3063688288351
 20
56.31119174080847
 30
0.0
 11
142.3063688288351
 21
55.51119174080848
 31
0.0
 12
139.9063688288351
 22
55.91119174080848
 32
0.0
 13
139.9063688288351
 23
55.91119174080848
 33
0.0
  0
MTEXT
  5
7E1A
330
1A4C
100
AcDbEntity
  8
DIM
 62
     6
100
AcDbMText
 10
144.4901433864878
 20
58.11119174080848
 30
0.0
 40
2.399999999999999
 41
0.0
 71
     5
 72
     1
  1
\A1;a
  7
ROMANS
 73
     1
 44
1.0
1001
ACAD
1000
MTEXTBEGIN
1070
    73
1070
     1
1070
    44
1040
1.0
1070
    74
1070
     0
1000
MTEXTEND
  0
POINT
  5
7E1B
330
1A4C
100
AcDbEntity
  8
Defpoints
 62
     0
100
AcDbPoint
 10
139.9063688288351
 20
74.09868988223387
 30
0.0
  0
POINT
  5
7E1C
330
1A4C
100
AcDbEntity
  8
Defpoints
 62
     0
100
AcDbPoint
 10
149.0972407104071
 20
60.09299455805124
 30
0.0
  0
POINT
  5
7E1D
330
1A4C
100
AcDbEntity
  8
Defpoints
 62
     0
100
AcDbPoint
 10
149.0972407104071
 20
55.91119174080848
 30
0.0
  0
ENDBLK
  5
1A57
330
1A4C
100
AcDbEntity
  8
0
100
AcDbBlockEnd
  0
BLOCK
  5
2CC3
330
2CC0
100
AcDbEntity
  8
0
100
AcDbBlockBegin
  2
A$C718C4946
 70
     0
 10
0.0
 20
0.0
 30
0.0
  3
A$C718C4946
  1

  0
TEXT
  5
2CC1
330
2CC0
100
AcDbEntity
  8
DATA
100
AcDbText
 10
-0.3199997827265406
 20
-0.0000001889967507
 30
0.0
 40
2.4
  1
60%%P15%
 41
0.7
  7
ROMANS
100
AcDbText
  0
ENDBLK
  5
2CC4
330
2CC0
100
AcDbEntity
  8
0
100
AcDbBlockEnd
  0
BLOCK
  5
2F8A
330
2F89
100
AcDbEntity
  8
0
100
AcDbBlockBegin
  2
_DotSmall
 70
     0
 10
0.0
 20
0.0
 30
0.0
  3
_DotSmall
  1

  0
LWPOLYLINE
  5
2F8B
330
2F89
100
AcDbEntity
  8
0
  6
ByBlock
 62
     0
100
AcDbPolyline
 90
        2
 70
     1
 43
0.5
 10
-0.0625
 20
0.0
 42
1.0
 10
0.0625
 20
0.0
 42
1.0
  0
ENDBLK
  5
2F8C
330
2F89
100
AcDbEntity
  8
0
100
AcDbBlockEnd
  0
BLOCK
  5
5BA5
330
5B9E
100
AcDbEntity
  8
0
100
AcDbBlockBegin
  2
*D8
 70
     1
 10
0.0
 20
0.0
 30
0.0
  3
*D8
  1

  0
LINE
  5
709C
330
5B9E
100
AcDbEntity
  8
AM_5
 62
     3
100
AcDbLine
 10
127.3758105278284
 20
75.86098729582364
 30
0.0
 11
131.9011157408814
 21
75.86098729582364
 31
0.0
  0
SOLID
  5
709D
330
5B9E
100
AcDbEntity
  8
AM_5
 62
     3
100
AcDbTrace
 10
127.3758105278284
 20
76.36098729582363
 30
0.0
 11
127.3758105278284
 21
75.36098729582363
 31
0.0
 12
124.3758105278284
 22
75.86098729582364
 32
0.0
 13
124.3758105278284
 23
75.86098729582364
 33
0.0
  0
SOLID
  5
709E
330
5B9E
100
AcDbEntity
  8
AM_5
 62
     3
100
AcDbTrace
 10
131.9011157408814
 20
76.36098729582363
 30
0.0
 11
131.9011157408814
 21
75.36098729582363
 31
0.0
 12
134.9011157408813
 22
75.86098729582364
 32
0.0
 13
134.9011157408813
 23
75.86098729582364
 33
0.0
  0
POINT
  5
709F
330
5B9E
100
AcDbEntity
  8
Defpoints
 62
     0
100
AcDbPoint
 10
124.3758105278284
 20
75.86098729582362
 30
0.0
  0
POINT
  5
70A0
330
5B9E
100
AcDbEntity
  8
Defpoints
 62
     0
100
AcDbPoint
 10
134.9011157408813
 20
75.86098729582364
 30
0.0
  0
POINT
  5
70A1
330
5B9E
100
AcDbEntity
  8
Defpoints
 62
     0
100
AcDbPoint
 10
134.9011157408813
 20
75.86098729582364
 30
0.0
  0
ENDBLK
  5
5BA6
330
5B9E
100
AcDbEntity
  8
0
100
AcDbBlockEnd
  0
BLOCK
  5
66D4
330
66C9
100
AcDbEntity
  8
0
100
AcDbBlockBegin
  2
*D9
 70
     1
 10
0.0
 20
0.0
 30
0.0
  3
*D9
  1

  0
LINE
  5
7CFA
330
66C9
100
AcDbEntity
  8
DIM
  6
ACISOTGL
 62
     3
370
    -2
100
AcDbLine
 10
1144.929854368879
 20
672.0879788286845
 30
0.0
 11
1144.929854368879
 21
718.0040343400114
 31
0.0
  0
LINE
  5
7CFB
330
66C9
100
AcDbEntity
  8
DIM
  6
ACISOTGL
 62
     3
370
    -2
100
AcDbLine
 10
1163.979854368879
 20
672.0879788286845
 30
0.0
 11
1163.979854368879
 21
718.0040343400114
 31
0.0
  0
LINE
  5
7CFC
330
66C9
100
AcDbEntity
  8
DIM
  6
ACISOTGL
 62
     3
100
AcDbLine
 10
1147.929854368879
 20
717.0040343400114
 30
0.0
 11
1160.979854368879
 21
717.0040343400114
 31
0.0
  0
SOLID
  5
7CFD
330
66C9
100
AcDbEntity
  8
DIM
  6
ACISOTGL
 62
     3
100
AcDbTrace
 10
1147.929854368879
 20
717.5040343400114
 30
0.0
 11
1147.929854368879
 21
716.5040343400114
 31
0.0
 12
1144.929854368879
 22
717.0040343400114
 32
0.0
 13
1144.929854368879
 23
717.0040343400114
 33
0.0
  0
SOLID
  5
7CFE
330
66C9
100
AcDbEntity
  8
DIM
  6
ACISOTGL
 62
     3
100
AcDbTrace
 10
1160.979854368879
 20
717.5040343400114
 30
0.0
 11
1160.979854368879
 21
716.5040343400114
 31
0.0
 12
1163.979854368879
 22
717.0040343400114
 32
0.0
 13
1163.979854368879
 23
717.0040343400114
 33
0.0
  0
MTEXT
  5
7CFF
330
66C9
100
AcDbEntity
  8
DIM
  6
ACISOTGL
 62
     6
100
AcDbMText
 10
1153.906525947443
 20
719.1196550767099
 30
0.0
 40
3.0
 41
0.0
 71
     5
 72
     1
  1
\A1;%%c19.05
 73
     1
 44
1.0
1001
ACAD
1000
MTEXTBEGIN
1070
    73
1070
     1
1070
    44
1040
1.0
1070
    74
1070
     0
1000
MTEXTEND
  0
POINT
  5
7D00
330
66C9
100
AcDbEntity
  8
Defpoints
  6
ACISOTGL
 62
     0
100
AcDbPoint
 10
1144.929854368879
 20
671.0879788286845
 30
0.0
  0
POINT
  5
7D01
330
66C9
100
AcDbEntity
  8
Defpoints
  6
ACISOTGL
 62
     0
100
AcDbPoint
 10
1163.979854368879
 20
671.0879788286845
 30
0.0
  0
POINT
  5
7D02
330
66C9
100
AcDbEntity
  8
Defpoints
  6
ACISOTGL
 62
     0
100
AcDbPoint
 10
1163.979854368879
 20
717.0040343400114
 30
0.0
  0
ENDBLK
  5
66D5
330
66C9
100
AcDbEntity
  8
0
100
AcDbBlockEnd
  0
BLOCK
  5
72B7
330
72AD
100
AcDbEntity
  8
0
100
AcDbBlockBegin
  2
*D10
 70
     1
 10
0.0
 20
0.0
 30
0.0
  3
*D10
  1

  0
LINE
  5
7B28
330
72AD
100
AcDbEntity
  8
AM_5
 62
     3
370
    -2
100
AcDbLine
 10
846.689988820462
 20
702.0879788286848
 30
0.0
 11
846.689988820462
 21
710.2686436706731
 31
0.0
  0
LINE
  5
7B29
330
72AD
100
AcDbEntity
  8
AM_5
 62
     3
370
    -2
100
AcDbLine
 10
893.8299888204623
 20
702.0879788286848
 30
0.0
 11
893.8299888204623
 21
710.2686436706731
 31
0.0
  0
LINE
  5
7B2A
330
72AD
100
AcDbEntity
  8
AM_5
 62
     3
100
AcDbLine
 10
849.689988820462
 20
709.268643670673
 30
0.0
 11
890.8299888204624
 21
709.268643670673
 31
0.0
  0
SOLID
  5
7B2B
330
72AD
100
AcDbEntity
  8
AM_5
 62
     3
100
AcDbTrace
 10
849.689988820462
 20
709.768643670673
 30
0.0
 11
849.689988820462
 21
708.768643670673
 31
0.0
 12
846.689988820462
 22
709.268643670673
 32
0.0
 13
846.689988820462
 23
709.268643670673
 33
0.0
  0
SOLID
  5
7B2C
330
72AD
100
AcDbEntity
  8
AM_5
 62
     3
100
AcDbTrace
 10
890.8299888204624
 20
709.768643670673
 30
0.0
 11
890.8299888204624
 21
708.768643670673
 31
0.0
 12
893.8299888204623
 22
709.268643670673
 32
0.0
 13
893.8299888204623
 23
709.268643670673
 33
0.0
  0
MTEXT
  5
7B2D
330
72AD
100
AcDbEntity
  8
AM_5
 62
     6
100
AcDbMText
 10
870.2599888204622
 20
711.7952466720374
 30
0.0
 40
3.0
 41
0.0
 71
     5
 72
     1
  1
\A1;{\Famgdt|c0;o} 47.14{\H2.400000;±0.2}
 73
     1
 44
1.0
1001
ACAD
1000
MTEXTBEGIN
1070
    73
1070
     1
1070
    44
1040
1.0
1070
    74
1070
     0
1000
MTEXTEND
  0
POINT
  5
7B2E
330
72AD
100
AcDbEntity
  8
Defpoints
 62
     0
100
AcDbPoint
 10
846.689988820462
 20
701.0879788286847
 30
0.0
  0
POINT
  5
7B2F
330
72AD
100
AcDbEntity
  8
Defpoints
 62
     0
100
AcDbPoint
 10
893.8299888204623
 20
701.0879788286847
 30
0.0
  0
POINT
  5
7B30
330
72AD
100
AcDbEntity
  8
Defpoints
 62
     0
100
AcDbPoint
 10
893.8299888204623
 20
709.268643670673
 30
0.0
  0
ENDBLK
  5
72B8
330
72AD
100
AcDbEntity
  8
0
100
AcDbBlockEnd
  0
BLOCK
  5
72F3
330
72E9
100
AcDbEntity
  8
0
100
AcDbBlockBegin
  2
*D11
 70
     1
 10
0.0
 20
0.0
 30
0.0
  3
*D11
  1

  0
LINE
  5
7B16
330
72E9
100
AcDbEntity
  8
AM_5
 62
     3
370
    -2
100
AcDbLine
 10
840.2599888204623
 20
697.0879788286847
 30
0.0
 11
840.2599888204623
 21
719.1739436611812
 31
0.0
  0
LINE
  5
7B17
330
72E9
100
AcDbEntity
  8
AM_5
 62
     3
370
    -2
100
AcDbLine
 10
900.2599888204617
 20
697.0879788286847
 30
0.0
 11
900.2599888204617
 21
719.1739436611812
 31
0.0
  0
LINE
  5
7B18
330
72E9
100
AcDbEntity
  8
AM_5
 62
     3
100
AcDbLine
 10
843.2599888204622
 20
718.1739436611812
 30
0.0
 11
897.2599888204618
 21
718.1739436611812
 31
0.0
  0
SOLID
  5
7B19
330
72E9
100
AcDbEntity
  8
AM_5
 62
     3
100
AcDbTrace
 10
843.2599888204622
 20
718.6739436611812
 30
0.0
 11
843.2599888204622
 21
717.6739436611812
 31
0.0
 12
840.2599888204623
 22
718.1739436611812
 32
0.0
 13
840.2599888204623
 23
718.1739436611812
 33
0.0
  0
SOLID
  5
7B1A
330
72E9
100
AcDbEntity
  8
AM_5
 62
     3
100
AcDbTrace
 10
897.2599888204618
 20
718.6739436611812
 30
0.0
 11
897.2599888204618
 21
717.6739436611812
 31
0.0
 12
900.2599888204617
 22
718.1739436611812
 32
0.0
 13
900.2599888204617
 23
718.1739436611812
 33
0.0
  0
MTEXT
  5
7B1B
330
72E9
100
AcDbEntity
  8
AM_5
 62
     6
100
AcDbMText
 10
870.259988820462
 20
720.7056626243463
 30
0.0
 40
3.0
 41
0.0
 71
     5
 72
     1
  1
\A1;{\Famgdt|c0;o} 60{\H2.400000;±0.5}
 73
     1
 44
1.0
1001
ACAD
1000
MTEXTBEGIN
1070
    73
1070
     1
1070
    44
1040
1.0
1070
    74
1070
     0
1000
MTEXTEND
  0
POINT
  5
7B1C
330
72E9
100
AcDbEntity
  8
Defpoints
 62
     0
100
AcDbPoint
 10
840.2599888204623
 20
696.0879788286847
 30
0.0
  0
POINT
  5
7B1D
330
72E9
100
AcDbEntity
  8
Defpoints
 62
     0
100
AcDbPoint
 10
900.2599888204617
 20
696.0879788286847
 30
0.0
  0
POINT
  5
7B1E
330
72E9
100
AcDbEntity
  8
Defpoints
 62
     0
100
AcDbPoint
 10
900.2599888204617
 20
718.1739436611812
 30
0.0
  0
ENDBLK
  5
72F4
330
72E9
100
AcDbEntity
  8
0
100
AcDbBlockEnd
  0
BLOCK
  5
77B1
330
77A5
100
AcDbEntity
  8
0
100
AcDbBlockBegin
  2
*D12
 70
     1
 10
0.0
 20
0.0
 30
0.0
  3
*D12
  1

  0
LINE
  5
7942
330
77A5
100
AcDbEntity
  8
AM_5
 62
     3
370
    -2
100
AcDbLine
 10
971.7051633688605
 20
691.1379788259112
 30
0.0
 11
971.7038330371286
 21
709.0007141374229
 31
0.0
  0
LINE
  5
7943
330
77A5
100
AcDbEntity
  8
AM_5
 62
     3
370
    -2
100
AcDbLine
 10
973.3051633688601
 20
702.0879436439019
 30
0.0
 11
973.3046485296497
 21
709.0008333585617
 31
0.0
  0
LINE
  5
7944
330
77A5
100
AcDbEntity
  8
AM_5
 62
     3
100
AcDbLine
 10
973.3047230049024
 20
708.000833361335
 30
0.0
 11
979.3047229882628
 21
708.001280212852
 31
0.0
  0
LINE
  5
7945
330
77A5
100
AcDbEntity
  8
AM_5
 62
     3
100
AcDbLine
 10
968.7039075207012
 20
708.0004907144378
 30
0.0
 11
958.5262712005402
 21
707.9997327323978
 31
0.0
  0
LINE
  5
7946
330
77A5
100
AcDbEntity
  8
AM_5
 62
     3
100
AcDbLine
 10
973.3047230049024
 20
708.000833361335
 30
0.0
 11
971.7039075123814
 21
708.0007141401962
 31
0.0
  0
INSERT
  5
7947
330
77A5
100
AcDbEntity
  8
AM_5
 62
     3
100
AcDbBlockReference
  2
_DotSmall
 10
973.3047230049024
 20
708.000833361335
 30
0.0
 41
3.0
 42
3.0
 43
3.0
 50
180.0042671176681
  0
SOLID
  5
7948
330
77A5
100
AcDbEntity
  8
AM_5
 62
     3
100
AcDbTrace
 10
968.7038702830747
 20
708.5004907130511
 30
0.0
 11
968.7039447583277
 21
707.5004907158244
 31
0.0
 12
971.7039075123814
 22
708.0007141401962
 32
0.0
 13
971.7039075123814
 23
708.0007141401962
 33
0.0
  0
MTEXT
  5
7949
330
77A5
100
AcDbEntity
  8
AM_5
 62
     6
100
AcDbMText
 10
962.1147593113921
 20
710.5317189561439
 30
0.0
 40
3.0
 41
0.0
 71
     5
 72
     1
  1
\A1;1.6
 11
0.9999999972267183
 21
0.0000744752528094
 31
0.0
 73
     1
 44
1.0
1001
ACAD
1000
MTEXTBEGIN
1070
    73
1070
     1
1070
    44
1040
1.0
1070
    74
1070
     0
1000
MTEXTEND
  0
POINT
  5
794A
330
77A5
100
AcDbEntity
  8
Defpoints
 62
     0
100
AcDbPoint
 10
971.7052378441133
 20
690.1379788286845
 30
0.0
  0
POINT
  5
794B
330
77A5
100
AcDbEntity
  8
Defpoints
 62
     0
100
AcDbPoint
 10
973.3052378441131
 20
701.0879436466751
 30
272.0000000000001
  0
POINT
  5
794C
330
77A5
100
AcDbEntity
  8
Defpoints
 62
     0
100
AcDbPoint
 10
973.3047230049024
 20
708.000833361335
 30
0.0
  0
ENDBLK
  5
77B2
330
77A5
100
AcDbEntity
  8
0
100
AcDbBlockEnd
  0
BLOCK
  5
7809
330
77FF
100
AcDbEntity
  8
0
100
AcDbBlockBegin
  2
*D13
 70
     1
 10
0.0
 20
0.0
 30
0.0
  3
*D13
  1

  0
LINE
  5
7B59
330
77FF
100
AcDbEntity
  8
AM_5
 62
     3
370
    -2
100
AcDbLine
 10
973.3052378441129
 20
702.0879788286845
 30
0.0
 11
973.3052378441129
 21
719.0
 31
0.0
  0
LINE
  5
7B5A
330
77FF
100
AcDbEntity
  8
AM_5
 62
     3
370
    -2
100
AcDbLine
 10
1061.300330873625
 20
702.0879788286845
 30
0.0
 11
1061.300330873625
 21
719.0
 31
0.0
  0
LINE
  5
7B5B
330
77FF
100
AcDbEntity
  8
AM_5
 62
     3
100
AcDbLine
 10
976.3052378441129
 20
718.0
 30
0.0
 11
1058.300330873625
 21
718.0
 31
0.0
  0
SOLID
  5
7B5C
330
77FF
100
AcDbEntity
  8
AM_5
 62
     3
100
AcDbTrace
 10
976.3052378441129
 20
718.5
 30
0.0
 11
976.3052378441129
 21
717.4999999999999
 31
0.0
 12
973.3052378441129
 22
718.0
 32
0.0
 13
973.3052378441129
 23
718.0
 33
0.0
  0
SOLID
  5
7B5D
330
77FF
100
AcDbEntity
  8
AM_5
 62
     3
100
AcDbTrace
 10
1058.300330873625
 20
718.5
 30
0.0
 11
1058.300330873625
 21
717.4999999999999
 31
0.0
 12
1061.300330873625
 22
718.0
 32
0.0
 13
1061.300330873625
 23
718.0
 33
0.0
  0
MTEXT
  5
7B5E
330
77FF
100
AcDbEntity
  8
AM_5
 62
     6
100
AcDbMText
 10
1017.302784358869
 20
720.531718963165
 30
0.0
 40
3.0
 41
0.0
 71
     5
 72
     1
  1
\A1;88{\H2.400000;±1}
 73
     1
 44
1.0
1001
ACAD
1000
MTEXTBEGIN
1070
    73
1070
     1
1070
    44
1040
1.0
1070
    74
1070
     0
1000
MTEXTEND
  0
POINT
  5
7B5F
330
77FF
100
AcDbEntity
  8
Defpoints
 62
     0
100
AcDbPoint
 10
973.3052378441129
 20
701.0879788286845
 30
0.0
  0
POINT
  5
7B60
330
77FF
100
AcDbEntity
  8
Defpoints
 62
     0
100
AcDbPoint
 10
1061.300330873625
 20
701.0879788286845
 30
0.0
  0
POINT
  5
7B61
330
77FF
100
AcDbEntity
  8
Defpoints
 62
     0
100
AcDbPoint
 10
1061.300330873625
 20
718.0
 30
0.0
  0
ENDBLK
  5
780A
330
77FF
100
AcDbEntity
  8
0
100
AcDbBlockEnd
  0
BLOCK
  5
788A
330
787E
100
AcDbEntity
  8
0
100
AcDbBlockBegin
  2
*D14
 70
     1
 10
0.0
 20
0.0
 30
0.0
  3
*D14
  1

  0
LINE
  5
794D
330
787E
100
AcDbEntity
  8
AM_5
 62
     3
370
    -2
100
AcDbLine
 10
973.3052378441129
 20
702.0879788286845
 30
0.0
 11
973.3052378441129
 21
709.0
 31
0.0
  0
LINE
  5
794E
330
787E
100
AcDbEntity
  8
AM_5
 62
     3
370
    -2
100
AcDbLine
 10
978.305237844113
 20
702.0879788286845
 30
0.0
 11
978.305237844113
 21
709.0
 31
0.0
  0
LINE
  5
794F
330
787E
100
AcDbEntity
  8
AM_5
 62
     3
100
AcDbLine
 10
970.305237844113
 20
708.0
 30
0.0
 11
967.3052378441129
 21
708.0
 31
0.0
  0
LINE
  5
7950
330
787E
100
AcDbEntity
  8
AM_5
 62
     3
100
AcDbLine
 10
981.3052378441129
 20
708.0
 30
0.0
 11
988.2943237922713
 21
708.0
 31
0.0
  0
LINE
  5
7951
330
787E
100
AcDbEntity
  8
AM_5
 62
     3
100
AcDbLine
 10
973.3052378441129
 20
708.0
 30
0.0
 11
978.305237844113
 21
708.0
 31
0.0
  0
INSERT
  5
7952
330
787E
100
AcDbEntity
  8
AM_5
 62
     3
100
AcDbBlockReference
  2
_Dot
 10
973.3052378441129
 20
708.0
 30
0.0
 41
3.0
 42
3.0
 43
3.0
  0
SOLID
  5
7953
330
787E
100
AcDbEntity
  8
AM_5
 62
     3
100
AcDbTrace
 10
981.3052378441129
 20
708.4999999999999
 30
0.0
 11
981.3052378441129
 21
707.5
 31
0.0
 12
978.305237844113
 22
708.0
 32
0.0
 13
978.305237844113
 23
708.0
 33
0.0
  0
MTEXT
  5
7954
330
787E
100
AcDbEntity
  8
AM_5
 62
     6
100
AcDbMText
 10
986.2997808181921
 20
710.525579809004
 30
0.0
 40
3.0
 41
0.0
 71
     5
 72
     1
  1
\A1;5
 73
     1
 44
1.0
1001
ACAD
1000
MTEXTBEGIN
1070
    73
1070
     1
1070
    44
1040
1.0
1070
    74
1070
     0
1000
MTEXTEND
  0
POINT
  5
7955
330
787E
100
AcDbEntity
  8
Defpoints
 62
     0
100
AcDbPoint
 10
973.3052378441129
 20
701.0879788286845
 30
0.0
  0
POINT
  5
7956
330
787E
100
AcDbEntity
  8
Defpoints
 62
     0
100
AcDbPoint
 10
978.305237844113
 20
701.0879788286845
 30
0.0
  0
POINT
  5
7957
330
787E
100
AcDbEntity
  8
Defpoints
 62
     0
100
AcDbPoint
 10
978.305237844113
 20
708.0
 30
0.0
  0
ENDBLK
  5
788B
330
787E
100
AcDbEntity
  8
0
100
AcDbBlockEnd
  0
BLOCK
  5
78DF
330
78DC
100
AcDbEntity
  8
0
100
AcDbBlockBegin
  2
_Dot
 70
     0
 10
0.0
 20
0.0
 30
0.0
  3
_Dot
  1

  0
LWPOLYLINE
  5
78DD
330
78DC
100
AcDbEntity
  8
0
  6
ByBlock
 62
     0
100
AcDbPolyline
 90
        2
 70
     1
 43
0.5
 10
-0.25
 20
0.0
 42
1.0
 10
0.25
 20
0.0
 42
1.0
  0
LINE
  5
78DE
330
78DC
100
AcDbEntity
  8
0
  6
ByBlock
 62
     0
370
    -2
100
AcDbLine
 10
-0.5
 20
0.0
 30
0.0
 11
-1.0
 21
0.0
 31
0.0
  0
ENDBLK
  5
78E0
330
78DC
100
AcDbEntity
  8
0
100
AcDbBlockEnd
  0
BLOCK
  5
798F
330
7983
100
AcDbEntity
  8
0
100
AcDbBlockBegin
  2
*D16
 70
     1
 10
0.0
 20
0.0
 30
0.0
  3
*D16
  1

  0
LINE
  5
7A40
330
7983
100
AcDbEntity
  8
AM_5
 62
     3
370
    -2
100
AcDbLine
 10
952.0052378441132
 20
667.0879788286845
 30
0.0
 11
944.5827132557402
 21
667.0879788286845
 31
0.0
  0
LINE
  5
7A41
330
7983
100
AcDbEntity
  8
AM_5
 62
     3
370
    -2
100
AcDbLine
 10
952.0052378441132
 20
675.0879788286844
 30
0.0
 11
944.5827132557402
 21
675.0879788286844
 31
0.0
  0
LINE
  5
7A42
330
7983
100
AcDbEntity
  8
AM_5
 62
     3
100
AcDbLine
 10
945.5827132557402
 20
670.0879788286845
 30
0.0
 11
945.5827132557402
 21
672.0879788286845
 31
0.0
  0
LINE
  5
7A43
330
7983
100
AcDbEntity
  8
AM_5
 62
     3
100
AcDbLine
 10
945.5827132557402
 20
675.0879788286844
 30
0.0
 11
945.5827132557402
 21
708.7376542940055
 31
0.0
  0
SOLID
  5
7A44
330
7983
100
AcDbEntity
  8
AM_5
 62
     3
100
AcDbTrace
 10
945.0827132557403
 20
670.0879788286845
 30
0.0
 11
946.0827132557403
 21
670.0879788286845
 31
0.0
 12
945.5827132557402
 22
667.0879788286845
 32
0.0
 13
945.5827132557402
 23
667.0879788286845
 33
0.0
  0
SOLID
  5
7A45
330
7983
100
AcDbEntity
  8
AM_5
 62
     3
100
AcDbTrace
 10
945.0827132557403
 20
672.0879788286845
 30
0.0
 11
946.0827132557403
 21
672.0879788286845
 31
0.0
 12
945.5827132557402
 22
675.0879788286844
 32
0.0
 13
945.5827132557402
 23
675.0879788286844
 33
0.0
  0
MTEXT
  5
7A46
330
7983
100
AcDbEntity
  8
AM_5
 62
     6
100
AcDbMText
 10
941.6715945654264
 20
700.3942027251106
 30
0.0
 40
3.0
 41
0.0
 71
     5
 72
     1
  1
\A1;%%c8{\H2.400000;\S 0^ -0.015;}
 11
0.0000000000000001
 21
1.0
 31
0.0
 73
     1
 44
1.0
1001
ACAD
1000
MTEXTBEGIN
1070
    73
1070
     1
1070
    44
1040
1.0
1070
    74
1070
     0
1000
MTEXTEND
  0
POINT
  5
7A47
330
7983
100
AcDbEntity
  8
Defpoints
 62
     0
100
AcDbPoint
 10
953.0052378441132
 20
667.0879788286845
 30
0.0
  0
POINT
  5
7A48
330
7983
100
AcDbEntity
  8
Defpoints
 62
     0
100
AcDbPoint
 10
953.0052378441132
 20
675.0879788286844
 30
0.0
  0
POINT
  5
7A49
330
7983
100
AcDbEntity
  8
Defpoints
 62
     0
100
AcDbPoint
 10
945.5827132557402
 20
675.0879788286844
 30
0.0
  0
ENDBLK
  5
7990
330
7983
100
AcDbEntity
  8
0
100
AcDbBlockEnd
  0
BLOCK
  5
7A02
330
79F8
100
AcDbEntity
  8
0
100
AcDbBlockBegin
  2
*D17
 70
     1
 10
0.0
 20
0.0
 30
0.0
  3
*D17
  1

  0
LINE
  5
7A2D
330
79F8
100
AcDbEntity
  8
AM_5
 62
     3
370
    -2
100
AcDbLine
 10
970.7052378441131
 20
690.1379788286845
 30
0.0
 11
936.4669336364352
 21
690.1379788286845
 31
0.0
  0
LINE
  5
7A2E
330
79F8
100
AcDbEntity
  8
AM_5
 62
     3
370
    -2
100
AcDbLine
 10
970.7052378441131
 20
652.0379788286843
 30
0.0
 11
936.4669336364352
 21
652.0379788286843
 31
0.0
  0
LINE
  5
7A2F
330
79F8
100
AcDbEntity
  8
AM_5
 62
     3
100
AcDbLine
 10
937.4669336364352
 20
687.1379788286844
 30
0.0
 11
937.4669336364352
 21
655.0379788286843
 31
0.0
  0
SOLID
  5
7A30
330
79F8
100
AcDbEntity
  8
AM_5
 62
     3
100
AcDbTrace
 10
936.9669336364351
 20
687.1379788286844
 30
0.0
 11
937.9669336364353
 21
687.1379788286844
 31
0.0
 12
937.4669336364352
 22
690.1379788286845
 32
0.0
 13
937.4669336364352
 23
690.1379788286845
 33
0.0
  0
SOLID
  5
7A31
330
79F8
100
AcDbEntity
  8
AM_5
 62
     3
100
AcDbTrace
 10
936.9669336364351
 20
655.0379788286843
 30
0.0
 11
937.9669336364353
 21
655.0379788286843
 31
0.0
 12
937.4669336364352
 22
652.0379788286843
 32
0.0
 13
937.4669336364352
 23
652.0379788286843
 33
0.0
  0
MTEXT
  5
7A32
330
79F8
100
AcDbEntity
  8
AM_5
 62
     6
100
AcDbMText
 10
934.8513128997366
 20
671.0879788286845
 30
0.0
 40
3.0
 41
0.0
 71
     5
 72
     1
  1
\A1;%%c38.1{\H2.400000;±0.05}
 11
0.0000000000000001
 21
1.0
 31
0.0
 73
     1
 44
1.0
1001
ACAD
1000
MTEXTBEGIN
1070
    73
1070
     1
1070
    44
1040
1.0
1070
    74
1070
     0
1000
MTEXTEND
  0
POINT
  5
7A33
330
79F8
100
AcDbEntity
  8
Defpoints
 62
     0
100
AcDbPoint
 10
971.7052378441131
 20
690.1379788286845
 30
0.0
  0
POINT
  5
7A34
330
79F8
100
AcDbEntity
  8
Defpoints
 62
     0
100
AcDbPoint
 10
971.7052378441131
 20
652.0379788286843
 30
0.0
  0
POINT
  5
7A35
330
79F8
100
AcDbEntity
  8
Defpoints
 62
     0
100
AcDbPoint
 10
937.4669336364352
 20
652.0379788286843
 30
0.0
  0
ENDBLK
  5
7A03
330
79F8
100
AcDbEntity
  8
0
100
AcDbBlockEnd
  0
BLOCK
  5
7A64
330
7A5A
100
AcDbEntity
  8
0
100
AcDbBlockBegin
  2
*D18
 70
     1
 10
0.0
 20
0.0
 30
0.0
  3
*D18
  1

  0
LINE
  5
7A98
330
7A5A
100
AcDbEntity
  8
AM_5
 62
     3
370
    -2
100
AcDbLine
 10
973.3052378441129
 20
702.0879788286845
 30
0.0
 11
973.3052378441129
 21
718.9714701047693
 31
0.0
  0
LINE
  5
7A99
330
7A5A
100
AcDbEntity
  8
AM_5
 62
     3
370
    -2
100
AcDbLine
 10
952.705237844113
 20
675.7879788286843
 30
0.0
 11
952.705237844113
 21
718.9714701047693
 31
0.0
  0
LINE
  5
7A9A
330
7A5A
100
AcDbEntity
  8
AM_5
 62
     3
100
AcDbLine
 10
970.305237844113
 20
717.9714701047693
 30
0.0
 11
955.7052378441131
 21
717.9714701047693
 31
0.0
  0
SOLID
  5
7A9B
330
7A5A
100
AcDbEntity
  8
AM_5
 62
     3
100
AcDbTrace
 10
970.305237844113
 20
718.4714701047693
 30
0.0
 11
970.305237844113
 21
717.4714701047693
 31
0.0
 12
973.3052378441129
 22
717.9714701047693
 32
0.0
 13
973.3052378441129
 23
717.9714701047693
 33
0.0
  0
SOLID
  5
7A9C
330
7A5A
100
AcDbEntity
  8
AM_5
 62
     3
100
AcDbTrace
 10
955.7052378441131
 20
718.4714701047693
 30
0.0
 11
955.7052378441131
 21
717.4714701047693
 31
0.0
 12
952.705237844113
 22
717.9714701047693
 32
0.0
 13
952.705237844113
 23
717.9714701047693
 33
0.0
  0
MTEXT
  5
7A9D
330
7A5A
100
AcDbEntity
  8
AM_5
 62
     6
100
AcDbMText
 10
963.1483710061061
 20
720.5031890679343
 30
0.0
 40
3.0
 41
0.0
 71
     5
 72
     1
  1
\A1;20.6{\H2.400000;±1}
 73
     1
 44
1.0
1001
ACAD
1000
MTEXTBEGIN
1070
    73
1070
     1
1070
    44
1040
1.0
1070
    74
1070
     0
1000
MTEXTEND
  0
POINT
  5
7A9E
330
7A5A
100
AcDbEntity
  8
Defpoints
 62
     0
100
AcDbPoint
 10
973.3052378441129
 20
701.0879788286845
 30
0.0
  0
POINT
  5
7A9F
330
7A5A
100
AcDbEntity
  8
Defpoints
 62
     0
100
AcDbPoint
 10
952.705237844113
 20
674.7879788286843
 30
0.0
  0
POINT
  5
7AA0
330
7A5A
100
AcDbEntity
  8
Defpoints
 62
     0
100
AcDbPoint
 10
952.705237844113
 20
717.9714701047693
 30
0.0
  0
ENDBLK
  5
7A65
330
7A5A
100
AcDbEntity
  8
0
100
AcDbBlockEnd
  0
BLOCK
  5
7B7C
330
7B72
100
AcDbEntity
  8
0
100
AcDbBlockBegin
  2
*D19
 70
     1
 10
0.0
 20
0.0
 30
0.0
  3
*D19
  1

  0
LINE
  5
7BCC
330
7B72
100
AcDbEntity
  8
AM_5
  6
ACISOTGL
 62
     3
370
    -2
100
AcDbLine
 10
1061.300330873625
 20
702.094532285502
 30
0.0
 11
1061.300330873625
 21
719.0253569379478
 31
0.0
  0
LINE
  5
7BCD
330
7B72
100
AcDbEntity
  8
AM_5
  6
ACISOTGL
 62
     3
370
    -2
100
AcDbLine
 10
1074.800330873625
 20
674.969532285502
 30
0.0
 11
1074.800330873625
 21
719.0253569379478
 31
0.0
  0
LINE
  5
7BCE
330
7B72
100
AcDbEntity
  8
AM_5
  6
ACISOTGL
 62
     3
100
AcDbLine
 10
1064.300330873624
 20
718.0253569379478
 30
0.0
 11
1071.800330873625
 21
718.0253569379478
 31
0.0
  0
LINE
  5
7BCF
330
7B72
100
AcDbEntity
  8
AM_5
  6
ACISOTGL
 62
     3
100
AcDbLine
 10
1074.800330873625
 20
718.0253569379478
 30
0.0
 11
1090.590098950023
 21
718.0253569379478
 31
0.0
  0
SOLID
  5
7BD0
330
7B72
100
AcDbEntity
  8
AM_5
  6
ACISOTGL
 62
     3
100
AcDbTrace
 10
1064.300330873624
 20
718.5253569379478
 30
0.0
 11
1064.300330873624
 21
717.5253569379478
 31
0.0
 12
1061.300330873625
 22
718.0253569379478
 32
0.0
 13
1061.300330873625
 23
718.0253569379478
 33
0.0
  0
SOLID
  5
7BD1
330
7B72
100
AcDbEntity
  8
AM_5
  6
ACISOTGL
 62
     3
100
AcDbTrace
 10
1071.800330873625
 20
718.5253569379478
 30
0.0
 11
1071.800330873625
 21
717.5253569379478
 31
0.0
 12
1074.800330873625
 22
718.0253569379478
 32
0.0
 13
1074.800330873625
 23
718.0253569379478
 33
0.0
  0
MTEXT
  5
7BD2
330
7B72
100
AcDbEntity
  8
AM_5
  6
ACISOTGL
 62
     6
100
AcDbMText
 10
1084.195214911824
 20
720.5580990934731
 30
0.0
 40
3.0
 41
0.0
 71
     5
 72
     1
  1
\A1;13.5{\H2.400000;±1}
 73
     1
 44
1.0
1001
ACAD
1000
MTEXTBEGIN
1070
    73
1070
     1
1070
    44
1040
1.0
1070
    74
1070
     0
1000
MTEXTEND
  0
POINT
  5
7BD3
330
7B72
100
AcDbEntity
  8
Defpoints
  6
ACISOTGL
 62
     0
100
AcDbPoint
 10
1061.300330873625
 20
701.094532285502
 30
0.0
  0
POINT
  5
7BD4
330
7B72
100
AcDbEntity
  8
Defpoints
  6
ACISOTGL
 62
     0
100
AcDbPoint
 10
1074.800330873625
 20
673.969532285502
 30
0.0
  0
POINT
  5
7BD5
330
7B72
100
AcDbEntity
  8
Defpoints
  6
ACISOTGL
 62
     0
100
AcDbPoint
 10
1074.800330873625
 20
718.0253569379478
 30
0.0
  0
ENDBLK
  5
7B7D
330
7B72
100
AcDbEntity
  8
0
100
AcDbBlockEnd
  0
BLOCK
  5
7C15
330
7C0B
100
AcDbEntity
  8
0
100
AcDbBlockBegin
  2
*D20
 70
     1
 10
0.0
 20
0.0
 30
0.0
  3
*D20
  1

  0
LINE
  5
7D03
330
7C0B
100
AcDbEntity
  8
AM_5
 62
     3
370
    -2
100
AcDbLine
 10
1141.954854368879
 20
631.0879788286844
 30
0.0
 11
1141.954854368879
 21
619.0879788286844
 31
0.0
  0
LINE
  5
7D04
330
7C0B
100
AcDbEntity
  8
AM_5
 62
     3
370
    -2
100
AcDbLine
 10
1166.954854368879
 20
631.0879788286845
 30
0.0
 11
1166.954854368879
 21
619.0879788286844
 31
0.0
  0
LINE
  5
7D05
330
7C0B
100
AcDbEntity
  8
AM_5
 62
     3
100
AcDbLine
 10
1144.954854368879
 20
620.0879788286844
 30
0.0
 11
1163.954854368879
 21
620.0879788286844
 31
0.0
  0
SOLID
  5
7D06
330
7C0B
100
AcDbEntity
  8
AM_5
 62
     3
100
AcDbTrace
 10
1144.954854368879
 20
620.5879788286844
 30
0.0
 11
1144.954854368879
 21
619.5879788286844
 31
0.0
 12
1141.954854368879
 22
620.0879788286844
 32
0.0
 13
1141.954854368879
 23
620.0879788286844
 33
0.0
  0
SOLID
  5
7D07
330
7C0B
100
AcDbEntity
  8
AM_5
 62
     3
100
AcDbTrace
 10
1163.954854368879
 20
620.5879788286844
 30
0.0
 11
1163.954854368879
 21
619.5879788286844
 31
0.0
 12
1166.954854368879
 22
620.0879788286844
 32
0.0
 13
1166.954854368879
 23
620.0879788286844
 33
0.0
  0
MTEXT
  5
7D08
330
7C0B
100
AcDbEntity
  8
AM_5
 62
     6
100
AcDbMText
 10
1154.454854368879
 20
622.6196977918495
 30
0.0
 40
3.0
 41
0.0
 71
     5
 72
     1
  1
\A1;25
 73
     1
 44
1.0
1001
ACAD
1000
MTEXTBEGIN
1070
    73
1070
     1
1070
    44
1040
1.0
1070
    74
1070
     0
1000
MTEXTEND
  0
POINT
  5
7D09
330
7C0B
100
AcDbEntity
  8
Defpoints
 62
     0
100
AcDbPoint
 10
1141.954854368879
 20
632.0879788286844
 30
0.0
  0
POINT
  5
7D0A
330
7C0B
100
AcDbEntity
  8
Defpoints
 62
     0
100
AcDbPoint
 10
1166.954854368879
 20
632.0879788286845
 30
0.0
  0
POINT
  5
7D0B
330
7C0B
100
AcDbEntity
  8
Defpoints
 62
     0
100
AcDbPoint
 10
1166.954854368879
 20
620.0879788286844
 30
0.0
  0
ENDBLK
  5
7C16
330
7C0B
100
AcDbEntity
  8
0
100
AcDbBlockEnd
  0
BLOCK
  5
7C83
330
7C79
100
AcDbEntity
  8
0
100
AcDbBlockBegin
  2
*D21
 70
     1
 10
0.0
 20
0.0
 30
0.0
  3
*D21
  1

  0
LINE
  5
7C87
330
7C79
100
AcDbEntity
  8
AM_5
 62
     3
370
    -2
100
AcDbLine
 10
1058.500330873624
 20
631.0424103716209
 30
0.0
 11
1058.500330873624
 21
620.6521871398221
 31
0.0
  0
LINE
  5
7C88
330
7C79
100
AcDbEntity
  8
AM_5
 62
     3
370
    -2
100
AcDbLine
 10
1045.000330873625
 20
631.0879788286844
 30
0.0
 11
1045.000330873625
 21
620.6521871398221
 31
0.0
  0
LINE
  5
7C89
330
7C79
100
AcDbEntity
  8
AM_5
 62
     3
100
AcDbLine
 10
1055.500330873624
 20
621.6521871398221
 30
0.0
 11
1048.000330873625
 21
621.6521871398221
 31
0.0
  0
SOLID
  5
7C8A
330
7C79
100
AcDbEntity
  8
AM_5
 62
     3
100
AcDbTrace
 10
1055.500330873624
 20
622.1521871398221
 30
0.0
 11
1055.500330873624
 21
621.1521871398221
 31
0.0
 12
1058.500330873624
 22
621.6521871398221
 32
0.0
 13
1058.500330873624
 23
621.6521871398221
 33
0.0
  0
SOLID
  5
7C8B
330
7C79
100
AcDbEntity
  8
AM_5
 62
     3
100
AcDbTrace
 10
1048.000330873625
 20
622.1521871398221
 30
0.0
 11
1048.000330873625
 21
621.1521871398221
 31
0.0
 12
1045.000330873625
 22
621.6521871398221
 32
0.0
 13
1045.000330873625
 23
621.6521871398221
 33
0.0
  0
MTEXT
  5
7C8C
330
7C79
100
AcDbEntity
  8
AM_5
 62
     6
100
AcDbMText
 10
1051.750330873625
 20
624.1849292953474
 30
0.0
 40
3.0
 41
0.0
 71
     5
 72
     1
  1
\A1;13.5
 73
     1
 44
1.0
1001
ACAD
1000
MTEXTBEGIN
1070
    73
1070
     1
1070
    44
1040
1.0
1070
    74
1070
     0
1000
MTEXTEND
  0
POINT
  5
7C8D
330
7C79
100
AcDbEntity
  8
Defpoints
 62
     0
100
AcDbPoint
 10
1058.500330873624
 20
632.0424103716208
 30
0.0
  0
POINT
  5
7C8E
330
7C79
100
AcDbEntity
  8
Defpoints
 62
     0
100
AcDbPoint
 10
1045.000330873625
 20
632.0879788286844
 30
0.0
  0
POINT
  5
7C8F
330
7C79
100
AcDbEntity
  8
Defpoints
 62
     0
100
AcDbPoint
 10
1045.000330873625
 20
621.6521871398221
 30
0.0
  0
ENDBLK
  5
7C84
330
7C79
100
AcDbEntity
  8
0
100
AcDbBlockEnd
  0
BLOCK
  5
7CAF
330
7CA3
100
AcDbEntity
  8
0
100
AcDbBlockBegin
  2
*D22
 70
     1
 10
0.0
 20
0.0
 30
0.0
  3
*D22
  1

  0
LINE
  5
7CD7
330
7CA3
100
AcDbEntity
  8
AM_5
 62
     3
370
    -2
100
AcDbLine
 10
1058.500330873624
 20
631.0879788286841
 30
0.0
 11
1058.500330873624
 21
620.6524067697407
 31
0.0
  0
LINE
  5
7CD8
330
7CA3
100
AcDbEntity
  8
AM_5
 62
     3
370
    -2
100
AcDbLine
 10
1061.300330873625
 20
640.0945322855021
 30
0.0
 11
1061.300330873625
 21
620.6524067697407
 31
0.0
  0
LINE
  5
7CD9
330
7CA3
100
AcDbEntity
  8
AM_5
 62
     3
100
AcDbLine
 10
1055.500330873624
 20
621.6524067697407
 30
0.0
 11
1052.500330873624
 21
621.6524067697407
 31
0.0
  0
LINE
  5
7CDA
330
7CA3
100
AcDbEntity
  8
AM_5
 62
     3
100
AcDbLine
 10
1064.300330873624
 20
621.6524067697407
 30
0.0
 11
1074.819430464348
 21
621.6524067697407
 31
0.0
  0
LINE
  5
7CDB
330
7CA3
100
AcDbEntity
  8
AM_5
 62
     3
100
AcDbLine
 10
1058.500330873624
 20
621.6524067697407
 30
0.0
 11
1061.300330873625
 21
621.6524067697407
 31
0.0
  0
SOLID
  5
7CDC
330
7CA3
100
AcDbEntity
  8
AM_5
 62
     3
100
AcDbTrace
 10
1055.500330873624
 20
622.1524067697408
 30
0.0
 11
1055.500330873624
 21
621.1524067697407
 31
0.0
 12
1058.500330873624
 22
621.6524067697407
 32
0.0
 13
1058.500330873624
 23
621.6524067697407
 33
0.0
  0
SOLID
  5
7CDD
330
7CA3
100
AcDbEntity
  8
AM_5
 62
     3
100
AcDbTrace
 10
1064.300330873624
 20
622.1524067697408
 30
0.0
 11
1064.300330873624
 21
621.1524067697407
 31
0.0
 12
1061.300330873625
 22
621.6524067697407
 32
0.0
 13
1061.300330873625
 23
621.6524067697407
 33
0.0
  0
MTEXT
  5
7CDE
330
7CA3
100
AcDbEntity
  8
AM_5
 62
     6
100
AcDbMText
 10
1071.059880668986
 20
624.1841257329058
 30
0.0
 40
3.0
 41
0.0
 71
     5
 72
     1
  1
\A1;2.8
 73
     1
 44
1.0
1001
ACAD
1000
MTEXTBEGIN
1070
    73
1070
     1
1070
    44
1040
1.0
1070
    74
1070
     0
1000
MTEXTEND
  0
POINT
  5
7CDF
330
7CA3
100
AcDbEntity
  8
Defpoints
 62
     0
100
AcDbPoint
 10
1058.500330873624
 20
632.0879788286841
 30
0.0
  0
POINT
  5
7CE0
330
7CA3
100
AcDbEntity
  8
Defpoints
 62
     0
100
AcDbPoint
 10
1061.300330873625
 20
641.094532285502
 30
0.0
  0
POINT
  5
7CE1
330
7CA3
100
AcDbEntity
  8
Defpoints
 62
     0
100
AcDbPoint
 10
1061.300330873625
 20
621.6524067697407
 30
0.0
  0
ENDBLK
  5
7CB0
330
7CA3
100
AcDbEntity
  8
0
100
AcDbBlockEnd
  0
BLOCK
  5
7D28
330
7D1C
100
AcDbEntity
  8
0
100
AcDbBlockBegin
  2
*D23
 70
     1
 10
0.0
 20
0.0
 30
0.0
  3
*D23
  1

  0
LINE
  5
7D71
330
7D1C
100
AcDbEntity
  8
AM_5
  6
ACISOTGL
 62
     3
370
    -2
100
AcDbLine
 10
1075.500330873624
 20
667.919532285502
 30
0.0
 11
1084.753152793051
 21
667.919532285502
 31
0.0
  0
LINE
  5
7D72
330
7D1C
100
AcDbEntity
  8
AM_5
  6
ACISOTGL
 62
     3
370
    -2
100
AcDbLine
 10
1075.500330873624
 20
674.269532285502
 30
0.0
 11
1084.753152793051
 21
674.269532285502
 31
0.0
  0
LINE
  5
7D73
330
7D1C
100
AcDbEntity
  8
AM_5
  6
ACISOTGL
 62
     3
100
AcDbLine
 10
1083.753152793051
 20
664.9195322855021
 30
0.0
 11
1083.753152793051
 21
661.9195322855021
 31
0.0
  0
LINE
  5
7D74
330
7D1C
100
AcDbEntity
  8
AM_5
  6
ACISOTGL
 62
     3
100
AcDbLine
 10
1083.753152793051
 20
677.269532285502
 30
0.0
 11
1083.753152793051
 21
702.7644845365252
 31
0.0
  0
LINE
  5
7D75
330
7D1C
100
AcDbEntity
  8
AM_5
  6
ACISOTGL
 62
     3
100
AcDbLine
 10
1083.753152793051
 20
667.919532285502
 30
0.0
 11
1083.753152793051
 21
674.269532285502
 31
0.0
  0
SOLID
  5
7D76
330
7D1C
100
AcDbEntity
  8
AM_5
  6
ACISOTGL
 62
     3
100
AcDbTrace
 10
1083.253152793051
 20
664.9195322855021
 30
0.0
 11
1084.253152793051
 21
664.9195322855021
 31
0.0
 12
1083.753152793051
 22
667.919532285502
 32
0.0
 13
1083.753152793051
 23
667.919532285502
 33
0.0
  0
SOLID
  5
7D77
330
7D1C
100
AcDbEntity
  8
AM_5
  6
ACISOTGL
 62
     3
100
AcDbTrace
 10
1083.253152793051
 20
677.269532285502
 30
0.0
 11
1084.253152793051
 21
677.269532285502
 31
0.0
 12
1083.753152793051
 22
674.269532285502
 32
0.0
 13
1083.753152793051
 23
674.269532285502
 33
0.0
  0
MTEXT
  5
7D78
330
7D1C
100
AcDbEntity
  8
AM_5
  6
ACISOTGL
 62
     6
100
AcDbMText
 10
1079.841215548849
 20
691.5170084110137
 30
0.0
 40
3.0
 41
0.0
 71
     5
 72
     1
  1
\A1;%%c6.35{\H2.400000;\S 0^ -0.013;}
 11
0.0000000000000001
 21
1.0
 31
0.0
 73
     1
 44
1.0
1001
ACAD
1000
MTEXTBEGIN
1070
    73
1070
     1
1070
    44
1040
1.0
1070
    74
1070
     0
1000
MTEXTEND
  0
POINT
  5
7D79
330
7D1C
100
AcDbEntity
  8
Defpoints
  6
ACISOTGL
 62
     0
100
AcDbPoint
 10
1074.500330873624
 20
667.919532285502
 30
0.0
  0
POINT
  5
7D7A
330
7D1C
100
AcDbEntity
  8
Defpoints
  6
ACISOTGL
 62
     0
100
AcDbPoint
 10
1074.500330873624
 20
674.269532285502
 30
0.0
  0
POINT
  5
7D7B
330
7D1C
100
AcDbEntity
  8
Defpoints
  6
ACISOTGL
 62
     0
100
AcDbPoint
 10
1083.753152793051
 20
674.269532285502
 30
0.0
  0
ENDBLK
  5
7D29
330
7D1C
100
AcDbEntity
  8
0
100
AcDbBlockEnd
  0
BLOCK
  5
7F16
330
7F10
100
AcDbEntity
  8
0
100
AcDbBlockBegin
  2
*S27
 70
     1
 10
0.0
 20
0.0
 30
0.0
  3
*S27
  1

  0
LINE
  5
7F11
330
7F10
100
AcDbEntity
  8
AM_5
100
AcDbLine
 10
919.3966258115588
 20
633.0966019709786
 30
0.0
 11
915.8966258115588
 21
633.0966019709786
 31
0.0
  0
LINE
  5
7F12
330
7F10
100
AcDbEntity
  8
AM_5
100
AcDbLine
 10
915.8966258115588
 20
633.0966019709786
 30
0.0
 11
903.5797688505184
 21
633.0966019709786
 31
0.0
  0
LINE
  5
7F13
330
7F10
100
AcDbEntity
  8
AM_5
100
AcDbLine
 10
903.5797688505184
 20
633.0966019709786
 30
0.0
 11
897.0504402444275
 21
642.7544514984511
 31
0.0
  0
TRACE
  5
7F14
330
7F10
100
AcDbEntity
  8
AM_5
100
AcDbTrace
 10
897.4321717116335
 20
643.0125265680185
 30
0.0
 11
896.6687087772212
 21
642.4963764288836
 31
0.0
 12
895.0901654646227
 22
645.6539898733758
 32
0.0
 13
895.0901654646227
 23
645.6539898733758
 33
0.0
  0
MTEXT
  5
7F15
330
7F10
100
AcDbEntity
  8
AM_5
 62
     2
100
AcDbMText
 10
919.3966258115588
 20
634.8466019709786
 30
0.0
 40
3.5
 41
0.0
 71
     7
 72
     5
  1

  7
ACISOTS
 73
     1
 44
1.0
1001
ACAD
1000
MTEXTBEGIN
1070
    73
1070
     1
1070
    44
1040
1.0
1070
    74
1070
     0
1000
MTEXTEND
  0
ENDBLK
  5
7F17
330
7F10
100
AcDbEntity
  8
0
100
AcDbBlockEnd
  0
BLOCK
  5
7F1F
330
7F19
100
AcDbEntity
  8
0
100
AcDbBlockBegin
  2
*S28
 70
     1
 10
0.0
 20
0.0
 30
0.0
  3
*S28
  1

  0
LINE
  5
7F1A
330
7F19
100
AcDbEntity
  8
AM_5
100
AcDbLine
 10
1009.097741991553
 20
613.0041337021545
 30
0.0
 11
994.1739617898868
 21
613.0041337021545
 31
0.0
  0
LINE
  5
7F1B
330
7F19
100
AcDbEntity
  8
AM_5
100
AcDbLine
 10
994.1739617898868
 20
613.0041337021545
 30
0.0
 11
1026.681081262264
 21
613.0041337021545
 31
0.0
  0
LINE
  5
7F1C
330
7F19
100
AcDbEntity
  8
AM_5
100
AcDbLine
 10
1026.681081262264
 20
613.0041337021545
 30
0.0
 11
1034.48349029197
 21
630.7976654562538
 31
0.0
  0
TRACE
  5
7F1D
330
7F19
100
AcDbEntity
  8
AM_5
100
AcDbTrace
 10
1034.905486060548
 20
630.612621607694
 30
0.0
 11
1034.061494523392
 21
630.9827093048137
 31
0.0
 12
1035.889037871974
 22
634.0030415652844
 32
0.0
 13
1035.889037871974
 23
634.0030415652844
 33
0.0
  0
MTEXT
  5
7F1E
330
7F19
100
AcDbEntity
  8
AM_5
 62
     2
100
AcDbMText
 10
1009.097741991553
 20
611.2541337021544
 30
0.0
 40
3.5
 41
0.0
 71
     9
 72
     5
  1

  7
ACISOTS
 11
-1.0
 21
0.0
 31
0.0
 73
     1
 44
1.0
1001
ACAD
1000
MTEXTBEGIN
1070
    73
1070
     1
1070
    44
1040
1.0
1070
    74
1070
     0
1000
MTEXTEND
  0
ENDBLK
  5
7F20
330
7F19
100
AcDbEntity
  8
0
100
AcDbBlockEnd
  0
ENDSEC
  0
SECTION
  2
ENTITIES
  0
TEXT
  5
13FA
330
1F
100
AcDbEntity
  8
SPEC
100
AcDbText
 10
1198.0
 20
654.0
 30
0.0
 40
2.4
  1

 41
0.7
  7
ROMANS
100
AcDbText
  0
LINE
  5
6561
330
1F
100
AcDbEntity
  8
SPEC
100
AcDbLine
 10
973.3052378441129
 20
701.0879788286845
 30
272.0000000000001
 11
1061.300330873625
 21
701.094532285502
 31
136.0
  0
LINE
  5
6562
330
1F
100
AcDbEntity
  8
SPEC
100
AcDbLine
 10
978.305237844113
 20
689.6579788286844
 30
272.0000000000001
 11
1061.300330873625
 21
689.6579788286847
 31
136.0
  0
LINE
  5
6563
330
1F
100
AcDbEntity
  8
SPEC
100
AcDbLine
 10
978.305237844113
 20
652.5179788286843
 30
272.0000000000001
 11
1061.300330873625
 21
652.5179788286846
 31
136.0
  0
LINE
  5
6564
330
1F
100
AcDbEntity
  8
SPEC
100
AcDbLine
 10
973.3052378441129
 20
641.0879788286845
 30
272.0000000000001
 11
1061.300330873625
 21
641.0879788286845
 31
136.0
  0
LINE
  5
6565
330
1F
100
AcDbEntity
  8
CENTER
  6
AM_ISO08W050x2
100
AcDbLine
 10
951.0490599809074
 20
671.0879788286845
 30
0.0
 11
1076.299327438028
 21
671.0879788286845
 31
0.0
  0
DIMENSION
  5
6567
330
1F
100
AcDbEntity
  8
DIM
  6
ACISOTGL
100
AcDbDimension
  2
*D9
 10
1163.979854368879
 20
717.0040343400114
 30
0.0
 11
1153.906525947443
 21
717.0040343400114
 31
0.0
 70
   160
  1
%%c<>
 71
     5
 42
19.05000000000018
  3
STANDARD$0
100
AcDbAlignedDimension
 13
1144.929854368879
 23
671.0879788286845
 33
0.0
 14
1163.979854368879
 24
671.0879788286845
 34
0.0
100
AcDbRotatedDimension
1001
ACAD
1000
DSTYLE
1002
{
1070
   147
1040
0.5
1070
    72
1070
     0
1070
    71
1070
     0
1002
}
  0
CIRCLE
  5
6568
330
1F
100
AcDbEntity
  8
CENTER
  6
AM_ISO08W050x2
100
AcDbCircle
 10
1154.454854368879
 20
671.0879788286845
 30
0.0
 40
9.525
  0
LINE
  5
656B
330
1F
100
AcDbEntity
  8
SPEC
100
AcDbLine
 10
1179.454854368879
 20
641.0879788286845
 30
0.0
 11
1129.454854368879
 21
641.0879788286845
 31
0.0
  0
LINE
  5
656C
330
1F
100
AcDbEntity
  8
SPEC
100
AcDbLine
 10
1179.454854368879
 20
701.0879788286845
 30
0.0
 11
1129.454854368879
 21
701.0879788286845
 31
0.0
  0
LINE
  5
656D
330
1F
100
AcDbEntity
  8
CENTER
  6
AM_ISO08W050x2
100
AcDbLine
 10
1119.863035838208
 20
671.0879788286845
 30
0.0
 11
1188.680889209335
 21
671.0879788286845
 31
0.0
  0
LINE
  5
656E
330
1F
100
AcDbEntity
  8
SPEC
100
AcDbLine
 10
1135.884854368879
 20
647.5179788286843
 30
0.0
 11
1135.884854368879
 21
641.0879788286845
 31
0.0
  0
ARC
  5
656F
330
1F
100
AcDbEntity
  8
SPEC
100
AcDbCircle
 10
1129.454854368879
 20
646.0879788286845
 30
0.0
 40
5.0
100
AcDbArc
 50
180.0
 51
270.0
  0
LINE
  5
6570
330
1F
100
AcDbEntity
  8
CENTER
  6
AM_ISO08W050x2
100
AcDbLine
 10
1130.884854368879
 20
652.1748305485727
 30
0.0
 11
1130.884854368879
 21
641.0879788286845
 31
0.0
  0
CIRCLE
  5
6571
330
1F
100
AcDbEntity
  8
SPEC
100
AcDbCircle
 10
1130.884854368879
 20
647.5179788286843
 30
0.0
 40
2.25
  0
LINE
  5
6573
330
1F
100
AcDbEntity
  8
SPEC
100
AcDbLine
 10
1124.454854368879
 20
646.0879788286845
 30
0.0
 11
1124.454854368879
 21
696.0879788286845
 31
0.0
  0
LINE
  5
6574
330
1F
100
AcDbEntity
  8
CENTER
  6
AM_ISO08W050x2
100
AcDbLine
 10
1136.263392459817
 20
647.5179788286846
 30
0.0
 11
1124.454854368879
 21
647.5179788286846
 31
0.0
  0
ARC
  5
6575
330
1F
100
AcDbEntity
  8
SPEC
100
AcDbCircle
 10
1130.884854368879
 20
647.5179788286846
 30
0.0
 40
5.0
100
AcDbArc
 50
0.0
 51
90.0
  0
LINE
  5
6576
330
1F
100
AcDbEntity
  8
SPEC
100
AcDbLine
 10
1130.884854368879
 20
652.5179788286846
 30
0.0
 11
1124.454854368879
 21
652.5179788286846
 31
0.0
  0
CIRCLE
  5
6577
330
1F
100
AcDbEntity
  8
SPEC
  6
ACISOWELD
100
AcDbCircle
 10
1144.929854368879
 20
671.0879788286845
 30
0.0
 40
1.6
  0
CIRCLE
  5
6578
330
1F
100
AcDbEntity
  8
SPEC
  6
ACISOWELD
100
AcDbCircle
 10
1144.929854368879
 20
671.0879788286845
 30
0.0
 40
1.25
  0
CIRCLE
  5
6579
330
1F
100
AcDbEntity
  8
SPEC
100
AcDbCircle
 10
1130.884854368879
 20
694.6579788286844
 30
0.0
 40
2.25
  0
ARC
  5
657A
330
1F
100
AcDbEntity
  8
SPEC
100
AcDbCircle
 10
1130.884854368879
 20
694.6579788286844
 30
0.0
 40
5.0
100
AcDbArc
 50
270.0
 51
0.0
  0
LINE
  5
657B
330
1F
100
AcDbEntity
  8
CENTER
  6
AM_ISO08W050x2
100
AcDbLine
 10
1130.884854368879
 20
701.0879788286845
 30
0.0
 11
1130.884854368879
 21
688.7930070831624
 31
0.0
  0
LINE
  5
657C
330
1F
100
AcDbEntity
  8
SPEC
100
AcDbLine
 10
1130.884854368879
 20
689.6579788286844
 30
0.0
 11
1124.454854368879
 21
689.6579788286844
 31
0.0
  0
LINE
  5
657D
330
1F
100
AcDbEntity
  8
CENTER
  6
AM_ISO08W050x2
100
AcDbLine
 10
1136.071488163909
 20
694.6579788286844
 30
0.0
 11
1124.454854368879
 21
694.6579788286844
 31
0.0
  0
ARC
  5
657E
330
1F
100
AcDbEntity
  8
SPEC
100
AcDbCircle
 10
1129.454854368879
 20
696.0879788286845
 30
0.0
 40
5.0
100
AcDbArc
 50
90.0
 51
180.0
  0
LINE
  5
657F
330
1F
100
AcDbEntity
  8
SPEC
100
AcDbLine
 10
1135.884854368879
 20
694.6579788286847
 30
0.0
 11
1135.884854368879
 21
701.0879788286845
 31
0.0
  0
ARC
  5
6580
330
1F
100
AcDbEntity
  8
SPEC
100
AcDbCircle
 10
1179.454854368879
 20
646.0879788286845
 30
0.0
 40
5.0
100
AcDbArc
 50
270.0
 51
0.0
  0
LINE
  5
6581
330
1F
100
AcDbEntity
  8
SPEC
100
AcDbLine
 10
1173.024854368879
 20
647.5179788286843
 30
0.0
 11
1173.024854368879
 21
641.0879788286845
 31
0.0
  0
LINE
  5
6582
330
1F
100
AcDbEntity
  8
CENTER
  6
AM_ISO08W050x2
100
AcDbLine
 10
1154.454854368879
 20
707.2100320973677
 30
0.0
 11
1154.454854368879
 21
628.2868778914178
 31
0.0
  0
LINE
  5
6583
330
1F
100
AcDbEntity
  8
CENTER
  6
AM_ISO08W050x2
100
AcDbLine
 10
1178.024854368879
 20
652.3665492274546
 30
0.0
 11
1178.024854368879
 21
641.0879788286845
 31
0.0
  0
CIRCLE
  5
6584
330
1F
100
AcDbEntity
  8
SPEC
100
AcDbCircle
 10
1178.024854368879
 20
647.5179788286843
 30
0.0
 40
2.25
  0
LINE
  5
6587
330
1F
100
AcDbEntity
  8
SPEC
100
AcDbLine
 10
1184.454854368879
 20
696.0879788286845
 30
0.0
 11
1184.454854368879
 21
646.0879788286845
 31
0.0
  0
CIRCLE
  5
6588
330
1F
100
AcDbEntity
  8
SPEC
  6
ACISOTGL
100
AcDbCircle
 10
1154.454854368879
 20
671.0879788286845
 30
0.0
 40
3.174999999999999
  0
CIRCLE
  5
6589
330
1F
100
AcDbEntity
  8
SPEC
  6
ACISOWELD
100
AcDbCircle
 10
1163.979854368879
 20
671.0879788286845
 30
0.0
 40
1.25
  0
CIRCLE
  5
658A
330
1F
100
AcDbEntity
  8
SPEC
  6
ACISOWELD
100
AcDbCircle
 10
1163.979854368879
 20
671.0879788286845
 30
0.0
 40
1.6
  0
LINE
  5
658B
330
1F
100
AcDbEntity
  8
SPEC
100
AcDbLine
 10
1178.024854368879
 20
652.5179788286846
 30
0.0
 11
1184.454854368879
 21
652.5179788286846
 31
0.0
  0
LINE
  5
658C
330
1F
100
AcDbEntity
  8
CENTER
  6
AM_ISO08W050x2
100
AcDbLine
 10
1184.454854368879
 20
647.5179788286843
 30
0.0
 11
1172.149685430652
 21
647.5179788286843
 31
0.0
  0
ARC
  5
658D
330
1F
100
AcDbEntity
  8
SPEC
100
AcDbCircle
 10
1178.024854368879
 20
647.5179788286846
 30
0.0
 40
5.0
100
AcDbArc
 50
90.0
 51
180.0
  0
CIRCLE
  5
658E
330
1F
100
AcDbEntity
  8
SPEC
100
AcDbCircle
 10
1178.024854368879
 20
694.6579788286844
 30
0.0
 40
2.25
  0
ARC
  5
658F
330
1F
100
AcDbEntity
  8
SPEC
100
AcDbCircle
 10
1178.024854368879
 20
694.6579788286844
 30
0.0
 40
5.0
100
AcDbArc
 50
180.0
 51
270.0
  0
LINE
  5
6590
330
1F
100
AcDbEntity
  8
CENTER
  6
AM_ISO08W050x2
100
AcDbLine
 10
1178.024854368879
 20
701.0879788286845
 30
0.0
 11
1178.024854368879
 21
688.468446544417
 31
0.0
  0
LINE
  5
6591
330
1F
100
AcDbEntity
  8
SPEC
100
AcDbLine
 10
1178.024854368879
 20
689.6579788286844
 30
0.0
 11
1184.454854368879
 21
689.6579788286844
 31
0.0
  0
LINE
  5
6592
330
1F
100
AcDbEntity
  8
CENTER
  6
AM_ISO08W050x2
100
AcDbLine
 10
1184.454854368879
 20
694.6579788286847
 30
0.0
 11
1172.004076936119
 21
694.6579788286847
 31
0.0
  0
ARC
  5
6593
330
1F
100
AcDbEntity
  8
SPEC
100
AcDbCircle
 10
1179.454854368879
 20
696.0879788286845
 30
0.0
 40
5.0
100
AcDbArc
 50
0.0
 51
90.0
  0
LINE
  5
6594
330
1F
100
AcDbEntity
  8
SPEC
100
AcDbLine
 10
1173.024854368879
 20
694.6579788286847
 30
0.0
 11
1173.024854368879
 21
701.0879788286845
 31
0.0
  0
LINE
  5
659C
330
1F
100
AcDbEntity
  8
SPEC
100
AcDbLine
 10
983.3052378441129
 20
701.0879788286845
 30
272.0000000000001
 11
983.3052378441129
 21
641.0879788286845
 31
272.0000000000001
  0
LINE
  5
659D
330
1F
100
AcDbEntity
  8
SPEC
100
AcDbLine
 10
973.3052378441129
 20
701.0879788286845
 30
272.0000000000001
 11
973.3052378441129
 21
641.0879788286845
 31
272.0000000000001
  0
LINE
  5
659E
330
1F
100
AcDbEntity
  8
SPEC
100
AcDbLine
 10
978.305237844113
 20
652.5179788286843
 30
272.0000000000001
 11
978.305237844113
 21
641.0879788286845
 31
272.0000000000001
  0
LINE
  5
65A2
330
1F
100
AcDbEntity
  8
SPEC
100
AcDbLine
 10
971.7052378441131
 20
652.0379788286843
 30
272.0000000000001
 11
971.7052378441131
 21
690.1379788286845
 31
272.0000000000001
  0
LINE
  5
65A4
330
1F
100
AcDbEntity
  8
SPEC
100
AcDbLine
 10
953.0052378441132
 20
675.0879788286844
 30
272.0000000000001
 11
971.7052378441131
 21
675.0879788286844
 31
272.0000000000001
  0
LINE
  5
65A5
330
1F
100
AcDbEntity
  8
SPEC
100
AcDbLine
 10
953.0052378441132
 20
667.0879788286845
 30
272.0000000000001
 11
971.7052378441131
 21
667.0879788286845
 31
272.0000000000001
  0
LINE
  5
65A6
330
1F
100
AcDbEntity
  8
SPEC
100
AcDbLine
 10
953.0052378441132
 20
667.0879788286845
 30
272.0000000000001
 11
953.0052378441132
 21
675.0879788286844
 31
272.0000000000001
  0
LINE
  5
65A7
330
1F
100
AcDbEntity
  8
SPEC
100
AcDbLine
 10
952.705237844113
 20
674.7879788286843
 30
272.0000000000001
 11
952.705237844113
 21
667.3879788286845
 31
272.0000000000001
  0
LINE
  5
65A8
330
1F
100
AcDbEntity
  8
SPEC
100
AcDbLine
 10
952.705237844113
 20
667.3879788286845
 30
272.0000000000001
 11
953.0052378441132
 21
667.0879788286845
 31
272.0000000000001
  0
LINE
  5
65A9
330
1F
100
AcDbEntity
  8
SPEC
100
AcDbLine
 10
953.0052378441132
 20
675.0879788286844
 30
272.0000000000001
 11
952.705237844113
 21
674.7879788286843
 31
272.0000000000001
  0
LINE
  5
65AA
330
1F
100
AcDbEntity
  8
SPEC
100
AcDbLine
 10
971.7052378441131
 20
652.0379788286843
 30
272.0000000000001
 11
973.3052378441129
 21
652.0379788286843
 31
272.0000000000001
  0
LINE
  5
65AB
330
1F
100
AcDbEntity
  8
SPEC
100
AcDbLine
 10
978.305237844113
 20
701.0879788286845
 30
272.0000000000001
 11
978.305237844113
 21
689.6579788286844
 31
272.0000000000001
  0
LINE
  5
65AC
330
1F
100
AcDbEntity
  8
SPEC
100
AcDbLine
 10
971.7052378441131
 20
690.1379788286845
 30
272.0000000000001
 11
973.3052378441129
 21
690.1379788286845
 31
272.0000000000001
  0
LINE
  5
65B4
330
1F
100
AcDbEntity
  8
CENTER
  6
AM_ISO08W050x2
100
AcDbLine
 10
845.6632013031445
 20
686.5879788286847
 30
0.0
 11
841.1632013031445
 21
686.5879788286847
 31
0.0
  0
ARC
  5
65BB
330
1F
100
AcDbEntity
  8
SPEC
100
AcDbCircle
 10
845.2599888204622
 20
696.0879788286847
 30
0.0
 40
5.0
100
AcDbArc
 50
90.0
 51
180.0
  0
LINE
  5
65BC
330
1F
100
AcDbEntity
  8
CENTER
  6
AM_ISO08W050x2
100
AcDbLine
 10
851.8766226154925
 20
694.6579788286847
 30
0.0
 11
840.2599888204623
 21
694.6579788286847
 31
0.0
  0
ARC
  5
65BD
330
1F
100
AcDbEntity
  8
SPEC
100
AcDbCircle
 10
845.2599888204622
 20
646.0879788286847
 30
0.0
 40
5.0
100
AcDbArc
 50
180.0
 51
270.0
  0
LINE
  5
65BE
330
1F
100
AcDbEntity
  8
CENTER
  6
AM_ISO08W050x2
100
AcDbLine
 10
852.0685269114
 20
647.5179788286848
 30
0.0
 11
840.2599888204623
 21
647.5179788286848
 31
0.0
  0
LINE
  5
65BF
330
1F
100
AcDbEntity
  8
CENTER
  6
AM_ISO08W050x2
100
AcDbLine
 10
835.6681702897912
 20
671.0879788286847
 30
0.0
 11
904.486023660918
 21
671.0879788286847
 31
0.0
  0
LINE
  5
65C4
330
1F
100
AcDbEntity
  8
SPEC
100
AcDbLine
 10
1051.300330873624
 20
701.094532285502
 30
136.0
 11
1051.300330873624
 21
641.094532285502
 31
136.0
  0
LINE
  5
65C5
330
1F
100
AcDbEntity
  8
SPEC
100
AcDbLine
 10
1061.300330873625
 20
641.094532285502
 30
136.0
 11
1061.300330873625
 21
701.094532285502
 31
136.0
  0
LINE
  5
65C7
102
{ACAD_REACTORS
330
7CB2
102
}
330
1F
100
AcDbEntity
  8
SPEC
100
AcDbLine
 10
1045.000330873625
 20
632.0879788286841
 30
0.0
 11
1058.500330873624
 21
632.0879788286841
 31
0.0
  0
LWPOLYLINE
  5
65C8
330
1F
100
AcDbEntity
  8
SPEC
100
AcDbPolyline
 90
        4
 70
     1
 43
0.0
 10
1045.000330873625
 20
634.8086190822327
 10
1026.777744870323
 20
634.8086190822327
 10
1026.777744870323
 20
633.3873135055813
 10
1045.000330873625
 20
633.3873135055813
  0
HATCH
  5
65C9
330
1F
100
AcDbEntity
  8
SPEC
100
AcDbHatch
 10
0.0
 20
0.0
 30
0.0
210
0.0
220
0.0
230
1.0
  2
ANSI37
 70
     0
 71
     0
 91
        1
 92
        7
 72
     0
 73
     1
 93
        4
 10
1045.000330873625
 20
634.8086190822331
 10
1026.777744870323
 20
634.8086190822328
 10
1026.777744870323
 20
633.3873135055813
 10
1045.000330873625
 20
633.3873135055815
 97
        0
 75
     0
 76
     1
 52
0.0
 41
0.4
 77
     0
 78
     2
 53
45.0
 43
0.0
 44
0.0
 45
-0.8980256121069151
 46
0.8980256121069153
 79
     0
 53
135.0
 43
0.0
 44
0.0
 45
-0.8980256121069153
 46
-0.8980256121069151
 79
     0
 47
0.0390438721346419
 98
        1
 10
1033.233917264463
 20
633.8564865275032
  0
LINE
  5
65CA
102
{ACAD_REACTORS
330
7C86
102
}
330
1F
100
AcDbEntity
  8
SPEC
100
AcDbLine
 10
1045.000330873625
 20
641.094532285502
 30
136.0
 11
1045.000330873625
 21
632.0879788286844
 31
0.0
  0
LINE
  5
65CB
330
1F
100
AcDbEntity
  8
SPEC
100
AcDbLine
 10
1058.500330873624
 20
641.094532285502
 30
136.0
 11
1058.500330873624
 21
632.0879788286841
 31
0.0
  0
LINE
  5
65CC
330
1F
100
AcDbEntity
  8
SPEC
  6
ACISOTGL
100
AcDbLine
 10
1061.300330873625
 20
667.919532285502
 30
136.0
 11
1074.500330873624
 21
667.919532285502
 31
136.0
  0
LINE
  5
65CD
330
1F
100
AcDbEntity
  8
SPEC
  6
ACISOTGL
100
AcDbLine
 10
1061.300330873625
 20
674.269532285502
 30
136.0
 11
1074.500330873624
 21
674.269532285502
 31
136.0
  0
LINE
  5
65CE
330
1F
100
AcDbEntity
  8
SPEC
  6
ACISOTGL
100
AcDbLine
 10
1074.500330873624
 20
674.269532285502
 30
136.0
 11
1074.500330873624
 21
667.919532285502
 31
136.0
  0
LINE
  5
65CF
330
1F
100
AcDbEntity
  8
SPEC
  6
ACISOTGL
100
AcDbLine
 10
1074.800330873625
 20
668.2195322855021
 30
136.0
 11
1074.800330873625
 21
673.969532285502
 31
136.0
  0
LINE
  5
65D0
330
1F
100
AcDbEntity
  8
SPEC
  6
ACISOTGL
100
AcDbLine
 10
1074.800330873625
 20
668.2195322855021
 30
136.0
 11
1074.500330873624
 21
667.919532285502
 31
136.0
  0
LINE
  5
65D1
330
1F
100
AcDbEntity
  8
SPEC
  6
ACISOTGL
100
AcDbLine
 10
1074.500330873624
 20
674.269532285502
 30
136.0
 11
1074.800330873625
 21
673.969532285502
 31
136.0
  0
LINE
  5
65D3
102
{ACAD_REACTORS
330
72F6
102
}
330
1F
100
AcDbEntity
  8
SPEC
100
AcDbLine
 10
840.2599888204623
 20
646.0879788286847
 30
0.0
 11
840.2599888204623
 21
696.0879788286847
 31
0.0
  0
LINE
  5
65D5
330
1F
100
AcDbEntity
  8
CENTER
  6
AM_ISO08W050x2
100
AcDbLine
 10
843.4132013031444
 20
688.8379788286847
 30
0.0
 11
843.4132013031444
 21
684.3379788286847
 31
0.0
  0
ARC
  5
65EA
330
1F
100
AcDbEntity
  8
SPEC
100
AcDbCircle
 10
895.2599888204618
 20
646.0879788286847
 30
0.0
 40
5.0
100
AcDbArc
 50
270.0
 51
0.0
  0
LINE
  5
65EB
330
1F
100
AcDbEntity
  8
CENTER
  6
AM_ISO08W050x2
100
AcDbLine
 10
893.8299888204623
 20
652.3665492274549
 30
0.0
 11
893.8299888204623
 21
641.0879788286847
 31
0.0
  0
CIRCLE
  5
65EC
330
1F
100
AcDbEntity
  8
SPEC
100
AcDbCircle
 10
893.8299888204623
 20
647.5179788286846
 30
0.0
 40
2.25
  0
LINE
  5
65ED
330
1F
100
AcDbEntity
  8
CENTER
  6
AM_ISO08W050x2
100
AcDbLine
 10
854.7599888204622
 20
646.4911913113671
 30
0.0
 11
854.7599888204622
 21
641.9911913113671
 31
0.0
  0
LINE
  5
65F2
330
1F
100
AcDbEntity
  8
CENTER
  6
AM_ISO08W050x2
100
AcDbLine
 10
846.689988820462
 20
652.174830548573
 30
0.0
 11
846.689988820462
 21
641.0879788286847
 31
0.0
  0
CIRCLE
  5
65F3
330
1F
100
AcDbEntity
  8
SPEC
100
AcDbCircle
 10
846.689988820462
 20
647.5179788286846
 30
0.0
 40
2.25
  0
LINE
  5
65F4
330
1F
100
AcDbEntity
  8
CENTER
  6
AM_ISO08W050x2
100
AcDbLine
 10
870.2599888204618
 20
704.8985782905488
 30
0.0
 11
870.2599888204618
 21
628.192488195279
 31
0.0
  0
LINE
  5
65F5
330
1F
100
AcDbEntity
  8
SPEC
100
AcDbLine
 10
895.2599888204618
 20
641.0879788286847
 30
0.0
 11
845.2599888204622
 21
641.0879788286847
 31
0.0
  0
LWPOLYLINE
  5
65F7
330
1F
100
AcDbEntity
  8
SPEC
100
AcDbPolyline
 90
        4
 70
     1
 43
0.0
 10
869.456255287649
 20
632.0879788286847
 10
868.1861600472917
 20
632.0879788286847
 10
868.1861600472917
 20
634.8086190822323
 10
869.456255287649
 20
634.8086190822323
  0
LINE
  5
65F8
330
1F
100
AcDbEntity
  8
SPEC
100
AcDbLine
 10
882.759988820462
 20
632.0879788286847
 30
0.0
 11
857.7599888204622
 21
632.0879788286846
 31
0.0
  0
LINE
  5
65FB
330
1F
100
AcDbEntity
  8
CENTER
  6
AM_ISO08W050x2
100
AcDbLine
 10
852.5099888204621
 20
644.2411913113671
 30
0.0
 11
857.0099888204621
 21
644.2411913113671
 31
0.0
  0
LINE
  5
65FC
330
1F
100
AcDbEntity
  8
SPEC
100
AcDbLine
 10
857.7599888204622
 20
641.0879788286848
 30
0.0
 11
857.7599888204622
 21
632.0879788286846
 31
0.0
  0
LWPOLYLINE
  5
660C
330
1F
100
AcDbEntity
  8
SPEC
100
AcDbPolyline
 90
        4
 70
     1
 43
0.0
 10
867.1628192799563
 20
632.0879788286847
 10
865.8927240395987
 20
632.0879788286847
 10
865.8927240395987
 20
634.8086190822323
 10
867.1628192799563
 20
634.8086190822323
  0
LWPOLYLINE
  5
6611
330
1F
100
AcDbEntity
  8
SPEC
100
AcDbPolyline
 90
        4
 70
     1
 43
0.0
 10
871.0637223532758
 20
632.0879788286847
 10
872.3338175936328
 20
632.0879788286847
 10
872.3338175936328
 20
634.8086190822323
 10
871.0637223532758
 20
634.8086190822323
  0
LWPOLYLINE
  5
6612
330
1F
100
AcDbEntity
  8
SPEC
100
AcDbPolyline
 90
        4
 70
     1
 43
0.0
 10
873.3571583609682
 20
632.0879788286847
 10
874.6272536013258
 20
632.0879788286847
 10
874.6272536013258
 20
634.8086190822323
 10
873.3571583609682
 20
634.8086190822323
  0
LINE
  5
6613
330
1F
100
AcDbEntity
  8
SPEC
100
AcDbLine
 10
882.759988820462
 20
641.0879788286847
 30
0.0
 11
882.759988820462
 21
632.0879788286847
 31
0.0
  0
LINE
  5
6614
330
1F
100
AcDbEntity
  8
CENTER
  6
AM_ISO08W050x2
100
AcDbLine
 10
900.2599888204617
 20
694.6579788286848
 30
0.0
 11
889.6819689977878
 21
694.6579788286848
 31
0.0
  0
LINE
  5
6615
330
1F
100
AcDbEntity
  8
CENTER
  6
AM_ISO08W050x2
100
AcDbLine
 10
900.2599888204617
 20
647.5179788286846
 30
0.0
 11
887.9548198822353
 21
647.5179788286846
 31
0.0
  0
LINE
  5
6616
330
1F
100
AcDbEntity
  8
SPEC
100
AcDbLine
 10
895.2599888204618
 20
701.0879788286847
 30
0.0
 11
845.2599888204622
 21
701.0879788286847
 31
0.0
  0
CIRCLE
  5
6617
330
1F
100
AcDbEntity
  8
SPEC
100
AcDbCircle
 10
870.2599888204618
 20
671.0879788286847
 30
0.0
 40
19.05000000000001
  0
CIRCLE
  5
6618
330
1F
100
AcDbEntity
  8
SPEC
100
AcDbCircle
 10
870.2599888204618
 20
671.0879788286847
 30
0.0
 40
4.0
  0
LINE
  5
661A
330
1F
100
AcDbEntity
  8
SPEC
100
AcDbLine
 10
854.759992020849
 20
646.2411913113647
 30
0.0
 11
854.7599916743966
 21
646.2411913113651
 31
0.0
  0
LINE
  5
661C
102
{ACAD_REACTORS
330
72BA
102
}
330
1F
100
AcDbEntity
  8
CENTER
  6
AM_ISO08W050x2
100
AcDbLine
 10
846.689988820462
 20
701.0879788286847
 30
0.0
 11
846.689988820462
 21
688.7930070831625
 31
0.0
  0
CIRCLE
  5
661D
330
1F
100
AcDbEntity
  8
SPEC
100
AcDbCircle
 10
846.689988820462
 20
694.6579788286847
 30
0.0
 40
2.25
  0
LINE
  5
6620
330
1F
100
AcDbEntity
  8
SPEC
100
AcDbLine
 10
845.4132013031422
 20
686.5879756282979
 30
0.0
 11
845.4132013031426
 21
686.5879759747501
 31
0.0
  0
ARC
  5
6623
330
1F
100
AcDbEntity
  8
SPEC
100
AcDbCircle
 10
885.7599892050185
 20
699.5997420986935
 30
0.0
 40
0.5549919175637368
100
AcDbArc
 50
90.0
 51
180.0
  0
LINE
  5
6624
330
1F
100
AcDbEntity
  8
CENTER
  6
AM_ISO08W050x2
100
AcDbLine
 10
888.2574524494986
 20
697.9347663460023
 30
0.0
 11
883.2625251914249
 21
697.9347663460023
 31
0.0
  0
ARC
  5
6625
330
1F
100
AcDbEntity
  8
SPEC
100
AcDbCircle
 10
885.7599865407355
 20
696.2697905933127
 30
0.0
 40
0.5549919175637368
100
AcDbArc
 50
179.9999083156716
 51
269.9999083156716
  0
LINE
  5
6628
330
1F
100
AcDbEntity
  8
SPEC
100
AcDbLine
 10
882.4099888204617
 20
697.9347663460023
 30
0.0
 11
882.4099888204617
 21
701.0879788286847
 31
0.0
  0
LINE
  5
6629
330
1F
100
AcDbEntity
  8
SPEC
100
AcDbLine
 10
884.6500051478678
 20
697.3797737623682
 30
0.0
 11
884.0950130677706
 21
697.3797742064151
 31
0.0
  0
LINE
  5
662A
330
1F
100
AcDbEntity
  8
SPEC
100
AcDbLine
 10
884.6500053698909
 20
698.4897584855895
 30
0.0
 11
884.0950130677706
 21
698.4897584855895
 31
0.0
  0
ARC
  5
662B
330
1F
100
AcDbEntity
  8
SPEC
100
AcDbCircle
 10
884.6500053698909
 20
699.0447504031532
 30
0.0
 40
0.5549919175637368
100
AcDbArc
 50
270.0
 51
0.0
  0
LINE
  5
662C
330
1F
100
AcDbEntity
  8
SPEC
100
AcDbLine
 10
885.2049972874546
 20
699.0447504031532
 30
0.0
 11
885.2049972874546
 21
699.5997420986935
 31
0.0
  0
LINE
  5
662D
330
1F
100
AcDbEntity
  8
SPEC
100
AcDbLine
 10
883.5400211502069
 20
697.9347665680258
 30
0.0
 11
883.5400211502069
 21
697.9347661239788
 31
0.0
  0
ARC
  5
662E
330
1F
100
AcDbEntity
  8
SPEC
100
AcDbCircle
 10
884.0950130677706
 20
697.9347665680258
 30
0.0
 40
0.5549919175637368
100
AcDbArc
 50
90.0
 51
180.0
  0
LINE
  5
662F
330
1F
100
AcDbEntity
  8
SPEC
100
AcDbLine
 10
885.2049972874546
 20
696.8247818448045
 30
0.0
 11
885.2049972874546
 21
696.2697901492642
 31
0.0
  0
ARC
  5
6630
330
1F
100
AcDbEntity
  8
SPEC
100
AcDbCircle
 10
884.6500053698909
 20
696.8247818448045
 30
0.0
 40
0.5549919175637368
100
AcDbArc
 50
0.0
 51
90.0
  0
ARC
  5
6631
330
1F
100
AcDbEntity
  8
SPEC
100
AcDbCircle
 10
884.0950130677706
 20
697.9347661239788
 30
0.0
 40
0.5549919175637368
100
AcDbArc
 50
180.0
 51
270.0
  0
ARC
  5
6632
330
1F
100
AcDbEntity
  8
SPEC
100
AcDbCircle
 10
885.7599884359055
 20
699.5997420986935
 30
0.0
 40
0.5549919175637368
100
AcDbArc
 50
0.0
 51
90.0
  0
LINE
  5
6633
330
1F
100
AcDbEntity
  8
SPEC
100
AcDbLine
 10
889.1099888204617
 20
697.9347663460023
 30
0.0
 11
889.1099888204617
 21
701.0879788286847
 31
0.0
  0
LINE
  5
6634
330
1F
100
AcDbEntity
  8
SPEC
100
AcDbLine
 10
886.8699722710331
 20
697.3797742064151
 30
0.0
 11
887.4249653422657
 21
697.3797742064151
 31
0.0
  0
LINE
  5
6635
330
1F
100
AcDbEntity
  8
SPEC
100
AcDbLine
 10
886.8699730401457
 20
698.4897584855895
 30
0.0
 11
887.4249653422662
 21
698.4897584855895
 31
0.0
  0
ARC
  5
6636
330
1F
100
AcDbEntity
  8
SPEC
100
AcDbCircle
 10
886.8699730401457
 20
699.0447504031532
 30
0.0
 40
0.5549919175637368
100
AcDbArc
 50
180.0
 51
270.0
  0
LINE
  5
6637
330
1F
100
AcDbEntity
  8
SPEC
100
AcDbLine
 10
886.3149811225822
 20
699.0447504031532
 30
0.0
 11
886.3149803534694
 21
699.5997420986935
 31
0.0
  0
LINE
  5
6638
330
1F
100
AcDbEntity
  8
SPEC
100
AcDbLine
 10
887.9799572598299
 20
697.9347665680258
 30
0.0
 11
887.9799572598294
 21
697.9347661239788
 31
0.0
  0
ARC
  5
6639
330
1F
100
AcDbEntity
  8
SPEC
100
AcDbCircle
 10
887.4249653422662
 20
697.9347665680258
 30
0.0
 40
0.5549919175637368
100
AcDbArc
 50
0.0
 51
90.0
  0
LINE
  5
663A
330
1F
100
AcDbEntity
  8
SPEC
100
AcDbLine
 10
885.7599888204617
 20
700.1547340162573
 30
0.0
 11
885.7599892050185
 21
700.1547340162573
 31
0.0
  0
LINE
  5
663B
330
1F
100
AcDbEntity
  8
SPEC
100
AcDbLine
 10
886.3149803534694
 20
696.8247822888514
 30
0.0
 11
886.3149803534694
 21
696.2697901492642
 31
0.0
  0
LINE
  5
663C
330
1F
100
AcDbEntity
  8
SPEC
100
AcDbLine
 10
885.7599852680847
 20
695.7147986757501
 30
0.0
 11
885.7599856526407
 21
695.7147986757497
 31
0.0
  0
ARC
  5
663D
330
1F
100
AcDbEntity
  8
SPEC
100
AcDbCircle
 10
885.7599857716222
 20
696.2697905933139
 30
0.0
 40
0.5549919175637368
100
AcDbArc
 50
269.9999083156716
 51
359.9999083156717
  0
LINE
  5
663E
330
1F
100
AcDbEntity
  8
CENTER
  6
AM_ISO08W050x2
100
AcDbLine
 10
885.7599888204617
 20
695.4373027169655
 30
0.0
 11
885.7599888204617
 21
700.4322299750391
 31
0.0
  0
ARC
  5
663F
330
1F
100
AcDbEntity
  8
SPEC
100
AcDbCircle
 10
887.4249653422657
 20
697.9347661239788
 30
0.0
 40
0.5549919175637368
100
AcDbArc
 50
270.0
 51
0.0
  0
ARC
  5
6640
330
1F
100
AcDbEntity
  8
SPEC
100
AcDbCircle
 10
886.8699722710331
 20
696.8247822888514
 30
0.0
 40
0.5549919175637368
100
AcDbArc
 50
90.0
 51
180.0
  0
LINE
  5
6642
330
1F
100
AcDbEntity
  8
SPEC
100
AcDbLine
 10
900.2599888204617
 20
696.0879788286847
 30
0.0
 11
900.2599888204617
 21
646.0879788286847
 31
0.0
  0
LINE
  5
6648
330
1F
100
AcDbEntity
  8
CENTER
  6
AM_ISO08W050x2
100
AcDbLine
 10
897.1067763377796
 20
653.3379788286847
 30
0.0
 11
897.1067763377796
 21
657.8379788286847
 31
0.0
  0
LINE
  5
664C
330
1F
100
AcDbEntity
  8
CENTER
  6
AM_ISO08W050x2
100
AcDbLine
 10
894.8567763377795
 20
655.5879788286847
 30
0.0
 11
899.3567763377795
 21
655.5879788286847
 31
0.0
  0
LINE
  5
664E
330
1F
100
AcDbEntity
  8
SPEC
100
AcDbLine
 10
897.1067765378034
 20
657.5879788286847
 30
0.0
 11
897.1067761377558
 21
657.5879788286847
 31
0.0
  0
LINE
  5
6663
102
{ACAD_REACTORS
330
72BA
102
}
330
1F
100
AcDbEntity
  8
CENTER
  6
AM_ISO08W050x2
100
AcDbLine
 10
893.8299888204623
 20
701.0879788286847
 30
0.0
 11
893.8299888204623
 21
689.3681616009439
 31
0.0
  0
CIRCLE
  5
6664
330
1F
100
AcDbEntity
  8
SPEC
100
AcDbCircle
 10
893.8299888204623
 20
694.6579788286847
 30
0.0
 40
2.25
  0
ARC
  5
6665
102
{ACAD_REACTORS
330
72F6
102
}
330
1F
100
AcDbEntity
  8
SPEC
100
AcDbCircle
 10
895.2599888204618
 20
696.0879788286847
 30
0.0
 40
5.0
100
AcDbArc
 50
0.0
 51
90.0
  0
DIMENSION
  5
72AC
102
{ACAD_XDICTIONARY
360
72B9
102
}
102
{ACAD_REACTORS
330
72BA
102
}
330
1F
100
AcDbEntity
  8
AM_5
100
AcDbDimension
  2
*D10
 10
893.8299888204623
 20
709.268643670673
 30
0.0
 11
870.2599888204622
 21
711.7952466720374
 31
0.0
 70
    32
  1
{\Famgdt;o} <>
 71
     5
 42
47.14000000000033
  3
STANDARD$0
100
AcDbAlignedDimension
 13
846.689988820462
 23
701.0879788286847
 33
0.0
 14
893.8299888204623
 24
701.0879788286847
 34
0.0
100
AcDbRotatedDimension
1001
ACAD
1000
DSTYLE
1002
{
1070
    47
1040
0.2
1070
   147
1040
1.0
1070
    48
1040
0.2
1070
    72
1070
     0
1070
    71
1070
     1
1002
}
  0
DIMENSION
  5
72E8
102
{ACAD_XDICTIONARY
360
72F5
102
}
102
{ACAD_REACTORS
330
72F6
102
}
330
1F
100
AcDbEntity
  8
AM_5
100
AcDbDimension
  2
*D11
 10
900.2599888204617
 20
718.1739436611812
 30
0.0
 11
870.259988820462
 21
720.7056626243463
 31
0.0
 70
    32
  1
{\Famgdt;o} <>
 71
     5
 42
59.99999999999954
  3
STANDARD$0
100
AcDbAlignedDimension
 13
840.2599888204623
 23
696.0879788286847
 33
0.0
 14
900.2599888204617
 24
696.0879788286847
 34
0.0
100
AcDbRotatedDimension
1001
ACAD
1000
DSTYLE
1002
{
1070
    47
1040
0.5
1070
   147
1040
1.0
1070
    48
1040
0.5
1070
    72
1070
     0
1070
    71
1070
     1
1002
}
  0
INSERT
  5
737B
330
1F
100
AcDbEntity
  8
AM_5
  6
ACISOTGL
100
AcDbBlockReference
  2
*S27
 10
0.0
 20
0.0
 30
0.0
  0
TEXT
  5
737E
330
1F
100
AcDbEntity
  8
DATA
100
AcDbText
 10
904.2582440493477
 20
634.0004158474564
 30
0.0
 40
3.0
  1
4-%%C4.5
100
AcDbText
  0
TEXT
  5
73A8
330
1F
100
AcDbEntity
  8
DIM
100
AcDbText
 10
838.5153762529526
 20
727.9830580443457
 30
0.0
 40
4.5
  1
Front view and mounting
100
AcDbText
  0
TEXT
  5
73A9
330
1F
100
AcDbEntity
  8
DIM
100
AcDbText
 10
992.3714896982213
 20
727.9830580443457
 30
0.0
 40
4.5
  1
Side view
100
AcDbText
  0
TEXT
  5
73AA
330
1F
100
AcDbEntity
  8
DIM
100
AcDbText
 10
1140.886923265554
 20
727.9830580443457
 30
0.0
 40
4.5
  1
Rear view
100
AcDbText
  0
ARC
  5
73AC
330
1F
100
AcDbEntity
  8
SPEC
100
AcDbCircle
 10
885.7599888204617
 20
697.9347663460023
 30
0.0
 40
3.35
100
AcDbArc
 50
180.0
 51
0.0
  0
CIRCLE
  5
73AE
330
1F
100
AcDbEntity
  8
SPEC
100
AcDbCircle
 10
885.7599888204617
 20
697.9347663460023
 30
0.0
 40
2.5
  0
ARC
  5
73D6
330
1F
100
AcDbEntity
  8
SPEC
100
AcDbCircle
 10
897.1067767223361
 20
657.2529545813759
 30
0.0
 40
0.5549919175637368
100
AcDbArc
 50
90.0
 51
180.0
  0
ARC
  5
73D8
330
1F
100
AcDbEntity
  8
SPEC
100
AcDbCircle
 10
897.1067740580533
 20
653.923003075995
 30
0.0
 40
0.5549919175637368
100
AcDbArc
 50
179.9999083156718
 51
269.9999083156717
  0
LINE
  5
73D9
330
1F
100
AcDbEntity
  8
SPEC
100
AcDbLine
 10
897.1067763377796
 20
658.9379788286846
 30
0.0
 11
900.259988820462
 21
658.9379788286846
 31
0.0
  0
LINE
  5
73DA
330
1F
100
AcDbEntity
  8
SPEC
100
AcDbLine
 10
895.9967926651856
 20
655.0329862450507
 30
0.0
 11
895.4418005850882
 21
655.0329866890976
 31
0.0
  0
LINE
  5
73DB
330
1F
100
AcDbEntity
  8
SPEC
100
AcDbLine
 10
895.9967928872087
 20
656.1429709682719
 30
0.0
 11
895.4418005850882
 21
656.1429709682719
 31
0.0
  0
ARC
  5
73DC
330
1F
100
AcDbEntity
  8
SPEC
100
AcDbCircle
 10
895.9967928872087
 20
656.6979628858356
 30
0.0
 40
0.5549919175637368
100
AcDbArc
 50
270.0
 51
0.0
  0
LINE
  5
73DD
330
1F
100
AcDbEntity
  8
SPEC
100
AcDbLine
 10
896.5517848047724
 20
656.6979628858356
 30
0.0
 11
896.5517848047724
 21
657.2529545813759
 31
0.0
  0
LINE
  5
73DE
330
1F
100
AcDbEntity
  8
SPEC
100
AcDbLine
 10
894.8868086675245
 20
655.5879790507082
 30
0.0
 11
894.8868086675245
 21
655.5879786066612
 31
0.0
  0
ARC
  5
73DF
330
1F
100
AcDbEntity
  8
SPEC
100
AcDbCircle
 10
895.4418005850882
 20
655.5879790507082
 30
0.0
 40
0.5549919175637368
100
AcDbArc
 50
90.0
 51
180.0
  0
LINE
  5
73E0
330
1F
100
AcDbEntity
  8
SPEC
100
AcDbLine
 10
896.5517848047724
 20
654.4779943274869
 30
0.0
 11
896.5517848047724
 21
653.9230026319467
 31
0.0
  0
ARC
  5
73E1
330
1F
100
AcDbEntity
  8
SPEC
100
AcDbCircle
 10
895.9967928872087
 20
654.4779943274869
 30
0.0
 40
0.5549919175637368
100
AcDbArc
 50
0.0
 51
90.0
  0
ARC
  5
73E2
330
1F
100
AcDbEntity
  8
SPEC
100
AcDbCircle
 10
895.4418005850882
 20
655.5879786066612
 30
0.0
 40
0.5549919175637368
100
AcDbArc
 50
180.0
 51
270.0
  0
ARC
  5
73E3
330
1F
100
AcDbEntity
  8
SPEC
100
AcDbCircle
 10
897.1067759532234
 20
657.2529545813759
 30
0.0
 40
0.5549919175637368
100
AcDbArc
 50
0.0
 51
90.0
  0
LINE
  5
73E4
330
1F
100
AcDbEntity
  8
SPEC
100
AcDbLine
 10
897.1067763377796
 20
652.2379788286847
 30
0.0
 11
900.259988820462
 21
652.2379788286847
 31
0.0
  0
LINE
  5
73E5
330
1F
100
AcDbEntity
  8
SPEC
100
AcDbLine
 10
898.216759788351
 20
655.0329866890976
 30
0.0
 11
898.7717528595835
 21
655.0329866890976
 31
0.0
  0
LINE
  5
73E6
330
1F
100
AcDbEntity
  8
SPEC
100
AcDbLine
 10
898.2167605574636
 20
656.1429709682719
 30
0.0
 11
898.771752859584
 21
656.1429709682719
 31
0.0
  0
ARC
  5
73E7
330
1F
100
AcDbEntity
  8
SPEC
100
AcDbCircle
 10
898.2167605574636
 20
656.6979628858356
 30
0.0
 40
0.5549919175637368
100
AcDbArc
 50
180.0
 51
270.0
  0
LINE
  5
73E8
330
1F
100
AcDbEntity
  8
SPEC
100
AcDbLine
 10
897.6617686398999
 20
656.6979628858356
 30
0.0
 11
897.6617678707873
 21
657.2529545813759
 31
0.0
  0
LINE
  5
73E9
330
1F
100
AcDbEntity
  8
SPEC
100
AcDbLine
 10
899.3267447771478
 20
655.5879790507082
 30
0.0
 11
899.3267447771472
 21
655.5879786066612
 31
0.0
  0
ARC
  5
73EA
330
1F
100
AcDbEntity
  8
SPEC
100
AcDbCircle
 10
898.771752859584
 20
655.5879790507082
 30
0.0
 40
0.5549919175637368
100
AcDbArc
 50
0.0
 51
90.0
  0
LINE
  5
73EB
330
1F
100
AcDbEntity
  8
SPEC
100
AcDbLine
 10
897.1067763377796
 20
657.8079464989396
 30
0.0
 11
897.1067767223361
 21
657.8079464989396
 31
0.0
  0
LINE
  5
73EC
330
1F
100
AcDbEntity
  8
SPEC
100
AcDbLine
 10
897.6617678707873
 20
654.4779947715339
 30
0.0
 11
897.6617678707873
 21
653.9230026319467
 31
0.0
  0
LINE
  5
73ED
330
1F
100
AcDbEntity
  8
SPEC
100
AcDbLine
 10
897.1067727854023
 20
653.3680111584325
 30
0.0
 11
897.1067731699585
 21
653.368011158432
 31
0.0
  0
ARC
  5
73EE
330
1F
100
AcDbEntity
  8
SPEC
100
AcDbCircle
 10
897.10677328894
 20
653.9230030759963
 30
0.0
 40
0.5549919175637368
100
AcDbArc
 50
269.9999083156717
 51
359.9999083156717
  0
ARC
  5
73F0
330
1F
100
AcDbEntity
  8
SPEC
100
AcDbCircle
 10
898.7717528595835
 20
655.5879786066612
 30
0.0
 40
0.5549919175637368
100
AcDbArc
 50
270.0
 51
0.0
  0
ARC
  5
73F1
330
1F
100
AcDbEntity
  8
SPEC
100
AcDbCircle
 10
898.216759788351
 20
654.4779947715339
 30
0.0
 40
0.5549919175637368
100
AcDbArc
 50
90.0
 51
180.0
  0
ARC
  5
73F2
330
1F
100
AcDbEntity
  8
SPEC
100
AcDbCircle
 10
897.1067763377796
 20
655.5879788286846
 30
0.0
 40
3.35
100
AcDbArc
 50
90.0
 51
270.0
  0
CIRCLE
  5
73F3
330
1F
100
AcDbEntity
  8
SPEC
100
AcDbCircle
 10
897.1067763377796
 20
655.5879788286847
 30
0.0
 40
2.5
  0
ARC
  5
741A
330
1F
100
AcDbEntity
  8
SPEC
100
AcDbCircle
 10
854.7599892050188
 20
645.9061670640584
 30
0.0
 40
0.5549919175637368
100
AcDbArc
 50
90.0
 51
180.0
  0
ARC
  5
741C
330
1F
100
AcDbEntity
  8
SPEC
100
AcDbCircle
 10
854.7599865407359
 20
642.5762155586775
 30
0.0
 40
0.5549919175637368
100
AcDbArc
 50
179.9999083156718
 51
269.9999083156717
  0
LINE
  5
741D
330
1F
100
AcDbEntity
  8
SPEC
100
AcDbLine
 10
858.109988820462
 20
644.2411913113673
 30
0.0
 11
858.109988820462
 21
641.0879788286848
 31
0.0
  0
LINE
  5
741E
330
1F
100
AcDbEntity
  8
SPEC
100
AcDbLine
 10
853.6500051478682
 20
643.6861987277331
 30
0.0
 11
853.0950130677709
 21
643.6861991717799
 31
0.0
  0
LINE
  5
741F
330
1F
100
AcDbEntity
  8
SPEC
100
AcDbLine
 10
853.6500053698913
 20
644.7961834509543
 30
0.0
 11
853.0950130677709
 21
644.7961834509543
 31
0.0
  0
ARC
  5
7420
330
1F
100
AcDbEntity
  8
SPEC
100
AcDbCircle
 10
853.6500053698913
 20
645.351175368518
 30
0.0
 40
0.5549919175637368
100
AcDbArc
 50
270.0
 51
0.0
  0
LINE
  5
7421
330
1F
100
AcDbEntity
  8
SPEC
100
AcDbLine
 10
854.2049972874551
 20
645.351175368518
 30
0.0
 11
854.2049972874551
 21
645.9061670640584
 31
0.0
  0
LINE
  5
7422
330
1F
100
AcDbEntity
  8
SPEC
100
AcDbLine
 10
852.5400211502072
 20
644.2411915333906
 30
0.0
 11
852.5400211502072
 21
644.2411910893437
 31
0.0
  0
ARC
  5
7423
330
1F
100
AcDbEntity
  8
SPEC
100
AcDbCircle
 10
853.0950130677709
 20
644.2411915333906
 30
0.0
 40
0.5549919175637368
100
AcDbArc
 50
90.0
 51
180.0
  0
LINE
  5
7424
330
1F
100
AcDbEntity
  8
SPEC
100
AcDbLine
 10
854.2049972874551
 20
643.1312068101694
 30
0.0
 11
854.2049972874551
 21
642.5762151146291
 31
0.0
  0
ARC
  5
7425
330
1F
100
AcDbEntity
  8
SPEC
100
AcDbCircle
 10
853.6500053698913
 20
643.1312068101694
 30
0.0
 40
0.5549919175637368
100
AcDbArc
 50
0.0
 51
90.0
  0
ARC
  5
7426
330
1F
100
AcDbEntity
  8
SPEC
100
AcDbCircle
 10
853.0950130677709
 20
644.2411910893437
 30
0.0
 40
0.5549919175637368
100
AcDbArc
 50
180.0
 51
270.0
  0
ARC
  5
7427
330
1F
100
AcDbEntity
  8
SPEC
100
AcDbCircle
 10
854.759988435906
 20
645.9061670640584
 30
0.0
 40
0.5549919175637368
100
AcDbArc
 50
0.0
 51
90.0
  0
LINE
  5
7428
330
1F
100
AcDbEntity
  8
SPEC
100
AcDbLine
 10
851.4099888204622
 20
644.2411913113673
 30
0.0
 11
851.4099888204622
 21
641.0879788286848
 31
0.0
  0
LINE
  5
7429
330
1F
100
AcDbEntity
  8
SPEC
100
AcDbLine
 10
855.8699722710336
 20
643.6861991717799
 30
0.0
 11
856.4249653422661
 21
643.6861991717799
 31
0.0
  0
LINE
  5
742A
330
1F
100
AcDbEntity
  8
SPEC
100
AcDbLine
 10
855.8699730401462
 20
644.7961834509543
 30
0.0
 11
856.4249653422667
 21
644.7961834509543
 31
0.0
  0
ARC
  5
742B
330
1F
100
AcDbEntity
  8
SPEC
100
AcDbCircle
 10
855.8699730401462
 20
645.351175368518
 30
0.0
 40
0.5549919175637368
100
AcDbArc
 50
180.0
 51
270.0
  0
LINE
  5
742C
330
1F
100
AcDbEntity
  8
SPEC
100
AcDbLine
 10
855.3149811225825
 20
645.351175368518
 30
0.0
 11
855.3149803534699
 21
645.9061670640584
 31
0.0
  0
LINE
  5
742D
330
1F
100
AcDbEntity
  8
SPEC
100
AcDbLine
 10
856.9799572598304
 20
644.2411915333906
 30
0.0
 11
856.9799572598299
 21
644.2411910893437
 31
0.0
  0
ARC
  5
742E
330
1F
100
AcDbEntity
  8
SPEC
100
AcDbCircle
 10
856.4249653422667
 20
644.2411915333906
 30
0.0
 40
0.5549919175637368
100
AcDbArc
 50
0.0
 51
90.0
  0
LINE
  5
742F
330
1F
100
AcDbEntity
  8
SPEC
100
AcDbLine
 10
854.7599888204622
 20
646.4611589816221
 30
0.0
 11
854.7599892050188
 21
646.4611589816221
 31
0.0
  0
LINE
  5
7430
330
1F
100
AcDbEntity
  8
SPEC
100
AcDbLine
 10
855.3149803534699
 20
643.1312072542162
 30
0.0
 11
855.3149803534699
 21
642.5762151146291
 31
0.0
  0
LINE
  5
7431
330
1F
100
AcDbEntity
  8
SPEC
100
AcDbLine
 10
854.759985268085
 20
642.0212236411149
 30
0.0
 11
854.7599856526412
 21
642.0212236411145
 31
0.0
  0
ARC
  5
7432
330
1F
100
AcDbEntity
  8
SPEC
100
AcDbCircle
 10
854.7599857716226
 20
642.5762155586787
 30
0.0
 40
0.5549919175637368
100
AcDbArc
 50
269.9999083156717
 51
359.9999083156717
  0
ARC
  5
7434
330
1F
100
AcDbEntity
  8
SPEC
100
AcDbCircle
 10
856.4249653422661
 20
644.2411910893437
 30
0.0
 40
0.5549919175637368
100
AcDbArc
 50
270.0
 51
0.0
  0
ARC
  5
7435
330
1F
100
AcDbEntity
  8
SPEC
100
AcDbCircle
 10
855.8699722710336
 20
643.1312072542162
 30
0.0
 40
0.5549919175637368
100
AcDbArc
 50
90.0
 51
180.0
  0
ARC
  5
7436
330
1F
100
AcDbEntity
  8
SPEC
100
AcDbCircle
 10
854.759988820462
 20
644.2411913113673
 30
0.0
 40
3.35
100
AcDbArc
 50
0.0
 51
180.0
  0
CIRCLE
  5
7437
330
1F
100
AcDbEntity
  8
SPEC
100
AcDbCircle
 10
854.7599888204622
 20
644.2411913113671
 30
0.0
 40
2.5
  0
ARC
  5
74A2
330
1F
100
AcDbEntity
  8
SPEC
100
AcDbCircle
 10
843.4132016877011
 20
688.252954581376
 30
0.0
 40
0.5549919175637368
100
AcDbArc
 50
90.0
 51
180.0
  0
LINE
  5
74A3
330
1F
100
AcDbEntity
  8
CENTER
  6
AM_ISO08W050x2
100
AcDbLine
 10
845.9106649321812
 20
686.5879788286847
 30
0.0
 11
840.9157376741076
 21
686.5879788286847
 31
0.0
  0
ARC
  5
74A4
330
1F
100
AcDbEntity
  8
SPEC
100
AcDbCircle
 10
843.4131990234181
 20
684.9230030759951
 30
0.0
 40
0.5549919175637368
100
AcDbArc
 50
179.9999083156718
 51
269.9999083156717
  0
LINE
  5
74A5
330
1F
100
AcDbEntity
  8
SPEC
100
AcDbLine
 10
843.4132013031444
 20
683.2379788286847
 30
0.0
 11
840.2599888204619
 21
683.2379788286847
 31
0.0
  0
LINE
  5
74A6
330
1F
100
AcDbEntity
  8
SPEC
100
AcDbLine
 10
842.3032176305504
 20
686.0329862450506
 30
0.0
 11
841.7482255504532
 21
686.0329866890976
 31
0.0
  0
LINE
  5
74A7
330
1F
100
AcDbEntity
  8
SPEC
100
AcDbLine
 10
842.3032178525735
 20
687.1429709682719
 30
0.0
 11
841.7482255504532
 21
687.1429709682719
 31
0.0
  0
ARC
  5
74A8
330
1F
100
AcDbEntity
  8
SPEC
100
AcDbCircle
 10
842.3032178525735
 20
687.6979628858356
 30
0.0
 40
0.5549919175637368
100
AcDbArc
 50
270.0
 51
0.0
  0
LINE
  5
74A9
330
1F
100
AcDbEntity
  8
SPEC
100
AcDbLine
 10
842.8582097701372
 20
687.6979628858356
 30
0.0
 11
842.8582097701372
 21
688.252954581376
 31
0.0
  0
LINE
  5
74AA
330
1F
100
AcDbEntity
  8
SPEC
100
AcDbLine
 10
841.1932336328895
 20
686.5879790507082
 30
0.0
 11
841.1932336328895
 21
686.5879786066613
 31
0.0
  0
ARC
  5
74AB
330
1F
100
AcDbEntity
  8
SPEC
100
AcDbCircle
 10
841.7482255504532
 20
686.5879790507082
 30
0.0
 40
0.5549919175637368
100
AcDbArc
 50
90.0
 51
180.0
  0
LINE
  5
74AC
330
1F
100
AcDbEntity
  8
SPEC
100
AcDbLine
 10
842.8582097701372
 20
685.4779943274869
 30
0.0
 11
842.8582097701372
 21
684.9230026319466
 31
0.0
  0
ARC
  5
74AD
330
1F
100
AcDbEntity
  8
SPEC
100
AcDbCircle
 10
842.3032178525735
 20
685.4779943274869
 30
0.0
 40
0.5549919175637368
100
AcDbArc
 50
0.0
 51
90.0
  0
ARC
  5
74AE
330
1F
100
AcDbEntity
  8
SPEC
100
AcDbCircle
 10
841.7482255504532
 20
686.5879786066613
 30
0.0
 40
0.5549919175637368
100
AcDbArc
 50
180.0
 51
270.0
  0
ARC
  5
74AF
330
1F
100
AcDbEntity
  8
SPEC
100
AcDbCircle
 10
843.4132009185882
 20
688.252954581376
 30
0.0
 40
0.5549919175637368
100
AcDbArc
 50
0.0
 51
90.0
  0
LINE
  5
74B0
330
1F
100
AcDbEntity
  8
SPEC
100
AcDbLine
 10
843.4132013031444
 20
689.9379788286847
 30
0.0
 11
840.2599888204619
 21
689.9379788286847
 31
0.0
  0
LINE
  5
74B1
330
1F
100
AcDbEntity
  8
SPEC
100
AcDbLine
 10
844.5231847537158
 20
686.0329866890976
 30
0.0
 11
845.0781778249483
 21
686.0329866890976
 31
0.0
  0
LINE
  5
74B2
330
1F
100
AcDbEntity
  8
SPEC
100
AcDbLine
 10
844.5231855228284
 20
687.1429709682719
 30
0.0
 11
845.0781778249488
 21
687.1429709682719
 31
0.0
  0
ARC
  5
74B3
330
1F
100
AcDbEntity
  8
SPEC
100
AcDbCircle
 10
844.5231855228284
 20
687.6979628858356
 30
0.0
 40
0.5549919175637368
100
AcDbArc
 50
180.0
 51
270.0
  0
LINE
  5
74B4
330
1F
100
AcDbEntity
  8
SPEC
100
AcDbLine
 10
843.9681936052647
 20
687.6979628858356
 30
0.0
 11
843.9681928361521
 21
688.252954581376
 31
0.0
  0
LINE
  5
74B5
330
1F
100
AcDbEntity
  8
SPEC
100
AcDbLine
 10
845.6331697425126
 20
686.5879790507082
 30
0.0
 11
845.633169742512
 21
686.5879786066613
 31
0.0
  0
ARC
  5
74B6
330
1F
100
AcDbEntity
  8
SPEC
100
AcDbCircle
 10
845.0781778249488
 20
686.5879790507082
 30
0.0
 40
0.5549919175637368
100
AcDbArc
 50
0.0
 51
90.0
  0
LINE
  5
74B7
330
1F
100
AcDbEntity
  8
SPEC
100
AcDbLine
 10
843.4132013031444
 20
688.8079464989397
 30
0.0
 11
843.4132016877011
 21
688.8079464989397
 31
0.0
  0
LINE
  5
74B8
330
1F
100
AcDbEntity
  8
SPEC
100
AcDbLine
 10
843.9681928361521
 20
685.4779947715338
 30
0.0
 11
843.9681928361521
 21
684.9230026319466
 31
0.0
  0
LINE
  5
74B9
330
1F
100
AcDbEntity
  8
SPEC
100
AcDbLine
 10
843.4131977507671
 20
684.3680111584325
 30
0.0
 11
843.4131981353234
 21
684.368011158432
 31
0.0
  0
ARC
  5
74BA
330
1F
100
AcDbEntity
  8
SPEC
100
AcDbCircle
 10
843.4131982543048
 20
684.9230030759963
 30
0.0
 40
0.5549919175637368
100
AcDbArc
 50
269.9999083156717
 51
359.9999083156717
  0
LINE
  5
74BB
330
1F
100
AcDbEntity
  8
CENTER
  6
AM_ISO08W050x2
100
AcDbLine
 10
843.4132013031444
 20
684.0905151996479
 30
0.0
 11
843.4132013031444
 21
689.0854424577216
 31
0.0
  0
ARC
  5
74BC
330
1F
100
AcDbEntity
  8
SPEC
100
AcDbCircle
 10
845.0781778249483
 20
686.5879786066613
 30
0.0
 40
0.5549919175637368
100
AcDbArc
 50
270.0
 51
0.0
  0
ARC
  5
74BD
330
1F
100
AcDbEntity
  8
SPEC
100
AcDbCircle
 10
844.5231847537158
 20
685.4779947715338
 30
0.0
 40
0.5549919175637368
100
AcDbArc
 50
90.0
 51
180.0
  0
ARC
  5
74BE
330
1F
100
AcDbEntity
  8
SPEC
100
AcDbCircle
 10
843.4132013031444
 20
686.5879788286847
 30
0.0
 40
3.35
100
AcDbArc
 50
270.0
 51
90.0
  0
CIRCLE
  5
74BF
330
1F
100
AcDbEntity
  8
SPEC
100
AcDbCircle
 10
843.4132013031444
 20
686.5879788286847
 30
0.0
 40
2.5
  0
LWPOLYLINE
  5
74C3
330
1F
100
AcDbEntity
  8
SPEC
100
AcDbPolyline
 90
        4
 70
     1
 43
0.0
 10
875.6505943686596
 20
632.0879788286849
 10
876.9206896090169
 20
632.0879788286849
 10
876.9206896090169
 20
634.8086190822325
 10
875.6505943686594
 20
634.8086190822325
  0
LWPOLYLINE
  5
74C4
330
1F
100
AcDbEntity
  8
SPEC
100
AcDbPolyline
 90
        4
 70
     1
 43
0.0
 10
877.9440303763523
 20
632.0879788286851
 10
879.2141256167099
 20
632.0879788286851
 10
879.2141256167097
 20
634.8086190822327
 10
877.9440303763523
 20
634.8086190822327
  0
LWPOLYLINE
  5
74C5
330
1F
100
AcDbEntity
  8
SPEC
100
AcDbPolyline
 90
        4
 70
     1
 43
0.0
 10
864.8693832722644
 20
632.0879788286849
 10
863.599288031907
 20
632.0879788286849
 10
863.599288031907
 20
634.8086190822325
 10
864.8693832722646
 20
634.8086190822325
  0
LWPOLYLINE
  5
74C6
330
1F
100
AcDbEntity
  8
SPEC
100
AcDbPolyline
 90
        4
 70
     1
 43
0.0
 10
862.5759472645716
 20
632.0879788286851
 10
861.3058520242141
 20
632.0879788286851
 10
861.3058520242143
 20
634.8086190822327
 10
862.5759472645716
 20
634.8086190822327
  0
DIMENSION
  5
77A4
330
1F
100
AcDbEntity
  8
AM_5
100
AcDbDimension
  2
*D12
 10
973.3047230049024
 20
708.000833361335
 30
0.0
 11
962.114947861802
 21
708.0
 31
0.0
 70
   160
 71
     5
 42
1.600815496960535
  3
STANDARD$0
100
AcDbAlignedDimension
 13
971.7052378441131
 23
690.1379788286845
 33
0.0
 14
973.3052378441129
 24
701.087943646675
 34
272.0000000000001
 50
0.0042671176680944
100
AcDbRotatedDimension
1001
ACAD
1000
DSTYLE
1002
{
1070
   344
1005
2F89
1070
   173
1070
     1
1070
   343
1005
0
1002
}
  0
DIMENSION
  5
77FE
330
1F
100
AcDbEntity
  8
AM_5
100
AcDbDimension
  2
*D13
 10
1061.300330873625
 20
718.0
 30
0.0
 11
1017.302784358869
 21
718.0
 31
0.0
 70
   160
 71
     5
 42
87.99509302951197
  3
STANDARD$0
100
AcDbAlignedDimension
 13
973.3052378441129
 23
701.0879788286845
 33
0.0
 14
1061.300330873625
 24
701.0879788286845
 34
0.0
100
AcDbRotatedDimension
1001
ACAD
1000
DSTYLE
1002
{
1070
    47
1040
1.0
1070
   147
1040
1.0
1070
    48
1040
1.0
1070
    72
1070
     0
1070
    71
1070
     1
1002
}
  0
DIMENSION
  5
787D
330
1F
100
AcDbEntity
  8
AM_5
100
AcDbDimension
  2
*D14
 10
978.305237844113
 20
708.0
 30
0.0
 11
986.2997808181921
 21
708.0
 31
0.0
 70
   160
 71
     5
 42
5.0
  3
STANDARD$0
100
AcDbAlignedDimension
 13
973.3052378441129
 23
701.0879788286845
 33
0.0
 14
978.305237844113
 24
701.0879788286845
 34
0.0
100
AcDbRotatedDimension
1001
ACAD
1000
DSTYLE
1002
{
1070
   343
1005
78DC
1070
   173
1070
     1
1070
   344
1005
0
1002
}
  0
DIMENSION
  5
7982
330
1F
100
AcDbEntity
  8
AM_5
100
AcDbDimension
  2
*D16
 10
945.5827132557402
 20
675.0879788286844
 30
0.0
 11
945.58271325574
 21
700.3942027251106
 31
0.0
 70
   160
  1
%%c<>
 71
     5
 42
8.0
  3
STANDARD$0
100
AcDbAlignedDimension
 13
953.0052378441132
 23
667.0879788286845
 33
0.0
 14
953.0052378441132
 24
675.0879788286844
 34
0.0
 50
90.0
100
AcDbRotatedDimension
1001
ACAD
1000
DSTYLE
1002
{
1070
   272
1070
     3
1070
    48
1040
0.015
1070
   147
1040
1.0
1070
    72
1070
     0
1070
    71
1070
     1
1002
}
  0
DIMENSION
  5
79F7
330
1F
100
AcDbEntity
  8
AM_5
100
AcDbDimension
  2
*D17
 10
937.4669336364352
 20
652.0379788286843
 30
0.0
 11
934.8513128997366
 21
671.0879788286845
 31
0.0
 70
    32
  1
%%c<>
 71
     5
 42
38.10000000000014
  3
STANDARD$0
100
AcDbAlignedDimension
 13
971.7052378441131
 23
690.1379788286845
 33
0.0
 14
971.7052378441131
 24
652.0379788286843
 34
0.0
 50
90.00000000000003
100
AcDbRotatedDimension
1001
ACAD
1000
DSTYLE
1002
{
1070
    47
1040
0.05
1070
   147
1040
1.0
1070
    48
1040
0.05
1070
    72
1070
     0
1070
    71
1070
     1
1002
}
  0
DIMENSION
  5
7A59
330
1F
100
AcDbEntity
  8
AM_5
100
AcDbDimension
  2
*D18
 10
952.705237844113
 20
717.9714701047693
 30
0.0
 11
963.1483710061061
 21
717.9714701047693
 31
0.0
 70
   160
 71
     5
 42
20.59999999999991
  3
STANDARD$0
100
AcDbAlignedDimension
 13
973.3052378441129
 23
701.0879788286845
 33
0.0
 14
952.705237844113
 24
674.7879788286843
 34
0.0
100
AcDbRotatedDimension
1001
ACAD
1000
DSTYLE
1002
{
1070
    47
1040
1.0
1070
   147
1040
1.0
1070
    48
1040
1.0
1070
    72
1070
     0
1070
    71
1070
     1
1002
}
  0
LINE
  5
7AD7
330
1F
100
AcDbEntity
  8
DIM
100
AcDbLine
 10
945.5846246880433
 20
667.0722266338502
 30
0.0
 11
945.5846246880433
 21
638.2978104759441
 31
272.0000000000001
  0
LINE
  5
7AD9
330
1F
100
AcDbEntity
  8
DIM
100
AcDbLine
 10
937.4751171565158
 20
652.0379788286843
 30
0.0
 11
937.4751171565158
 21
644.124793520185
 31
272.0000000000001
  0
LEADER
  5
7B04
330
1F
100
AcDbEntity
  8
DIM
100
AcDbLeader
  3
STANDARD
 76
     2
 10
963.3199703849193
 20
667.0879788286844
 30
272.0000000000001
 10
963.3199703849193
 20
648.4268548889284
 30
272.0000000000001
1001
ACAD
1000
DSTYLE
1002
{
1070
   341
1005
2FB
1070
    40
1040
1.0
1070
    77
1070
     0
1002
}
  0
LEADER
  5
7B07
330
1F
100
AcDbEntity
  8
DIM
100
AcDbLeader
  3
STANDARD
 76
     2
 10
973.3052370307841
 20
632.7876642739787
 30
272.0000000000001
 10
984.1875338085465
 20
632.7876642739787
 30
272.0000000000001
211
-1.0
221
-0.0000000000000058
231
0.0
210
0.0
220
0.0
230
-1.0
1001
ACAD
1000
DSTYLE
1002
{
1070
    40
1040
1.0
1070
    77
1070
     0
1002
}
  0
LINE
  5
7B0A
330
1F
100
AcDbEntity
  8
DIM
100
AcDbLine
 10
973.3052378441129
 20
640.0879788286845
 30
272.0000000000001
 11
973.3052378441129
 21
630.0411179673067
 31
0.0
  0
LWPOLYLINE
  5
7B45
330
1F
100
AcDbEntity
  8
SPEC
100
AcDbPolyline
 90
        4
 70
     1
 43
0.0
 10
1153.651120836066
 20
632.0879788286845
 10
1152.381025595708
 20
632.0879788286845
 10
1152.381025595708
 20
634.808619082232
 10
1153.651120836066
 20
634.808619082232
  0
LINE
  5
7B46
330
1F
100
AcDbEntity
  8
SPEC
100
AcDbLine
 10
1166.954854368879
 20
632.0879788286845
 30
0.0
 11
1141.954854368879
 21
632.0879788286844
 31
0.0
  0
LINE
  5
7B47
102
{ACAD_REACTORS
330
7C18
102
}
330
1F
100
AcDbEntity
  8
SPEC
100
AcDbLine
 10
1141.954854368879
 20
641.0879788286846
 30
0.0
 11
1141.954854368879
 21
632.0879788286844
 31
0.0
  0
LWPOLYLINE
  5
7B48
330
1F
100
AcDbEntity
  8
SPEC
100
AcDbPolyline
 90
        4
 70
     1
 43
0.0
 10
1151.357684828373
 20
632.0879788286845
 10
1150.087589588016
 20
632.0879788286845
 10
1150.087589588016
 20
634.808619082232
 10
1151.357684828373
 20
634.808619082232
  0
LWPOLYLINE
  5
7B49
330
1F
100
AcDbEntity
  8
SPEC
100
AcDbPolyline
 90
        4
 70
     1
 43
0.0
 10
1155.258587901693
 20
632.0879788286845
 10
1156.52868314205
 20
632.0879788286845
 10
1156.52868314205
 20
634.808619082232
 10
1155.258587901693
 20
634.808619082232
  0
LWPOLYLINE
  5
7B4A
330
1F
100
AcDbEntity
  8
SPEC
100
AcDbPolyline
 90
        4
 70
     1
 43
0.0
 10
1157.552023909385
 20
632.0879788286845
 10
1158.822119149743
 20
632.0879788286845
 10
1158.822119149743
 20
634.808619082232
 10
1157.552023909385
 20
634.808619082232
  0
LINE
  5
7B4B
102
{ACAD_REACTORS
330
7C18
102
}
330
1F
100
AcDbEntity
  8
SPEC
100
AcDbLine
 10
1166.954854368879
 20
641.0879788286845
 30
0.0
 11
1166.954854368879
 21
632.0879788286845
 31
0.0
  0
LWPOLYLINE
  5
7B4C
330
1F
100
AcDbEntity
  8
SPEC
100
AcDbPolyline
 90
        4
 70
     1
 43
0.0
 10
1159.845459917076
 20
632.0879788286847
 10
1161.115555157434
 20
632.0879788286847
 10
1161.115555157434
 20
634.8086190822323
 10
1159.845459917076
 20
634.8086190822323
  0
LWPOLYLINE
  5
7B4D
330
1F
100
AcDbEntity
  8
SPEC
100
AcDbPolyline
 90
        4
 70
     1
 43
0.0
 10
1162.138895924769
 20
632.0879788286848
 10
1163.408991165127
 20
632.0879788286848
 10
1163.408991165127
 20
634.8086190822324
 10
1162.138895924769
 20
634.8086190822324
  0
LWPOLYLINE
  5
7B4E
330
1F
100
AcDbEntity
  8
SPEC
100
AcDbPolyline
 90
        4
 70
     1
 43
0.0
 10
1149.064248820681
 20
632.0879788286847
 10
1147.794153580324
 20
632.0879788286847
 10
1147.794153580324
 20
634.8086190822323
 10
1149.064248820682
 20
634.8086190822323
  0
LWPOLYLINE
  5
7B4F
330
1F
100
AcDbEntity
  8
SPEC
100
AcDbPolyline
 90
        4
 70
     1
 43
0.0
 10
1146.770812812988
 20
632.0879788286848
 10
1145.500717572631
 20
632.0879788286848
 10
1145.500717572631
 20
634.8086190822324
 10
1146.770812812989
 20
634.8086190822324
  0
DIMENSION
  5
7B71
330
1F
100
AcDbEntity
  8
AM_5
  6
ACISOTGL
100
AcDbDimension
  2
*D19
 10
1074.800330873625
 20
718.0253569379478
 30
0.0
 11
1084.195214911824
 21
718.0253569379478
 31
0.0
 70
   160
 71
     5
 42
13.5
  3
STANDARD$0
100
AcDbAlignedDimension
 13
1061.300330873625
 23
701.094532285502
 33
0.0
 14
1074.800330873625
 24
673.969532285502
 34
0.0
100
AcDbRotatedDimension
1001
ACAD
1000
DSTYLE
1002
{
1070
    47
1040
1.0
1070
   147
1040
1.0
1070
    48
1040
1.0
1070
    72
1070
     0
1070
    71
1070
     1
1002
}
  0
DIMENSION
  5
7C0A
102
{ACAD_XDICTIONARY
360
7C17
102
}
102
{ACAD_REACTORS
330
7C18
102
}
330
1F
100
AcDbEntity
  8
AM_5
100
AcDbDimension
  2
*D20
 10
1166.954854368879
 20
620.0879788286844
 30
0.0
 11
1154.454854368879
 21
622.6196977918495
 31
0.0
 70
    32
 71
     5
 42
24.99999999999977
  3
STANDARD$0
100
AcDbAlignedDimension
 13
1141.954854368879
 23
632.0879788286844
 33
0.0
 14
1166.954854368879
 24
632.0879788286845
 34
0.0
 50
0.0000000000001132
100
AcDbRotatedDimension
  0
DIMENSION
  5
7C78
102
{ACAD_XDICTIONARY
360
7C85
102
}
102
{ACAD_REACTORS
330
7C86
102
}
330
1F
100
AcDbEntity
  8
AM_5
100
AcDbDimension
  2
*D21
 10
1045.000330873625
 20
621.6521871398221
 30
0.0
 11
1051.750330873625
 21
624.1849292953474
 31
0.0
 70
    32
 71
     5
 42
13.49999999999954
  3
STANDARD$0
100
AcDbAlignedDimension
 13
1058.500330873624
 23
632.0424103716208
 33
0.0
 14
1045.000330873625
 24
632.0879788286844
 34
0.0
 50
0.0000000000001132
100
AcDbRotatedDimension
  0
DIMENSION
  5
7CA2
102
{ACAD_XDICTIONARY
360
7CB1
102
}
102
{ACAD_REACTORS
330
7CB2
102
}
330
1F
100
AcDbEntity
  8
AM_5
100
AcDbDimension
  2
*D22
 10
1061.300330873625
 20
621.6524067697407
 30
0.0
 11
1071.059880668986
 21
621.6524067697407
 31
0.0
 70
   160
 71
     5
 42
2.800000000000181
  3
STANDARD$0
100
AcDbAlignedDimension
 13
1058.500330873624
 23
632.0879788286841
 33
0.0
 14
1061.300330873625
 24
641.094532285502
 34
0.0
 50
0.0000000000001132
100
AcDbRotatedDimension
  0
INSERT
  5
7CE2
330
1F
100
AcDbEntity
  8
AM_5
  6
ACISOTGL
100
AcDbBlockReference
  2
*S28
 10
0.0
 20
0.0
 30
0.0
  0
TEXT
  5
7CE4
330
1F
100
AcDbEntity
  8
DATA
100
AcDbText
 10
994.1739617898868
 20
619.2538066971199
 30
0.0
 40
3.0
  1
UL1007 AWG22
100
AcDbText
  0
TEXT
  5
7CE5
330
1F
100
AcDbEntity
  8
DATA
100
AcDbText
 10
994.1739617898868
 20
614.7538066971199
 30
0.0
 40
3.0
  1
L=300mm
100
AcDbText
  0
DIMENSION
  5
7D1B
330
1F
100
AcDbEntity
  8
AM_5
  6
ACISOTGL
100
AcDbDimension
  2
*D23
 10
1083.753152793051
 20
674.269532285502
 30
0.0
 11
1079.841215548849
 21
691.5170084110137
 31
0.0
 70
    32
  1
%%c<>
 71
     5
 42
6.349999999999909
  3
STANDARD$0
100
AcDbAlignedDimension
 13
1074.500330873624
 23
667.919532285502
 33
0.0
 14
1074.500330873624
 24
674.269532285502
 34
0.0
 50
90.0
100
AcDbRotatedDimension
1001
ACAD
1000
DSTYLE
1002
{
1070
   272
1070
     3
1070
    48
1040
0.013
1070
   147
1040
1.0
1070
    72
1070
     0
1070
    71
1070
     1
1002
}
  0
MTEXT
  5
7D89
330
1F
100
AcDbEntity
  8
SPEC
  6
HIDDEN
 62
     6
100
AcDbMText
 10
1080.159148082673
 20
649.9544805950734
 30
0.0
 40
3.0
 41
52.5
 71
     1
 72
     1
  1
(only for type ST6018L3008-B\PReady for encoder +\Pdriver mount)
 73
     1
 44
1.0
1001
ACAD
1000
ACAD_MTEXT_DEFINED_HEIGHT_BEGIN
1070
    46
1040
0.0
1000
ACAD_MTEXT_DEFINED_HEIGHT_END
1000
MTEXTBEGIN
1070
    73
1070
     1
1070
    44
1040
1.0
1070
    74
1070
     0
1000
MTEXTEND
  0
LEADER
  5
7DA3
330
1F
100
AcDbEntity
  8
SPEC
  6
ACISOTGL
100
AcDbLeader
  3
STANDARD
 73
     0
 40
15.90552523874488
 41
28.50613915416098
 76
     3
 10
1066.713871175057
 20
670.6232593393015
 30
0.0
 10
1074.119654236081
 20
646.7736260442426
 30
0.0
 10
1078.366480489074
 20
646.7699999999999
 30
0.0
213
-0.6081603737004287
223
-2.326072191169657
233
0.0
1001
ACAD
1000
DSTYLE
1002
{
1070
    40
1040
1.0
1070
    77
1070
     0
1002
}
  0
LEADER
  5
7DA4
330
1F
100
AcDbEntity
  8
DIM
  6
ACISOTGL
100
AcDbLeader
  3
STANDARD
 76
     3
 10
1144.929854368879
 20
671.0879788286838
 30
0.0
 10
1124.933392206278
 20
638.0437911211818
 30
0.0
 10
1120.013568394907
 20
638.0437911211818
 30
0.0
1001
ACAD
1000
DSTYLE
1002
{
1070
    40
1040
1.0
1070
    77
1070
     0
1002
}
  0
LEADER
  5
7DB4
330
1F
100
AcDbEntity
  8
DIM
  6
ACISOTGL
100
AcDbLeader
  3
STANDARD
 76
     3
 10
1163.979854368879
 20
671.0879788286845
 30
0.0
 10
1179.005789131494
 20
714.7696355027842
 30
0.0
 10
1191.738348822191
 20
714.7697363163787
 30
0.0
1001
ACAD
1000
DSTYLE
1002
{
1070
    40
1040
1.0
1070
    77
1070
     0
1002
}
  0
TEXT
  5
7DB5
330
1F
100
AcDbEntity
  8
DATA
  6
ACISOTGL
100
AcDbText
 10
1179.26332494736
 20
716.3560391223488
 30
0.0
 40
3.0
  1
2-M2.5
100
AcDbText
  0
TOLERANCE
  5
7ECA
330
1F
100
AcDbEntity
  8
DIM
100
AcDbFcf
  3
STANDARD
 10
984.1865038526137
 20
632.773794959028
 30
0.0
  1
{\Fgdt;b}%%v0.1%%v%%vA%%v%%v
  0
TOLERANCE
  5
7ECB
330
1F
100
AcDbEntity
  8
DIM
100
AcDbFcf
  3
STANDARD
 10
948.5836931597205
 20
620.0225993458261
 30
0.0
  1
{\Fgdt;h}%%v0.05%%v%%v%%v%%v
 11
0.0000000000000001
 21
1.0
 31
0.0
  0
TOLERANCE
  5
7ECC
330
1F
100
AcDbEntity
  8
DIM
100
AcDbFcf
  3
STANDARD
 10
940.4767981818626
 20
620.0083135843083
 30
0.0
  1
{\Fgdt;r}%%v0.08%%v%%vA%%v%%v
 11
0.0000000000000001
 21
1.0
 31
0.0
  0
TOLERANCE
  5
7ECF
330
1F
100
AcDbEntity
  8
DIM
100
AcDbFcf
  3
STANDARD
 10
960.5583380517238
 20
645.4273273951461
 30
0.0
  1
%%v%%v%%vA%%v%%v
  0
VIEWPORT
  5
2D8
102
{ACAD_XDICTIONARY
360
7F28
102
}
330
1B
100
AcDbEntity
 67
     1
  8
0
100
AcDbViewport
 10
146.7278676153474
 20
103.8356987880266
 30
0.0
 40
340.7225268714411
 41
252.1409971369903
 68
     1
 69
     1
 12
146.7278676153474
 22
103.8356987880266
 13
0.0
 23
0.0
 14
10.0
 24
10.0
 15
10.0
 25
10.0
 16
0.0
 26
0.0
 36
1.0
 17
0.0
 27
0.0
 37
0.0
 42
50.0
 43
0.0
 44
0.0
 45
252.1409971369903
 50
0.0
 51
0.0
 72
   100
 90
    32800
  1

281
     0
 71
     1
 74
     0
110
0.0
120
0.0
130
0.0
111
1.0
121
0.0
131
0.0
112
0.0
122
1.0
132
0.0
 79
     0
146
0.0
  0
MTEXT
  5
1290
330
1B
100
AcDbEntity
 67
     1
  8
DATA
100
AcDbMText
 10
142.6845396305116
 20
14.24154306217638
 30
0.0
 40
1.930697999999999
 41
24.133725
 71
     1
 72
     5
  1
X       %%p0.5\P1PL     %%p0.2\P2PL     %%p0.1\PANGLE   %%p30'
  7
ROMANS
 73
     1
 44
1.0
1001
ACAD
1000
MTEXTBEGIN
1070
    73
1070
     1
1070
    44
1040
1.0
1070
    74
1070
     0
1000
MTEXTEND
  0
LWPOLYLINE
  5
1291
330
1B
100
AcDbEntity
 67
     1
  8
SPEC
100
AcDbPolyline
 90
        2
 70
     0
 43
0.0
 10
44.51178313191621
 20
21.65598901220129
 10
104.0278513100474
 20
21.65598901220129
  0
TEXT
  5
1294
330
1B
100
AcDbEntity
 67
     1
  8
DATA
100
AcDbText
 10
223.3033978947773
 20
2.332825847364669
 30
0.0
 40
3.861395999999999
  1
ST6018L3008
 41
0.7
  7
ROMANS
100
AcDbText
  0
LWPOLYLINE
  5
1296
330
1B
100
AcDbEntity
 67
     1
  8
SPEC
100
AcDbPolyline
 90
        2
 70
     0
 43
0.0
 10
0.0009154015513104
 20
21.65598901220129
 10
44.6040054243686
 20
21.65598901220129
  0
LINE
  5
1297
330
1B
100
AcDbEntity
 67
     1
  8
DATA
100
AcDbLine
 10
141.4515899505442
 20
16.0064410711449
 30
0.0
 11
206.4352883025385
 21
16.0064410711449
 31
0.0
  0
LINE
  5
1299
330
1B
100
AcDbEntity
 67
     1
  8
DATA
100
AcDbLine
 10
188.9615608996265
 20
21.65598901220129
 30
0.0
 11
188.9615608996265
 21
0.0005791177154606
 31
0.0
  0
LINE
  5
129A
330
1B
100
AcDbEntity
 67
     1
  8
DATA
100
AcDbLine
 10
172.7736353934214
 20
21.62620757770765
 30
0.0
 11
172.7736353934214
 21
6.498316907446511
 31
0.0
  0
LINE
  5
129B
330
1B
100
AcDbEntity
 67
     1
  8
DATA
100
AcDbLine
 10
161.8855388603332
 20
0.0005791177154606
 30
0.0
 11
161.8855388603055
 21
21.65598905610526
 31
0.0
  0
LINE
  5
129C
330
1B
100
AcDbEntity
 67
     1
  8
DATA
100
AcDbLine
 10
162.1169692298447
 20
21.65598901220129
 30
0.0
 11
162.1169692298447
 21
0.0005791177154606
 31
0.0
  0
LINE
  5
129D
330
1B
100
AcDbEntity
 67
     1
  8
DATA
100
AcDbLine
 10
206.4352889818797
 20
21.65598901220129
 30
0.0
 11
206.4352889818797
 21
0.0005791177154606
 31
0.0
  0
LINE
  5
129E
330
1B
100
AcDbEntity
 67
     1
  8
DATA
100
AcDbLine
 10
71.44730055967194
 20
21.65598903157794
 30
0.0
 11
71.44730055966755
 21
0.0005791177154606
 31
0.0
  0
LINE
  5
129F
330
1B
100
AcDbEntity
 67
     1
  8
DATA
100
AcDbLine
 10
86.04251283525755
 20
21.65598903553624
 30
0.0
 11
86.0425128352576
 21
0.0005791177154606
 31
0.0
  0
LINE
  5
12A0
330
1B
100
AcDbEntity
 67
     1
  8
DATA
100
AcDbLine
 10
50.66681625037072
 20
21.65598901220129
 30
0.0
 11
50.66681625037072
 21
0.0005791177154606
 31
0.0
  0
LINE
  5
12A2
330
1B
100
AcDbEntity
 67
     1
  8
DATA
100
AcDbLine
 10
86.0425128352576
 20
16.5762960950056
 30
0.0
 11
0.0009154015513104
 21
16.5762960950056
 31
0.0
  0
LINE
  5
12A3
330
1B
100
AcDbEntity
 67
     1
  8
DATA
100
AcDbLine
 10
0.0009154015513104
 20
11.4966031778099
 30
0.0
 11
86.0425128352576
 21
11.49660317780992
 31
0.0
  0
LINE
  5
12A4
330
1B
100
AcDbEntity
 67
     1
  8
DATA
100
AcDbLine
 10
0.0009154015513104
 20
6.41691026061423
 30
0.0
 11
86.0425128352576
 21
6.416910260614244
 31
0.0
  0
LINE
  5
12A5
330
1B
100
AcDbEntity
 67
     1
  8
DATA
100
AcDbLine
 10
10.9812208516878
 20
21.65598901220129
 30
0.0
 11
10.9812208516878
 21
0.0005791177154606
 31
0.0
  0
LINE
  5
12A6
330
1B
100
AcDbEntity
 67
     1
  8
DATA
100
AcDbLine
 10
206.4352889818797
 20
6.487604351384876
 30
0.0
 11
161.8855388603332
 21
6.487604351384876
 31
0.0
  0
LINE
  5
12A7
330
1B
100
AcDbEntity
 67
     1
  8
DATA
100
AcDbLine
 10
161.8855388603332
 20
11.19931228302795
 30
0.0
 11
206.4352889818797
 21
11.19931228302795
 31
0.0
  0
TEXT
  5
12A8
330
1B
100
AcDbEntity
 67
     1
  8
DATA
100
AcDbText
 10
144.2089124014906
 20
17.38788360913192
 30
0.0
 40
2.413372499999999
  1
SCALE FREE
 41
0.7
  7
ROMANS
 72
     2
 11
159.5740506514906
 21
17.38788360913192
 31
0.0
100
AcDbText
  0
LINE
  5
12A9
330
1B
100
AcDbEntity
 67
     1
  8
DATA
100
AcDbLine
 10
141.4515899505442
 20
21.65598901220129
 30
0.0
 11
141.4515899505442
 21
0.0005791177154606
 31
0.0
  0
TEXT
  5
12AA
330
1B
100
AcDbEntity
 67
     1
  8
DATA
100
AcDbText
 10
72.81931794091391
 20
2.289088082541405
 30
0.0
 40
2.896047
  1
APVD
 41
0.7
  7
ROMANS
100
AcDbText
  0
TEXT
  5
12AB
330
1B
100
AcDbEntity
 67
     1
  8
DATA
100
AcDbText
 10
54.00518497335647
 20
2.289088082541405
 30
0.0
 40
2.896047
  1
DATE
 41
0.7
  7
ROMANS
100
AcDbText
  0
TEXT
  5
12AC
330
1B
100
AcDbEntity
 67
     1
  8
DATA
100
AcDbText
 10
13.71048401705179
 20
2.289088082541405
 30
0.0
 40
2.896047
  1
DESCRIPTION
 41
0.7
  7
ROMANS
100
AcDbText
  0
TEXT
  5
12AD
330
1B
100
AcDbEntity
 67
     1
  8
DATA
100
AcDbText
 10
2.61316602814029
 20
2.289088082541405
 30
0.0
 40
2.896047
  1
REV
 41
0.7
  7
ROMANS
 72
     2
 11
8.11565532814029
 21
2.289088082541405
 31
0.0
100
AcDbText
  0
TEXT
  5
12AE
330
1B
100
AcDbEntity
 67
     1
  8
DATA
100
AcDbText
 10
164.0115266587481
 20
16.86188228564509
 30
0.0
 40
2.896047
  1
APVD
 41
0.7
  7
ROMANS
 72
     2
 11
171.2516441587481
 21
16.86188228564509
 31
0.0
100
AcDbText
  0
TEXT
  5
12AF
330
1B
100
AcDbEntity
 67
     1
  8
DATA
100
AcDbText
 10
163.1771120414716
 20
12.25504563334623
 30
0.0
 40
2.896047
  1
CHKD
 41
0.7
  7
ROMANS
 72
     2
 11
171.0929738414716
 21
12.25504563334623
 31
0.0
100
AcDbText
  0
TEXT
  5
12B0
330
1B
100
AcDbEntity
 67
     1
  8
DATA
100
AcDbText
 10
164.1482638836956
 20
7.264305730021757
 30
0.0
 40
2.896047
  1
DRN
 41
0.7
  7
ROMANS
 72
     2
 11
169.9403578836956
 21
7.264305730021757
 31
0.0
100
AcDbText
  0
TEXT
  5
12B1
330
1B
100
AcDbEntity
 67
     1
  8
DATA
100
AcDbText
 10
166.3066680148434
 20
2.249663648385519
 30
0.0
 40
2.896047
  1
SIGNATURE
 41
0.7
  7
ROMANS
 72
     2
 11
182.2349265148434
 21
2.249663648385519
 31
0.0
100
AcDbText
  0
TEXT
  5
12B2
330
1B
100
AcDbEntity
 67
     1
  8
DATA
100
AcDbText
 10
194.0753275043612
 20
2.147712645052658
 30
0.0
 40
2.896047
  1
DATE
 41
0.7
  7
ROMANS
 72
     2
 11
201.0258403043613
 21
2.147712645052658
 31
0.0
100
AcDbText
  0
TEXT
  5
12B3
330
1B
100
AcDbEntity
 67
     1
  8
DATA
100
AcDbText
 10
211.3647597711961
 20
15.15914893796167
 30
0.0
 40
3.668326199999999
  1
STEPPING MOTOR
 41
0.8
  7
ITALICT
 72
     2
 11
254.825691131196
 21
15.15914893796167
 31
0.0
100
AcDbText
  0
LINE
  5
12B4
330
1B
100
AcDbEntity
 67
     1
  8
DATA
100
AcDbLine
 10
206.4352889818797
 20
12.14062779339902
 30
0.0
 11
282.0457513033824
 21
12.14062786989238
 31
0.0
  0
TEXT
  5
12B5
330
1B
100
AcDbEntity
 67
     1
  8
DATA
100
AcDbText
 10
208.2206521091139
 20
8.230964343399071
 30
0.0
 40
2.413372499999999
  1
DWG.NO
 41
0.7
  7
ROMANS
 72
     2
 11
217.6328048591138
 21
8.230964343399071
 31
0.0
100
AcDbText
  0
TEXT
  5
12B6
330
1B
100
AcDbEntity
 67
     1
  8
DATA
100
AcDbText
 10
89.47920924063479
 20
16.55350887427961
 30
0.0
 40
2.896047
  1
NANOTEC:
 41
0.7
  7
ROMANS
100
AcDbText
  0
TEXT
  5
12B7
330
1B
100
AcDbEntity
 67
     1
  8
DATA
100
AcDbText
 10
189.4634543457442
 20
7.541155117526503
 30
0.0
 40
2.509907399999999
  1
13.07.06
 41
0.7
  7
ROMANS
100
AcDbText
  0
LINE
  5
12B8
330
1B
100
AcDbEntity
 67
     1
  8
SPEC
100
AcDbLine
 10
0.0009154015513104
 20
21.65598901220129
 30
0.0
 11
0.0009154015513104
 21
119.7806666755164
 31
0.0
  0
LWPOLYLINE
  5
12BA
330
1B
100
AcDbEntity
 67
     1
  8
SPEC
100
AcDbPolyline
 90
        4
 70
     1
 43
0.0
 10
0.0009154015513104
 20
196.0405791177016
 10
0.0009154015513104
 20
0.0005791177154606
 10
282.0457558342515
 20
0.0005791177154606
 10
282.0456819224133
 20
196.0405791177016
  0
LWPOLYLINE
  5
1708
330
1B
100
AcDbEntity
 67
     1
  8
SPEC
100
AcDbPolyline
 90
        2
 70
     0
 43
0.0
 10
46.10949139879676
 20
21.6559890122013
 10
107.7618763685136
 20
21.6559890122013
  0
LINE
  5
19BB
330
1B
100
AcDbEntity
 67
     1
  8
SPEC
100
AcDbLine
 10
180.0009154015513
 20
21.6559890122013
 30
0.0
 11
180.0009154015513
 21
111.6559890122013
 31
0.0
  0
TEXT
  5
19BD
330
1B
100
AcDbEntity
 67
     1
  8
DATA
100
AcDbText
 10
1.828349188375568
 20
73.0
 30
0.0
 40
2.4
  1
DETENT TORQUE (Nm) [lb-in]
 41
0.7
  7
ROMANS
100
AcDbText
  0
TEXT
  5
19BF
330
1B
100
AcDbEntity
 67
     1
  8
SPEC
100
AcDbText
 10
153.8283491883755
 20
48.0
 30
0.0
 40
2.4
  1

 41
0.7
  7
ROMANS
100
AcDbText
  0
TEXT
  5
19C0
330
1B
100
AcDbEntity
 67
     1
  8
DATA
  6
HIDDEN
100
AcDbText
 10
121.8283491883755
 20
105.2917072386782
 30
0.0
 40
3.0
  1
PERMISSIBLE RADIAL+AXIAL FORCE
 41
0.7
  7
ROMANS
100
AcDbText
  0
TEXT
  5
19C1
330
1B
100
AcDbEntity
 67
     1
  8
DATA
100
AcDbText
 10
1.828349188375568
 20
43.0
 30
0.0
 40
2.4
  1
AMBIENT TEMPERATURE -10°~ 50°C [14°F ~ 122°F]
 41
0.7
  7
ROMANS
100
AcDbText
  0
TEXT
  5
19C2
330
1B
100
AcDbEntity
 67
     1
  8
DATA
100
AcDbText
 10
120.8283491883755
 20
48.0
 30
0.0
 40
2.4
  1
AXIAL-FORCE Fa (N)
 41
0.7
  7
ROMANS
100
AcDbText
  0
TEXT
  5
19C4
330
1B
100
AcDbEntity
 67
     1
  8
DATA
100
AcDbText
 10
1.828349188375568
 20
28.0
 30
0.0
 40
2.4
  1
DIELECTRIC STRENGTH 500VAC FOR 1 MIN. (BETWEEN THE MOTOR COILS AND THE MOTOR CASE)
 41
0.65
  7
ROMANS
100
AcDbText
  0
TEXT
  5
19C5
330
1B
100
AcDbEntity
 67
     1
  8
DATA
100
AcDbText
 10
1.828349188375568
 20
33.0
 30
0.0
 40
2.4
  1
INSULATION CLASS B 130° [266°F]
 41
0.7
  7
ROMANS
100
AcDbText
  0
TEXT
  5
19C6
330
1B
100
AcDbEntity
 67
     1
  8
DATA
100
AcDbText
 10
1.828349188375568
 20
38.0
 30
0.0
 40
2.4
  1
INSULATION RESISTANCE 100 MOhm (UNDER NORMAL TEMPERATURE AND HUMIDITY)
 41
0.7
  7
ROMANS
100
AcDbText
  0
TEXT
  5
19C7
330
1B
100
AcDbEntity
 67
     1
  8
DATA
100
AcDbText
 10
1.828349188375568
 20
48.0
 30
0.0
 40
2.4
  1
TEMPERATURE RISE: MAX.80°C (MOTOR STANDSTILL; FOR 2 PHASE ENERGIZED)
 41
0.7
  7
ROMANS
100
AcDbText
  0
MTEXT
  5
19C8
330
1B
100
AcDbEntity
 67
     1
  8
DATA
100
AcDbMText
 10
141.290926933951
 20
85.84775216573845
 30
0.0
 40
2.399999999999999
 41
6.509999999999999
 71
     1
 72
     5
  1
F{\H0.8333x;r}
  7
ROMANS
 73
     1
 44
1.0
1001
ACAD
1000
MTEXTBEGIN
1070
    73
1070
     1
1070
    44
1040
1.0
1070
    74
1070
     0
1000
MTEXTEND
  0
DIMENSION
  5
19C9
330
1B
100
AcDbEntity
 67
     1
  8
DIM
100
AcDbDimension
  2
*D5
 10
149.0972407104071
 20
55.91119174080848
 30
0.0
 11
144.4901433864878
 21
55.91119174080848
 31
0.0
 70
   160
  1
a
 71
     5
 42
9.190871881572007
  3
STANDARD$0
100
AcDbAlignedDimension
 13
139.9063688288351
 23
74.09868988223387
 33
0.0
 14
149.0972407104071
 24
60.09299455805124
 34
0.0
100
AcDbRotatedDimension
1001
ACAD
1000
DSTYLE
1002
{
1070
   344
1005
2FF
1070
   173
1070
     1
1070
   343
1005
0
1070
    41
1040
2.399999999999999
1070
   340
1005
3C7
1070
   140
1040
2.399999999999999
1070
    40
1040
1.0
1002
}
  0
LINE
  5
19D1
330
1B
100
AcDbEntity
 67
     1
  8
CENTER
  6
AM_ISO08W050x2
100
AcDbLine
 10
136.6677412239615
 20
75.98428938777749
 30
0.0
 11
179.0047821176252
 21
75.98428938777749
 31
0.0
  0
TEXT
  5
19D2
330
1B
100
AcDbEntity
 67
     1
  8
DATA
100
AcDbText
 10
174.0
 20
43.0
 30
0.0
 40
2.4
  1
20
 41
0.7
  7
ROMANS
100
AcDbText
  0
TEXT
  5
19D5
330
1B
100
AcDbEntity
 67
     1
  8
DATA
100
AcDbText
 10
167.0
 20
43.0
 30
0.0
 40
2.4
  1
15
 41
0.7
  7
ROMANS
100
AcDbText
  0
TEXT
  5
19D6
330
1B
100
AcDbEntity
 67
     1
  8
DATA
100
AcDbText
 10
159.0
 20
43.0
 30
0.0
 40
2.4
  1
10
 41
0.7
  7
ROMANS
100
AcDbText
  0
TEXT
  5
19D8
330
1B
100
AcDbEntity
 67
     1
  8
DATA
100
AcDbText
 10
152.0
 20
43.0
 30
0.0
 40
2.4
  1
5
 41
0.7
  7
ROMANS
100
AcDbText
  0
TEXT
  5
19DC
330
1B
100
AcDbEntity
 67
     1
  8
DATA
100
AcDbText
 10
120.8283491883755
 20
38.0
 30
0.0
 40
2.4
  1
RADIAL-FORCE Fr (N)
 41
0.7
  7
ROMANS
100
AcDbText
  0
TEXT
  5
19DD
330
1B
100
AcDbEntity
 67
     1
  8
DATA
100
AcDbText
 10
120.8283491883755
 20
43.0
 30
0.0
 40
2.4
  1
DISTANCE a  (mm)
 41
0.7
  7
ROMANS
100
AcDbText
  0
TEXT
  5
19DE
330
1B
100
AcDbEntity
 67
     1
  8
DATA
100
AcDbText
 10
70.0
 20
63.0
 30
0.0
 40
2.4
  1
%%P5%
 41
0.7
  7
ROMANS
100
AcDbText
  0
TEXT
  5
19DF
330
1B
100
AcDbEntity
 67
     1
  8
DATA
100
AcDbText
 10
70.0
 20
68.0
 30
0.0
 40
2.4
  1
1.8
 41
0.7
  7
ROMANS
100
AcDbText
  0
TEXT
  5
19E0
330
1B
100
AcDbEntity
 67
     1
  8
DATA
100
AcDbText
 10
80.0
 20
88.0
 30
0.0
 40
2.4
  1
2.6%%P15%%%
 41
0.7
  7
ROMANS
100
AcDbText
  0
TEXT
  5
19E1
330
1B
100
AcDbEntity
 67
     1
  8
DATA
100
AcDbText
 10
80.0
 20
93.0
 30
0.0
 40
2.4
  1
2.12
 41
0.7
  7
ROMANS
100
AcDbText
  0
TEXT
  5
19E2
330
1B
100
AcDbEntity
 67
     1
  8
DATA
100
AcDbText
 10
50.82834918837557
 20
102.617252115867
 30
0.0
 40
2.399999999999999
  1
BIPOLAR-1 WINDING
 41
0.7
  7
ROMANS
100
AcDbText
  0
TEXT
  5
19E3
330
1B
100
AcDbEntity
 67
     1
  8
DATA
100
AcDbText
 10
53.82834918837557
 20
107.617252115867
 30
0.0
 40
2.399999999999999
  1
UNIPOLAR OR
 41
0.7
  7
ROMANS
100
AcDbText
  0
TEXT
  5
19E4
330
1B
100
AcDbEntity
 67
     1
  8
DATA
100
AcDbText
 10
31.82834918837557
 20
107.617252115867
 30
0.0
 40
2.4
  1
CONNECTION
 41
0.7
  7
ROMANS
100
AcDbText
  0
TEXT
  5
19E5
330
1B
100
AcDbEntity
 67
     1
  8
DATA
100
AcDbText
 10
53.82834918837557
 20
83.0
 30
0.0
 40
2.4
  1
3.2%%P20%%%
 41
0.7
  7
ROMANS
100
AcDbText
  0
TEXT
  5
19E6
330
1B
100
AcDbEntity
 67
     1
  8
DATA
100
AcDbText
 10
53.82834918837557
 20
88.0
 30
0.0
 40
2.4
  1
1.3%%P15%%%
 41
0.7
  7
ROMANS
100
AcDbText
  0
TEXT
  5
19E7
330
1B
100
AcDbEntity
 67
     1
  8
DATA
100
AcDbText
 10
53.82834918837557
 20
93.0
 30
0.0
 40
2.4
  1
3.0
 41
0.7
  7
ROMANS
100
AcDbText
  0
TEXT
  5
19E8
330
1B
100
AcDbEntity
 67
     1
  8
DATA
100
AcDbText
 10
53.82834918837557
 20
98.0
 30
0.0
 40
2.4
  1
3.9
 41
0.7
  7
ROMANS
100
AcDbText
  0
TEXT
  5
19E9
330
1B
100
AcDbEntity
 67
     1
  8
DATA
100
AcDbText
 10
1.828349188375568
 20
98.0
 30
0.0
 40
2.4
  1
VOLTAGE (VDC)
 41
0.7
  7
ROMANS
100
AcDbText
  0
TEXT
  5
19EA
330
1B
100
AcDbEntity
 67
     1
  8
DATA
100
AcDbText
 10
1.828349188375568
 20
93.0
 30
0.0
 40
2.4
  1
AMPS/PHASE
 41
0.7
  7
ROMANS
100
AcDbText
  0
TEXT
  5
19EB
330
1B
100
AcDbEntity
 67
     1
  8
DATA
100
AcDbText
 10
1.828349188375568
 20
103.617252115867
 30
0.0
 40
2.4
  1
SPECIFICATION
 41
0.7
  7
ROMANS
100
AcDbText
  0
TEXT
  5
19EC
330
1B
100
AcDbEntity
 67
     1
  8
DATA
100
AcDbText
 10
1.828349188375568
 20
88.0
 30
0.0
 40
2.4
  1
RESISTANCE/PHASE  (Ohms)@25%%DC
 41
0.7
  7
ROMANS
100
AcDbText
  0
TEXT
  5
19ED
330
1B
100
AcDbEntity
 67
     1
  8
DATA
100
AcDbText
 10
1.828349188375568
 20
83.0
 30
0.0
 40
2.4
  1
INDUCTANCE/PHASE (mH) @1KHz
 41
0.7
  7
ROMANS
100
AcDbText
  0
TEXT
  5
19EE
330
1B
100
AcDbEntity
 67
     1
  8
DATA
100
AcDbText
 10
53.82834918837557
 20
78.0
 30
0.0
 40
2.4
  1
2.5 [22.13]
 41
0.7
  7
ROMANS
100
AcDbText
  0
TEXT
  5
19EF
330
1B
100
AcDbEntity
 67
     1
  8
DATA
100
AcDbText
 10
1.828349188375568
 20
78.0
 30
0.0
 40
2.4
  1
HOLDING TORQUE (Nm) [lb-in]
 41
0.7
  7
ROMANS
100
AcDbText
  0
TEXT
  5
19F0
330
1B
100
AcDbEntity
 67
     1
  8
DATA
100
AcDbText
 10
1.828349188375568
 20
53.0
 30
0.0
 40
2.4
  1
WEIGHT (Kg) [lb]
 41
0.7
  7
ROMANS
100
AcDbText
  0
TEXT
  5
19F1
330
1B
100
AcDbEntity
 67
     1
  8
DATA
100
AcDbText
 10
1.828349188375568
 20
68.0
 30
0.0
 40
2.4
  1
STEP ANGLE (°)
 41
0.7
  7
ROMANS
100
AcDbText
  0
TEXT
  5
19F2
330
1B
100
AcDbEntity
 67
     1
  8
DATA
100
AcDbText
 10
1.828349188375568
 20
63.0
 30
0.0
 40
2.4
  1
STEP ACCURACY (NON-ACCUM)
 41
0.7
  7
ROMANS
100
AcDbText
  0
LEADER
  5
19F4
330
1B
100
AcDbEntity
 67
     1
  8
DIM
100
AcDbLeader
  3
STANDARD
 76
     2
 10
140.0606073289473
 20
78.69222240356484
 30
0.0
 10
140.0606073289473
 20
86.51626982104639
 30
0.0
1001
ACAD
1000
DSTYLE
1002
{
1070
    41
1040
2.399999999999999
1070
   341
1005
0
1070
    40
1040
1.0
1070
    77
1070
     0
1002
}
  0
TEXT
  5
19F6
330
1B
100
AcDbEntity
 67
     1
  8
DATA
100
AcDbText
 10
83.82834918837557
 20
102.617252115867
 30
0.0
 40
2.399999999999999
  1
SERIAL
 41
0.7
  7
ROMANS
100
AcDbText
  0
TEXT
  5
19F7
330
1B
100
AcDbEntity
 67
     1
  8
DATA
100
AcDbText
 10
92.0
 20
107.617252115867
 30
0.0
 40
2.399999999999999
  1
BIPOLAR
 41
0.7
  7
ROMANS
100
AcDbText
  0
LINE
  5
19F9
330
1B
100
AcDbEntity
 67
     1
  8
SPEC
100
AcDbLine
 10
0.0009154015513104
 20
111.6559890122013
 30
0.0
 11
281.8407943483788
 21
111.6559890122013
 31
0.0
  0
LINE
  5
19FA
330
1B
100
AcDbEntity
 67
     1
  8
SPEC
100
AcDbLine
 10
282.0457477520906
 20
21.65598908869334
 30
0.0
 11
0.0009154015513104
 21
21.6559890122013
 31
0.0
  0
LINE
  5
19FB
330
1B
100
AcDbEntity
 67
     1
  8
SPEC
100
AcDbLine
 10
0.0009154015513104
 20
111.6559890122013
 30
0.0
 11
110.0009154015513
 21
111.6559890122013
 31
0.0
  0
LINE
  5
19FD
330
1B
100
AcDbEntity
 67
     1
  8
SPEC
100
AcDbLine
 10
0.0009154015513104
 20
26.65598901220131
 30
0.0
 11
180.0009154015513
 21
26.65598901220131
 31
0.0
  0
LINE
  5
19FF
330
1B
100
AcDbEntity
 67
     1
  8
SPEC
100
AcDbLine
 10
0.0009154015513104
 20
31.65598901220131
 30
0.0
 11
180.0009154015513
 21
31.65598901220131
 31
0.0
  0
LINE
  5
1A00
330
1B
100
AcDbEntity
 67
     1
  8
SPEC
100
AcDbLine
 10
0.0009154015513104
 20
36.65598901220142
 30
0.0
 11
180.0009154015513
 21
36.65598901220142
 31
0.0
  0
LINE
  5
1A01
330
1B
100
AcDbEntity
 67
     1
  8
SPEC
100
AcDbLine
 10
0.0009154015513104
 20
46.65598901220142
 30
0.0
 11
180.0009154015513
 21
46.65598901220142
 31
0.0
  0
LINE
  5
1A02
330
1B
100
AcDbEntity
 67
     1
  8
SPEC
100
AcDbLine
 10
0.0009154015513104
 20
41.65598901220142
 30
0.0
 11
180.0009154015513
 21
41.65598901220142
 31
0.0
  0
LINE
  5
1A03
330
1B
100
AcDbEntity
 67
     1
  8
SPEC
100
AcDbLine
 10
0.0009154015513104
 20
66.65598901220142
 30
0.0
 11
120.0009154015513
 21
66.6559890122013
 31
0.0
  0
LINE
  5
1A04
330
1B
100
AcDbEntity
 67
     1
  8
SPEC
100
AcDbLine
 10
0.0009154015513104
 20
61.65598901220142
 30
0.0
 11
120.0009154015513
 21
61.65598901220142
 31
0.0
  0
LINE
  5
1A05
330
1B
100
AcDbEntity
 67
     1
  8
SPEC
100
AcDbLine
 10
0.0009154015513104
 20
56.6559890122013
 30
0.0
 11
120.0009154015513
 21
56.6559890122013
 31
0.0
  0
LINE
  5
1A06
330
1B
100
AcDbEntity
 67
     1
  8
SPEC
100
AcDbLine
 10
0.0009154015513104
 20
51.6559890122013
 30
0.0
 11
180.0009154015513
 21
51.6559890122013
 31
0.0
  0
LINE
  5
1A07
330
1B
100
AcDbEntity
 67
     1
  8
SPEC
100
AcDbLine
 10
0.0009154015513104
 20
101.6559890122014
 30
0.0
 11
120.0009154015513
 21
101.6559890122014
 31
0.0
  0
LINE
  5
1A08
330
1B
100
AcDbEntity
 67
     1
  8
SPEC
100
AcDbLine
 10
0.0009154015513104
 20
96.6559890122013
 30
0.0
 11
120.0009154015513
 21
96.6559890122013
 31
0.0
  0
LINE
  5
1A09
330
1B
100
AcDbEntity
 67
     1
  8
SPEC
100
AcDbLine
 10
0.0009154015513104
 20
86.6559890122013
 30
0.0
 11
120.0009154015513
 21
86.6559890122013
 31
0.0
  0
LINE
  5
1A0A
330
1B
100
AcDbEntity
 67
     1
  8
SPEC
100
AcDbLine
 10
0.0009154015513104
 20
91.6559890122013
 30
0.0
 11
120.0009154015513
 21
91.6559890122013
 31
0.0
  0
LINE
  5
1A0B
330
1B
100
AcDbEntity
 67
     1
  8
SPEC
100
AcDbLine
 10
0.0009154015513104
 20
71.6559890122013
 30
0.0
 11
120.0009154015513
 21
71.6559890122013
 31
0.0
  0
LINE
  5
1A0C
330
1B
100
AcDbEntity
 67
     1
  8
SPEC
100
AcDbLine
 10
0.0009154015513104
 20
76.65598901220142
 30
0.0
 11
120.0009154015513
 21
76.65598901220142
 31
0.0
  0
LINE
  5
1A0D
330
1B
100
AcDbEntity
 67
     1
  8
SPEC
100
AcDbLine
 10
0.0009154015513104
 20
81.65598901220141
 30
0.0
 11
120.0009154015513
 21
81.65598901220141
 31
0.0
  0
MTEXT
  5
1A0E
330
1B
100
AcDbEntity
 67
     1
  8
DATA
100
AcDbMText
 10
2.328349188375568
 20
61.11725211586701
 30
0.0
 40
2.399999999999999
 41
110.0
 71
     1
 72
     5
  1
{\W0.7;ROTOR INERTIA (Kg-m²) [lb-in²]}
  7
ROMANS
 73
     1
 44
1.0
1001
ACAD
1000
ACAD_MTEXT_DEFINED_HEIGHT_BEGIN
1070
    46
1040
0.0
1000
ACAD_MTEXT_DEFINED_HEIGHT_END
1000
MTEXTBEGIN
1070
    73
1070
     1
1070
    44
1040
1.0
1070
    74
1070
     0
1000
MTEXTEND
  0
LINE
  5
1A0F
330
1B
100
AcDbEntity
 67
     1
  8
SPEC
100
AcDbLine
 10
0.0009154015513104
 20
91.6559890122013
 30
0.0
 11
50.00091540155131
 21
91.6559890122013
 31
0.0
  0
LINE
  5
1A10
330
1B
100
AcDbEntity
 67
     1
  8
SPEC
100
AcDbLine
 10
50.00091540155131
 20
111.6559890122013
 30
0.0
 11
50.00091540155131
 21
51.6559890122013
 31
0.0
  0
LINE
  5
1A11
330
1B
100
AcDbEntity
 67
     1
  8
SPEC
100
AcDbLine
 10
50.00091540155131
 20
101.6559890122014
 30
0.0
 11
0.0009154015513104
 21
111.6559890122013
 31
0.0
  0
LINE
  5
1A13
330
1B
100
AcDbEntity
 67
     1
  8
SPEC
100
AcDbLine
 10
50.00091540155131
 20
111.6559890122013
 30
0.0
 11
80.0009154015513
 21
111.6559890122013
 31
0.0
  0
LINE
  5
1A14
330
1B
100
AcDbEntity
 67
     1
  8
SPEC
100
AcDbLine
 10
78.00091540155131
 20
111.6559890122013
 30
0.0
 11
78.00091540155131
 21
76.65598901220142
 31
0.0
  0
LINE
  5
1A15
330
1B
100
AcDbEntity
 67
     1
  8
SPEC
100
AcDbLine
 10
110.0009154015513
 20
111.6559890122013
 30
0.0
 11
170.0009154015513
 21
111.6559890122013
 31
0.0
  0
TEXT
  5
1A16
330
1B
100
AcDbEntity
 67
     1
  8
DATA
100
AcDbText
 10
121.8283491883755
 20
28.0
 30
0.0
 40
2.4
  1
SHAFT PLAY (mm)
 41
0.7
  7
ROMANS
100
AcDbText
  0
LINE
  5
1A17
330
1B
100
AcDbEntity
 67
     1
  8
SPEC
100
AcDbLine
 10
110.0009154015513
 20
31.65598901220131
 30
0.0
 11
140.0009154015513
 21
31.65598901220131
 31
0.0
  0
TEXT
  5
1A18
330
1B
100
AcDbEntity
 67
     1
  8
DATA
100
AcDbText
 10
153.8283491883755
 20
32.61725211586702
 30
0.0
 40
2.5
  1
AXIAL
 41
0.7
  7
ROMANS
100
AcDbText
  0
TEXT
  5
1A19
330
1B
100
AcDbEntity
 67
     1
  8
DATA
100
AcDbText
 10
167.8283491883755
 20
32.61725211586702
 30
0.0
 40
2.5
  1
RADIAL
 41
0.7
  7
ROMANS
100
AcDbText
  0
TEXT
  5
1A1A
330
1B
100
AcDbEntity
 67
     1
  8
DATA
100
AcDbText
 10
152.8283491883756
 20
27.61725211586702
 30
0.0
 40
2.5
  1
0.075
 41
0.7
  7
ROMANS
100
AcDbText
  0
TEXT
  5
1A1B
330
1B
100
AcDbEntity
 67
     1
  8
DATA
100
AcDbText
 10
167.8283491883755
 20
27.61725211586702
 30
0.0
 40
2.5
  1
0.025
 41
0.7
  7
ROMANS
100
AcDbText
  0
TEXT
  5
1A1C
330
1B
100
AcDbEntity
 67
     1
  8
DATA
100
AcDbText
 10
153.8283491883755
 20
22.61725211586702
 30
0.0
 40
2.5
  1
10
 41
0.7
  7
ROMANS
100
AcDbText
  0
TEXT
  5
1A1D
330
1B
100
AcDbEntity
 67
     1
  8
DATA
100
AcDbText
 10
167.8283491883755
 20
22.61725211586702
 30
0.0
 40
2.5
  1
5.0
 41
0.7
  7
ROMANS
100
AcDbText
  0
LINE
  5
1A1E
330
1B
100
AcDbEntity
 67
     1
  8
SPEC
100
AcDbLine
 10
120.0009154015513
 20
36.65598901220142
 30
0.0
 11
150.0009154015513
 21
31.65598901220131
 31
0.0
  0
LINE
  5
1A1F
330
1B
100
AcDbEntity
 67
     1
  8
SPEC
100
AcDbLine
 10
140.0009154015513
 20
46.65598901220142
 30
0.0
 11
146.0009154015513
 21
46.65598901220142
 31
0.0
  0
LINE
  5
1A21
330
1B
100
AcDbEntity
 67
     1
  8
SPEC
100
AcDbLine
 10
157.5009154015513
 20
46.65598901220142
 30
0.0
 11
157.5009154015513
 21
36.65598901220142
 31
0.0
  0
LINE
  5
1A22
330
1B
100
AcDbEntity
 67
     1
  8
SPEC
100
AcDbLine
 10
165.0009154015513
 20
46.65598901220142
 30
0.0
 11
165.0009154015513
 21
36.65598901220142
 31
0.0
  0
LINE
  5
1A23
330
1B
100
AcDbEntity
 67
     1
  8
SPEC
100
AcDbLine
 10
172.4450687382885
 20
46.65598901220142
 30
0.0
 11
172.4450687382885
 21
36.65598901220142
 31
0.0
  0
LINE
  5
1A6A
330
1B
100
AcDbEntity
 67
     1
  8
SPEC
100
AcDbLine
 10
120.0009154015513
 20
111.6559890122013
 30
0.0
 11
120.0009154015513
 21
21.6559890122013
 31
0.0
  0
VIEWPORT
  5
1E55
102
{ACAD_XDICTIONARY
360
7F2A
102
}
330
1B
100
AcDbEntity
 67
     1
  8
SPEC
100
AcDbViewport
 10
141.0232986619823
 20
153.8482840649515
 30
0.0
 40
282.044766520862
 41
84.38459010550037
 68
     2
 69
     2
 12
1026.541023277751
 22
677.1357656956084
 13
0.0
 23
0.0
 14
2.5
 24
2.5
 15
10.0
 25
10.0
 16
0.0
 26
0.0
 36
1.0
 17
0.0
 27
0.0
 37
0.0
 42
50.0
 43
0.0
 44
0.0
 45
159.7166817020747
 50
0.0
 51
0.0
 72
   100
 90
    32864
  1

281
     0
 71
     1
 74
     0
110
0.0
120
0.0
130
0.0
111
1.0
121
0.0
131
0.0
112
0.0
122
1.0
132
0.0
 79
     0
146
0.0
1001
GENIUS_GENOBJ-N-SDF_13
1002
{
1000
OWNER
1000
GEN
1002
}
1001
GENIUS_GENODEF_13
1002
{
1000
HIER
1070
     0
1002
}
1002
{
1000
MANEDIT
1070
     0
1002
}
1002
{
1000
NOSEL
1070
     0
1002
}
1002
{
1000
BEHIND
1070
     0
1002
}
1002
{
1000
OTHER
1070
     0
1002
}
1002
{
1000
REACTOR
1002
}
1001
GENIUS_GENSCREG_15
1000
PF
1040
0.0
1000
DF
1040
0.0
1000
MIN
1011
0.0009154015513104
1021
111.6559890122013
1031
0.0
1000
MAX
1011
282.0456819224133
1021
196.0405791177016
1031
0.0
1000
FLAGS
1070
     2
  0
TEXT
  5
2CB6
330
1B
100
AcDbEntity
 67
     1
  8
DATA
100
AcDbText
 10
80.66614027718811
 20
59.84907950615331
 30
0.0
 40
1.399999999999999
  1
-5
 41
0.7
  7
ROMANS
100
AcDbText
  0
TEXT
  5
2CB7
330
1B
100
AcDbEntity
 67
     1
  8
DATA
100
AcDbText
 10
70.0
 20
53.0
 30
0.0
 40
2.4
  1
1.4 [3.087]
 41
0.7
  7
ROMANS
100
AcDbText
  0
TEXT
  5
2CBF
330
1B
100
AcDbEntity
 67
     1
  8
DATA
100
AcDbText
 10
80.0
 20
83.0
 30
0.0
 40
2.4
  1
12.8%%P20%%%
 41
0.7
  7
ROMANS
100
AcDbText
  0
TEXT
  5
2CCB
330
1B
100
AcDbEntity
 67
     1
  8
DATA
100
AcDbText
 10
80.0
 20
78.0
 30
0.0
 40
2.4
  1
3.54 [31.29]
 41
0.7
  7
ROMANS
100
AcDbText
  0
LWPOLYLINE
  5
2CEB
330
1B
100
AcDbEntity
 67
     1
  8
SPEC
100
AcDbPolyline
 90
        4
 70
     1
 43
0.0
 10
149.0972407104071
 20
91.87558421750372
 10
169.2275531197891
 20
91.87558421750374
 10
169.2275531197891
 20
60.09299455805124
 10
149.0972407104071
 20
60.09299455805124
  0
LWPOLYLINE
  5
2D6D
330
1B
100
AcDbEntity
 67
     1
  8
SPEC
100
AcDbPolyline
 90
        4
 70
     1
 43
0.0
 10
149.0972407104071
 20
87.09730240531003
 10
147.6137908953366
 20
87.09730240531003
 10
147.6137908953366
 20
64.87127637024494
 10
149.0972407104071
 20
64.87127637024494
  0
LINE
  5
2D70
330
1B
100
AcDbEntity
 67
     1
  8
SPEC
100
AcDbLine
 10
178.9451046743791
 20
74.09868988223387
 30
0.0
 11
169.2275531197891
 21
74.09868988223387
 31
0.0
  0
LINE
  5
2D71
330
1B
100
AcDbEntity
 67
     1
  8
SPEC
100
AcDbLine
 10
178.9451046743791
 20
77.86988889332109
 30
0.0
 11
169.2275531197891
 21
77.86988889332109
 31
0.0
  0
LINE
  5
2D72
330
1B
100
AcDbEntity
 67
     1
  8
SPEC
100
AcDbLine
 10
178.9451046743791
 20
74.09868988223387
 30
0.0
 11
178.9451046743791
 21
77.86988889332109
 31
0.0
  0
LWPOLYLINE
  5
2D94
330
1B
100
AcDbEntity
 67
     1
  8
SPEC
100
AcDbPolyline
 90
        4
 70
     1
 43
0.0
 10
167.9302096399492
 20
81.38735029589254
 10
164.6305199228664
 20
81.38735029589254
 10
164.6305199228664
 20
70.58122847966247
 10
167.9302096399492
 20
70.58122847966247
  0
CIRCLE
  5
2D95
330
1B
100
AcDbEntity
 67
     1
  8
SPEC
100
AcDbCircle
 10
166.2803647814078
 20
79.73750543735114
 30
0.0
 40
1.649844858541398
  0
CIRCLE
  5
2D96
330
1B
100
AcDbEntity
 67
     1
  8
SPEC
100
AcDbCircle
 10
166.2803647814078
 20
72.23107333820388
 30
0.0
 40
1.649844858541398
  0
LINE
  5
2D97
330
1B
100
AcDbEntity
 67
     1
  8
SPEC
100
AcDbLine
 10
167.9302096399492
 20
81.38735029589254
 30
0.0
 11
168.5734045934214
 21
80.74081741993238
 31
0.0
  0
LINE
  5
2D98
330
1B
100
AcDbEntity
 67
     1
  8
SPEC
100
AcDbLine
 10
168.6531348075577
 20
77.651473709366
 30
0.0
 11
168.5053768956558
 21
77.48676576983574
 31
0.0
  0
LINE
  5
2D99
330
1B
100
AcDbEntity
 67
     1
  8
SPEC
100
AcDbLine
 10
168.5053768956559
 20
74.48181300571924
 30
0.0
 11
168.6531348075576
 21
74.31710506618914
 31
0.0
  0
LINE
  5
2D9A
330
1B
100
AcDbEntity
 67
     1
  8
SPEC
100
AcDbLine
 10
168.5734045934215
 20
71.2277613556228
 30
0.0
 11
167.9302096399492
 21
70.58122847966247
 31
0.0
  0
ARC
  5
2D9E
330
1B
100
AcDbEntity
 67
     1
  8
SPEC
100
AcDbCircle
 10
166.9783020632643
 20
79.15395009142419
 30
0.0
 40
2.25
100
AcDbArc
 50
318.1050245216237
 51
44.85171410623403
  0
ARC
  5
2DA1
330
1B
100
AcDbEntity
 67
     1
  8
SPEC
100
AcDbCircle
 10
166.9783020632643
 20
72.81462868413088
 30
0.0
 40
2.25
100
AcDbArc
 50
315.1482858937687
 51
41.8949754783788
  0
ARC
  5
2DA2
330
1B
100
AcDbEntity
 67
     1
  8
SPEC
100
AcDbCircle
 10
170.1802096399492
 20
75.98428938777752
 30
0.0
 40
2.25
100
AcDbArc
 50
138.1050245216231
 51
221.8949754783794
  0
LWPOLYLINE
  5
2DA3
330
1B
100
AcDbEntity
 67
     1
  8
SPEC
100
AcDbPolyline
 90
        4
 70
     1
 43
0.0
 10
149.0972407104071
 20
81.38735029589254
 10
152.3969304274899
 20
81.38735029589254
 10
152.3969304274899
 20
70.58122847966247
 10
149.0972407104071
 20
70.58122847966247
  0
CIRCLE
  5
2DA4
330
1B
100
AcDbEntity
 67
     1
  8
SPEC
100
AcDbCircle
 10
150.7470855689485
 20
79.73750543735114
 30
0.0
 40
1.649844858541398
  0
CIRCLE
  5
2DA5
330
1B
100
AcDbEntity
 67
     1
  8
SPEC
100
AcDbCircle
 10
150.7470855689485
 20
72.23107333820388
 30
0.0
 40
1.649844858541398
  0
TEXT
  5
2DC8
330
1B
100
AcDbEntity
 67
     1
  8
DATA
100
AcDbText
 10
1.828349188375568
 20
23.0
 30
0.0
 40
2.4
  1
AMBIENT HUMIDITY MAX. 85% (NO CONDENSATION)
 41
0.7
  7
ROMANS
100
AcDbText
  0
TEXT
  5
2DCB
330
1B
100
AcDbEntity
 67
     1
  8
DATA
100
AcDbText
 10
70.0
 20
58.0
 30
0.0
 40
2.4
  1
8.40x10  [0.287]
 41
0.7
  7
ROMANS
100
AcDbText
  0
LINE
  5
2DD6
330
1B
100
AcDbEntity
 67
     1
  8
SPEC
100
AcDbLine
 10
146.0009154015513
 20
46.65598901220142
 30
0.0
 11
151.0009154015513
 21
46.65598901220142
 31
0.0
  0
LINE
  5
2DD7
330
1B
100
AcDbEntity
 67
     1
  8
SPEC
100
AcDbLine
 10
150.0009154015513
 20
51.6559890122013
 30
0.0
 11
150.0009154015513
 21
21.6559890122013
 31
0.0
  0
LINE
  5
2DD8
330
1B
100
AcDbEntity
 67
     1
  8
SPEC
100
AcDbLine
 10
140.0009154015513
 20
36.65598901220131
 30
0.0
 11
155.0009154015513
 21
36.65598901220136
 31
0.0
  0
LINE
  5
2DD9
330
1B
100
AcDbEntity
 67
     1
  8
SPEC
100
AcDbLine
 10
165.0009154015513
 20
36.65598901220136
 30
0.0
 11
165.0009154015513
 21
21.6559890122013
 31
0.0
  0
TEXT
  5
2DE0
330
1B
100
AcDbEntity
 67
     1
  8
DATA
100
AcDbText
 10
121.8283491883755
 20
23.0
 30
0.0
 40
2.4
  1
AT LOAD MAX: (N)
 41
0.7
  7
ROMANS
100
AcDbText
  0
LINE
  5
2DE5
330
1B
100
AcDbEntity
 67
     1
  8
SPEC
100
AcDbLine
 10
137.8962393407465
 20
74.09868988223387
 30
0.0
 11
147.6137908953366
 21
74.09868988223387
 31
0.0
  0
LINE
  5
2DE6
330
1B
100
AcDbEntity
 67
     1
  8
SPEC
100
AcDbLine
 10
137.8962393407465
 20
77.86988889332109
 30
0.0
 11
147.6137908953366
 21
77.86988889332109
 31
0.0
  0
LINE
  5
2DE7
330
1B
100
AcDbEntity
 67
     1
  8
SPEC
100
AcDbLine
 10
137.8962393407465
 20
74.09868988223387
 30
0.0
 11
137.8962393407465
 21
77.86988889332109
 31
0.0
  0
MTEXT
  5
2E04
330
1B
100
AcDbEntity
 67
     1
  8
SPEC
 62
     6
100
AcDbMText
 10
155.5187721793249
 20
89.62880385942026
 30
0.0
 40
2.0
 41
0.0
 71
     1
 72
     1
  1
BEARING
  7
ROMANS
 73
     1
 44
1.0
1001
ACAD
1000
ACAD_MTEXT_DEFINED_HEIGHT_BEGIN
1070
    46
1040
0.0
1000
ACAD_MTEXT_DEFINED_HEIGHT_END
1000
MTEXTBEGIN
1070
    73
1070
     1
1070
    44
1040
1.0
1070
    74
1070
     0
1000
MTEXTEND
  0
LEADER
  5
2E07
330
1B
100
AcDbEntity
 67
     1
  8
SPEC
100
AcDbLeader
  3
STANDARD
 76
     2
 10
166.2803647814078
 20
79.73750543735114
 30
0.0
 10
160.8271563148611
 20
87.12304269521258
 30
0.0
1001
ACAD
1000
DSTYLE
1002
{
1070
   147
1040
1.0
1070
    77
1070
     0
1002
}
  0
LEADER
  5
2E09
330
1B
100
AcDbEntity
 67
     1
  8
SPEC
100
AcDbLeader
  3
STANDARD
 76
     2
 10
150.7470855689485
 20
79.73750543735114
 30
0.0
 10
156.7956208247884
 20
86.83653569069861
 30
0.0
1001
ACAD
1000
DSTYLE
1002
{
1070
   147
1040
1.0
1070
    77
1070
     0
1002
}
  0
LEADER
  5
2E0A
330
1B
100
AcDbEntity
 67
     1
  8
SPEC
100
AcDbLeader
  3
STANDARD
 73
     0
 75
     1
 40
5.333333333333333
 41
9.066666666666666
 76
     3
 10
168.5734045934214
 20
80.74081741993238
 30
0.0
 10
177.085357489354
 20
94.46023307290511
 30
0.0
 10
174.085357489354
 20
94.46023307290511
 30
0.0
340
2E0B
213
1.161548087573919
223
-4.427990251304436
233
0.0
1001
ACAD
1000
DSTYLE
1002
{
1070
   147
1040
1.0
1070
    77
1070
     0
1002
}
  0
MTEXT
  5
2E0B
102
{ACAD_REACTORS
330
2E0A
102
}
330
1B
100
AcDbEntity
 67
     1
  8
SPEC
 62
     6
100
AcDbMText
 10
171.9238094017801
 20
98.88822332420955
 30
0.0
 40
2.0
 41
0.0
 71
     3
 72
     1
  1
SPRING\PWASHER
  7
ROMANS
 73
     1
 44
1.0
1001
ACAD
1000
ACAD_MTEXT_DEFINED_HEIGHT_BEGIN
1070
    46
1040
0.0
1000
ACAD_MTEXT_DEFINED_HEIGHT_END
1000
MTEXTBEGIN
1070
    73
1070
     1
1070
    44
1040
1.0
1070
    74
1070
     0
1000
MTEXTEND
  0
MTEXT
  5
2E48
330
1B
100
AcDbEntity
 67
     1
  8
SPEC
 62
     6
100
AcDbMText
 10
121.8786983663672
 20
99.27994356100203
 30
0.0
 40
2.0
 41
0.0
 71
     1
 72
     1
  1
ROTOR SPRING-\PMOUNTED IN\PAXIAL DIRECTION
  7
ROMANS
 73
     1
 44
1.0
1001
ACAD
1000
ACAD_MTEXT_DEFINED_HEIGHT_BEGIN
1070
    46
1040
0.0
1000
ACAD_MTEXT_DEFINED_HEIGHT_END
1000
MTEXTBEGIN
1070
    73
1070
     1
1070
    44
1040
1.0
1070
    74
1070
     0
1000
MTEXTEND
  0
LEADER
  5
2E5C
330
1B
100
AcDbEntity
 67
     1
  8
DIM
100
AcDbLeader
  3
STANDARD
 76
     2
 10
141.5179864032658
 20
89.06775256840445
 30
0.0
 10
122.2566843209139
 20
89.06775256840445
 30
0.0
1001
ACAD
1000
DSTYLE
1002
{
1070
   147
1040
1.0
1070
    77
1070
     0
1002
}
  0
LINE
  5
390D
330
1B
100
AcDbEntity
 67
     1
  8
SPEC
100
AcDbLine
 10
99.00091540155131
 20
106.6559890122015
 30
0.0
 11
99.00091540155132
 21
76.65598901220142
 31
0.0
  0
TEXT
  5
3919
330
1B
100
AcDbEntity
 67
     1
  8
DATA
100
AcDbText
 10
101.0
 20
88.00000000000002
 30
0.0
 40
2.4
  1
0.65%%P15%%%
 41
0.7
  7
ROMANS
100
AcDbText
  0
TEXT
  5
391A
330
1B
100
AcDbEntity
 67
     1
  8
DATA
100
AcDbText
 10
101.0
 20
93.00000000000002
 30
0.0
 40
2.4
  1
4.24
 41
0.7
  7
ROMANS
100
AcDbText
  0
TEXT
  5
391C
330
1B
100
AcDbEntity
 67
     1
  8
DATA
100
AcDbText
 10
104.8283491883756
 20
102.617252115867
 30
0.0
 40
2.399999999999999
  1
PARALLEL
 41
0.7
  7
ROMANS
100
AcDbText
  0
TEXT
  5
391D
330
1B
100
AcDbEntity
 67
     1
  8
DATA
100
AcDbText
 10
101.0
 20
83.00000000000002
 30
0.0
 40
2.399999999999999
  1
3.2%%P20%%%
 41
0.7
  7
ROMANS
100
AcDbText
  0
LINE
  5
391F
330
1B
100
AcDbEntity
 67
     1
  8
SPEC
100
AcDbLine
 10
78.00091540155131
 20
106.6559890122015
 30
0.0
 11
120.0009154015513
 21
106.6559890122015
 31
0.0
  0
TEXT
  5
3926
330
1B
100
AcDbEntity
 67
     1
  8
DATA
100
AcDbText
 10
101.0
 20
78.0
 30
0.0
 40
2.4
  1
1.84 [16.28]
 41
0.7
  7
ROMANS
100
AcDbText
  0
MTEXT
  5
39AA
330
1B
100
AcDbEntity
 67
     1
  8
DATA
100
AcDbMText
 10
70.0
 20
76.11725211586701
 30
0.0
 40
2.399999999999999
 41
50.69688999264281
 71
     1
 72
     5
  1
{\W0.7;0.075 [0.664]}
  7
ROMANS
 73
     1
 44
1.0
1001
ACAD
1000
ACAD_MTEXT_DEFINED_HEIGHT_BEGIN
1070
    46
1040
0.0
1000
ACAD_MTEXT_DEFINED_HEIGHT_END
1000
MTEXTBEGIN
1070
    73
1070
     1
1070
    44
1040
1.0
1070
    74
1070
     0
1000
MTEXTEND
  0
TEXT
  5
4F82
330
1B
100
AcDbEntity
 67
     1
  8
DATA
100
AcDbText
 10
94.6233414402401
 20
4.692527613197721
 30
0.0
 40
3.861395999999999
  1
ST6018L3008
 41
0.7
  7
ROMANS
100
AcDbText
  0
TEXT
  5
576D
330
1B
100
AcDbEntity
 67
     1
  8
DATA
100
AcDbText
 10
246.60000000336
 20
41.0
 30
0.0
 40
1.9999999992
  1
(A\)RED
 41
0.7
  7
ROMANS
 72
     2
 11
255.0
 21
41.0
 31
0.0
100
AcDbText
  0
TEXT
  5
576E
330
1B
100
AcDbEntity
 67
     1
  8
DATA
100
AcDbText
 10
251.26666666816
 20
49.0
 30
0.0
 40
1.9999999992
  1
BLU
 41
0.7
  7
ROMANS
 72
     2
 11
255.0
 21
49.0
 31
0.0
100
AcDbText
  0
TEXT
  5
576F
330
1B
100
AcDbEntity
 67
     1
  8
DATA
100
AcDbText
 10
245.40000000384
 20
46.0
 30
0.0
 40
1.9999999992
  1
RED/WHT
 41
0.7
  7
ROMANS
 72
     2
 11
255.0
 21
46.0
 31
0.0
100
AcDbText
  0
TEXT
  5
5770
330
1B
100
AcDbEntity
 67
     1
  8
DATA
100
AcDbText
 10
242.40000000504
 20
54.0
 30
0.0
 40
1.9999999992
  1
(A)BLU/WHT
 41
0.7
  7
ROMANS
 72
     2
 11
255.0
 21
54.0
 31
0.0
100
AcDbText
  0
ARC
  5
5771
330
1B
100
AcDbEntity
 67
     1
  8
DATA
100
AcDbCircle
 10
261.4632368499487
 20
45.44719906956605
 30
0.0
 40
0.568285714058395
100
AcDbArc
 50
90.0
 51
270.0
  0
CIRCLE
  5
5772
330
1B
100
AcDbEntity
 67
     1
  8
DATA
100
AcDbCircle
 10
269.0912901033259
 20
48.64999397670088
 30
0.0
 40
5.453506041597846
  0
ARC
  5
5773
330
1B
100
AcDbEntity
 67
     1
  8
DATA
100
AcDbCircle
 10
273.4383797023015
 20
41.31491335693323
 30
0.0
 40
0.568285714058395
100
AcDbArc
 50
180.0
 51
0.0
  0
TEXT
  5
5774
330
1B
100
AcDbEntity
 67
     1
  8
DATA
100
AcDbText
 10
267.9999999992
 20
31.0000000016
 30
0.0
 40
1.9999999992
  1
GRN
 50
90.0
 41
0.7
  7
ROMANS
 72
     2
 11
266.0
 21
35.0
 31
0.0
100
AcDbText
 73
     3
  0
TEXT
  5
5775
330
1B
100
AcDbEntity
 67
     1
  8
DATA
100
AcDbText
 10
270.9999999992
 20
25.53333333712
 30
0.0
 40
1.9999999992
  1
BLK/WHT
 50
90.0
 41
0.7
  7
ROMANS
 72
     2
 11
269.0
 21
35.0
 31
0.0
100
AcDbText
 73
     3
  0
TEXT
  5
5776
330
1B
100
AcDbEntity
 67
     1
  8
DATA
100
AcDbText
 10
262.9999999992
 20
21.93333333856
 30
0.0
 40
1.9999999992
  1
(B)GRN/WHT
 50
90.0
 41
0.7
  7
ROMANS
 72
     2
 11
261.0
 21
35.0
 31
0.0
100
AcDbText
 73
     3
  0
ARC
  5
5777
330
1B
100
AcDbEntity
 67
     1
  8
DATA
100
AcDbCircle
 10
265.1018082770647
 20
41.31491335693323
 30
0.0
 40
0.568285714058395
100
AcDbArc
 50
180.0
 51
0.0
  0
LINE
  5
5778
330
1B
100
AcDbEntity
 67
     1
  8
DATA
100
AcDbLine
 10
262.3735225638703
 20
36.95891335867563
 30
0.0
 11
262.3735225638703
 21
41.31491335693323
 31
0.0
  0
CIRCLE
  5
5779
330
1B
100
AcDbEntity
 67
     1
  8
DATA
100
AcDbCircle
 10
262.3735225638703
 20
36.57834193025641
 30
0.0
 40
0.3805714284191993
  0
LINE
  5
577A
330
1B
100
AcDbEntity
 67
     1
  8
DATA
100
AcDbLine
 10
261.4632368499487
 20
42.61605621355562
 30
0.0
 11
257.1072368516912
 21
42.61605621355562
 31
0.0
  0
CIRCLE
  5
577B
330
1B
100
AcDbEntity
 67
     1
  8
DATA
100
AcDbCircle
 10
256.7266654232719
 20
42.61605621355562
 30
0.0
 40
0.3805714284191993
  0
LINE
  5
577C
330
1B
100
AcDbEntity
 67
     1
  8
DATA
100
AcDbLine
 10
262.3735225638703
 20
41.31491335693323
 30
0.0
 11
263.3969511348895
 21
41.31491335693323
 31
0.0
  0
ARC
  5
577D
330
1B
100
AcDbEntity
 67
     1
  8
DATA
100
AcDbCircle
 10
263.9652368489479
 20
41.31491335693323
 30
0.0
 40
0.568285714058395
100
AcDbArc
 50
180.0
 51
0.0
  0
ARC
  5
577E
330
1B
100
AcDbEntity
 67
     1
  8
DATA
100
AcDbCircle
 10
261.4632368499487
 20
44.31062764144927
 30
0.0
 40
0.568285714058395
100
AcDbArc
 50
90.0
 51
270.0
  0
LINE
  5
577F
330
1B
100
AcDbEntity
 67
     1
  8
DATA
100
AcDbLine
 10
261.4632368499487
 20
43.74234192739061
 30
0.0
 11
261.4632368499487
 21
42.61605621355562
 31
0.0
  0
LINE
  5
5780
330
1B
100
AcDbEntity
 67
     1
  8
DATA
100
AcDbLine
 10
269.5735225609904
 20
36.95891335867563
 30
0.0
 11
269.5735225609904
 21
41.31491335693323
 31
0.0
  0
LINE
  5
5781
330
1B
100
AcDbEntity
 67
     1
  8
DATA
100
AcDbLine
 10
267.9329511330751
 20
41.31491335693323
 30
0.0
 11
267.9329511330751
 21
36.95891335867563
 31
0.0
  0
CIRCLE
  5
5782
330
1B
100
AcDbEntity
 67
     1
  8
DATA
100
AcDbCircle
 10
267.9329511330751
 20
36.57834193025641
 30
0.0
 40
0.3805714284191993
  0
CIRCLE
  5
5783
330
1B
100
AcDbEntity
 67
     1
  8
DATA
100
AcDbCircle
 10
269.5735225609904
 20
36.57834193025641
 30
0.0
 40
0.3805714284191993
  0
ARC
  5
5784
330
1B
100
AcDbEntity
 67
     1
  8
DATA
100
AcDbCircle
 10
266.2383797051815
 20
41.31491335693323
 30
0.0
 40
0.568285714058395
100
AcDbArc
 50
180.0
 51
0.0
  0
LINE
  5
5785
330
1B
100
AcDbEntity
 67
     1
  8
DATA
100
AcDbLine
 10
266.8066654192402
 20
41.31491335693323
 30
0.0
 11
267.9329511330751
 21
41.31491335693323
 31
0.0
  0
ARC
  5
5786
330
1B
100
AcDbEntity
 67
     1
  8
DATA
100
AcDbCircle
 10
271.1652368460679
 20
41.31491335693323
 30
0.0
 40
0.568285714058395
100
AcDbArc
 50
180.0
 51
0.0
  0
LINE
  5
5787
330
1B
100
AcDbEntity
 67
     1
  8
DATA
100
AcDbLine
 10
269.5735225609904
 20
41.31491335693323
 30
0.0
 11
270.5969511320096
 21
41.31491335693323
 31
0.0
  0
ARC
  5
5788
330
1B
100
AcDbEntity
 67
     1
  8
DATA
100
AcDbCircle
 10
272.3018082741847
 20
41.31491335693323
 30
0.0
 40
0.568285714058395
100
AcDbArc
 50
180.0
 51
0.0
  0
TEXT
  5
5789
330
1B
100
AcDbEntity
 67
     1
  8
DATA
100
AcDbText
 10
275.9999999992
 20
25.26666667056
 30
0.0
 40
1.9999999992
  1
(B\)BLKL
 50
90.0
 41
0.7
  7
ROMANS
 72
     2
 11
274.0
 21
35.0
 31
0.0
100
AcDbText
 73
     3
  0
LINE
  5
578A
330
1B
100
AcDbEntity
 67
     1
  8
DATA
100
AcDbLine
 10
275.1329511301951
 20
41.31491335693323
 30
0.0
 11
275.1329511301951
 21
36.95891335867563
 31
0.0
  0
CIRCLE
  5
578B
330
1B
100
AcDbEntity
 67
     1
  8
DATA
100
AcDbCircle
 10
275.1329511301951
 20
36.57834193025641
 30
0.0
 40
0.3805714284191993
  0
LINE
  5
578C
330
1B
100
AcDbEntity
 67
     1
  8
DATA
100
AcDbLine
 10
274.0066654163602
 20
41.31491335693323
 30
0.0
 11
275.1329511301951
 21
41.31491335693323
 31
0.0
  0
ARC
  5
578D
330
1B
100
AcDbEntity
 67
     1
  8
DATA
100
AcDbCircle
 10
261.4632368499487
 20
51.51062763856929
 30
0.0
 40
0.568285714058395
100
AcDbArc
 50
90.0
 51
270.0
  0
LINE
  5
578E
330
1B
100
AcDbEntity
 67
     1
  8
DATA
100
AcDbLine
 10
257.1072368516912
 20
48.17548478276044
 30
0.0
 11
261.4632368499487
 21
48.17548478276044
 31
0.0
  0
LINE
  5
578F
330
1B
100
AcDbEntity
 67
     1
  8
DATA
100
AcDbLine
 10
261.4632368499487
 20
49.81605621067564
 30
0.0
 11
257.1072368516912
 21
49.81605621067564
 31
0.0
  0
CIRCLE
  5
5790
330
1B
100
AcDbEntity
 67
     1
  8
DATA
100
AcDbCircle
 10
256.7266654232719
 20
48.17548478276044
 30
0.0
 40
0.3805714284191993
  0
CIRCLE
  5
5791
330
1B
100
AcDbEntity
 67
     1
  8
DATA
100
AcDbCircle
 10
256.7266654232719
 20
49.81605621067564
 30
0.0
 40
0.3805714284191993
  0
LINE
  5
5792
330
1B
100
AcDbEntity
 67
     1
  8
DATA
100
AcDbLine
 10
261.4632368499487
 20
48.17548478276044
 30
0.0
 11
261.4632368499487
 21
47.15205621174123
 31
0.0
  0
ARC
  5
5793
330
1B
100
AcDbEntity
 67
     1
  8
DATA
100
AcDbCircle
 10
261.4632368499487
 20
46.58377049768286
 30
0.0
 40
0.568285714058395
100
AcDbArc
 50
90.0
 51
270.0
  0
LINE
  5
5794
330
1B
100
AcDbEntity
 67
     1
  8
DATA
100
AcDbLine
 10
261.4632368499487
 20
50.94234192451063
 30
0.0
 11
261.4632368499487
 21
49.81605621067564
 31
0.0
  0
LINE
  5
5795
330
1B
100
AcDbEntity
 67
     1
  8
DATA
100
AcDbLine
 10
257.1072368516912
 20
55.37548477988045
 30
0.0
 11
261.4632368499487
 21
55.37548477988045
 31
0.0
  0
CIRCLE
  5
5796
330
1B
100
AcDbEntity
 67
     1
  8
DATA
100
AcDbCircle
 10
256.7266654232719
 20
55.37548477988045
 30
0.0
 40
0.3805714284191993
  0
ARC
  5
5797
330
1B
100
AcDbEntity
 67
     1
  8
DATA
100
AcDbCircle
 10
261.4632368499487
 20
53.78377049480288
 30
0.0
 40
0.568285714058395
100
AcDbArc
 50
90.0
 51
270.0
  0
ARC
  5
5798
330
1B
100
AcDbEntity
 67
     1
  8
DATA
100
AcDbCircle
 10
261.4632368499487
 20
52.64719906668607
 30
0.0
 40
0.568285714058395
100
AcDbArc
 50
90.0
 51
270.0
  0
LINE
  5
5799
330
1B
100
AcDbEntity
 67
     1
  8
DATA
100
AcDbLine
 10
261.4632368499487
 20
55.37548477988045
 30
0.0
 11
261.4632368499487
 21
54.35205620886126
 31
0.0
  0
TEXT
  5
579A
330
1B
100
AcDbEntity
 67
     1
  8
DATA
100
AcDbText
 10
247.6808558342373
 20
58.43986640626493
 30
0.0
 40
2.499999999
  1
WIRING DIAGRAM
 41
0.7
  7
ROMANS
100
AcDbText
  0
TEXT
  5
5AEE
330
1B
100
AcDbEntity
 67
     1
  8
DATA
100
AcDbText
 10
233.7068271283334
 20
46.62418850017655
 30
0.0
 40
2.4
  1
CCW
 41
0.7
  7
ROMANS
 72
     1
 11
236.3868271283334
 21
46.62418850017655
 31
0.0
100
AcDbText
  0
SOLID
  5
5AEF
330
1B
100
AcDbEntity
 67
     1
  8
DATA
100
AcDbTrace
 10
235.7922979078902
 20
41.7437254336985
 30
0.0
 11
236.5922979078904
 21
41.7437254336985
 31
0.0
 12
236.1922979078903
 22
44.14372543369836
 32
0.0
 13
236.1922979078903
 23
44.14372543369836
 33
0.0
  0
TEXT
  5
5AF0
330
1B
100
AcDbEntity
 67
     1
  8
DATA
100
AcDbText
 10
221.2828061425817
 20
46.68693641362074
 30
0.0
 40
2.4
  1
B\
 41
0.7
  7
ROMANS
 72
     1
 11
223.0828061425817
 21
46.68693641362074
 31
0.0
100
AcDbText
  0
TEXT
  5
5AF1
330
1B
100
AcDbEntity
 67
     1
  8
DATA
100
AcDbText
 10
213.5228061425817
 20
46.68693641362074
 30
0.0
 40
2.4
  1
A\
 41
0.7
  7
ROMANS
 72
     1
 11
215.0828061425817
 21
46.68693641362074
 31
0.0
100
AcDbText
  0
TEXT
  5
5AF2
330
1B
100
AcDbEntity
 67
     1
  8
DATA
100
AcDbText
 10
222.1854042670655
 20
41.88693641362078
 30
0.0
 40
2.4
  1
-
 41
0.7
  7
ROMANS
 72
     1
 11
223.2254042670655
 21
41.88693641362078
 31
0.0
100
AcDbText
  0
TEXT
  5
5AF3
330
1B
100
AcDbEntity
 67
     1
  8
DATA
100
AcDbText
 10
222.1854042670655
 20
37.31056476404092
 30
0.0
 40
2.4
  1
-
 41
0.7
  7
ROMANS
 72
     1
 11
223.2254042670655
 21
37.31056476404092
 31
0.0
100
AcDbText
  0
LINE
  5
5AF4
330
1B
100
AcDbEntity
 67
     1
  8
DATA
100
AcDbLine
 10
230.1012975980283
 20
34.36166438344162
 30
0.0
 11
230.1012975980283
 21
44.81305693282934
 31
0.0
  0
TEXT
  5
5AF5
330
1B
100
AcDbEntity
 67
     1
  8
DATA
100
AcDbText
 10
214.1854042670655
 20
41.88693641362078
 30
0.0
 40
2.4
  1
-
 41
0.7
  7
ROMANS
 72
     1
 11
215.2254042670655
 21
41.88693641362078
 31
0.0
100
AcDbText
  0
TEXT
  5
5AF6
330
1B
100
AcDbEntity
 67
     1
  8
DATA
100
AcDbText
 10
214.0428061425817
 20
37.08693641362084
 30
0.0
 40
2.4
  1
+
 41
0.7
  7
ROMANS
 72
     1
 11
215.0828061425817
 21
37.08693641362084
 31
0.0
100
AcDbText
  0
TEXT
  5
5AF7
330
1B
100
AcDbEntity
 67
     1
  8
DATA
100
AcDbText
 10
206.2028061425817
 20
46.68693641362074
 30
0.0
 40
2.4
  1
B
 41
0.7
  7
ROMANS
 72
     1
 11
207.0828061425817
 21
46.68693641362074
 31
0.0
100
AcDbText
  0
TEXT
  5
5AF8
330
1B
100
AcDbEntity
 67
     1
  8
DATA
100
AcDbText
 10
198.3628061425817
 20
46.68693641362074
 30
0.0
 40
2.4
  1
A
 41
0.7
  7
ROMANS
 72
     1
 11
199.0828061425817
 21
46.68693641362074
 31
0.0
100
AcDbText
  0
TEXT
  5
5AF9
330
1B
100
AcDbEntity
 67
     1
  8
DATA
100
AcDbText
 10
205.8138328081032
 20
32.27655566545809
 30
0.0
 40
2.4
  1
-
 41
0.7
  7
ROMANS
 72
     1
 11
206.8538328081032
 21
32.27655566545809
 31
0.0
100
AcDbText
  0
TEXT
  5
5AFA
330
1B
100
AcDbEntity
 67
     1
  8
DATA
100
AcDbText
 10
197.8138328081032
 20
32.27655566545809
 30
0.0
 40
2.4
  1
-
 41
0.7
  7
ROMANS
 72
     1
 11
198.8538328081032
 21
32.27655566545809
 31
0.0
100
AcDbText
  0
TEXT
  5
5AFB
330
1B
100
AcDbEntity
 67
     1
  8
DATA
100
AcDbText
 10
222.0428061425817
 20
27.4869364136207
 30
0.0
 40
2.4
  1
+
 41
0.7
  7
ROMANS
 72
     1
 11
223.0828061425817
 21
27.4869364136207
 31
0.0
100
AcDbText
  0
TEXT
  5
5AFC
330
1B
100
AcDbEntity
 67
     1
  8
DATA
100
AcDbText
 10
214.0568615897135
 20
27.35695582768153
 30
0.0
 40
2.4
  1
-
 41
0.7
  7
ROMANS
 72
     1
 11
215.0968615897135
 21
27.35695582768153
 31
0.0
100
AcDbText
  0
TEXT
  5
5AFD
330
1B
100
AcDbEntity
 67
     1
  8
DATA
100
AcDbText
 10
206.0568615897135
 20
27.35695582768153
 30
0.0
 40
2.4
  1
-
 41
0.7
  7
ROMANS
 72
     1
 11
207.0968615897135
 21
27.35695582768153
 31
0.0
100
AcDbText
  0
TEXT
  5
5AFE
330
1B
100
AcDbEntity
 67
     1
  8
DATA
100
AcDbText
 10
198.0428061425817
 20
27.4869364136207
 30
0.0
 40
2.4
  1
+
 41
0.7
  7
ROMANS
 72
     1
 11
199.0828061425817
 21
27.4869364136207
 31
0.0
100
AcDbText
  0
TEXT
  5
5AFF
330
1B
100
AcDbEntity
 67
     1
  8
DATA
100
AcDbText
 10
228.4913822100839
 20
27.79231129478513
 30
0.0
 40
2.4
  1
CW
 41
0.7
  7
ROMANS
 72
     1
 11
230.3313822100839
 21
27.79231129478513
 31
0.0
100
AcDbText
  0
LINE
  5
5B00
330
1B
100
AcDbEntity
 67
     1
  8
DATA
100
AcDbLine
 10
195.0828061425817
 20
50.28693641362065
 30
0.0
 11
195.0828061425817
 21
26.28693641362065
 31
0.0
  0
LINE
  5
5B01
330
1B
100
AcDbEntity
 67
     1
  8
DATA
100
AcDbLine
 10
239.2932888244301
 20
50.28693641362065
 30
0.0
 11
239.2932888244301
 21
26.28693641362065
 31
0.0
  0
LINE
  5
5B02
330
1B
100
AcDbEntity
 67
     1
  8
DATA
100
AcDbLine
 10
236.1922979078903
 20
41.7437254336985
 30
0.0
 11
236.1922979078903
 21
31.98357864943023
 31
0.0
  0
SOLID
  5
5B03
330
1B
100
AcDbEntity
 67
     1
  8
DATA
100
AcDbTrace
 10
230.5012975980284
 20
34.36166438344162
 30
0.0
 11
229.7012975980282
 21
34.36166438344162
 31
0.0
 12
230.1012975980283
 22
31.96166438344153
 32
0.0
 13
230.1012975980283
 23
31.96166438344153
 33
0.0
  0
LINE
  5
5B04
330
1B
100
AcDbEntity
 67
     1
  8
DATA
100
AcDbLine
 10
232.943052944977
 20
50.28693641362065
 30
0.0
 11
232.943052944977
 21
26.28693641362065
 31
0.0
  0
TEXT
  5
5B05
330
1B
100
AcDbEntity
 67
     1
  8
DATA
100
AcDbText
 10
222.0428061425817
 20
32.28693641362065
 30
0.0
 40
2.4
  1
+
 41
0.7
  7
ROMANS
 72
     1
 11
223.0828061425817
 21
32.28693641362065
 31
0.0
100
AcDbText
  0
TEXT
  5
5B06
330
1B
100
AcDbEntity
 67
     1
  8
DATA
100
AcDbText
 10
214.0428061425817
 20
32.28693641362065
 30
0.0
 40
2.4
  1
+
 41
0.7
  7
ROMANS
 72
     1
 11
215.0828061425817
 21
32.28693641362065
 31
0.0
100
AcDbText
  0
LINE
  5
5B07
330
1B
100
AcDbEntity
 67
     1
  8
DATA
100
AcDbLine
 10
227.0828061425817
 20
50.28693641362065
 30
0.0
 11
227.0828061425817
 21
26.28693641362065
 31
0.0
  0
LINE
  5
5B08
330
1B
100
AcDbEntity
 67
     1
  8
DATA
100
AcDbLine
 10
219.0828061425817
 20
50.28693641362065
 30
0.0
 11
219.0828061425817
 21
26.28693641362065
 31
0.0
  0
LINE
  5
5B09
330
1B
100
AcDbEntity
 67
     1
  8
DATA
100
AcDbLine
 10
211.0828061425817
 20
50.28693641362065
 30
0.0
 11
211.0828061425817
 21
26.28693641362065
 31
0.0
  0
TEXT
  5
5B0A
330
1B
100
AcDbEntity
 67
     1
  8
DATA
100
AcDbText
 10
190.4028061425817
 20
41.88693641362078
 30
0.0
 40
2.4
  1
1
 41
0.7
  7
ROMANS
 72
     1
 11
191.0828061425817
 21
41.88693641362078
 31
0.0
100
AcDbText
  0
TEXT
  5
5B0B
330
1B
100
AcDbEntity
 67
     1
  8
DATA
100
AcDbText
 10
190.2828061425817
 20
37.08693641362084
 30
0.0
 40
2.4
  1
2
 41
0.7
  7
ROMANS
 72
     1
 11
191.0828061425817
 21
37.08693641362084
 31
0.0
100
AcDbText
  0
TEXT
  5
5B0C
330
1B
100
AcDbEntity
 67
     1
  8
DATA
100
AcDbText
 10
190.2428061425817
 20
27.4869364136207
 30
0.0
 40
2.4
  1
4
 41
0.7
  7
ROMANS
 72
     1
 11
191.0828061425817
 21
27.4869364136207
 31
0.0
100
AcDbText
  0
TEXT
  5
5B0D
330
1B
100
AcDbEntity
 67
     1
  8
DATA
100
AcDbText
 10
190.2828061425817
 20
32.28693641362065
 30
0.0
 40
2.4
  1
3
 41
0.7
  7
ROMANS
 72
     1
 11
191.0828061425817
 21
32.28693641362065
 31
0.0
100
AcDbText
  0
LINE
  5
5B0E
330
1B
100
AcDbEntity
 67
     1
  8
DATA
100
AcDbLine
 10
187.0828061425817
 20
50.28693641362065
 30
0.0
 11
187.0828061425817
 21
26.28693641362065
 31
0.0
  0
TEXT
  5
5B0F
330
1B
100
AcDbEntity
 67
     1
  8
DATA
100
AcDbText
 10
187.0828061425817
 20
51.69646022314464
 30
0.0
 40
2.8
  1
WHEN FACING MOUNTING END (X)
 41
0.7
  7
ROMANS
100
AcDbText
  0
TEXT
  5
5B10
330
1B
100
AcDbEntity
 67
     1
  8
DATA
100
AcDbText
 10
186.9159241000208
 20
56.28693641362065
 30
0.0
 40
2.8
  1
FULL STEP 2 PHASE-Ex.,
 41
0.7
  7
ROMANS
100
AcDbText
  0
LINE
  5
5B11
330
1B
100
AcDbEntity
 67
     1
  8
DATA
100
AcDbLine
 10
187.0828061425817
 20
45.4869364136207
 30
0.0
 11
227.0828061425817
 21
45.4869364136207
 31
0.0
  0
LINE
  5
5B12
330
1B
100
AcDbEntity
 67
     1
  8
DATA
100
AcDbLine
 10
187.0828061425817
 20
31.08693641362084
 30
0.0
 11
227.0828061425817
 21
31.08693641362084
 31
0.0
  0
LINE
  5
5B13
330
1B
100
AcDbEntity
 67
     1
  8
DATA
100
AcDbLine
 10
239.2932888244301
 20
50.28693641362065
 30
0.0
 11
187.0828061425817
 21
50.28693641362065
 31
0.0
  0
LINE
  5
5B14
330
1B
100
AcDbEntity
 67
     1
  8
DATA
100
AcDbLine
 10
187.0828061425817
 20
26.28693641362065
 30
0.0
 11
239.2932888244301
 21
26.28693641362065
 31
0.0
  0
TEXT
  5
5B15
330
1B
100
AcDbEntity
 67
     1
  8
DATA
100
AcDbText
 10
188.0428061425817
 20
46.68693641362074
 30
0.0
 40
2.4
  1
STEP
 41
0.7
  7
ROMANS
 72
     1
 11
191.0828061425817
 21
46.68693641362074
 31
0.0
100
AcDbText
  0
TEXT
  5
5B16
330
1B
100
AcDbEntity
 67
     1
  8
DATA
100
AcDbText
 10
206.0428061425817
 20
41.88693641362078
 30
0.0
 40
2.4
  1
+
 41
0.7
  7
ROMANS
 72
     1
 11
207.0828061425817
 21
41.88693641362078
 31
0.0
100
AcDbText
  0
TEXT
  5
5B17
330
1B
100
AcDbEntity
 67
     1
  8
DATA
100
AcDbText
 10
206.0428061425817
 20
37.08693641362084
 30
0.0
 40
2.4
  1
+
 41
0.7
  7
ROMANS
 72
     1
 11
207.0828061425817
 21
37.08693641362084
 31
0.0
100
AcDbText
  0
TEXT
  5
5B18
330
1B
100
AcDbEntity
 67
     1
  8
DATA
100
AcDbText
 10
198.0428061425817
 20
41.88693641362078
 30
0.0
 40
2.4
  1
+
 41
0.7
  7
ROMANS
 72
     1
 11
199.0828061425817
 21
41.88693641362078
 31
0.0
100
AcDbText
  0
TEXT
  5
5B19
330
1B
100
AcDbEntity
 67
     1
  8
DATA
100
AcDbText
 10
197.8138328081032
 20
37.08174583665027
 30
0.0
 40
2.4
  1
-
 41
0.7
  7
ROMANS
 72
     1
 11
198.8538328081032
 21
37.08174583665027
 31
0.0
100
AcDbText
  0
LINE
  5
5B1A
330
1B
100
AcDbEntity
 67
     1
  8
DATA
100
AcDbLine
 10
203.0828061425817
 20
50.28693641362065
 30
0.0
 11
203.0828061425817
 21
26.28693641362065
 31
0.0
  0
LINE
  5
5B1B
330
1B
100
AcDbEntity
 67
     1
  8
DATA
100
AcDbLine
 10
187.0828061425817
 20
40.68693641362074
 30
0.0
 11
227.0828061425817
 21
40.68693641362074
 31
0.0
  0
LINE
  5
5B1C
330
1B
100
AcDbEntity
 67
     1
  8
DATA
100
AcDbLine
 10
187.0828061425817
 20
35.88693641362079
 30
0.0
 11
227.0828061425817
 21
35.88693641362079
 31
0.0
  0
MTEXT
  5
5B1D
330
1B
100
AcDbEntity
 67
     1
  8
DATA
100
AcDbMText
 10
128.2344639665928
 20
79.4204407347795
 30
0.0
 40
2.399999999999999
 41
6.509999999999999
 71
     1
 72
     5
  1
F{\H0.8333x;a}
  7
ROMANS
 73
     1
 44
1.0
1001
ACAD
1000
ACAD_MTEXT_DEFINED_HEIGHT_BEGIN
1070
    46
1040
0.0
1000
ACAD_MTEXT_DEFINED_HEIGHT_END
1000
MTEXTBEGIN
1070
    73
1070
     1
1070
    44
1040
1.0
1070
    74
1070
     0
1000
MTEXTEND
  0
TEXT
  5
5B1E
330
1B
100
AcDbEntity
 67
     1
  8
DATA
100
AcDbText
 10
242.5785976500606
 20
78.66514701139573
 30
0.0
 40
2.3999999904
  1
RED
 41
0.7
  7
ROMANS
100
AcDbText
  0
TEXT
  5
5B1F
330
1B
100
AcDbEntity
 67
     1
  8
DATA
100
AcDbText
 10
242.5785976500606
 20
74.7794327412243
 30
0.0
 40
2.3999999904
  1
GRN/WHT
 41
0.7
  7
ROMANS
100
AcDbText
  0
TEXT
  5
5B20
330
1B
100
AcDbEntity
 67
     1
  8
DATA
100
AcDbText
 10
242.5785976500606
 20
70.89371847105288
 30
0.0
 40
2.3999999904
  1
GRN
 41
0.7
  7
ROMANS
100
AcDbText
  0
LINE
  5
5B21
330
1B
100
AcDbEntity
 67
     1
  8
DATA
100
AcDbLine
 10
240.0682034580287
 20
74.13898732888604
 30
0.0
 11
256.0393726925287
 21
74.13898732445762
 31
0.0
  0
LINE
  5
5B22
330
1B
100
AcDbEntity
 67
     1
  8
DATA
100
AcDbLine
 10
240.0682034618103
 20
77.97572213011448
 30
0.0
 11
256.0393726925287
 21
77.97572212294278
 31
0.0
  0
TEXT
  5
5B23
330
1B
100
AcDbEntity
 67
     1
  8
DATA
100
AcDbText
 10
242.5785976500606
 20
90.32228982191004
 30
0.0
 40
2.3999999904
  1
BLU/WHT
 41
0.7
  7
ROMANS
100
AcDbText
  0
TEXT
  5
5B24
330
1B
100
AcDbEntity
 67
     1
  8
DATA
100
AcDbText
 10
242.5785976500606
 20
86.43657555173859
 30
0.0
 40
2.3999999904
  1
BLU
 41
0.7
  7
ROMANS
100
AcDbText
  0
LINE
  5
5B25
330
1B
100
AcDbEntity
 67
     1
  8
DATA
100
AcDbLine
 10
240.0682034732927
 20
89.62544391217432
 30
0.0
 11
256.0393726925287
 21
89.62544390774587
 31
0.0
  0
LINE
  5
5B26
330
1B
100
AcDbEntity
 67
     1
  8
DATA
100
AcDbLine
 10
240.0682034655919
 20
81.81245693392664
 30
0.0
 11
256.0393726925287
 21
81.81245692675494
 31
0.0
  0
LINE
  5
5B27
330
1B
100
AcDbEntity
 67
     1
  8
DATA
100
AcDbLine
 10
240.0682034693736
 20
85.64919173644687
 30
0.0
 11
256.0393726925287
 21
85.64919172798338
 31
0.0
  0
TEXT
  5
5B28
330
1B
100
AcDbEntity
 67
     1
  8
DATA
100
AcDbText
 10
242.5785976500606
 20
82.55086128156717
 30
0.0
 40
2.3999999904
  1
RED/WHT
 41
0.7
  7
ROMANS
100
AcDbText
  0
LINE
  5
5B29
330
1B
100
AcDbEntity
 67
     1
  8
DATA
100
AcDbLine
 10
240.0682034541096
 20
70.16273515315868
 30
0.0
 11
256.0393726925287
 21
70.16273514873025
 31
0.0
  0
LINE
  5
5B2A
330
1B
100
AcDbEntity
 67
     1
  8
DATA
100
AcDbLine
 10
240.068203450328
 20
66.32600034934654
 30
0.0
 11
256.0393726925287
 21
66.32600034217484
 31
0.0
  0
TEXT
  5
5B2B
330
1B
100
AcDbEntity
 67
     1
  8
DATA
100
AcDbText
 10
242.5785976500606
 20
67.0154252306278
 30
0.0
 40
2.3999999904
  1
BLK/WHT
 41
0.7
  7
ROMANS
100
AcDbText
  0
TEXT
  5
5B2C
330
1B
100
AcDbEntity
 67
     1
  8
DATA
100
AcDbText
 10
242.5785976500606
 20
63.12971096045636
 30
0.0
 40
2.3999999904
  1
BLK
 41
0.7
  7
ROMANS
100
AcDbText
  0
LWPOLYLINE
  5
5B2D
330
1B
100
AcDbEntity
 67
     1
  8
DATA
100
AcDbPolyline
 90
        4
 70
     1
 43
0.0
 10
240.0682034847751
 20
101.2751655164238
 10
256.0393726925287
 20
101.2751652978669
 10
256.0393726543001
 20
62.48926555528981
 10
240.0682034465464
 20
62.48926555528981
  0
LINE
  5
5B2E
330
1B
100
AcDbEntity
 67
     1
  8
DATA
100
AcDbLine
 10
200.2948899730421
 20
101.2751660090053
 30
0.0
 11
200.2948899348135
 21
62.48926614951452
 31
0.0
  0
TEXT
  5
5B2F
330
1B
100
AcDbEntity
 67
     1
  8
DATA
100
AcDbText
 10
214.0103757680178
 20
98.07705108849267
 30
0.0
 40
2.3999999904
  1
BIPOLAR
 41
0.65
  7
ROMANS
100
AcDbText
  0
LWPOLYLINE
  5
5B30
330
1B
100
AcDbEntity
 67
     1
  8
DATA
100
AcDbPolyline
 90
        4
 70
     0
 43
0.0
 10
232.7445552278839
 20
91.50431976577753
 10
232.7445552278839
 20
91.50431976577753
 10
232.7445552278839
 20
84.03493457971324
 10
236.8945015079387
 20
84.03493455206044
  0
MTEXT
  5
5B31
330
1B
100
AcDbEntity
 67
     1
  8
DATA
100
AcDbMText
 10
228.1454756368693
 20
90.15809829153569
 30
0.0
 40
2.3999999904
 41
3.999999983999999
 71
     7
 72
     1
  1
{\W0.65;A}
  7
ROMANS
 73
     1
 44
1.0
1001
ACAD
1000
ACAD_MTEXT_DEFINED_HEIGHT_BEGIN
1070
    46
1040
0.0
1000
ACAD_MTEXT_DEFINED_HEIGHT_END
1000
MTEXTBEGIN
1070
    73
1070
     1
1070
    44
1040
1.0
1070
    74
1070
     0
1000
MTEXTEND
  0
MTEXT
  5
5B32
330
1B
100
AcDbEntity
 67
     1
  8
DATA
100
AcDbMText
 10
228.1454756368693
 20
80.0
 30
0.0
 40
2.3999999904
 41
3.999999983999999
 71
     4
 72
     1
  1
{\W0.65;A\\}
  7
ROMANS
 73
     1
 44
1.0
1001
ACAD
1000
ACAD_MTEXT_DEFINED_HEIGHT_BEGIN
1070
    46
1040
0.0
1000
ACAD_MTEXT_DEFINED_HEIGHT_END
1000
MTEXTBEGIN
1070
    73
1070
     1
1070
    44
1040
1.0
1070
    74
1070
     0
1000
MTEXTEND
  0
LINE
  5
5B33
102
{ACAD_REACTORS
330
5B35
102
}
330
1B
100
AcDbEntity
 67
     1
  8
DATA
100
AcDbLine
 10
263.8438865358194
 20
91.0195825612644
 30
0.0
 11
263.8438865358194
 21
87.88358257380838
 31
0.0
  0
LINE
  5
5B34
102
{ACAD_REACTORS
330
5B35
102
}
330
1B
100
AcDbEntity
 67
     1
  8
DATA
100
AcDbLine
 10
265.1878865304433
 20
87.88358257380838
 30
0.0
 11
265.1878865304433
 21
91.0195825612644
 31
0.0
  0
HATCH
  5
5B35
330
1B
100
AcDbEntity
 67
     1
  8
DATA
100
AcDbHatch
 10
0.0
 20
0.0
 30
0.0
210
0.0
220
0.0
230
1.0
  2
SOLID
 70
     1
 71
     1
 91
        1
 92
        1
 93
        4
 72
     1
 10
265.1878865304433
 20
91.0195825612644
 11
263.8438865358194
 21
91.0195825612644
 72
     1
 10
263.8438865358194
 20
91.0195825612644
 11
263.8438865358194
 21
87.88358257380838
 72
     1
 10
263.8438865358194
 20
87.88358257380838
 11
265.1878865304433
 21
87.88358257380838
 72
     1
 10
265.1878865304433
 20
87.88358257380838
 11
265.1878865304433
 21
91.0195825612644
 97
        4
330
5B39
330
5B33
330
5B36
330
5B34
 75
     0
 76
     1
 98
        1
 10
160.8038869479794
 20
11.94758287755238
  0
LINE
  5
5B36
102
{ACAD_REACTORS
330
5B35
102
}
330
1B
100
AcDbEntity
 67
     1
  8
DATA
100
AcDbLine
 10
263.8438865358194
 20
87.88358257380838
 30
0.0
 11
265.1878865304433
 21
87.88358257380838
 31
0.0
  0
LINE
  5
5B37
330
1B
100
AcDbEntity
 67
     1
  8
DATA
100
AcDbLine
 10
264.5158863758985
 20
86.68358257380841
 30
0.0
 11
259.2460786653489
 21
86.68358257380841
 31
0.0
  0
LINE
  5
5B38
330
1B
100
AcDbEntity
 67
     1
  8
DATA
100
AcDbLine
 10
264.5158863093595
 20
87.8835825738084
 30
0.0
 11
264.5158863758985
 21
86.68358257380841
 31
0.0
  0
LINE
  5
5B39
102
{ACAD_REACTORS
330
5B35
102
}
330
1B
100
AcDbEntity
 67
     1
  8
DATA
100
AcDbLine
 10
265.1878865304433
 20
91.0195825612644
 30
0.0
 11
263.8438865358194
 21
91.0195825612644
 31
0.0
  0
LINE
  5
5B3A
330
1B
100
AcDbEntity
 67
     1
  8
DATA
100
AcDbLine
 10
264.5158865216746
 20
92.21958256126436
 30
0.0
 11
259.246078811125
 21
92.21958256126436
 31
0.0
  0
LINE
  5
5B3B
330
1B
100
AcDbEntity
 67
     1
  8
DATA
100
AcDbLine
 10
264.5158865331314
 20
91.01958256126438
 30
0.0
 11
264.5158866229757
 21
92.21958256126436
 31
0.0
  0
MTEXT
  5
5B3C
330
1B
100
AcDbEntity
 67
     1
  8
DATA
100
AcDbMText
 10
266.7563531162018
 20
90.33537332193397
 30
0.0
 40
2.3999999904
 41
3.999999983999999
 71
     7
 72
     1
  1
{\W0.65;A}
  7
ROMANS
 73
     1
 44
1.0
1001
ACAD
1000
ACAD_MTEXT_DEFINED_HEIGHT_BEGIN
1070
    46
1040
0.0
1000
ACAD_MTEXT_DEFINED_HEIGHT_END
1000
MTEXTBEGIN
1070
    73
1070
     1
1070
    44
1040
1.0
1070
    74
1070
     0
1000
MTEXTEND
  0
MTEXT
  5
5B3D
330
1B
100
AcDbEntity
 67
     1
  8
DATA
100
AcDbMText
 10
228.1454756368693
 20
74.81344519485147
 30
0.0
 40
2.3999999904
 41
3.999999983999999
 71
     7
 72
     1
  1
{\W0.65;B}
  7
ROMANS
 73
     1
 44
1.0
1001
ACAD
1000
ACAD_MTEXT_DEFINED_HEIGHT_BEGIN
1070
    46
1040
0.0
1000
ACAD_MTEXT_DEFINED_HEIGHT_END
1000
MTEXTBEGIN
1070
    73
1070
     1
1070
    44
1040
1.0
1070
    74
1070
     0
1000
MTEXTEND
  0
LWPOLYLINE
  5
5B3E
330
1B
100
AcDbEntity
 67
     1
  8
DATA
100
AcDbPolyline
 90
        4
 70
     0
 43
0.0
 10
232.8142689334478
 20
75.9162709884191
 10
232.8142689334478
 20
75.9162709884191
 10
232.8142689334478
 20
68.44688580235483
 10
236.894501323083
 20
68.44688580055716
  0
LWPOLYLINE
  5
5B3F
330
1B
100
AcDbEntity
 67
     1
  8
DATA
100
AcDbPolyline
 90
        4
 70
     0
 43
0.0
 10
236.894501367372
 20
72.18157837359381
 10
234.6545012277374
 20
72.18157839538695
 10
234.6545012279892
 20
64.71222105909337
 10
236.7429124841455
 20
64.71222105826202
  0
MTEXT
  5
5B40
330
1B
100
AcDbEntity
 67
     1
  8
DATA
100
AcDbMText
 10
228.1454756368693
 20
62.73355805569027
 30
0.0
 40
2.3999999904
 41
3.999999983999999
 71
     7
 72
     1
  1
{\W0.65;B\\}
  7
ROMANS
 73
     1
 44
1.0
1001
ACAD
1000
ACAD_MTEXT_DEFINED_HEIGHT_BEGIN
1070
    46
1040
0.0
1000
ACAD_MTEXT_DEFINED_HEIGHT_END
1000
MTEXTBEGIN
1070
    73
1070
     1
1070
    44
1040
1.0
1070
    74
1070
     0
1000
MTEXTEND
  0
LEADER
  5
5B41
330
1B
100
AcDbEntity
 67
     1
  8
DATA
100
AcDbLeader
  3
STANDARD
 73
     0
 40
3.657142857142857
 41
2.96
 76
     2
 10
223.6371536729928
 20
64.71222105345043
 30
0.0
 10
219.0353157960823
 20
64.71222105345043
 30
0.0
213
0.0
223
0.9896550113095967
233
0.0
1001
ACAD
1000
DSTYLE
1002
{
1070
   176
1070
   256
1070
   341
1005
2FF
1070
    40
1040
1.0
1070
    77
1070
     0
1002
}
  0
LWPOLYLINE
  5
5B42
330
1B
100
AcDbEntity
 67
     1
  8
DATA
100
AcDbPolyline
 90
        4
 70
     0
 43
0.0
 10
223.7608666524892
 20
68.44688579555382
 10
221.3307989153504
 20
68.44688579555382
 10
221.3307989153504
 20
72.18157838858598
 10
223.7608666524892
 20
72.18157838858598
  0
LEADER
  5
5B43
330
1B
100
AcDbEntity
 67
     1
  8
DATA
100
AcDbLeader
  3
STANDARD
 73
     0
 40
2.4
 41
1.12
 76
     2
 10
223.7608666524892
 20
75.91627098220971
 30
0.0
 10
217.1918017080233
 20
75.91627098220971
 30
0.0
213
0.0
223
1.569879187309369
233
0.0
1001
ACAD
1000
DSTYLE
1002
{
1070
   176
1070
   256
1070
   341
1005
2FF
1070
    40
1040
1.0
1070
    77
1070
     0
1002
}
  0
LWPOLYLINE
  5
5B44
330
1B
100
AcDbEntity
 67
     1
  8
DATA
100
AcDbPolyline
 90
        4
 70
     0
 43
0.0
 10
223.7608666524892
 20
84.03493480091126
 10
221.5213778067968
 20
84.03493480091126
 10
221.5213778067968
 20
87.7696273939434
 10
223.7608666524892
 20
87.7696273939434
  0
LEADER
  5
5B45
330
1B
100
AcDbEntity
 67
     1
  8
DATA
100
AcDbLeader
  3
STANDARD
 73
     0
 40
3.657142857142857
 41
2.959999999999999
 76
     2
 10
223.7608666524892
 20
80.30027005722516
 30
0.0
 10
219.2258946875288
 20
80.30027005722516
 30
0.0
213
0.0
223
1.199999995199999
233
0.0
1001
ACAD
1000
DSTYLE
1002
{
1070
   176
1070
   256
1070
   341
1005
2FF
1070
    40
1040
1.0
1070
    77
1070
     0
1002
}
  0
LEADER
  5
5B46
330
1B
100
AcDbEntity
 67
     1
  8
DATA
100
AcDbLeader
  3
STANDARD
 73
     0
 40
2.4
 41
1.28
 76
     2
 10
223.7608666524892
 20
91.50431998697555
 30
0.0
 10
217.7141735950739
 20
91.50431998697557
 30
0.0
213
0.0
223
1.199999995199999
233
0.0
1001
ACAD
1000
DSTYLE
1002
{
1070
   176
1070
   256
1070
   341
1005
2FF
1070
    40
1040
1.0
1070
    77
1070
     0
1002
}
  0
TEXT
  5
5B47
330
1B
100
AcDbEntity
 67
     1
  8
DATA
100
AcDbText
 10
214.8889064854714
 20
94.46028478981743
 30
0.0
 40
2.3999999904
  1
SERIAL
 41
0.65
  7
ROMANS
100
AcDbText
  0
TEXT
  5
5B48
330
1B
100
AcDbEntity
 67
     1
  8
DATA
100
AcDbText
 10
227.5678393520829
 20
94.38115575080765
 30
0.0
 40
2.3999999904
  1
PARALLEL
 41
0.65
  7
ROMANS
100
AcDbText
  0
LINE
  5
5B49
330
1B
100
AcDbEntity
 67
     1
  8
DATA
100
AcDbLine
 10
200.2948899693937
 20
97.57357170412801
 30
0.0
 11
239.7682037824956
 21
97.57357161770672
 31
0.0
  0
CIRCLE
  5
5B4A
330
1B
100
AcDbEntity
 67
     1
  8
DATA
100
AcDbCircle
 10
232.744555227884
 20
91.50431976577753
 30
0.0
 40
0.4799999980800001
  0
CIRCLE
  5
5B4B
330
1B
100
AcDbEntity
 67
     1
  8
DATA
100
AcDbCircle
 10
232.8142689334478
 20
75.91627098765811
 30
0.0
 40
0.4799999980800001
  0
HATCH
  5
5B4C
330
1B
100
AcDbEntity
 67
     1
  8
DATA
100
AcDbHatch
 10
0.0
 20
0.0
 30
0.0
210
0.0
220
0.0
230
1.0
  2
SOLID
 70
     1
 71
     0
 91
        3
 92
        7
 72
     1
 73
     1
 93
        2
 10
232.264555229804
 20
91.50431976577747
 42
0.0
 10
233.2245552259639
 20
91.50431976577747
 42
1.0
 97
        0
 92
        7
 72
     1
 73
     1
 93
        3
 10
232.7445552278839
 20
91.50431976577747
 42
0.0
 10
232.264555229804
 20
91.50431976577747
 42
0.4142135623730827
 10
232.7445552278839
 20
91.02431976769748
 42
0.0
 97
        0
 92
        7
 72
     1
 73
     1
 93
        3
 10
233.2245552259639
 20
91.50431976577747
 42
0.0
 10
232.7445552278839
 20
91.50431976577747
 42
0.0
 10
232.7445552278839
 20
91.02431976769748
 42
0.4142135623730827
 97
        0
 75
     0
 76
     1
 47
0.0084010310380994
 98
        3
 10
232.6434997198538
 20
91.7334863260921
 10
232.5462032982085
 20
91.44180540327081
 10
232.9597130902012
 20
91.32027078735749
  0
HATCH
  5
5B4D
330
1B
100
AcDbEntity
 67
     1
  8
DATA
100
AcDbHatch
 10
0.0
 20
0.0
 30
0.0
210
0.0
220
0.0
230
1.0
  2
SOLID
 70
     1
 71
     0
 91
        3
 92
        7
 72
     1
 73
     1
 93
        2
 10
232.3342689353678
 20
75.91627098765808
 42
0.0
 10
233.2942689315278
 20
75.91627098765808
 42
1.0
 97
        0
 92
        7
 72
     1
 73
     1
 93
        3
 10
232.8142689334478
 20
75.91627098765808
 42
0.0
 10
232.3342689353678
 20
75.91627098765808
 42
0.4142135623730827
 10
232.8142689334478
 20
75.43627098957808
 42
0.0
 97
        0
 92
        7
 72
     1
 73
     1
 93
        3
 10
233.2942689315278
 20
75.91627098765808
 42
0.0
 10
232.8142689334478
 20
75.91627098765809
 42
0.0
 10
232.8142689334478
 20
75.43627098957808
 42
0.4142135623730827
 97
        0
 75
     0
 76
     1
 47
0.007033492173799
 98
        3
 10
232.9178306318548
 20
76.16890549312632
 10
232.6475535259959
 20
75.79753647573125
 10
232.9854004430092
 20
75.79753647573125
  0
CIRCLE
  5
5B4E
330
1B
100
AcDbEntity
 67
     1
  8
DATA
100
AcDbCircle
 10
234.6545012277374
 20
64.71222105904056
 30
0.0
 40
0.4799999980800001
  0
HATCH
  5
5B4F
330
1B
100
AcDbEntity
 67
     1
  8
DATA
100
AcDbHatch
 10
0.0
 20
0.0
 30
0.0
210
0.0
220
0.0
230
1.0
  2
SOLID
 70
     1
 71
     0
 91
        3
 92
        7
 72
     1
 73
     1
 93
        2
 10
234.1745012296574
 20
64.71222105904056
 42
0.0
 10
235.1345012258174
 20
64.71222105904056
 42
1.0
 97
        0
 92
        7
 72
     1
 73
     1
 93
        3
 10
234.6545012277374
 20
64.71222105904056
 42
0.0
 10
234.1745012296574
 20
64.71222105904056
 42
0.4142135623730827
 10
234.6545012277374
 20
64.23222106096054
 42
0.0
 97
        0
 92
        7
 72
     1
 73
     1
 93
        3
 10
235.1345012258174
 20
64.71222105904056
 42
0.0
 10
234.6545012277374
 20
64.71222105904056
 42
0.0
 10
234.6545012277374
 20
64.23222106096054
 42
0.4142135623730827
 97
        0
 75
     0
 76
     1
 47
0.007033492173799
 98
        3
 10
234.7580629261444
 20
64.96485556450878
 10
234.4877858202855
 20
64.59348654711374
 10
234.8256327372989
 20
64.59348654711374
  0
LWPOLYLINE
  5
5B50
330
1B
100
AcDbEntity
 67
     1
  8
DATA
100
AcDbPolyline
 90
        4
 70
     0
 43
0.0
 10
236.8945014622174
 20
87.76962716861062
 10
234.6545015328244
 20
87.76962718986402
 10
234.6545015330762
 20
80.30026985357045
 10
236.7429127892325
 20
80.30026985273909
  0
CIRCLE
  5
5B51
330
1B
100
AcDbEntity
 67
     1
  8
DATA
100
AcDbCircle
 10
234.6545015328245
 20
80.30026985370358
 30
0.0
 40
0.4799999980800001
  0
HATCH
  5
5B52
330
1B
100
AcDbEntity
 67
     1
  8
DATA
100
AcDbHatch
 10
0.0
 20
0.0
 30
0.0
210
0.0
220
0.0
230
1.0
  2
SOLID
 70
     1
 71
     0
 91
        3
 92
        7
 72
     1
 73
     1
 93
        2
 10
234.1745015347445
 20
80.30026985370355
 42
0.0
 10
235.1345015309044
 20
80.30026985370355
 42
1.0
 97
        0
 92
        7
 72
     1
 73
     1
 93
        3
 10
234.6545015328245
 20
80.30026985370355
 42
0.0
 10
234.1745015347445
 20
80.30026985370355
 42
0.4142135623730827
 10
234.6545015328245
 20
79.82026985562352
 42
0.0
 97
        0
 92
        7
 72
     1
 73
     1
 93
        3
 10
235.1345015309044
 20
80.30026985370355
 42
0.0
 10
234.6545015328245
 20
80.30026985370357
 42
0.0
 10
234.6545015328245
 20
79.82026985562352
 42
0.4142135623730827
 97
        0
 75
     0
 76
     1
 47
0.007033492173799
 98
        3
 10
234.7580632312315
 20
80.55290435917177
 10
234.4877861253726
 20
80.1815353417767
 10
234.8256330423859
 20
80.1815353417767
  0
LWPOLYLINE
  5
5B53
330
1B
100
AcDbEntity
 67
     1
  8
DATA
100
AcDbPolyline
 90
        4
 70
     1
 43
0.0
 10
256.0393726543001
 20
101.2751652815092
 10
272.9297000965773
 20
101.2751652815092
 10
272.9297000965773
 20
62.48926553893213
 10
256.0393726543001
 20
62.48926553893213
  0
TEXT
  5
5B54
330
1B
100
AcDbEntity
 67
     1
  8
DATA
100
AcDbText
 10
258.8068924342948
 20
96.22111656472675
 30
0.0
 40
2.3999999904
  1
WINDING
 41
0.7
  7
ROMANS
100
AcDbText
  0
LWPOLYLINE
  5
5B55
330
1B
100
AcDbEntity
 67
     1
  8
DATA
100
AcDbPolyline
 90
        4
 70
     0
 43
0.0
 10
198.5212563652818
 20
68.44688614694966
 10
196.091188628143
 20
68.44688614694966
 10
196.091188628143
 20
72.18157873998181
 10
198.5212563652818
 20
72.18157873998181
  0
MTEXT
  5
5B56
102
{ACAD_REACTORS
330
5B57
102
}
330
1B
100
AcDbEntity
 67
     1
  8
DATA
100
AcDbMText
 10
187.9678393520829
 20
64.91869628605723
 30
0.0
 40
2.3999999904
 41
3.999999983999999
 71
     4
 72
     1
  1
{\W0.65;B\\}
  7
ROMANS
 73
     1
 44
1.0
1001
ACAD
1000
ACAD_MTEXT_DEFINED_HEIGHT_BEGIN
1070
    46
1040
0.0
1000
ACAD_MTEXT_DEFINED_HEIGHT_END
1000
MTEXTBEGIN
1070
    73
1070
     1
1070
    44
1040
1.0
1070
    74
1070
     0
1000
MTEXTEND
  0
LEADER
  5
5B57
330
1B
100
AcDbEntity
 67
     1
  8
DATA
100
AcDbLeader
  3
STANDARD
 73
     0
 40
3.657142857142857
 41
2.96
 76
     2
 10
198.3975433857855
 20
64.71222105345043
 30
0.0
 10
194.0585233341862
 20
64.71222105345043
 30
0.0
213
-1.321142201008449
223
0.9896546599137648
233
0.0
1001
ACAD
1000
DSTYLE
1002
{
1070
   176
1070
   256
1070
   341
1005
2FF
1070
    40
1040
1.0
1070
    77
1070
     0
1002
}
  0
LWPOLYLINE
  5
5B58
330
1B
100
AcDbEntity
 67
     1
  8
DATA
100
AcDbPolyline
 90
        4
 70
     0
 43
0.0
 10
198.5212563652818
 20
84.0349351523071
 10
196.2817675195895
 20
84.0349351523071
 10
196.2817675195895
 20
87.76962774533926
 10
198.5212563652818
 20
87.76962774533926
  0
LEADER
  5
5B59
330
1B
100
AcDbEntity
 67
     1
  8
DATA
100
AcDbLeader
  3
STANDARD
 73
     0
 40
2.4
 41
1.12
 76
     2
 10
198.5212563652818
 20
75.91627098220971
 30
0.0
 10
194.0585233341862
 20
75.9113732298329
 30
0.0
213
0.5223718870505733
223
1.569878835913537
233
0.0
1001
ACAD
1000
DSTYLE
1002
{
1070
   176
1070
   256
1070
   341
1005
2FF
1070
    40
1040
1.0
1070
    77
1070
     0
1002
}
  0
MTEXT
  5
5B5A
102
{ACAD_REACTORS
330
5B59
102
}
330
1B
100
AcDbEntity
 67
     1
  8
DATA
100
AcDbMText
 10
187.9678393520829
 20
75.33537322503292
 30
0.0
 40
2.3999999904
 41
3.999999983999999
 71
     4
 72
     1
  1
{\W0.65;B}
  7
ROMANS
 73
     1
 44
1.0
1001
ACAD
1000
ACAD_MTEXT_DEFINED_HEIGHT_BEGIN
1070
    46
1040
0.0
1000
ACAD_MTEXT_DEFINED_HEIGHT_END
1000
MTEXTBEGIN
1070
    73
1070
     1
1070
    44
1040
1.0
1070
    74
1070
     0
1000
MTEXTEND
  0
MTEXT
  5
5B5B
102
{ACAD_REACTORS
330
5B5C
102
}
330
1B
100
AcDbEntity
 67
     1
  8
DATA
100
AcDbMText
 10
187.9678393520829
 20
80.0
 30
0.0
 40
2.3999999904
 41
3.999999983999999
 71
     4
 72
     1
  1
{\W0.65;A\\}
  7
ROMANS
 73
     1
 44
1.0
1001
ACAD
1000
ACAD_MTEXT_DEFINED_HEIGHT_BEGIN
1070
    46
1040
0.0
1000
ACAD_MTEXT_DEFINED_HEIGHT_END
1000
MTEXTBEGIN
1070
    73
1070
     1
1070
    44
1040
1.0
1070
    74
1070
     0
1000
MTEXTEND
  0
LEADER
  5
5B5C
330
1B
100
AcDbEntity
 67
     1
  8
DATA
100
AcDbLeader
  3
STANDARD
 73
     0
 40
3.657142857142857
 41
2.959999999999999
 76
     2
 10
198.5212563652818
 20
80.30027040862099
 30
0.0
 10
194.0585233341862
 20
80.30027040862099
 30
0.0
213
-1.511721092454882
223
1.199999995199999
233
0.0
1001
ACAD
1000
DSTYLE
1002
{
1070
   176
1070
   256
1070
   341
1005
2FF
1070
    40
1040
1.0
1070
    77
1070
     0
1002
}
  0
TEXT
  5
5B5D
330
1B
100
AcDbEntity
 67
     1
  8
DATA
100
AcDbText
 10
187.4326592825869
 20
96.07217071075226
 30
0.0
 40
2.3999999904
  1
UNIPOLAR
 41
0.65
  7
ROMANS
100
AcDbText
  0
MTEXT
  5
5B5E
102
{ACAD_REACTORS
330
5B5F
102
}
330
1B
100
AcDbEntity
 67
     1
  8
DATA
100
AcDbMText
 10
187.9678393520829
 20
90.93537322503292
 30
0.0
 40
2.3999999904
 41
3.999999983999999
 71
     4
 72
     1
  1
{\W0.65;A}
  7
ROMANS
 73
     1
 44
1.0
1001
ACAD
1000
ACAD_MTEXT_DEFINED_HEIGHT_BEGIN
1070
    46
1040
0.0
1000
ACAD_MTEXT_DEFINED_HEIGHT_END
1000
MTEXTBEGIN
1070
    73
1070
     1
1070
    44
1040
1.0
1070
    74
1070
     0
1000
MTEXTEND
  0
LEADER
  5
5B5F
330
1B
100
AcDbEntity
 67
     1
  8
DATA
100
AcDbLeader
  3
STANDARD
 73
     0
 40
2.4
 41
1.28
 76
     2
 10
198.5212563652818
 20
91.50432033837139
 30
0.0
 10
194.0585233341862
 20
91.50432033837141
 30
0.0
213
0.0
223
1.199999995199999
233
0.0
1001
ACAD
1000
DSTYLE
1002
{
1070
   176
1070
   256
1070
   341
1005
2FF
1070
    40
1040
1.0
1070
    77
1070
     0
1002
}
  0
LINE
  5
5B60
330
1B
100
AcDbEntity
 67
     1
  8
DATA
100
AcDbLine
 10
187.0371182736649
 20
62.48926618542802
 30
0.0
 11
251.6525238569329
 21
62.48926541916631
 31
0.0
  0
LINE
  5
5B61
330
1B
100
AcDbEntity
 67
     1
  8
DATA
100
AcDbLine
 10
272.9297000965773
 20
93.46217884026499
 30
0.0
 11
187.0371186909462
 21
93.46217885409036
 31
0.0
  0
LINE
  5
5B62
330
1B
100
AcDbEntity
 67
     1
  8
DATA
100
AcDbLine
 10
187.0371187962064
 20
101.2751659491758
 30
0.0
 11
187.0371182736649
 21
62.48926615927377
 31
0.0
  0
TEXT
  5
5B63
330
1B
100
AcDbEntity
 67
     1
  8
DATA
100
AcDbText
 10
201.0780111684432
 20
94.39303616246229
 30
0.0
 40
2.3999999904
  1
1WINDING
 41
0.65
  7
ROMANS
100
AcDbText
  0
LEADER
  5
5B64
330
1B
100
AcDbEntity
 67
     1
  8
DATA
100
AcDbLeader
  3
STANDARD
 73
     0
 40
2.4
 41
1.28
 76
     2
 10
211.0499140011421
 20
91.50431975897655
 30
0.0
 10
205.8616686614822
 20
91.50431998697557
 30
0.0
213
0.0
223
1.914289657710443
233
0.0
1001
ACAD
1000
DSTYLE
1002
{
1070
   176
1070
   256
1070
   341
1005
2FF
1070
    40
1040
1.0
1070
    77
1070
     0
1002
}
  0
MTEXT
  5
5B65
102
{ACAD_REACTORS
330
5B64
102
}
330
1B
100
AcDbEntity
 67
     1
  8
DATA
100
AcDbMText
 10
202.3678393520829
 20
88.64644644959085
 30
0.0
 40
2.3999999904
 41
3.999999983999999
 71
     7
 72
     1
  1
{\W0.65;A}
  7
ROMANS
 73
     1
 44
1.0
1001
ACAD
1000
ACAD_MTEXT_DEFINED_HEIGHT_BEGIN
1070
    46
1040
0.0
1000
ACAD_MTEXT_DEFINED_HEIGHT_END
1000
MTEXTBEGIN
1070
    73
1070
     1
1070
    44
1040
1.0
1070
    74
1070
     0
1000
MTEXTEND
  0
LEADER
  5
5B66
330
1B
100
AcDbEntity
 67
     1
  8
DATA
100
AcDbLeader
  3
STANDARD
 73
     0
 40
2.4
 41
1.12
 76
     2
 10
211.0499140011421
 20
75.91627098220971
 30
0.0
 10
205.8616686614822
 20
75.91627098220971
 30
0.0
213
0.0
223
2.284168849819812
233
0.0
1001
ACAD
1000
DSTYLE
1002
{
1070
   176
1070
   256
1070
   341
1005
2FF
1070
    40
1040
1.0
1070
    77
1070
     0
1002
}
  0
MTEXT
  5
5B67
102
{ACAD_REACTORS
330
5B66
102
}
330
1B
100
AcDbEntity
 67
     1
  8
DATA
100
AcDbMText
 10
202.3678393520829
 20
73.04644644959084
 30
0.0
 40
2.3999999904
 41
3.999999983999999
 71
     7
 72
     1
  1
{\W0.65;B}
  7
ROMANS
 73
     1
 44
1.0
1001
ACAD
1000
ACAD_MTEXT_DEFINED_HEIGHT_BEGIN
1070
    46
1040
0.0
1000
ACAD_MTEXT_DEFINED_HEIGHT_END
1000
MTEXTBEGIN
1070
    73
1070
     1
1070
    44
1040
1.0
1070
    74
1070
     0
1000
MTEXTEND
  0
LEADER
  5
5B68
330
1B
100
AcDbEntity
 67
     1
  8
DATA
100
AcDbLeader
  3
STANDARD
 73
     0
 40
3.657142857142857
 41
2.959999999999999
 76
     2
 10
211.0456686614821
 20
87.76962776889538
 30
0.0
 10
205.8616686614822
 20
87.76962799689437
 30
0.0
213
0.0
223
1.980003374946596
233
0.0
1001
ACAD
1000
DSTYLE
1002
{
1070
   176
1070
   256
1070
   341
1005
2FF
1070
    40
1040
1.0
1070
    77
1070
     0
1002
}
  0
LEADER
  5
5B69
330
1B
100
AcDbEntity
 67
     1
  8
DATA
100
AcDbLeader
  3
STANDARD
 73
     0
 40
3.657142857142857
 41
2.96
 76
     2
 10
211.0456686614821
 20
72.18157838858601
 30
0.0
 10
205.8616686614822
 20
72.18157838858601
 30
0.0
213
0.0
223
2.349882566464403
233
0.0
1001
ACAD
1000
DSTYLE
1002
{
1070
   176
1070
   256
1070
   341
1005
2FF
1070
    40
1040
1.0
1070
    77
1070
     0
1002
}
  0
TEXT
  5
5B6A
330
1B
100
AcDbEntity
 67
     1
  8
DATA
100
AcDbText
 10
243.0581207721744
 20
96.13965680667647
 30
0.0
 40
2.3999999904
  1
LEADS
 41
0.7
  7
ROMANS
100
AcDbText
  0
LINE
  5
5B6B
330
1B
100
AcDbEntity
 67
     1
  8
DATA
100
AcDbLine
 10
213.5526616130085
 20
97.57357169106072
 30
0.0
 11
213.5526615784283
 21
62.48926592201716
 31
0.0
  0
MLINE
  5
5B6C
330
1B
100
AcDbEntity
 67
     1
  8
DATA
100
AcDbMline
  2
STANDARD
340
18
 40
0.2999999987999999
 70
     0
 71
     1
 72
     2
 73
     2
 10
200.2948899730421
 20
101.2751658820296
 30
0.0
210
0.0
220
0.0
230
1.0
 11
200.2948899730421
 21
101.2751658820296
 31
0.0
 12
-1.347246216500632E-08
 22
-0.9999999999999998
 32
0.0
 13
1.0
 23
-1.347246250183506E-08
 33
0.0
 74
     2
 41
0.0
 41
0.0
 75
     0
 74
     2
 41
-0.2999999987999999
 41
0.0
 75
     0
 11
200.2948894505006
 21
62.48926612327778
 31
0.0
 12
-1.347246216500632E-08
 22
-0.9999999999999998
 32
0.0
 13
1.0
 23
-1.347246250183506E-08
 33
0.0
 74
     2
 41
0.0
 41
0.0
 75
     0
 74
     2
 41
-0.2999999987999999
 41
0.0
 75
     0
  0
MLINE
  5
5B6D
330
1B
100
AcDbEntity
 67
     1
  8
DATA
100
AcDbMline
  2
STANDARD
340
18
 40
0.2999999987999999
 70
     0
 71
     1
 72
     2
 73
     2
 10
240.0682038945516
 20
109.4436788175664
 30
0.0
210
0.0
220
0.0
230
1.0
 11
240.0682038945516
 21
109.4436788175664
 31
0.0
 12
-9.541281303597569E-09
 22
-1.0
 32
0.0
 13
1.0
 23
-9.541281787545617E-09
 33
0.0
 74
     2
 41
0.0
 41
0.0
 75
     0
 74
     2
 41
-0.2999999987999999
 41
0.0
 75
     0
 11
240.0682034465464
 21
62.4892656087997
 31
0.0
 12
-9.541281303597569E-09
 22
-1.0
 32
0.0
 13
1.0
 23
-9.541281787545617E-09
 33
0.0
 74
     2
 41
0.0
 41
0.0
 75
     0
 74
     2
 41
-0.2999999987999999
 41
0.0
 75
     0
  0
MLINE
  5
5B6E
330
1B
100
AcDbEntity
 67
     1
  8
DATA
100
AcDbMline
  2
STANDARD
340
18
 40
0.2999999987999999
 70
     0
 71
     1
 72
     2
 73
     2
 10
226.8104322921121
 20
97.57357168558456
 30
0.0
210
0.0
220
0.0
230
1.0
 11
226.8104322921121
 21
97.57357168558456
 31
0.0
 12
-1.033903164515749E-10
 22
-1.0
 32
0.0
 13
1.0
 23
-1.033904302233032E-10
 33
0.0
 74
     2
 41
0.0
 41
0.0
 75
     0
 74
     2
 41
-0.2999999987999999
 41
0.0
 75
     0
 11
226.8104322884847
 21
62.48926573258342
 31
0.0
 12
-1.033903164515749E-10
 22
-1.0
 32
0.0
 13
1.0
 23
-1.033904302233032E-10
 33
0.0
 74
     2
 41
0.0
 41
0.0
 75
     0
 74
     2
 41
-0.2999999987999999
 41
0.0
 75
     0
  0
MLINE
  5
5B6F
330
1B
100
AcDbEntity
 67
     1
  8
DATA
100
AcDbMline
  2
STANDARD
340
18
 40
0.2999999987999999
 70
     0
 71
     1
 72
     2
 73
     2
 10
213.5526616130085
 20
97.57357169106072
 30
0.0
210
0.0
220
0.0
230
1.0
 11
213.5526616130085
 21
97.57357169106072
 31
0.0
 12
-1.429013405962490E-08
 22
-0.9999999999999998
 32
0.0
 13
1.0
 23
-1.429013465404413E-08
 33
0.0
 74
     2
 41
0.0
 41
0.0
 75
     0
 74
     2
 41
-0.2999999987999999
 41
0.0
 75
     0
 11
213.5526611116491
 21
62.48926573395414
 31
0.0
 12
-1.429013405962490E-08
 22
-0.9999999999999998
 32
0.0
 13
1.0
 23
-1.429013465404413E-08
 33
0.0
 74
     2
 41
0.0
 41
0.0
 75
     0
 74
     2
 41
-0.2999999987999999
 41
0.0
 75
     0
  0
LWPOLYLINE
  5
5B70
330
1B
100
AcDbEntity
 67
     1
  8
DATA
100
AcDbPolyline
 90
        4
 70
     1
 43
0.0
 10
187.0371187962064
 20
101.2751661645556
 10
272.9297000965773
 20
101.2751661645556
 10
272.9278393520829
 20
109.4436787960245
 10
187.0318393520829
 20
109.4436787960245
  0
TEXT
  5
5B71
330
1B
100
AcDbEntity
 67
     1
  8
DATA
100
AcDbText
 10
195.1443115006735
 20
104.335588418594
 30
0.0
 40
2.3999999904
  1
TYPE OF CONNECTION (EXTERN)
 41
0.65
  7
ROMANS
100
AcDbText
  0
TEXT
  5
5B72
330
1B
100
AcDbEntity
 67
     1
  8
DATA
100
AcDbText
 10
255.1448183988473
 20
103.9407915476029
 30
0.0
 40
2.3999999904
  1
MOTOR
 41
0.65
  7
ROMANS
100
AcDbText
  0
LINE
  5
5B73
330
1B
100
AcDbEntity
 67
     1
  8
DATA
100
AcDbLine
 10
196.2817675195895
 20
85.64919162598474
 30
0.0
 11
194.0585233341862
 21
85.64919162598474
 31
0.0
  0
LINE
  5
5B74
330
1B
100
AcDbEntity
 67
     1
  8
DATA
100
AcDbLine
 10
196.091188628143
 20
70.16273504274941
 30
0.0
 11
194.0585233341862
 21
70.16273504274941
 31
0.0
  0
TEXT
  5
5B75
330
1B
100
AcDbEntity
 67
     1
  8
DATA
  6
HIDDEN
100
AcDbText
 10
187.9678393520829
 20
84.8000000048
 30
0.0
 40
2.399999990399999
  1
COM
 41
0.65
  7
ROMANS
 11
187.9678393520829
 21
86.0
 31
0.0
100
AcDbText
 73
     2
  0
TEXT
  5
5B76
330
1B
100
AcDbEntity
 67
     1
  8
DATA
  6
HIDDEN
100
AcDbText
 10
187.9678393520829
 20
68.80000000479999
 30
0.0
 40
2.399999990399999
  1
COM
 41
0.65
  7
ROMANS
 11
187.9678393520829
 21
70.0
 31
0.0
100
AcDbText
 73
     2
  0
MTEXT
  5
5B77
330
1B
100
AcDbEntity
 67
     1
  8
DATA
100
AcDbMText
 10
214.6923251228114
 20
63.09012448290359
 30
0.0
 40
2.3999999904
 41
3.999999983999999
 71
     7
 72
     1
  1
{\W0.65;B\\}
  7
ROMANS
 73
     1
 44
1.0
1001
ACAD
1000
ACAD_MTEXT_DEFINED_HEIGHT_BEGIN
1070
    46
1040
0.0
1000
ACAD_MTEXT_DEFINED_HEIGHT_END
1000
MTEXTBEGIN
1070
    73
1070
     1
1070
    44
1040
1.0
1070
    74
1070
     0
1000
MTEXTEND
  0
MTEXT
  5
5B78
330
1B
100
AcDbEntity
 67
     1
  8
DATA
100
AcDbMText
 10
214.6923251228114
 20
74.13537284793642
 30
0.0
 40
2.3999999904
 41
3.999999983999999
 71
     7
 72
     1
  1
{\W0.65;B}
  7
ROMANS
 73
     1
 44
1.0
1001
ACAD
1000
ACAD_MTEXT_DEFINED_HEIGHT_BEGIN
1070
    46
1040
0.0
1000
ACAD_MTEXT_DEFINED_HEIGHT_END
1000
MTEXTBEGIN
1070
    73
1070
     1
1070
    44
1040
1.0
1070
    74
1070
     0
1000
MTEXTEND
  0
MTEXT
  5
5B79
330
1B
100
AcDbEntity
 67
     1
  8
DATA
100
AcDbMText
 10
214.6923251228114
 20
80.0
 30
0.0
 40
2.3999999904
 41
3.999999983999999
 71
     4
 72
     1
  1
{\W0.65;A\\}
  7
ROMANS
 73
     1
 44
1.0
1001
ACAD
1000
ACAD_MTEXT_DEFINED_HEIGHT_BEGIN
1070
    46
1040
0.0
1000
ACAD_MTEXT_DEFINED_HEIGHT_END
1000
MTEXTBEGIN
1070
    73
1070
     1
1070
    44
1040
1.0
1070
    74
1070
     0
1000
MTEXTEND
  0
MTEXT
  5
5B7A
330
1B
100
AcDbEntity
 67
     1
  8
DATA
100
AcDbMText
 10
214.6923251228114
 20
89.73537284793643
 30
0.0
 40
2.3999999904
 41
3.999999983999999
 71
     7
 72
     1
  1
{\W0.65;A}
  7
ROMANS
 73
     1
 44
1.0
1001
ACAD
1000
ACAD_MTEXT_DEFINED_HEIGHT_BEGIN
1070
    46
1040
0.0
1000
ACAD_MTEXT_DEFINED_HEIGHT_END
1000
MTEXTBEGIN
1070
    73
1070
     1
1070
    44
1040
1.0
1070
    74
1070
     0
1000
MTEXTEND
  0
LEADER
  5
5B7B
330
1B
100
AcDbEntity
 67
     1
  8
DATA
100
AcDbLeader
  3
STANDARD
 73
     0
 40
2.4
 41
1.28
 76
     2
 10
236.8945014932091
 20
91.50431976451958
 30
0.0
 10
230.6962199634794
 20
91.50431976577753
 30
0.0
213
0.0
223
1.199999995199999
233
0.0
1001
ACAD
1000
DSTYLE
1002
{
1070
   176
1070
   256
1070
   341
1005
2FF
1070
    40
1040
1.0
1070
    77
1070
     0
1002
}
  0
LEADER
  5
5B7C
330
1B
100
AcDbEntity
 67
     1
  8
DATA
100
AcDbLeader
  3
STANDARD
 73
     0
 40
2.4
 41
1.28
 76
     2
 10
236.89450146365
 20
80.30026985094144
 30
0.0
 10
230.6962197318171
 20
80.30026985273911
 30
0.0
213
0.0
223
1.199999995199999
233
0.0
1001
ACAD
1000
DSTYLE
1002
{
1070
   176
1070
   256
1070
   341
1005
2FF
1070
    40
1040
1.0
1070
    77
1070
     0
1002
}
  0
LEADER
  5
5B7D
330
1B
100
AcDbEntity
 67
     1
  8
DATA
100
AcDbLeader
  3
STANDARD
 73
     0
 40
2.4
 41
1.28
 76
     2
 10
236.894501411661
 20
75.91627098668716
 30
0.0
 10
230.7659336690433
 20
75.91627098765811
 30
0.0
213
0.0
223
1.199999995199999
233
0.0
1001
ACAD
1000
DSTYLE
1002
{
1070
   176
1070
   256
1070
   341
1005
2FF
1070
    40
1040
1.0
1070
    77
1070
     0
1002
}
  0
LEADER
  5
5B7E
330
1B
100
AcDbEntity
 67
     1
  8
DATA
100
AcDbLeader
  3
STANDARD
 73
     0
 40
2.4
 41
1.28
 76
     2
 10
236.8945012787943
 20
64.71222107364877
 30
0.0
 10
230.7659334373811
 20
64.7122210746197
 30
0.0
213
0.0
223
1.199999995199999
233
0.0
1001
ACAD
1000
DSTYLE
1002
{
1070
   176
1070
   256
1070
   341
1005
2FF
1070
    40
1040
1.0
1070
    77
1070
     0
1002
}
  0
DIMENSION
  5
5B7F
330
1B
100
AcDbEntity
 67
     1
  8
AM_5
100
AcDbDimension
  2
*D8
 10
134.9011157408813
 20
75.86098729582364
 30
0.0
 11
129.6384631343548
 21
75.86098729582364
 31
0.0
 70
   160
  1
 
 71
     5
 42
10.525305213053
  3
STANDARD$0
100
AcDbAlignedDimension
 13
124.3758105278284
 23
75.86098729582362
 33
0.0
 14
134.9011157408813
 24
75.86098729582364
 34
0.0
100
AcDbRotatedDimension
1001
ACAD
1000
DSTYLE
1002
{
1070
    76
1070
     1
1070
    75
1070
     1
1070
    47
1040
0.2
1070
    48
1040
-0.2
1070
   272
1070
     0
1002
}
  0
LINE
  5
5B80
102
{ACAD_REACTORS
330
5B82
102
}
330
1B
100
AcDbEntity
 67
     1
  8
DATA
100
AcDbLine
 10
263.8438865435202
 20
83.20659535043896
 30
0.0
 11
263.8438865435202
 21
80.07059536298296
 31
0.0
  0
LINE
  5
5B81
102
{ACAD_REACTORS
330
5B82
102
}
330
1B
100
AcDbEntity
 67
     1
  8
DATA
100
AcDbLine
 10
265.1878865381441
 20
80.07059536298296
 30
0.0
 11
265.1878865381441
 21
83.20659535043896
 31
0.0
  0
HATCH
  5
5B82
330
1B
100
AcDbEntity
 67
     1
  8
DATA
100
AcDbHatch
 10
0.0
 20
0.0
 30
0.0
210
0.0
220
0.0
230
1.0
  2
SOLID
 70
     1
 71
     1
 91
        1
 92
        1
 93
        4
 72
     1
 10
265.1878865381441
 20
83.20659535043896
 11
263.8438865435202
 21
83.20659535043896
 72
     1
 10
263.8438865435202
 20
83.20659535043896
 11
263.8438865435202
 21
80.07059536298296
 72
     1
 10
263.8438865435202
 20
80.07059536298296
 11
265.1878865381441
 21
80.07059536298296
 72
     1
 10
265.1878865381441
 20
80.07059536298296
 11
265.1878865381441
 21
83.20659535043896
 97
        4
330
5B86
330
5B80
330
5B83
330
5B81
 75
     0
 76
     1
 98
        1
 10
160.8038869556802
 20
4.134595666726937
  0
LINE
  5
5B83
102
{ACAD_REACTORS
330
5B82
102
}
330
1B
100
AcDbEntity
 67
     1
  8
DATA
100
AcDbLine
 10
263.8438865435202
 20
80.07059536298296
 30
0.0
 11
265.1878865381441
 21
80.07059536298296
 31
0.0
  0
LINE
  5
5B84
330
1B
100
AcDbEntity
 67
     1
  8
DATA
100
AcDbLine
 10
264.5158863835992
 20
78.87059536298297
 30
0.0
 11
259.2460786730496
 21
78.87059536298297
 31
0.0
  0
LINE
  5
5B85
330
1B
100
AcDbEntity
 67
     1
  8
DATA
100
AcDbLine
 10
264.5158863170603
 20
80.07059536298298
 30
0.0
 11
264.5158863835992
 21
78.87059536298297
 31
0.0
  0
LINE
  5
5B86
102
{ACAD_REACTORS
330
5B82
102
}
330
1B
100
AcDbEntity
 67
     1
  8
DATA
100
AcDbLine
 10
265.1878865381441
 20
83.20659535043896
 30
0.0
 11
263.8438865435202
 21
83.20659535043896
 31
0.0
  0
LINE
  5
5B87
330
1B
100
AcDbEntity
 67
     1
  8
DATA
100
AcDbLine
 10
264.5158865293753
 20
84.40659535043893
 30
0.0
 11
259.2460788188258
 21
84.40659535043893
 31
0.0
  0
LINE
  5
5B88
330
1B
100
AcDbEntity
 67
     1
  8
DATA
100
AcDbLine
 10
264.5158865408321
 20
83.20659535043894
 30
0.0
 11
264.5158866306764
 21
84.40659535043893
 31
0.0
  0
MTEXT
  5
5B89
330
1B
100
AcDbEntity
 67
     1
  8
DATA
100
AcDbMText
 10
266.7563531239026
 20
78.69537332193397
 30
0.0
 40
2.3999999904
 41
3.999999983999999
 71
     7
 72
     1
  1
{\W0.65;A\\}
  7
ROMANS
 73
     1
 44
1.0
1001
ACAD
1000
ACAD_MTEXT_DEFINED_HEIGHT_BEGIN
1070
    46
1040
0.0
1000
ACAD_MTEXT_DEFINED_HEIGHT_END
1000
MTEXTBEGIN
1070
    73
1070
     1
1070
    44
1040
1.0
1070
    74
1070
     0
1000
MTEXTEND
  0
LINE
  5
5B8A
102
{ACAD_REACTORS
330
5B8C
102
}
330
1B
100
AcDbEntity
 67
     1
  8
DATA
100
AcDbLine
 10
263.8438865435202
 20
75.53312574539837
 30
0.0
 11
263.8438865435202
 21
72.39712575794236
 31
0.0
  0
LINE
  5
5B8B
102
{ACAD_REACTORS
330
5B8C
102
}
330
1B
100
AcDbEntity
 67
     1
  8
DATA
100
AcDbLine
 10
265.1878865381441
 20
72.39712575794236
 30
0.0
 11
265.1878865381441
 21
75.53312574539837
 31
0.0
  0
HATCH
  5
5B8C
330
1B
100
AcDbEntity
 67
     1
  8
DATA
100
AcDbHatch
 10
0.0
 20
0.0
 30
0.0
210
0.0
220
0.0
230
1.0
  2
SOLID
 70
     1
 71
     1
 91
        1
 92
        1
 93
        4
 72
     1
 10
265.1878865381441
 20
75.53312574539837
 11
263.8438865435202
 21
75.53312574539837
 72
     1
 10
263.8438865435202
 20
75.53312574539837
 11
263.8438865435202
 21
72.39712575794236
 72
     1
 10
263.8438865435202
 20
72.39712575794236
 11
265.1878865381441
 21
72.39712575794236
 72
     1
 10
265.1878865381441
 20
72.39712575794236
 11
265.1878865381441
 21
75.53312574539837
 97
        4
330
5B90
330
5B8A
330
5B8D
330
5B8B
 75
     0
 76
     1
 98
        1
 10
160.8038869556802
 20
-3.538873938313642
  0
LINE
  5
5B8D
102
{ACAD_REACTORS
330
5B8C
102
}
330
1B
100
AcDbEntity
 67
     1
  8
DATA
100
AcDbLine
 10
263.8438865435202
 20
72.39712575794236
 30
0.0
 11
265.1878865381441
 21
72.39712575794236
 31
0.0
  0
LINE
  5
5B8E
330
1B
100
AcDbEntity
 67
     1
  8
DATA
100
AcDbLine
 10
264.5158863835992
 20
71.19712575794238
 30
0.0
 11
259.2460786730496
 21
71.19712575794238
 31
0.0
  0
LINE
  5
5B8F
330
1B
100
AcDbEntity
 67
     1
  8
DATA
100
AcDbLine
 10
264.5158863170603
 20
72.39712575794237
 30
0.0
 11
264.5158863835992
 21
71.19712575794238
 31
0.0
  0
LINE
  5
5B90
102
{ACAD_REACTORS
330
5B8C
102
}
330
1B
100
AcDbEntity
 67
     1
  8
DATA
100
AcDbLine
 10
265.1878865381441
 20
75.53312574539837
 30
0.0
 11
263.8438865435202
 21
75.53312574539837
 31
0.0
  0
LINE
  5
5B91
330
1B
100
AcDbEntity
 67
     1
  8
DATA
100
AcDbLine
 10
264.5158865293753
 20
76.73312574539834
 30
0.0
 11
259.2460788188258
 21
76.73312574539834
 31
0.0
  0
LINE
  5
5B92
330
1B
100
AcDbEntity
 67
     1
  8
DATA
100
AcDbLine
 10
264.5158865408321
 20
75.53312574539837
 30
0.0
 11
264.5158866306764
 21
76.73312574539834
 31
0.0
  0
MTEXT
  5
5B93
330
1B
100
AcDbEntity
 67
     1
  8
DATA
100
AcDbMText
 10
266.7563531239026
 20
74.73537332193398
 30
0.0
 40
2.3999999904
 41
3.999999983999999
 71
     7
 72
     1
  1
{\W0.65;B}
  7
ROMANS
 73
     1
 44
1.0
1001
ACAD
1000
ACAD_MTEXT_DEFINED_HEIGHT_BEGIN
1070
    46
1040
0.0
1000
ACAD_MTEXT_DEFINED_HEIGHT_END
1000
MTEXTBEGIN
1070
    73
1070
     1
1070
    44
1040
1.0
1070
    74
1070
     0
1000
MTEXTEND
  0
LINE
  5
5B94
102
{ACAD_REACTORS
330
5B96
102
}
330
1B
100
AcDbEntity
 67
     1
  8
DATA
100
AcDbLine
 10
263.8438865128547
 20
67.72013876715077
 30
0.0
 11
263.8438865128547
 21
64.58413877969475
 31
0.0
  0
LINE
  5
5B95
102
{ACAD_REACTORS
330
5B96
102
}
330
1B
100
AcDbEntity
 67
     1
  8
DATA
100
AcDbLine
 10
265.1878865074786
 20
64.58413877969475
 30
0.0
 11
265.1878865074786
 21
67.72013876715077
 31
0.0
  0
HATCH
  5
5B96
330
1B
100
AcDbEntity
 67
     1
  8
DATA
100
AcDbHatch
 10
0.0
 20
0.0
 30
0.0
210
0.0
220
0.0
230
1.0
  2
SOLID
 70
     1
 71
     1
 91
        1
 92
        1
 93
        4
 72
     1
 10
265.1878865074786
 20
67.72013876715077
 11
263.8438865128547
 21
67.72013876715077
 72
     1
 10
263.8438865128547
 20
67.72013876715077
 11
263.8438865128547
 21
64.58413877969475
 72
     1
 10
263.8438865128547
 20
64.58413877969475
 11
265.1878865074786
 21
64.58413877969475
 72
     1
 10
265.1878865074786
 20
64.58413877969475
 11
265.1878865074786
 21
67.72013876715077
 97
        4
330
5B9A
330
5B94
330
5B97
330
5B95
 75
     0
 76
     1
 98
        1
 10
160.8038869250147
 20
-11.35186091656125
  0
LINE
  5
5B97
102
{ACAD_REACTORS
330
5B96
102
}
330
1B
100
AcDbEntity
 67
     1
  8
DATA
100
AcDbLine
 10
263.8438865128547
 20
64.58413877969475
 30
0.0
 11
265.1878865074786
 21
64.58413877969475
 31
0.0
  0
LINE
  5
5B98
330
1B
100
AcDbEntity
 67
     1
  8
DATA
100
AcDbLine
 10
264.5158863529338
 20
63.38413877969478
 30
0.0
 11
259.2460786423842
 21
63.38413877969478
 31
0.0
  0
LINE
  5
5B99
330
1B
100
AcDbEntity
 67
     1
  8
DATA
100
AcDbLine
 10
264.5158862863949
 20
64.58413877969476
 30
0.0
 11
264.5158863529338
 21
63.38413877969478
 31
0.0
  0
LINE
  5
5B9A
102
{ACAD_REACTORS
330
5B96
102
}
330
1B
100
AcDbEntity
 67
     1
  8
DATA
100
AcDbLine
 10
265.1878865074786
 20
67.72013876715077
 30
0.0
 11
263.8438865128547
 21
67.72013876715077
 31
0.0
  0
LINE
  5
5B9B
330
1B
100
AcDbEntity
 67
     1
  8
DATA
100
AcDbLine
 10
264.5158864987099
 20
68.92013876715073
 30
0.0
 11
259.2460787881603
 21
68.92013876715073
 31
0.0
  0
LINE
  5
5B9C
330
1B
100
AcDbEntity
 67
     1
  8
DATA
100
AcDbLine
 10
264.5158865101667
 20
67.72013876715075
 30
0.0
 11
264.515886600011
 21
68.92013876715073
 31
0.0
  0
MTEXT
  5
5B9D
330
1B
100
AcDbEntity
 67
     1
  8
DATA
100
AcDbMText
 10
266.7563530932371
 20
63.13137332193398
 30
0.0
 40
2.3999999904
 41
3.999999983999999
 71
     7
 72
     1
  1
{\W0.65;B\\}
  7
ROMANS
 73
     1
 44
1.0
1001
ACAD
1000
ACAD_MTEXT_DEFINED_HEIGHT_BEGIN
1070
    46
1040
0.0
1000
ACAD_MTEXT_DEFINED_HEIGHT_END
1000
MTEXTBEGIN
1070
    73
1070
     1
1070
    44
1040
1.0
1070
    74
1070
     0
1000
MTEXTEND
  0
TEXT
  5
5C58
330
1B
100
AcDbEntity
 67
     1
  8
DATA
100
AcDbText
 10
175.6829051118027
 20
7.348353290222588
 30
0.0
 40
3.0
  1
J.W.
  7
ITALICT
100
AcDbText
  0
TEXT
  5
5CEB
330
1B
100
AcDbEntity
 67
     1
  8
DATA
100
AcDbText
 10
174.0
 20
38.0
 30
0.0
 40
2.4
  1
63
 41
0.7
  7
ROMANS
100
AcDbText
  0
TEXT
  5
5CEC
330
1B
100
AcDbEntity
 67
     1
  8
DATA
100
AcDbText
 10
159.0
 20
38.0
 30
0.0
 40
2.4
  1
112
 41
0.7
  7
ROMANS
100
AcDbText
  0
TEXT
  5
5CED
330
1B
100
AcDbEntity
 67
     1
  8
DATA
100
AcDbText
 10
167.0
 20
38.0
 30
0.0
 40
2.4
  1
85
 41
0.7
  7
ROMANS
100
AcDbText
  0
TEXT
  5
5CEE
330
1B
100
AcDbEntity
 67
     1
  8
DATA
100
AcDbText
 10
152.0
 20
38.0
 30
0.0
 40
2.4
  1
163
 41
0.7
  7
ROMANS
100
AcDbText
  0
MTEXT
  5
5CEF
330
1B
100
AcDbEntity
 67
     1
  8
DATA
100
AcDbMText
 10
158.4983559025127
 20
50.13711884239956
 30
0.0
 40
2.399999999999999
 41
110.0
 71
     1
 72
     5
  1
{\W0.7;F\H0.8333x;a\H1.2x;=14}
  7
ROMANS
 73
     1
 44
1.0
1001
ACAD
1000
ACAD_MTEXT_DEFINED_HEIGHT_BEGIN
1070
    46
1040
0.0
1000
ACAD_MTEXT_DEFINED_HEIGHT_END
1000
MTEXTBEGIN
1070
    73
1070
     1
1070
    44
1040
1.0
1070
    74
1070
     0
1000
MTEXTEND
  0
TEXT
  5
7E81
330
1B
100
AcDbEntity
 67
     1
  8
DATA
100
AcDbText
 10
189.4634543457442
 20
17.99783189794697
 30
0.0
 40
2.509907399999999
  1
16.01.07
 41
0.7
  7
ROMANS
100
AcDbText
  0
TEXT
  5
7E82
330
1B
100
AcDbEntity
 67
     1
  8
DATA
100
AcDbText
 10
175.6829051118027
 20
17.80503007064305
 30
0.0
 40
3.0
  1
S.Ha.
  7
ITALICT
100
AcDbText
  0
ENDSEC
  0
SECTION
  2
OBJECTS
  0
DICTIONARY
  5
C
330
0
100
AcDbDictionary
281
     1
  3
ACAD_COLOR
350
BE
  3
ACAD_GROUP
350
D
  3
ACAD_LAYOUT
350
1A
  3
ACAD_MATERIAL
350
BD
  3
ACAD_MLINESTYLE
350
17
  3
ACAD_PLOTSETTINGS
350
19
  3
ACAD_PLOTSTYLENAME
350
E
  3
ACAD_TABLESTYLE
350
11A
  3
AcadDim
350
2E5B
  3
ACDBHEADERROUNDTRIPXREC
350
7F24
  3
AcDbVariableDictionary
350
94
  3
AcmDictionary
350
5B
  3
AMG
350
41
  3
AMGSNAPSETTINGS
350
26B
  3
DWGPROPS
350
7F23
  0
DICTIONARY
  5
2F5
330
2
100
AcDbDictionary
280
     1
281
     1
  3
ACAD_LAYERSTATES
360
2F6
  0
DICTIONARY
  5
8F
330
1F
100
AcDbDictionary
280
     1
281
     1
  3
ACAD_SORTENTS
360
4FF8
  0
DICTIONARY
  5
2D9F
330
1B
100
AcDbDictionary
280
     1
281
     1
  3
ACAD_SORTENTS
360
2DA0
  0
DICTIONARY
  5
128A
330
125D
100
AcDbDictionary
280
     1
281
     1
  0
DICTIONARY
  5
2CC2
330
2CC0
100
AcDbDictionary
280
     1
281
     1
  0
DICTIONARY
  5
72B9
330
72AC
100
AcDbDictionary
280
     1
281
     1
  3
ACAD_DIMASSOC
360
72BA
  0
DICTIONARY
  5
72F5
330
72E8
100
AcDbDictionary
280
     1
281
     1
  3
ACAD_DIMASSOC
360
72F6
  0
DICTIONARY
  5
7C17
330
7C0A
100
AcDbDictionary
280
     1
281
     1
  3
ACAD_DIMASSOC
360
7C18
  0
DICTIONARY
  5
7C85
330
7C78
100
AcDbDictionary
280
     1
281
     1
  3
ACAD_DIMASSOC
360
7C86
  0
DICTIONARY
  5
7CB1
330
7CA2
100
AcDbDictionary
280
     1
281
     1
  3
ACAD_DIMASSOC
360
7CB2
  0
DICTIONARY
  5
7F28
330
2D8
100
AcDbDictionary
280
     1
281
     1
  3
ACAD_XREC_ROUNDTRIP
360
7F29
  0
DICTIONARY
  5
7F2A
330
1E55
100
AcDbDictionary
280
     1
281
     1
  3
ACAD_XREC_ROUNDTRIP
360
7F2B
  0
DICTIONARY
  5
BE
102
{ACAD_REACTORS
330
C
102
}
330
C
100
AcDbDictionary
281
     1
  0
DICTIONARY
  5
D
102
{ACAD_REACTORS
330
C
102
}
330
C
100
AcDbDictionary
281
     1
  0
DICTIONARY
  5
1A
102
{ACAD_REACTORS
330
C
102
}
330
C
100
AcDbDictionary
281
     1
  3
Layout1
350
1E
  3
Model
350
22
  0
DICTIONARY
  5
BD
102
{ACAD_REACTORS
330
C
102
}
330
C
100
AcDbDictionary
281
     1
  0
DICTIONARY
  5
17
102
{ACAD_REACTORS
330
C
102
}
330
C
100
AcDbDictionary
281
     1
  3
Standard
350
18
  0
DICTIONARY
  5
19
102
{ACAD_REACTORS
330
C
102
}
330
C
100
AcDbDictionary
281
     1
  0
ACDBDICTIONARYWDFLT
  5
E
102
{ACAD_REACTORS
330
C
102
}
330
C
100
AcDbDictionary
281
     1
  3
Normal
350
F
100
AcDbDictionaryWithDefault
340
F
  0
DICTIONARY
  5
11A
102
{ACAD_REACTORS
330
C
102
}
330
C
100
AcDbDictionary
281
     1
  3
Standard
350
11B
  0
XRECORD
  5
2E5B
102
{ACAD_REACTORS
330
C
102
}
330
C
100
AcDbXrecord
280
     1
 90
   990106
  3

 60
     0
 61
     0
 62
     1
 63
     3
 64
     0
 65
     0
 66
     0
 67
     3
 68
     1
 69
     0
 70
     0
 71
     0
 72
     0
 40
0.0
170
     0
340
2E0B
  0
DICTIONARY
  5
7F24
102
{ACAD_REACTORS
330
C
102
}
330
C
100
AcDbDictionary
281
     1
  0
DICTIONARY
  5
94
102
{ACAD_REACTORS
330
C
102
}
330
C
100
AcDbDictionary
281
     1
  3
CTABLESTYLE
350
138
  3
DIMASSOC
350
96
  3
INDEXCTL
350
95
  3
PROJECTNAME
350
1B03
  0
DICTIONARY
  5
5B
102
{ACAD_REACTORS
330
C
102
}
330
C
100
AcDbDictionary
281
     1
  3
AcmBOM
350
272
  3
AcmStdDictionary
350
61
  3
AMDTSECTSYM_ARROWCOLOR
350
123
  0
DICTIONARY
  5
41
102
{ACAD_REACTORS
330
C
102
}
330
C
100
AcDbDictionary
281
     1
  0
DICTIONARY
  5
26B
102
{ACAD_REACTORS
330
C
102
}
330
C
100
AcDbDictionary
281
     1
  0
XRECORD
  5
7F23
102
{ACAD_REACTORS
330
C
102
}
330
C
100
AcDbXrecord
280
     1
  1
DWGPROPS COOKIE
  2

  3

  4

  6

  7

  8

  9

300
AmdtFileType=84
301
=
302
=
303
=
304
=
305
=
306
=
307
=
308
=
309
=
 40
1.500276412037036
 41
2453787.394483275
 42
2454130.502397998
  1

 90
        1
  0
DICTIONARY
  5
2F6
102
{ACAD_REACTORS
330
2F5
102
}
330
2F5
100
AcDbDictionary
281
     1
  0
SORTENTSTABLE
  5
4FF8
102
{ACAD_REACTORS
330
8F
102
}
330
8F
100
AcDbSortentsTable
330
1F
331
13FA
  5
13FA
  0
SORTENTSTABLE
  5
2DA0
102
{ACAD_REACTORS
330
2D9F
102
}
330
2D9F
100
AcDbSortentsTable
330
1B
331
19E8
  5
19E8
331
19F0
  5
19F0
331
129A
  5
129A
331
1A00
  5
1A00
331
12A2
  5
12A2
331
19C1
  5
19C1
331
1A21
  5
1A21
331
2D97
  5
2D97
331
1A08
  5
1A08
331
12AA
  5
12AA
331
19C9
  5
19C9
331
1A10
  5
1A10
331
12B2
  5
12B2
331
19D1
  5
19D1
331
1A18
  5
1A18
331
12BA
  5
12BA
331
19E1
  5
19E1
331
2D70
  5
2D70
331
19E9
  5
19E9
331
19F1
  5
19F1
331
19F9
  5
19F9
331
129B
  5
129B
331
1A01
  5
1A01
331
12A3
  5
12A3
331
19C2
  5
19C2
331
1A22
  5
1A22
331
2D98
  5
2D98
331
1A6A
  5
1A6A
331
1A09
  5
1A09
331
12AB
  5
12AB
331
1A11
  5
1A11
331
12B3
  5
12B3
331
19D2
  5
19D2
331
1A19
  5
1A19
331
19E2
  5
19E2
331
2D71
  5
2D71
331
19EA
  5
19EA
331
19F2
  5
19F2
331
1294
  5
1294
331
19FA
  5
19FA
331
129C
  5
129C
331
19BB
  5
19BB
331
1A02
  5
1A02
331
12A4
  5
12A4
331
1A23
  5
1A23
331
2D99
  5
2D9A
331
2DA1
  5
2DA2
331
1A0A
  5
1A0A
331
12AC
  5
12AC
331
12B4
  5
12B4
331
1A1A
  5
1A1A
331
19E3
  5
19E3
331
2D72
  5
2D72
331
19EB
  5
19EB
331
19FB
  5
19FB
331
129D
  5
129D
331
19C4
  5
19C4
331
12A5
  5
12A5
331
1A03
  5
1A03
331
2D9A
  5
2DA1
331
2DA2
  5
2D9E
331
2CCB
  5
2CCB
331
1A0B
  5
1A0B
331
12AD
  5
12AD
331
12B5
  5
12B5
331
1A13
  5
1A13
331
19DC
  5
19DC
331
1A1B
  5
1A1B
331
19E4
  5
19E4
331
2CEB
  5
2CEB
331
2D8
  5
2D8
331
19EC
  5
19EC
331
1296
  5
1296
331
19F4
  5
19F4
331
129E
  5
129E
331
19BD
  5
19BD
331
12A6
  5
12A6
331
19C5
  5
19C5
331
1A04
  5
1A04
331
12AE
  5
12AE
331
1A0C
  5
1A0C
331
12B6
  5
12B6
331
19D5
  5
19D5
331
1A14
  5
1A14
331
19DD
  5
19DD
331
1A1C
  5
1A1C
331
19E5
  5
19E5
331
1E55
  5
1E55
331
19ED
  5
19ED
331
1297
  5
1297
331
19FD
  5
19FD
331
129F
  5
129F
331
1A05
  5
1A05
331
12A7
  5
12A7
331
19C6
  5
19C6
331
2D94
  5
2D94
331
1A0D
  5
1A0D
331
12AF
  5
12AF
331
1A15
  5
1A15
331
12B7
  5
12B7
331
19D6
  5
19D6
331
1A1D
  5
1A1D
331
19DE
  5
19DE
331
19E6
  5
19E6
331
2D6D
  5
2D6D
331
1290
  5
1290
331
19EE
  5
19EE
331
19F6
  5
19F6
331
12A0
  5
12A0
331
19BF
  5
19BF
331
1A06
  5
1A06
331
19C7
  5
19C7
331
2D95
  5
2D95
331
2CB6
  5
2CB6
331
12A8
  5
12A8
331
1A0E
  5
1A0E
331
12B0
  5
12B0
331
1A16
  5
1A16
331
12B8
  5
12B8
331
1A1E
  5
1A1E
331
19DF
  5
19DF
331
19E7
  5
19E7
331
1708
  5
1708
331
1291
  5
1291
331
19EF
  5
19EF
331
19F7
  5
19F7
331
1299
  5
1299
331
19FF
  5
19FF
331
19C0
  5
19C0
331
1A07
  5
1A07
331
2CB7
  5
2CB7
331
2D96
  5
2D96
331
2D9E
  5
2D99
331
2CBF
  5
2CBF
331
12A9
  5
12A9
331
19C8
  5
19C8
331
1A0F
  5
1A0F
331
12B1
  5
12B1
331
1A17
  5
1A17
331
19D8
  5
19D8
331
1A1F
  5
1A1F
331
19E0
  5
19E0
  0
DIMASSOC
  5
72BA
102
{ACAD_REACTORS
330
72B9
102
}
330
72B9
100
AcDbDimAssoc
330
72AC
 90
        3
 70
     0
 71
     0
  1
AcDbOsnapPointRef
 72
    13
331
661C
 73
     0
 91
        0
 40
0.0
 10
0.0
 20
0.0
 30
2.000000000000000E+50
 75
     0
  1
AcDbOsnapPointRef
 72
    13
331
6663
 73
     0
 91
        0
 40
0.0
 10
0.0
 20
0.0
 30
2.000000000000000E+50
 75
     0
  0
DIMASSOC
  5
72F6
102
{ACAD_REACTORS
330
72F5
102
}
330
72F5
100
AcDbDimAssoc
330
72E8
 90
        3
 70
     0
 71
     0
  1
AcDbOsnapPointRef
 72
     1
331
65D3
 73
     0
 91
        0
 40
0.0
 10
0.0
 20
0.0
 30
2.000000000000000E+50
 75
     0
  1
AcDbOsnapPointRef
 72
    13
331
6665
 73
     0
 91
        0
 40
0.0
 10
0.0
 20
0.0
 30
2.000000000000000E+50
 75
     0
  0
DIMASSOC
  5
7C18
102
{ACAD_REACTORS
330
7C17
102
}
330
7C17
100
AcDbDimAssoc
330
7C0A
 90
        3
 70
     0
 71
     0
  1
AcDbOsnapPointRef
 72
     1
331
7B47
 73
     0
 91
        0
 40
0.0
 10
0.0
 20
0.0
 30
2.000000000000000E+50
 75
     0
  1
AcDbOsnapPointRef
 72
     1
331
7B4B
 73
     0
 91
        0
 40
0.0
 10
0.0
 20
0.0
 30
2.000000000000000E+50
 75
     0
  0
DIMASSOC
  5
7C86
102
{ACAD_REACTORS
330
7C85
102
}
330
7C85
100
AcDbDimAssoc
330
7C78
 90
        2
 70
     0
 71
     0
  1
AcDbOsnapPointRef
 72
     1
331
65CA
 73
     0
 91
        0
 40
0.0
 10
0.0
 20
0.0
 30
2.000000000000000E+50
 75
     0
  0
DIMASSOC
  5
7CB2
102
{ACAD_REACTORS
330
7CB1
102
}
330
7CB1
100
AcDbDimAssoc
330
7CA2
 90
        1
 70
     0
 71
     0
  1
AcDbOsnapPointRef
 72
     1
331
65C7
 73
     0
 91
        0
 40
0.0
 10
0.0
 20
0.0
 30
2.000000000000000E+50
 75
     0
  0
XRECORD
  5
7F29
102
{ACAD_REACTORS
330
7F28
102
}
330
7F28
100
AcDbXrecord
280
     1
102
SHADEPLOT
 70
     0
  0
XRECORD
  5
7F2B
102
{ACAD_REACTORS
330
7F2A
102
}
330
7F2A
100
AcDbXrecord
280
     1
102
SHADEPLOT
 70
     0
  0
LAYOUT
  5
1E
102
{ACAD_XDICTIONARY
360
2F8
102
}
102
{ACAD_REACTORS
330
1A
102
}
330
1A
100
AcDbPlotSettings
  1

  2
Win2PDF.pc3
  4
A4
  6

 40
3.174999952316284
 41
3.174999952316284
 42
3.17498779296875
 43
3.175003051757812
 44
296.989501953125
 45
209.9944915771484
 46
4.281918756031529
 47
3.795869728399964
 48
0.0
 49
0.0
140
0.0
141
0.0
142
1.0
143
1.0
 70
   692
 72
     1
 73
     0
 74
     1
  7
monochrome.ctb
 75
    16
147
1.0
148
0.0132047132058233
149
0.001063177497258
100
AcDbLayout
  1
Layout1
 70
     1
 71
     1
 10
-7.470123421553637
 20
-6.971932858213506
 11
289.5193785315714
 21
203.0225587189349
 12
0.0
 22
0.0
 32
0.0
 14
-0.0018808509735209
 24
-0.0090717929824109
 34
-0.0000000349181948
 15
282.0511373439566
 25
196.0436773232919
 35
0.0000000814935746
146
0.0
 13
0.0
 23
0.0
 33
0.0
 16
1.0
 26
0.0
 36
0.0
 17
0.0
 27
1.0
 37
0.0
 76
     0
330
1B
331
2D8
1001
ACAD_PSEXT
1000
Win2PDF.pc3
1000
Win2PDF
1000
PDFFILE:
1000

1070
     0
  0
LAYOUT
  5
22
102
{ACAD_XDICTIONARY
360
7F26
102
}
102
{ACAD_REACTORS
330
1A
102
}
330
1A
100
AcDbPlotSettings
  1

  2
\\pallas\ColorLaserJet Büro
  4
A4
  6

 40
6.805083274841308
 41
5.027085304260253
 42
6.805084228515625
 43
5.027069091796875
 44
209.9733276367187
 45
296.9683227539062
 46
0.0
 47
0.0
 48
0.0
 49
0.0
140
0.0
141
0.0
142
1.0
143
1.82975238375777
 70
 11952
 72
     1
 73
     1
 74
     0
  7

 75
     0
147
0.5465220370126233
148
-1003.732693658126
149
-531.8054935907698
100
AcDbLayout
  1
Model
 70
     1
 71
     0
 10
0.0
 20
0.0
 11
12.0
 21
9.0
 12
0.0
 22
0.0
 32
0.0
 14
0.0
 24
0.0
 34
0.0
 15
0.0
 25
0.0
 35
0.0
146
0.0
 13
0.0
 23
0.0
 33
0.0
 16
1.0
 26
0.0
 36
0.0
 17
0.0
 27
1.0
 37
0.0
 76
     0
330
1F
1001
ACAD_PSEXT
1000
\\pallas\ColorLaserJet Büro
1000
HP Color LaserJet 4550 PCL
1000
Serverraum
1000
HP ColorLaserJet 4550N
1070
     0
  0
MLINESTYLE
  5
18
102
{ACAD_REACTORS
330
17
102
}
330
17
100
AcDbMlineStyle
  2
STANDARD
 70
     0
  3

 62
   256
 51
90.0
 52
90.0
 71
     2
 49
0.5
 62
   256
  6
BYLAYER
 49
-0.5
 62
   256
  6
BYLAYER
  0
ACDBPLACEHOLDER
  5
F
102
{ACAD_REACTORS
330
E
102
}
330
E
  0
TABLESTYLE
  5
11B
102
{ACAD_REACTORS
330
11A
102
}
330
11A
100
AcDbTableStyle
  3
Standard
 70
     0
 71
     0
 40
1.5
 41
1.5
280
     0
281
     0
  7
STANDARD
140
4.5
170
     2
 62
     0
 63
     7
283
     0
274
    -2
284
     1
 64
     0
275
    -2
285
     1
 65
     0
276
    -2
286
     1
 66
     0
277
    -2
287
     1
 67
     0
278
    -2
288
     1
 68
     0
279
    -2
289
     1
 69
     0
  7
STANDARD
140
6.0
170
     5
 62
     0
 63
     7
283
     0
274
    -2
284
     1
 64
     0
275
    -2
285
     1
 65
     0
276
    -2
286
     1
 66
     0
277
    -2
287
     1
 67
     0
278
    -2
288
     1
 68
     0
279
    -2
289
     1
 69
     0
  7
STANDARD
140
4.5
170
     5
 62
     0
 63
     7
283
     0
274
    -2
284
     1
 64
     0
275
    -2
285
     1
 65
     0
276
    -2
286
     1
 66
     0
277
    -2
287
     1
 67
     0
278
    -2
288
     1
 68
     0
279
    -2
289
     1
 69
     0
  0
DICTIONARYVAR
  5
138
102
{ACAD_REACTORS
330
94
102
}
330
94
100
DictionaryVariables
280
     0
  1
STANDARD
  0
DICTIONARYVAR
  5
96
102
{ACAD_REACTORS
330
94
102
}
330
94
100
DictionaryVariables
280
     0
  1
2
  0
DICTIONARYVAR
  5
95
102
{ACAD_REACTORS
330
94
102
}
330
94
100
DictionaryVariables
280
     0
  1
0
  0
DICTIONARYVAR
  5
1B03
102
{ACAD_REACTORS
330
94
102
}
330
94
100
DictionaryVariables
280
     0
  1

  0
DICTIONARY
  5
272
102
{ACAD_REACTORS
330
5B
102
}
330
5B
100
AcDbDictionary
281
     1
  0
DICTIONARY
  5
61
102
{ACAD_REACTORS
330
5B
102
}
330
5B
100
AcDbDictionary
281
     1
  0
XRECORD
  5
123
102
{ACAD_REACTORS
330
5B
102
}
330
5B
100
AcDbXrecord
280
     1
 90
-1023410169
  0
DICTIONARY
  5
2F8
330
1E
100
AcDbDictionary
280
     1
281
     1
  3
ACAD_XREC_ROUNDTRIP
360
7F25
  3
ADSK_XREC_LAYOUTTHUMBNAIL
360
2F9
  0
DICTIONARY
  5
7F26
330
22
100
AcDbDictionary
280
     1
281
     1
  3
ACAD_XREC_ROUNDTRIP
360
7F27
  0
XRECORD
  5
7F25
102
{ACAD_REACTORS
330
2F8
102
}
330
2F8
100
AcDbXrecord
280
     1
102
SHADEPLOT
 70
     0
102
SHADEPLOTRESLEVEL
 70
     2
102
SHADEPLOTCUSTOMDPI
 70
   300
  0
XRECORD
  5
2F9
102
{ACAD_REACTORS
330
2F8
102
}
330
2F8
100
AcDbXrecord
280
     1
310
28000000B40000007F00000001000800000000004C590000000000000000000000010000000000000000000000000000FFFFFF000000000000000000000000000000000000000000000000000000000000000000330000006600000099000000CC000000FF00000000330000333300006633000099330000CC330000FF3300
310
0000660000336600006666000099660000CC660000FF66000000990000339900006699000099990000CC990000FF99000000CC000033CC000066CC000099CC0000CCCC0000FFCC000000FF000033FF000066FF000099FF0000CCFF0000FFFF000000003300330033006600330099003300CC003300FF003300003333003333
310
33006633330099333300CC333300FF33330000663300336633006666330099663300CC663300FF66330000993300339933006699330099993300CC993300FF99330000CC330033CC330066CC330099CC3300CCCC3300FFCC330000FF330033FF330066FF330099FF3300CCFF3300FFFF330000006600330066006600660099
310
006600CC006600FF00660000336600333366006633660099336600CC336600FF33660000666600336666006666660099666600CC666600FF66660000996600339966006699660099996600CC996600FF99660000CC660033CC660066CC660099CC6600CCCC6600FFCC660000FF660033FF660066FF660099FF6600CCFF6600
310
FFFF660000009900330099006600990099009900CC009900FF00990000339900333399006633990099339900CC339900FF33990000669900336699006666990099669900CC669900FF66990000999900339999006699990099999900CC999900FF99990000CC990033CC990066CC990099CC9900CCCC9900FFCC990000FF99
310
0033FF990066FF990099FF9900CCFF9900FFFF99000000CC003300CC006600CC009900CC00CC00CC00FF00CC000033CC003333CC006633CC009933CC00CC33CC00FF33CC000066CC003366CC006666CC009966CC00CC66CC00FF66CC000099CC003399CC006699CC009999CC00CC99CC00FF99CC0000CCCC0033CCCC0066CC
310
CC0099CCCC00CCCCCC00FFCCCC0000FFCC0033FFCC0066FFCC0099FFCC00CCFFCC00FFFFCC000000FF003300FF006600FF009900FF00CC00FF00FF00FF000033FF003333FF006633FF009933FF00CC33FF00FF33FF000066FF003366FF006666FF009966FF00CC66FF00FF66FF000099FF003399FF006699FF009999FF00CC
310
99FF00FF99FF0000CCFF0033CCFF0066CCFF0099CCFF00CCCCFF00FFCCFF0000FFFF0033FFFF0066FFFF0099FFFF00CCFFFF00FFFFFF00000000000D0D0D001A1A1A00282828003535350043434300505050005D5D5D006B6B6B00787878008686860093939300A1A1A100AEAEAE00BBBBBB00C9C9C900D6D6D600E4E4E400
310
F1F1F100FFFFFF0000000000000000000000000000000000000000000000000000000000000000000000000000000000F5F5F5F5F5F5F5F5F5F5F5F5F5F5F5F5F5F5F5F5F5F5F5F5F5F5F5F5F5F5F5F5F5F5F5F5F5F5F5F5F5F5F5F5F5F5F5F5F5F5F5F5F5F5F5F5F5F5F5F5F5F5F5F5F5F5F5F5F5F5F5F5F5F5F5F5F5F5F5
310
F5F5F5F5F5F5F5F5F5F5F5F5F5F5F5F5F5F5F5F5F5F5F5F5F5F5F5F5F5F5F5F5F5F5F5F5F5F5F5F5F5F5F5F5F5F5F5F5F5F5F5F5F5F5F5F5F5F5F5F5F5F5F5F5F5F5F5F5F5F5F5F5F5F5F5F5F5F5F5F5F5F5F5F5F5F5F5F5F5F5F5F5F5F5F5F5F5F5F5F5F5F5E2E2E2E2E2E2E2E2E2E2E2E2E2E2E2E2E2E2E2E2E2E2E2E2E2
310
E2E2E2E2E2E2E2E2E2E2E2E2E2E2E2E2E2E2E2E2E2E2E2E2E2E2E2E2E2E2E2E2E2E2E2E2E2E2E2E2E2E2E2E2E2E2E2E2E2E2E2E2E2E2E2E2E2E2E2E2E2E2E2E2E2E2E2E2E2E2E2E2E2E2E2E2E2E2E2E2E2E2E2E2E2E2E2E2E2E2E2E2E2E2E2E2E2E2E2E2E2E2E2E2E2E2E2E2E2E2E2E2E2E2E2E2E2E2E2E2E2E2E2E2E2E2E2
310
E2E2E2E2E2E2E2E2E2E2E2E2E2E2E2E2E2E2E2E2E2E2E2E2E2F5F5F5E2F5F5F5F5F5F5F5F5E2E2E2E2E2E2E2E2E2F5F5F5F5F5F5F5F5F5F5F5F5F5F5F5F5E2E2E2E2E2E2E2E2E2F5F5F5F5F5F5F5F5F5F5F5F5F5F5F5F5E2E2E2E2E2E2E2E2E2F5F5F5F5F5F5F5F5F5F5F5F5F5F5F5F5E2E2E2E2E2E2E2E2E2F5F5F5F5F5F5
310
F5F5F5F5F5F5F5F5F5F5E2E2E2E2E2E2E2E2E2F5F5F5F5F5F5F5F5F5F5F5F5F5F5F5F5E2E2E2E2E2E2E2E2E2F5F5F5F5F5F5F5F5F5F5F5F5F5F5F5F5E2E2E2E2E2E2E2E2E2F5F5F5F5F5F5F5F5E2F5F5F5E2F5E2E2E2E2E2E2E2E2E2E2E2E2E2E2E2E2E2E2E2E2E2E2E2E2E2E2E2E2E2E2E2E2E2E2E2E2E2E2E2E2E2E2E2E2
310
E2E2E2E2E2E2E2E2E2E2E2E2E2E2E2E2E2E2E2E2E2E2E2E2E2E2E2E2E2E2E2E2E2E2E2E2E2E2E2E2E2E2E2E2E2E2E2E2E2E2E2E2E2E2E2E2E2E2E2E2E2E2E2E2E2E2E2E2E2E2E2E2E2E2E2E2E2E2E2E2E2E2E2E2E2E2E2E2E2E2E2E2E2E2E2E2E2E2E2E2E2E2E2E2E2E2E2E2E2E2E2E2E2E2E2E2E2E2E2E2E2E2E2E2E2E2E2
310
E2E2F5E2F5F5F5E2F5E2E2BEBEBEBEBEBEBEBEBEBEBEBEBEBEBEBEBEBEBEBEBEBEBEBEBEBEBEBEBEBEBEBEBEBEBEBEBEBEBEBEBEBEBEBEBEBEBEBEBEBEBEBEBEBEBEBEBEBEBEBEBEBEBEBEBEBEBEBEBEBEBEBEBEBEBEBEBEBEBEBEBEBEBEBEBEBEBEBEBEBEBEBEBEBEBEBEBEBEBEBEBEBEBEBEBEBEBEBEBEBEBEBEBEBEBEBE
310
BEBEBEBEBEBEBEBEBEBEBEBEBEBEBEBEBEBEBEBEBEBEBEBEBEBEBEBEBEBEBEBEBEBEBEBEBEBEBEBEBEBEBEBEBEBEBEBEBEBEBEBEBEE2E2F5E2F5F5F5E2F5E2E2BEE2E2E2E2E2C3E2E2E2E2E2E2E2E2E2E2E2E2E2E2E2E2E2E2E2E2E2E2E2C3E2E2E2E2E2E2E2E2E2E2E2E2C3E2E2E2E2E2E2E2C3E2E2E2E2E2E2E2E2E2E2E2
310
E2E2E2E2E2E2E2E2E2E2E2E2E2E2E2E2E2E2E2E2E2C3E2E2E2E2E2E2E2E2E2E2E2C3C3E2E2E2E2E2E2E2E2E2E2E2E2E2E2E2C3E2E2E2E2E2E2E2E2E2C3E2E2E2E2E2E2E2E2E2E2E2E2E2E2E2E2E2E2E2E2E2E2E2E2E2E2E2E2E2E2E2E2E2E2E2E2E2E2E2E2E2E2E2E2BEE2E2F5E2F5F5F5E2F5E2E2BEE2C3C3C3E2C3E2C3C3
310
C3C3C3C3C3C3C3C3C3C3E2E2E2E2E2E2E2E2E2E2C3E2C3C3C3C3C3E2E2E2E2E2E2C3C3C3C3C3C3E2E2C3E2E2E2E2E2E2E2E2E2E2E2E2E2E2E2E2E2E2E2E2E2E2E2E2E2E2E2E2E2E2E2E2C3C3C3C3C3C3E2E2C3C3C3C3C3C3E2C3C3C3C3C3C3C3C3C3C3C3E2E2E2C3E2E2C3C3C3C3C3E2E2C3E2E2E2E2E2E2E2E2E2C3C3C3C3
310
C3C3C3C3C3C3C3C3C3C3C3C3C3E2E2E2E2E2E2E2E2E2E2E2E2E2E2E2E2E2E2BEE2E2F5E2F5F5F5E2F5E2E2BEE2C3C3C3C3C3E2C3C3C3C3C3C3C3C3C3C3C3C3E2E2E2E2E2E2E2E2E2E2C3E2C3C3C3C3C3E2E2E2E2E2E2C3C3C3C3C3C3E2E2C3E2E2E2E2E2C3C3E2C3C3C3C3C3C3C3C3C3C3C3C3C3E2E2E2E2E2E2E2E2E2E2E2
310
C3C3C3C3C3C3E2E2E2C3C3C3C3C3E2C3C3C3C3C3C3C3C3C3C3C3E2E2E2C3E2E2C3C3C3C3C3E2E2C3E2E2E2E2E2E2E2E2E2C3C3C3C3C3C3C3C3C3C3E2C3C3C3C3C3C3E2E2E2E2E2E2E2E2E2E2E2E2E2E2E2E2E2E2BEE2E2F5E2F5F5F5E2F5E2E2BEC3C3C3C3C3C3C3C3C3C3C3C3C3C3C3C3C3C3C3C3C3C3C3C3C3C3C3C3C3C3
310
C3C3C3C3C3C3C3C3C3C3C3C3C3C3C3C3C3C3C3C3C3E2E2E2E2E2C3C3C3C3C3C3C3C3C3C3C3C3C3C3C3C3E2E2E2E2E2E2E2E2E2E2E2C3C3C3C3E2E2E2E2C3C3C3C3C3C3C3C3C3C3C3C3C3C3C3C3C3C3C3C3C3C3C3C3C3C3C3C3C3C3C3C3E2E2E2E2E2E2E2E2E2C3C3C3C3C3C3C3C3C3C3E2C3C3C3C3C3C3E2E2E2E2E2E2E2E2
310
E2E2E2E2E2E2E2E2E2E2BEE2E2F5E2F5F5F5E2F5E2E2BEE2E2E2E2E2C3E2E2E2E2E2E2E2E2E2E2E2E2E2E2E2E2E2E2E2E2E2E2E2C3E2E2E2E2E2E2E2E2E2E2E2E2C3E2E2E2E2E2E2E2C3E2E2E2E2E2C3C3C3C3C3C3C3C3C3C3C3C3C3C3C3C3E2E2E2E2E2E2E2E2E2E2E2C3C3C3C3E2E2E2E2C3C3C3C3C3C3C3C3C3C3E2C3E2
310
C3C3C3C3C3C3E2E2C3C3C3C3C3C3C3C3E2E2C3C3C3C3C3C3C3E2E2E2E2E2E2E2E2E2E2E2E2E2E2E2E2E2E2E2E2E2E2E2E2E2E2E2E2E2E2E2E2E2E2E2E2E2E2BEE2E2F5E2F5F5F5E2E2E2E2BEE2E2E2E2E2C3E2E2E2E2E2E2E2E2E2E2E2E2E2E2E2E2E2E2E2E2E2E2E2C3E2E2E2E2E2E2E2E2E2E2E2E2C3E2E2E2E2E2E2E2C3
310
E2E2E2E2E2C3C3C3C3C3E2C3C3C3C3C3C3C3C3E2C3E2E2E2E2E2E2E2E2E2E2E2C3C3C3C3E2E2E2E2C3C3C3C3C3C3C3C3C3C3E2C3E2E2C3E2C3C3E2E2E2C3C3C3C3C3C3C3C3E2E2C3C3C3C3C3C3C3C3E2E2E2E2E2E2E2E2E2E2E2E2E2E2E2E2E2E2E2E2E2E2E2E2E2E2E2E2E2E2E2E2E2E2E2E2E2BEE2E2E2E2F5F5F5E2E2E2
310
E2BEC3C3C3C3C3C3C3C3C3C3C3C3C3C3C3C3C3C3C3C3C3C3C3C3C3C3C3C3C3C3C3C3C3C3C3C3C3C3C3C3C3C3C3C3C3C3C3C3C3C3C3E2E2E2E2E2E2E2E2E2E2E2E2E2E2E2E2E2E2E2E2E2E2E2E2E2E2E2E2E2E2E2E2C3C3C3C3E2E2E2E2C3C3C3C3C3C3C3C3C3C3C3C3C3C3C3C3C3C3C3C3C3C3C3C3C3C3C3C3C3C3C3C3C3C3
310
C3C3C3C3C3E2E2E2E2E2E2E2E2E2E2E2E2E2E2E2E2E2E2E2E2E2E2E2E2E2E2E2E2E2E2E2E2E2E2E2E2E2BEE2E2E2E2F5F5F5E2E2E2E2BEE2E2E2E2E2C3E2E2E2E2E2E2E2E2E2E2E2E2E2E2E2E2E2E2E2E2E2E2E2C3E2E2E2E2E2E2E2E2E2E2E2E2C3E2E2E2E2E2E2E2C3E2E2E2E2E2E2E2E2E2E2E2E2E2E2E2E2E2E2E2E2E2
310
E2E2E2E2E2E2E2E2E2E2E2C3C3C3E2E2E2E2E2C3C3C3C3C3C3C3C3C3C3C3C3E2E2E2E2E2E2E2E2E2C3E2E2E2E2E2E2E2E2E2C3C3C3C3C3C3C3C3C3C3C3C3C3C3C3C3C3C3C3C3C3C3C3C3C3C3C3C3C3C3C3C3C3C3C3C3C3C3C3C3C3C3C3C3C3BEE2E2E2E2F5F5F5E2E2E2E2BEE2E2E2E2E2C3E2E2E2E2E2E2E2E2E2E2E2E2E2
310
E2E2E2E2E2E2E2E2E2E2C3E2E2E2E2E2E2E2E2E2E2E2E2C3E2E2E2E2E2E2E2C3E2E2E2E2E2E2E2E2E2E2E2E2E2E2E2E2E2E2E2E2E2E2E2E2E2E2E2E2E2E2E2E2C3C3C3E2E2E2E2E2E2C3C3C3C3C3C3C3C3C3C3C3E2E2E2E2E2E2E2E2E2C3E2E2E2E2E2E2E2E2E2C3E2E2C3C3C3C3C3C3C3E2C3C3C3C3C3C3C3E2C3C3C3C3E2
310
C3E2C3C3C3C3E2E2E2E2E2E2E2E2E2E2E2E2E2E2E2BEE2E2E2E2F5F5F5E2E2E2E2BEC3C3C3C3C3C3C3C3C3C3C3C3C3C3C3C3C3C3C3C3C3C3C3C3C3C3C3C3C3C3C3C3C3C3C3C3C3C3C3C3C3C3C3C3C3C3C3C3C3C3C3E2C3C3C3C3C3C3C3C3C3C3E2E2E2E2E2E2E2E2E2E2E2E2E2E2E2E2E2E2E2E2E2C3C3C3C3C3C3C3C3C3C3
310
C3C3C3C3C3C3C3C3C3C3C3C3C3C3C3C3C3C3C3C3C3C3C3C3C3C3C3C3C3C3E2E2C3C3C3C3C3C3C3E2C3E2C3C3C3C3C3E2E2C3C3C3C3C3E2C3C3C3C3E2E2E2E2E2E2E2E2E2E2E2E2E2E2E2BEE2E2E2E2F5F5F5E2E2E2E2BEE2E2E2E2E2C3E2E2E2E2E2E2E2E2E2E2E2E2E2E2E2E2E2E2E2E2E2E2E2C3E2E2E2E2E2E2E2E2E2E2
310
E2E2C3E2E2E2E2E2E2E2C3E2C3C3C3C3C3C3C3C3C3C3E2E2E2E2E2E2E2E2E2E2E2E2E2E2E2E2E2E2E2E2E2C3E2C3C3C3C3C3E2C3C3C3C3C3C3C3C3C3C3C3C3E2C3C3C3C3C3C3C3C3C3C3C3C3C3C3C3E2E2E2C3E2E2C3C3C3C3C3C3C3C3C3C3C3C3C3C3C3E2E2C3C3C3C3C3C3C3C3C3C3E2E2E2E2E2E2E2E2E2E2E2E2E2E2E2
310
BEE2E2E2E2F5F5F5E2E2E2E2BEE2E2E2E2E2C3E2E2E2E2E2E2E2E2E2E2E2E2E2E2E2E2E2E2E2E2E2E2E2C3E2E2E2E2E2E2E2E2E2E2E2E2C3E2E2E2E2E2E2E2C3E2C3C3C3C3C3C3C3C3C3E2E2E2E2E2E2E2E2E2E2E2E2E2E2E2E2E2E2E2E2E2E2C3E2C3C3C3C3C3E2C3C3C3C3C3C3C3C3C3C3C3C3E2C3C3E2C3C3C3C3E2C3C3
310
C3C3C3C3C3C3E2E2C3E2E2E2C3C3C3C3C3C3C3C3C3C3C3C3C3C3E2E2C3C3C3C3C3C3C3C3C3C3E2E2E2E2E2E2E2E2E2E2E2E2E2E2E2BEE2E2E2E2F5F5F5E2E2E2E2BEBEBEBEBEBEBEBEBEBEBEBEBEBEBEBEBEBEBEBEBEBEBEBEBEBEBEBEBEBEBEBEBEBEBEBEBEBEBEBEBEBEBEBEBEBEBEBEBEBEBEBEBEBEBEBEBEBEBEBEBEBE
310
BEBEBEBEBEBEBEBEBEBEBEBEBEBEBEBEBEBEBEBEBEBEBEBEBEBEBEBEBEBEBEBEBEBEBEBEBEBEBEBEBEBEBEC3C3BEC3C3C3BEBEC3C3C3C3C3C3C3C3BEBEBEBEBEBEBEBEBEBEBEBEBEBEBEBEBEBEBEBEBEBEBEBEBEBEBEBEBEBEBEBEBEBEBEBEBEBEBEBEBEBEBEBEBEBEBEBEE2E2E2E2F5F5F5E2E2E2E2BEC3C3C3C3C3C3C3C3
310
C3C3C3C3C3C3E2C3C3C3C3C3C3C3C3C3C3C3C3C3C3C3C3C3C3C3C3C3C3C3C3C3E2E2E2E2E2E2E2E2E2E2E2E2E2E2E2E2E2E2E2E2E2E2E2E2E2E2E2E2E2E2BEE2C3C3C3C3C3C3C3C3C3C3C3E2C3C3E2E2BEE2E2C3C3E2E2E2E2BEE2C3C3C3E2E2E2E2BEE2E2E2E2E2E2E2E2E2E2E2E2E2E2E2E2E2E2E2E2E2E2E2E2E2E2E2E2
310
E2E2E2E2E2E2E2E2E2E2E2E2E2E2E2E2E2E2E2C3C3C3E2E2E2E2E2E2E2E2E2E2BEE2E2E2E2F5F5F5E2F5E2E2BEC3C3C3C3C3C3C3C3C3C3C3C3C3C3E2C3C3C3C3C3C3C3C3C3C3C3C3C3C3C3C3C3C3C3C3C3C3C3C3C3E2E2E2E2E2E2E2E2E2E2E2E2E2E2E2E2E2E2E2E2E2E2E2E2E2E2E2E2E2E2BEE2C3C3C3C3C3C3C3C3C3C3
310
C3E2C3C3C3E2BEE2E2C3C3E2E2E2E2BEE2C3C3C3E2E2E2E2BEE2E2E2E2E2E2E2E2E2E2E2E2E2E2E2E2E2E2E2E2E2E2E2E2E2E2E2E2E2E2E2E2E2E2E2E2E2E2E2E2E2E2E2E2E2E2E2C3C3C3E2E2E2E2E2E2E2E2E2E2BEE2E2F5E2F5F5F5E2F5E2E2BEC3C3C3C3C3C3C3C3C3C3C3C3C3C3C3C3C3C3C3C3C3C3C3BEC3C3C3C3C3
310
C3C3C3C3C3C3C3C3C3C3BEBEBEBEBEBEBEBEBEBEBEBEBEBEBEBEBEBEBEBEBEBEBEBEBEBEBEBEBEBEBEBEBEC3C3C3C3C3C3C3C3C3C3C3BEC3C3BEBEBEBEBEBEBEBEBEBEBEBEBEBEBEBEBEBEBEBEBEE2E2E2C3C3C3C3C3C3C3C3C3C3C3C3C3C3C3C3C3C3C3C3C3C3C3C3C3C3C3C3C3C3C3C3C3E2E2E2E2E2E2E2E2E2E2E2E2C3
310
C3E2E2C3C3C3C3C3C3E2E2BEE2E2F5E2F5F5F5E2F5E2E2BEC3C3C3C3C3C3C3C3E2C3C3C3C3C3C3C3E2C3C3C3C3C3E2C3C3C3E2C3C3C3C3C3C3C3C3C3C3C3C3E2C3C3C3C3C3C3C3C3E2C3C3C3C3C3C3C3C3C3C3C3E2C3C3C3C3C3C3C3C3C3BEE2C3C3C3C3C3C3C3C3C3E2C3C3C3C3C3E2BEE2C3C3C3C3C3E2E2BEE2C3C3C3C3
310
C3E2E2BEE2E2E2C3E2C3C3E2C3E2C3C3E2C3E2C3C3E2C3E2C3C3E2C3C3C3E2C3C3C3C3C3E2E2E2C3E2E2E2E2E2E2E2E2E2E2E2E2C3C3E2E2C3C3C3C3C3E2E2E2BEE2E2F5E2F5F5F5E2F5E2E2BEC3C3C3C3C3C3C3C3E2C3C3C3C3C3C3C3E2C3C3C3C3C3E2C3C3C3C3C3C3C3C3E2C3C3C3C3C3C3C3E2C3C3C3C3C3C3C3C3E2C3
310
C3C3C3E2C3C3C3C3C3C3E2C3C3C3C3C3C3C3C3C3BEE2C3C3C3C3C3C3C3C3C3E2C3C3C3C3C3E2BEE2C3C3C3C3C3E2E2BEE2C3C3C3C3C3E2E2BEE2E2E2C3E2E2C3E2C3E2E2C3E2C3E2E2E2E2C3E2E2E2E2C3E2C3E2C3C3C3C3C3E2E2E2C3E2E2E2E2E2E2E2E2E2E2E2E2C3C3E2E2C3C3C3C3C3C3E2E2BEE2E2F5E2F5F5F5E2F5
310
E2E2BEBEBEBEBEBEBEBEBEBEBEBEBEBEBEBEBEBEBEBEBEBEBEBEBEBEBEBEBEBEBEBEBEBEBEBEBEBEBEBEBEBEBEBEBEBEBEBEBEBEBEBEBEBEBEBEBEBEBEBEBEBEBEBEBEBEBEBEBEBEBEBEBEBEBEBEBEBEBEBEBEBEBEBEBEBEC3BEBEBEBEBEBEBEBEBEBEBEBEBEBEBEBEBEBEBEBEBEE2E2E2C3C3C3C3C3C3C3C3C3C3C3C3C3C3
310
C3C3C3C3C3C3C3C3C3C3C3E2E2E2C3E2E2E2C3E2E2E2E2E2E2E2E2E2E2E2C3C3C3E2C3C3C3C3C3C3E2E2E2BEE2E2F5E2F5F5F5E2F5E2E2BEC3C3C3C3C3C3C3C3C3E2C3C3C3C3C3C3C3C3C3C3C3C3C3C3C3C3C3E2E2E2E2E2E2E2E2E2E2E2E2E2E2E2E2E2E2E2E2E2E2E2E2E2E2E2E2E2E2E2E2E2E2E2E2E2E2E2E2E2E2E2BE
310
E2E2E2E2E2E2E2E2E2BEBEBEBEBEBEE2E2BEE2E2C3C3C3C3C3E2BEE2C3C3C3C3C3C3E2BEE2E2E2C3E2E2C3E2C3E2C3C3E2C3E2C3C3E2C3E2C3C3E2C3C3C3E2C3E2C3E2C3E2C3E2C3E2E2E2E2E2E2E2E2E2E2E2E2C3C3E2C3C3C3C3C3C3E2E2E2BEE2E2F5E2F5F5F5E2F5E2E2BEC3C3C3C3C3C3C3C3C3C3C3C3C3C3C3C3C3C3
310
C3C3C3C3C3C3C3C3C3E2E2E2E2E2E2E2E2E2E2E2E2E2E2E2E2E2E2E2E2E2E2E2E2E2E2E2E2E2E2E2E2E2E2E2E2E2E2E2E2E2E2E2BEE2E2E2BEBEBEBEBEBEE2E2E2E2E2E2E2E2BEE2E2C3C3C3C3E2E2BEE2C3C3C3C3C3E2E2BEE2E2E2C3E2E2C3E2C3E2E2E2E2C3E2E2E2E2C3E2C3E2E2C3E2C3E2C3E2C3E2C3E2C3E2C3E2E2
310
E2E2E2E2E2E2E2E2E2E2C3C3E2C3C3C3C3C3C3E2E2E2BEE2E2F5E2F5F5F5E2F5E2E2BEBEBEBEBEBEBEBEBEBEBEBEBEBEBEBEBEBEBEBEBEBEBEBEBEBEBEBEBEBEBEBEBEBEBEBEBEBEBEBEBEBEBEBEBEBEBEBEBEBEBEBEBEBEBEBEBEBEBEBEBEBEBEBEBEBEBEBEBEBEBEBEBEBEBEBEBEBEBEBEBEBEBEBEBEBEBEBEBEBEBEBEBE
310
BEBEBEBEBEBEBEBEBEBEBEBEBEBEBEE2E2E2C3C3C3C3C3C3C3C3C3C3C3C3C3C3C3C3C3C3C3C3C3C3C3C3C3E2C3E2C3E2C3E2C3E2E2E2E2E2E2E2E2E2E2E2E2C3C3E2C3C3C3E2E2C3E2E2E2BEE2E2F5E2F5F5F5E2F5E2E2BEC3C3C3C3C3C3C3C3C3E2C3C3C3C3C3C3C3C3C3E2C3C3C3C3C3C3C3C3E2C3C3C3C3C3C3C3C3C3C3
310
C3C3C3E2C3C3C3C3C3C3C3C3C3C3C3C3C3C3E2C3C3C3C3C3C3C3E2E2E2E2E2BEC3C3C3C3C3C3C3C3C3C3C3C3C3C3E2C3C3BEE2C3C3C3BEC3C3C3BEE2C3C3E2BEC3C3E2BEE2E2E2C3E2E2C3E2C3E2C3C3E2C3E2C3C3E2C3E2C3C3E2C3E2C3E2C3E2C3E2C3E2C3E2C3E2E2E2E2E2E2E2E2E2E2E2E2C3E2E2E2C3C3E2E2C3E2E2
310
E2BEE2E2F5E2F5F5F5E2F5E2E2BEC3C3C3C3C3C3C3C3C3E2C3C3C3C3C3C3C3C3C3C3C3C3C3C3C3C3C3C3E2C3C3C3C3C3C3C3C3C3C3C3C3C3E2C3C3C3C3C3C3C3C3C3C3E2C3C3C3E2C3C3C3C3C3C3C3E2E2E2E2E2BEC3C3C3C3C3C3C3C3C3C3C3C3C3C3E2C3C3BEE2C3C3C3BEC3C3C3BEE2C3C3E2BEC3C3E2BEE2E2E2C3E2E2
310
C3E2C3E2E2E2E2C3E2C3E2E2C3E2C3E2E2C3E2E2E2C3E2C3E2C3E2C3E2C3E2E2E2E2E2E2E2E2E2E2E2E2C3E2E2E2C3C3E2E2C3E2E2E2BEE2E2F5E2F5F5F5E2F5E2E2BEBEBEBEBEBEBEBEBEBEBEBEBEBEBEBEBEBEBEBEBEBEBEBEBEBEBEBEBEBEBEBEBEBEBEBEBEBEBEBEBEBEBEBEBEBEBEBEBEBEBEBEBEBEBEBEBEBEBEBEBE
310
BEBEBEBEBEBEBEBEBEBEBEBEBEBEBEBEBEBEBEBEBEBEBEBEBEBEBEBEBEBEC3C3C3BEC3C3C3BEBEC3C3BEBEC3C3BEBEE2E2E2C3C3C3C3C3C3C3C3C3C3C3C3C3C3C3C3C3C3C3C3C3C3C3C3C3E2C3E2C3E2C3E2C3E2E2E2C3C3C3C3C3C3E2E2E2C3C3C3C3C3C3C3C3C3E2E2E2BEE2E2F5E2F5F5F5E2F5E2E2BEC3C3C3C3C3C3C3
310
C3C3C3C3C3C3C3C3C3C3C3E2E2C3C3E2E2C3C3C3C3E2C3C3C3C3E2E2E2C3C3C3C3C3E2E2E2E2E2E2E2E2E2E2E2E2E2E2E2E2E2E2E2E2E2E2E2E2E2E2E2E2E2BEC3C3C3C3C3C3C3C3C3C3E2C3C3C3C3C3E2BEE2C3E2E2BEC3C3E2BEE2C3C3E2BEC3C3E2BEE2E2E2C3E2E2C3E2C3E2C3C3E2C3E2C3C3E2C3E2C3C3E2C3E2C3E2
310
C3E2C3E2C3E2C3E2C3E2E2E2C3C3C3C3C3C3C3C3C3C3E2E2E2C3E2E2E2E2E2E2E2BEE2E2F5E2F5F5F5E2F5E2E2BEC3C3C3C3C3C3C3C3C3C3C3C3C3C3C3C3C3C3E2C3C3C3C3C3C3C3C3C3E2C3C3C3C3E2C3E2C3C3C3C3C3E2E2E2E2E2E2E2E2E2E2E2E2E2E2E2E2E2E2E2E2E2E2E2E2E2E2E2E2E2BEC3C3C3C3C3C3C3C3C3C3
310
E2C3C3C3C3C3E2BEE2C3E2E2BEC3C3E2BEE2C3C3E2BEC3C3E2BEE2E2E2C3E2E2C3E2C3E2E2C3E2C3E2C3E2E2C3E2E2E2E2C3E2E2E2C3E2C3E2C3E2C3E2C3E2E2E2E2E2E2E2E2E2E2E2C3C3E2E2C3E2C3C3E2E2E2E2E2BEE2E2F5E2F5F5F5E2F5E2E2BEBEBEBEBEBEBEBEBEBEBEBEBEBEBEBEBEBEBEBEBEBEBEBEBEBEBEBEBE
310
BEBEBEBEBEBEBEBEBEBEBEBEBEBEBEBEBEBEBEBEBEBEBEBEBEBEBEBEBEBEBEBEBEBEBEBEBEBEBEBEBEBEBEBEBEBEBEBEBEBEBEBEBEBEBEBEBEBEBEBEBEBEBEBEBEBEBEBEBEBEBEBEBEBEBEBEBEBEBEE2E2E2C3C3C3C3C3C3C3C3C3C3C3C3C3C3C3C3C3C3C3C3C3C3C3C3C3E2E2E2C3C3C3C3C3E2E2C3C3C3C3C3C3C3E2E2C3
310
C3E2C3E2E2E2E2C3E2E2E2E2BEE2E2F5E2F5F5F5E2F5E2E2BEC3C3C3C3C3C3C3C3C3C3C3C3C3C3C3C3C3C3C3C3C3C3C3C3C3C3C3C3C3C3E2C3C3C3C3C3C3C3C3C3E2C3C3C3C3C3C3C3C3C3C3C3C3C3C3C3C3C3C3C3C3E2E2E2E2E2E2E2E2E2BEC3C3C3C3C3C3C3C3C3C3C3C3C3E2C3C3C3BEE2E2E2E2C3C3C3C3C3C3E2E2E2
310
E2E2E2E2BEE2E2E2C3C3C3C3C3C3E2C3C3E2C3E2C3C3E2C3C3C3C3E2C3C3C3C3C3E2E2E2C3C3C3C3C3E2E2C3C3C3C3C3C3C3C3C3C3C3C3E2E2E2E2E2E2C3E2E2E2BEE2E2F5E2F5F5F5E2F5E2E2BEC3C3C3C3C3C3C3C3C3C3C3C3C3C3C3C3C3C3C3C3C3C3C3C3C3C3C3C3C3C3E2C3C3C3C3C3C3C3C3C3E2C3C3C3C3C3C3C3C3
310
C3C3C3C3C3C3C3C3C3C3C3C3C3E2E2E2E2E2E2E2E2BEC3C3C3C3C3C3C3C3C3C3C3C3C3E2C3C3C3BEE2E2E2E2C3C3C3C3C3C3E2E2E2E2E2E2E2BEE2E2E2C3C3C3C3C3C3C3C3C3C3C3C3C3C3C3C3C3C3C3C3C3C3C3C3C3C3C3C3C3C3C3C3C3E2E2E2E2E2E2C3C3C3C3C3C3C3E2C3E2E2E2E2E2C3E2E2E2BEE2E2F5E2F5F5F5E2
310
E2E2E2BEBEBEBEBEBEBEBEBEBEBEBEBEBEBEBEBEBEBEBEBEBEBEBEBEBEBEBEBEBEBEBEBEBEBEBEBEBEBEBEBEBEBEBEBEBEBEBEBEBEBEBEBEBEBEBEBEBEBEBEBEBEBEBEBEBEBEBEBEBEBEBEBEBEBEBEBEBEBEBEBEBEBEBEBEBEBEBEBEBEBEBEBEBEBEBEBEBEBEBEBEBEBEBEBEBEBEBEE2E2E2E2C3C3C3C3C3E2C3C3C3C3C3C3
310
E2C3C3C3C3C3C3C3C3C3E2C3C3C3C3C3C3C3C3E2E2E2E2E2E2E2C3C3C3E2E2C3C3E2C3E2E2E2E2C3E2E2E2E2BEE2E2E2E2F5F5F5E2E2E2E2BEC3C3C3C3C3C3C3C3C3C3E2C3C3C3E2E2E2E2E2E2E2E2E2E2E2E2E2E2E2BEE2E2E2E2E2E2E2E2E2E2E2C3C3C3C3C3C3C3C3C3E2E2E2E2E2E2E2E2E2E2E2E2E2E2E2E2E2E2E2E2
310
BEE2E2E2E2E2E2E2E2E2E2E2E2E2E2E2E2E2E2E2E2E2E2E2E2E2E2E2E2E2E2E2E2E2E2E2BEE2E2E2E2C3C3C3C3C3E2C3C3C3C3C3C3E2C3C3C3C3C3C3C3C3C3E2C3C3C3C3C3E2C3C3E2E2C3C3E2E2C3E2E2E2E2E2C3C3E2E2C3E2E2C3E2E2E2E2E2BEE2E2E2E2F5F5F5E2E2E2E2BEC3C3C3C3C3C3C3C3C3C3E2C3C3C3E2E2E2
310
E2E2E2E2E2E2E2E2E2E2E2E2BEE2E2E2E2E2E2E2E2E2E2E2C3C3C3C3C3C3C3C3C3E2E2E2E2E2E2E2E2E2E2E2E2E2E2E2E2E2E2E2E2BEE2E2E2E2E2E2E2E2E2E2E228E2E2E2E2E228E2E2E2E2E2E2E2E2E2E2E2E2E2E2E2E2E2BEE2E2E2E2C3C3C3C3C3E2C3C3C3C3C3C3E2C3C3C3C3C3C3C3C3C3E2C3C3C3C3C3C3C3C3E2E2
310
C3C3C3C3C3C3C3C3C3E2C3C3E2E2E2C3C3E2E2E2E2E2E2BEE2E2E2E2F5F5F5E2E2E2E2BEBEBEBEBEBEBEBEBEBEBEBEBEBEBEBEBEBEBEBEBEBEBEBEBEBEBEBEBEBEBEBEBEBEBEBEBEBEBEBEBEBEC3BEC3C3C3BEC3C3C3BEBEBEBEBEBEBEBEBEBEBEBEBEBEBEBEBEBEBEBEBEE2E2E2E2E2E2E2E2E2E2E2282828C3282828E2E2
310
E2E2E2E2E2E2E2E2E2E2E2E2E2E2E2BEE2E2E2E2C3C3C3C3E2C3C3C3C3E2C3C3E2C3C3C3C3C3C3E2C3C3C3E2E2E2E2E2E2E2E2E2E2C3C3C3C3C3C3C3C3C3C3C3C3E2E2E2E2E2E2E2E2E2E2E2BEE2E2E2E2F5F5F5E2E2E2E2BEC3C3C3C3C3C3C3C3C3C3C3C3E2C3C3C3C3C3C3C3C3C3C3C3C3C3E2E2E2BEE2E2E2E2E2E2E2E2
310
E2E2E2C3C3C3C3C3C3C3E2C3C3C3C3C3C3E2E2E2E2E2E2E2E2E2E2E2E2E2E2E2BEE2E2E2E2E2E2E2E2E2E2E228E2E2C3E2E228E2E2E2E2E2E2E2E2E2E2E2E2E2E2E2E2E2BEE2E2E2E2C3C3C3C3E2C3C3C3C3C3C3C3E2C3C3C3C3C3C3C3C3C3E2E2E2E2E2E2E2E2E2E2E2E2E2E2C3C3C3C3C3E2C3C3C3C3C3C3C3E2E2E2E2E2
310
E2E2BEE2E2E2E2F5F5F5E2E2E2E2BEC3C3C3C3C3C3C3C3C3C3C3C3E2C3C3C3C3C3C3C3C3C3C3C3C3C3E2E2E2BEE2E2E2E2E2E2E2E2E2E2E2C3C3C3C3C3C3C3C3C3C3C3C3C3C3E2E2E2E2E2E2E2E2E2E2E2E2E2E2E2BEE2E2E2E2E2E2E2E2E2E2E228E2E2E2E2E2BEBEBEBEBEBEBEBEBEBEBEBEBEE2E2E2E2E2BEE2E2E2E2C3
310
C3C3C3E2C3C3C3C3C3C3C3E2C3C3C3C3C3C3E2C3E2E2E2E2E2E2E2E2E2E2E2E2E2E2E2C3C3C3C3C3C3C3C3C3C3C3C3C3E2E2E2E2E2E2E2BEE2E2E2E2F5F5F5E2E2E2E2BEC3C3C3C3C3C3C3C3C3C3C3C3BEC3C3BEBEBEC3BEC3C3BEC3C3C3BEBEBEBEBEBEBEBEBEBEBEBEBEBEBEC3BEC3C3C3C3C3C3C3C3C3C3C3C3BEBEBEBE
310
BEBEBEBEBEBEBEBEBEBEBEBEE2E2E2E2E2E2E2E2E2E2E228E2E2E2E2E2BEE2E2E2E2E2E2E2E2E2E2E2BEE2E2E2E2E2BEE2E2E2E2E2E2E2E2E2E2E2E2E2E2E2E2E2E2E2E2E2E2E2E2E2E2E2E2E2E2E2E2E2E2E2E2E2E2E2E2C3C3C3C3C3C3C3C3C3C3C3C3C3E2E2E2E2E2E2E2BEE2E2E2E2F5F5F5E2E2E2E2BEC3C3C3C3E2C3
310
C3C3C3C3C3C3C3E2C3C3C3C3C3C3C3C3C3C3C3E2E2E2E2BEE2E2E2E2E2E2E2E2E2E2E2C3C3C3C3E2E2E2E2E2E2E2E2E2E2E2E2E2E2E2E2E2E2E2E2E2E2E2E2E2BEE2E2E2E2E2E2E2E2E2E2E228E2E2E2E2E2BEE2E2E2E2E2E2E2E2E2E2E2BEE2E2E2E2E2BEE2E2E2C3C3C3C3C3C3C3C3C3C3C3C3C3C3C3C3C3C3C3C3C3C3C3
310
C3C3C3C3C3C3C3C3C3C3C3C3C3C3C3C3C3C3C3C3C3C3C3C3C3C3C3C3C3C3E2E2E2E2BEE2E2E2E2F5F5F5E2F5E2E2BEC3C3C3C3E2C3C3C3C3C3C3C3C3C3C3C3C3C3C3C3C3C3C3C3C3E2E2E2E2BEE2E2E2E2E2E2E2E2E2E2E2C3C3C3C3E2E2E2E2E2E2E2E2E2E2E2E2E2E2E2E2E2E2E2E2E2E2E2E2E2BEE2E2E2E2E2E2E2E2E2
310
E2E228E2E2E2E2BEBEE2E2E2E2E2E2E2E2E2E2E2BEE2E2E2E2E2BEE2E2E2C3C3C3C3E2C3C3C3C3E2E2E2E2E2E2E2C3C3C3C3C3C3C3E2C3C3C3C3C3C3C3E2C3E2C3C3C3E2E2E2E2E2C3E2E2E2C3C3C3C3C3E2C3E2E2E2E2BEE2E2F5E2F5F5F5E2F5E2E2BEBEBEBEBEBEBEBEBEBEBEBEBEBEBEBEBEBEBEBEBEBEBEBEBEBEBEBE
310
BEBEBEBEBEBEBEBEBEBEBEBEBEBEBEBEBEBEBEBEBEBEBEBEBEBEBEBEBEBEBEBEBEBEBEBEBEBEBEBEBEBEBEBEE2E2E2E2E2E2E2E2E2E2E228E2E2E2E2BEBEE2E2E2E2E2E2E2E2E2E2E2BEE2E2E2E2E2BEE2E2E2C3C3C3E2E2E2E2E2C3E2E2E2E2E2E2E2C3C3C3E2E2E2E2E2C3C3C3E2E2C3E2E2C3C3C3C3C3C3C3C3C3C3C3E2
310
E2E2C3C3C3C3E2E2C3E2E2E2E2BEE2E2F5E2F5F5F5E2F5E2E2BEC3C3C3C3E2C3C3C3C3C3C3C3C3E2E2E2E2E2E2E2E2E2E2E2E2E2E2E2E2BEE2E2E2E2E2E2E2E2E2E2E2C3C3C3E2E2E2E2E2E2E2E2E2E2E2E2E2E2E2E2E2E2E2E2E2E2E2E2E2E2BEE2E2E2E2E2E2E2E2E2E2E228E2E2E2E2BEBEE2E2E2E2E2E2E2E2E2E2E2BE
310
E2E2E2E2E2BEE2E2E2C3E2E2E2E2E2C3C3C3E2E2E2E2E2E2E2C3E2E2E2E2C3C3E2C3E2E2E2C3C3C3E2C3E2C3C3C3C3C3C3C3E2C3E2E2E2C3C3E2E2E2E2C3E2E2E2E2BEE2E2F5E2F5F5F5E2F5E2E2BEC3C3C3C3E2C3C3C3C3C3C3C3C3E2E2E2E2E2E2E2E2E2E2E2E2E2E2E2E2BEE2E2E2E2E2E2E2E2E2E2E2C3C3C3E2E2E2E2
310
E2E2E2E2E2E2E2E2E2E2E2E2E2E2E2E2E2E2E2E2E2E2BEE2E2E2E2E2E2E2E2E2E2E228E2E2E2E2BEBEE2E2E2E2E2E2E2E2E2E2E2BEE2E2E2E2E2BEE2E2E2C3C3C3C3C3C3C3E2C3E2E2E2E2E2E2E2C3E2E2E2E2C3E2E2C3E2E2E2C3C3E2E2C3C3C3C3C3C3C3C3C3C3C3C3C3C3C3C3E2E2E2E2C3E2E2E2E2BEE2E2F5E2F5F5F5
310
E2F5E2E2BEBEBEBEBEBEBEBEBEBEBEBEBEBEBEBEBEBEBEBEBEBEBEBEBEBEBEBEBEBEBEBEBEBEBEBEBEBEBEBEBEBEBEBEBEBEBEBEBEBEBEBEBEBEBEBEBEBEBEBEBEBEBEBEBEBEBEBEBEBEBEBEE2E2E2E2E2E2E2E2E2E2E228E2E2E2E2BEBEBEBEE2E2E2E2E2E2BEBEBEBEE2E2E2E2E2BEE2E2E2C3C3C3C3C3E2C3E2C3E2E2E2
310
E2E2E2E2C3E2E2E2E2C3E2E2C3E2E2E2C3C3E2E2C3E2C3C3C3E2E2E2E2E2C3C3C3C3C3C3E2E2E2E2C3E2E2E2E2BEE2E2F5E2F5F5F5E2F5E2E2BEC3C3C3C3C3C3E2C3C3C3C3C3C3C3C3C3C3C3C3C3C3C3C3C3E2E2E2E2E2BEE2E2E2E2E2E2E2E2E2E2E2C3C3C3C3C3C3C3C3C3C3C3E2E2E2E2E2E2E2E2E2E2E2E2E2E2E2E2E2
310
E2BEE2E2E2E2E2E2E2E2E2E2E228E2E2E2E2BEBEBEBEE2E2E2E2E2E2BEE2BEBEE2E2E2E2E2BEE2E2E2C3E2E2E2E2E2C3C3C3E2C3E2C3C3C3C3C3E2E2E2E2C3C3E2C3E2E2E2C3C3C3E2C3E2C3C3C3E2E2E2E2E2C3E2E2E2C3C3E2E2E2E2C3E2E2E2E2BEE2E2F5E2F5F5F5E2F5E2E2BEC3C3C3C3C3C3C3C3C3C3C3C3C3C3C3C3
310
C3C3C3C3C3C3C3C3E2E2E2E2E2BEE2E2E2E2E2E2E2E2E2E2E2C3C3C3C3C3C3C3C3C3C3C3E2E2E2E2E2E2E2E2E2E2E2E2E2E2E2E2E2E2BEE2E2E2E228E2E228E2E2BEBEBEBEBEBEBEBEBEBEE2E2E2E2E2E2BEBEBEBEBEBEBEBEBEBEE2E2E2C3C3C3E2E2E2E2E2C3E2C3E2E2E2E2E2C3C3C3E2E2E2E2E2C3C3C3E2C3E2E2E2C3
310
C3C3C3C3C3C3C3C3C3C3E2E2E2C3C3C3C3E2E2C3E2E2E2E2BEE2E2F5E2F5F5F5E2F5E2E2BEBEBEBEBEBEBEBEBEBEBEBEBEBEBEBEBEBEBEBEBEBEBEBEBEBEBEBEBEBEBEBEBEBEBEBEBEBEBEBEBEBEC3C3C3C3C3C3C3C3C3C3C3BEBEBEBEBEBEBEBEBEBEBEBEBEBEBEBEBEBEBEE2E228282828282828ECBEECECECECECBEBEEC
310
BEECECECECECECBEECBEBEECECECECECBEE2E2E2C3C3C3E2E2C3C3C3C3E2C3E2C3C3C3C3C3C3C3C3C3C3C3E2C3C3C3C3C3C3C3E2C3E2C3C3C3E2C3C3C3E2C3C3C3C3C3C3C3C3E2E2C3E2E2E2E2BEE2E2F5E2F5F5F5E2F5E2E2BEC3C3C3C3C3C3C3E2C3C3C3C3C3C3C3C3C3C3C3C3C3C3C3C3C3E2E2E2E2BEE2C3C3C3E2C3C3
310
C3C3C3C3E2E2E2E2BEE2C3C3C3C3C3C3C3C3C3C3E2BEE2C3C3C3E2C3C3C3C3C3C3BEE2E2E2E2C3C3C3E2E2E2BEBEBEBEBEBEBEBEBEBEE2E2E2E2E2E2BEBEBEBEBEBEBEBEBEBEE2E2E2C3E2E2C3E2E2E2E2C3E2E2E2E2E2E2E2C3E2E2C3E2E2E2E2C3C3E2C3E2E2E2E2C3C3C3C3C3C3C3C3C3C3C3E2E2E2E2E2C3E2C3E2C3E2
310
E2E2E2BEE2E2F5E2F5F5F5E2F5E2E2BEC3C3C3C3C3C3C3C3C3C3C3C3C3C3C3C3C3C3C3C3C3C3C3C3C3E2E2E2E2BEE2C3C3C3E2C3C3C3C3C3C3E2E2E2E2BEE2C3C3C3C3C3C3C3C3C3C3E2BEC3C3C3C3E2C3C3C3C3C3C3BEE2E2E2E2C3C3E2E2E2E2E22828E2E2E2BEBE28BEE2E2E2E2E2E2BE28BEBEE2E2E2E2E2BEE2E2E2C3
310
C3C3C3E2C3C3C3C3E2E2E2E2E2E2E2C3C3C3C3C3C3C3E2C3C3C3C3C3C3C3E2C3E2C3C3C3E2E2E2E2E2C3C3C3C3C3C3C3C3C3E2C3E2E2E2E2BEE2E2F5E2F5F5F5E2F5E2E2BEBEBEBEBEBEBEBEBEBEBEBEBEBEBEBEBEBEBEBEBEBEBEBEBEBEBEBEBEBEBEBEBEBEBEBEBEBEBEBEBEBEBEBEBEBEBEBEBEBEBEBEC3BEBEBEBEC3BE
310
BEBEBEBEBEBEC3BEBEBEBEC3BEE2E2E2E2E2E2E2E2E2E2E22828E2E2E2BEBEBE28E2E2E2E2E2E2282828BEE2E2E2E2E2BEE2E2E2C3C3C3E2E2E2E2E2C3E2E2E2E2E2E2E2C3C3C3E2E2E2E2E2C3C3C3E2E2C3E2E2C3C3C3C3C3C3C3C3C3C3C3E2E2E2C3C3C3C3E2E2C3E2E2E2E2BEE2E2F5E2F5F5F5E2F5E2E2BEC3C3C3C3C3
310
C3C3C3C3C3C3C3C3C3C3C3C3C3C3C3C3C3C3C3C3C3C3E2E2BEE2C3C3C3C3C3C3C3C3E2E2E2E2E2E2BEE2C3C3C3C3C3C3C3C3E2E2E2BEC3C3C3C3C3C3C3C3E2E2E2BEE2E2E2E2E2E2E2E2E2E2E228C3C3E2E2BEBEE22828E2E2E2E2E228E2E22828E2E2E2E2BEE2E2E2C3E2E2E2E2E2E2E2C3E2E2E2E2E2E2E2C3E2E2E2E2E2
310
E2E2C3E2E2E2E2C3E2E2C3E2C3C3C3C3C3C3C3E2C3E2E2E2C3C3E2C3E2E2C3E2E2E2E2BEE2E2F5E2F5F5F5E2F5E2E2BEC3C3C3C3C3C3C3C3C3C3C3C3C3C3C3C3C3C3C3C3C3C3C3C3C3C3C3E2E2BEE2C3C3C3C3C3C3C3C3E2E2E2E2E2E2BEE2C3C3C3C3C3C3C3C3E2E2E2BEC3C3C3C3C3C3C3C3E2E2E2BEE2E2E2E2E2E2E2E2
310
E2E2E228C3C3E2E2BEBEE2E228E2E2E2E228E2E2E2BE28E2E2E2E2BEE2E2E2C3C3C3C3C3E2C3C3C3E2E2E2E2E2E2E2C3E2E2E2E2C3C3E2C3E2E2E2C3C3C3E2C3E2C3C3C3C3C3C3C3E2C3C3C3C3C3C3E2E2E2E2C3E2E2E2E2BEE2E2F5E2F5F5F5E2F5E2E2BEBEBEBEBEBEBEBEBEBEBEBEBEBEBEBEBEBEBEBEBEBEBEBEBEBEBE
310
BEBEBEBEBEBEBEBEBEBEBEBEBEBEBEBEBEBEBEBEBEBEBEBEBEBEBEBEBEBEBEBEBEBEBEBEBEBEBEBEBEBEBEBEBEE2E2E2E2E2E2E2E2E2E2E228C3C3E2E2BEBEE2E2E228E2E228E2E2E2E2BE28E2E2E2E2BEE2E2E2C3C3C3C3C3C3C3E2C3E2E2E2E2E2E2E2C3E2E2E2E2C3E2E2C3E2E2E2C3C3E2E2C3C3C3C3C3C3C3C3C3C3C3
310
C3C3C3C3C3E2E2E2E2C3E2E2E2E2BEE2E2F5E2F5F5F5E2F5E2E2BEC3C3C3C3C3C3C3C3C3C3C3C3C3C3C3C3E2C3C3C3C3C3C3C3C3C3C3C3E2BEE2E2C3C3C3C3C3C3C3E2E2E2E2E2E2BEE2C3C3C3C3C3C3C3E2E2E2E2BEC3C3C3C3C3C3C3C3C3E2E2BEE2E2E2E2E2E2E2E2E2E2E228E2E2E2E2E2BEE2E2E2C3C3C3C3C3C3E2E2
310
BEE228E2E2E2BEE2E2E2C3C3C3C3C3E2C3C3C3E2C3E2C3C3C3C3C3E2E2E2E2C3C3E2C3E2E2E2C3C3C3E2C3E2C3C3C3E2E2E2E2E2C3E2E2E2C3C3E2E2E2E2C3E2E2E2E2BEE2E2F5E2F5F5F5E2F5E2E2BEC3C3C3C3C3C3C3C3C3C3C3C3C3C3C3C3E2C3C3C3C3C3C3C3C3C3C3C3E2BEE2C3C3C3C3C3C3C3C3E2E2E2E2E2E2BEE2
310
C3C3C3C3C3C3C3E2E2E2E2BEC3C3C3C3C3C3C3C3C3E2E2BEE2282828282828282828282828E2E2E2E2BEE2E2E2C3C3C3C3C3C3E2E2BEE2E228E2E2BEE2E2E2C3C3C3E2E2E2E2E2C3E2C3E2E2E2E2E2C3C3C3E2E2E2E2E2C3C3C3E2C3E2E2E2C3C3C3C3C3C3C3C3C3C3C3E2E2E2C3C3C3C3E2E2C3E2E2E2E2BEE2E2F5E2F5F5
310
F5E2E2E2E2BEBEBEBEBEBEBEBEBEBEBEBEBEBEBEBEBEBEBEBEBEBEBEBEBEBEBEBEBEBEBEBEBEBEBEBEBEBEBEBEBEBEBEBEBEBEBEBEBEBEBEBEBEBEBEBEBEBEBEBEBEBEBEBEBEBEBEBEBEBEBEBEE2C3C3C3C3C3C3C3C3C3C3C3C3E2E2E2E2BEBEBEBEBEBEBEBEBEBEBEBEBEE2E2E228E2BEE2E2E2C3C3C3E2E2C3C3C3C3E2C3
310
E2C3C3C3C3C3C3C3C3C3C3C3E2C3C3C3C3C3C3C3E2C3E2C3C3C3C3C3C3C3E2C3E2E2E2C3C3C3C3E2E2C3E2E2E2E2BEE2E2E2E2F5F5F5E2E2E2E2BEC3C3C3C3C3C3C3C3C3C3C3E2E2E2E2E2E2E2E2E2E2E2E2E2E2E2E2E2E2BEE2C3C3C3E2E2E2E2E2E2E2E2E2E2E2BEE2C3C3C3C3E2E2E2E2E2E2E2BEC3C3C3C3E2E2E2E2E2
310
E2E2BEE2C3C3C3C3C3C3C3C3C3C3C3C3E2E2E2E2E2E2E2E2E2E2E2E2C3C3C3C3C3C3E2E228E2BEE2E2E2C3C3C3C3C3C3C3C3C3C3C3C3C3C3C3C3C3C3C3C3C3C3C3C3C3C3C3C3C3C3C3C3C3C3C3C3C3C3C3C3C3C3C3C3C3C3C3C3C3C3C3C3C3E2E2E2E2BEE2E2E2E2F5F5F5E2E2E2E2BEC3C3C3C3C3C3C3C3C3C3C3E2E2E2E2
310
E2E2E2E2E2E2E2E2E2E2E2E2E2E2BEE2C3C3C3E2E2E2E2E2E2E2E2E2E2E2BEE2C3C3C3C3E2E2E2E2E2E2E2BEE2C3C3C3E2E2E2E2E2E2E2BEE2C3C3C3C3C3C3C3C3C3E2E2E2E2E2E2E2E2E2E2E2E2E2E2E2C3C3C3C3C3C3E2282828BEE2E2E2C3E2E2E2E2E2E2E2C3C3C3C3C3C3C3C3C3C3C3C3C3C3C3E2C3C3C3C3C3C3C3C3
310
C3E2E2E2E2E2E2E2E2E2C3E2E2E2E2E2E2E2E2E2C3E2E2E2E2BEE2E2E2E2F5F5F5E2E2E2E2BEBEBEBEBEBEBEBEBEBEBEBEBEBEBEBEBEBEBEBEBEBEBEBEBEBEBEBEBEBEBEBEBEBEBEBEBEBEBEBEBEBEBEBEBEBEBEBEBEBEBEBEBEBEBEBEBEBEBEBEBEBEBEBEBEBEBEBEBEBEBEBEE2C3C3C3C3C3C3C3C3C3E2E2E2E2E2E2E2E2
310
E2E2E2E2E2E2E2C3C3C3C3C3C3E2E2E2E2BEE2E2E2C3C3C3C3C3C3C3C3C3C3C3C3C3C3C3C3C3C3C3C3C3C3E2E2C3C3C3C3C3C3C3C3C3E2C3C3C3C3C3E2E2E2C3E2C3C3C3C3C3C3E2E2C3E2E2E2E2BEE2E2E2E2F5F5F5E2E2E2E2BEC3C3C3C3C3C3C3C3C3C3C3C3E2E2E2E2E2E2E2E2E2E2E2E2E2E2E2E2E2BEE2C3C3C3E2E2
310
E2E2E2E2E2E2E2E2E2BEE2E2E2E2E2E2E2E2E2E2E2E2BEE2E2E2E2E2E2E2E2E2E2E2BEE2C3C3C3C3C3C3C3C3C3C3C3C3E2E2E2E2E2E2E2E2E2E2E2E2E2C3C3C3C3C3E2E2E2E2BEE2E2E2C3C3C3C3C3C3C3C3C3C3C3C3C3C3C3C3C3C3C3C3C3C3C3C3C3C3C3C3C3C3C3C3C3E2C3C3C3C3C3E2E2E2C3C3C3C3C3C3C3C3E2E2C3
310
E2E2E2E2BEE2E2E2E2F5F5F5E2E2E2E2BEC3C3C3C3C3C3C3C3C3C3C3C3E2E2E2E2E2E2E2E2E2E2E2E2E2E2E2E2E2BEE2C3C3C3E2E2E2E2E2E2E2E2E2E2E2BEE2E2E2E2E2E2E2E2E2E2E2E2BEE2E2E2E2E2E2E2E2E2E2E2BEE2C3C3C3C3C3C3C3C3C3C3C3E2E2E2E2E2E2E2E2E2E2E2E2E2E2C3C3C3C3C3E2E2E2E2BEE2E2E2
310
C3E2E2E2E2E2E2E2C3E2E2E2E2E2E2E2E2C3C3C3C3C3C3E2E2E2E2E2E2E2E2E2C3E2E2E2E2E2E2E2E2E2C3E2E2E2E2E2E2E2E2E2C3E2E2E2E2BEE2E2E2E2F5F5F5E2E2E2E2BEBEBEBEBEBEBEBEBEBEBEBEBEBEBEBEBEBEBEBEBEBEBEBEBEBEBEBEBEBEBEBEBEBEBEBEBEBEBEBEBEBEBEBEBEBEBEBEBEBEBEBEBEBEBEBEBEBE
310
BEBEBEBEBEBEBEBEBEBEBEBEBEBEE2E2E2E2E2E2E2E2E2E2E2E2E2E2E2E2E2E2E2E2E2E2E2E2E2E2E2E2E2E2E2E2E2E2E2BEE2E2E2C3C3C3C3C3C3C3C3C3C3C3C3C3C3C3C3C3C3C3C3C3C3C3C3C3C3C3C3C3C3C3C3C3C3C3C3C3C3C3C3C3C3C3C3C3C3C3C3C3C3C3C3C3E2E2E2E2BEE2E2E2E2F5F5F5E2E2E2E2BEC3C3C3C3
310
C3C3C3C3C3C3C3E2E2E2E2E2E2E2E2E2E2E2BEBEBEBEBEE2E2BEC3C3C3C3C3C3C3C3E2C3C3C3C3C3C3BEE2E2E2C3C3C3C3C3C3E2E2E2BEE2E2E2C3C3C3C3C3C3C3E2BEE2E2E2E2E2E2E2E2E2E2E2E2E2E2E2E2E2E2E2E2E2E2E2E2E2E2E2E2E2E2E2E2E2E2E2BEE2E2E2C3E2E2E2E2E2E2E2E2E2E2E2E2E2E2E2E2E2E2E2E2
310
E2C3E2E2E2E2E2C3E2E2E2C3E2E2E2E2E2E2E2E2E2E2E2E2E2E2E2E2E2E2E2C3E2E2E2E2BEE2E2E2E2F5F5F5E2E2E2E2BEC3C3C3C3C3C3C3C3C3C3C3E2E2E2E2E2E2BEBEBEBEBEE2E2E2E2E2E2E2BEC3C3C3C3C3C3E2C3E2C3C3C3C3C3C3BEE2E2E2C3C3C3C3C3E2E2E2E2BEE2E2E2C3C3C3C3C3C3C3E2BEE2C3C3C3C3C3C3
310
C3C3C3C3C3C3E2C3C3C3C3C3C3C3C3C3C3C3C3C3E2C3C3C3C3C3C3E2BEE2E2E2C3E2E2E2E2E2C3C3C3E2C3C3C3C3C3C3C3C3C3C3C3C3C3C3C3C3C3C3C3E2E2E2C3E2E2E2E2E2E2E2E2C3C3C3C3C3C3E2E2E2E2E2C3E2E2E2E2BEE2E2E2E2F5F5F5E2F5E2E2BEC3C3C3C3C3C3C3C3C3C3C3E2BEBEBEBEBEE2E2E2E2E2E2E2E2
310
E2E2E2E2BEE2E2E2E2E2E2E2E2E2E2E2E2E2E2E2BEBEBEBEBEBEBEBEBEBEBEBEBEBEBEBEBEBEBEBEBEBEBEBEBEBEE2C3C3C3C3C3C3C3C3C3C3C3C3E2C3C3C3C3C3C3C3C3C3C3C3C3E2E2C3C3C3C3C3C3E2BEE2E2E2C3E2E2E2E2C3C3C3C3E2C3C3C3C3C3C3C3C3C3C3C3C3C3C3C3C3C3C3C3E2E2E2C3E2E2E2E2E2E2E2E2C3
310
C3C3C3C3C3E2E2E2E2E2C3E2E2E2E2BEE2E2F5E2F5F5F5E2F5E2E2BEE2E2E2E2E2E2E2BEBEBEBEBEE2E2E2E2E2E2C3C3C3C3C3C3C3C3C3C3E2BEE2C3C3C3C3C3C3C3C3C3C3C3E2E2E2BEE2E2E2E2E2E2E2E2C3C3C3C3C3C3C3E2E2E2E2E2E2E2E2E2BEE2C3C3C3C3C3C3C3C3C3C3C3C3E2C3C3C3C3C3C3E2C3C3C3C3C3E2E2
310
C3C3C3C3C3C3E2BEE2E2E2C3E2E2E2E2E2E2E2E2E2E2E2E2E2E2E2E2E2E2E2E2E2E2E2E2E2E2E2E2E2E2E2C3E2E2E2E2E2E2E2E2E2E2E2E2E2E2E2E2E2E2E2C3E2E2E2E2BEE2E2F5E2F5F5F5E2F5E2E2BEE2E2BEBEBEBEBEE2E2E2E2E2E2E2E2E2E2E2C3C3C3C3C3C3C3C3C3C3E2BEE2C3C3C3C3C3C3C3C3C3C3C3E2E2E2BE
310
E2E2E2E2E2E2E2E2C3C3C3C3C3C3C3E2E2E2E2E2E2E2E2E2BEE2E2E2E2E2E2E2E2E2E2E2E2E2E2E2E2E2E2E2E2E2E2E2E2E2E2E2E2E2E2E2E2E2E2E2BEE2E2E2C3C3C3C3C3C3C3C3C3C3C3C3C3C3C3C3C3C3C3C3C3C3C3C3C3C3C3C3C3C3C3C3C3C3C3C3C3C3C3C3C3C3C3C3C3C3C3C3C3C3C3C3C3E2E2E2E2BEE2E2F5E2F5
310
F5F5E2F5E2E2BEBEBEBEBEBEBEBEBEBEBEBEBEBEBEBEBEBEBEBEBEBEBEBEBEBEBEBEBEBEBEBEBEBEBEBEBEBEBEBEBEBEBEBEBEBEBEBEBEBEBEBEBEBEBEBEBEBEBEBEBEBEBEBEBEBEBEBEBEBEBEBEBEBEBEBEBEBEBEBEBEBEBEBEBEBEBEBEBEBEBEBEBEBEBEBEBEBEBEBEBEBEBEBEBEBEBEBEBEBEBEBEBEBEBEBEBEBEBEBEBE
310
BEBEBEBEBEBEBEBEBEBEBEBEBEBEBEBEBEBEBEBEBEBEBEBEBEBEBEBEBEBEBEBEBEBEBEBEBEBEBEBEBEBEBEBEBEBEBEBEE2E2F5E2F5F5F5E2F5E2E2BEE2E2E2E2E2E2E2E2E2E2E2E2E2E2E2E2E2E2E2E2E2E2E2E2E2E2E2E2E2E2E2E2E2E2E2E2E2E2E2E2E2E2E2E2E2E2E2E2E2E2E2E2E2E2E2E2E2E2E2E2E2E2E2E2E2E2E2
310
E2E2E2E2E2E2E2E2E2E2E2E2E2E2E2E2E2E2E2E2E2E2E2E2E2E2E2E2E2E2E2E2E2E2E2E2E2E2E2E2E2E2E2E2E2E2E2E2E2E2E2E2E2E2E2E2E2E2E2E2E2E2E2E2E2E2E2E2E2E2E2E2E2E2E2E2E2E2E2E2E2E2E2E2E2E2E2E2E2E2E2E2E2E2E2E2E2E2E2E2BEE2E2F5E2F5F5F5E2F5E2E2BEE2E2E2E2E2E2E2E2E2E2E2E2E2E2
310
E2E2E2E2E2E2E2E2E2E2E2E2E2E2E2E2E2E2E2E2E2E2E2E2E2E2E2E2E2E2E2E2E2E2E2E2E2E2E2E2E2E2E2E2E2E2E2E2E2E2E2E2E2E2E2E2E2E2E2E2E2E2E2E2E2E2E2E2E2E2E2E2E2E2E2E2E2E2E2E2E2E2E2E2E2E2E2E2E2E2E2E2E2E2E2E2E2E2E2E2E2E2E2E2E2E2E2E2E2E2E2E2E2E2E2E2E2E2E2E2E2E2E2E2E2E2E2
310
E2E2E2E2E2E2E2E2E2E2E2E2E2E2E2E2E2E2E2E2E2E2E2E2E2E2BEE2E2F5E2F5F5F5E2F5E2E2BEE2E2E2E2E2E2E2E2E2E2E2E2E2E2E2E2E2E2E2E2E2E2E2E2E2E2E2E2E2E2E2E2E2E2E2E2E2E2E2E2E2E2E2E2E2E2E2E2E2E2E2E2E2E2E2E2E2E2E2E2E2E2E2E2E2E2E2E2E2E2E2E2E2E2E2E2E2E2E2E2E2E2E2E2E2E2E2E2
310
E2E2E2E2E2E2E2E2E2E2E2E2E2E2E2E2E2E2E2E2E2E2E2E2E2E2E2E2E2E2E2E2E2E2E2E2E2E2E2E2E2E2E2E2E2E2E2E2E2E2E2E2E2E2E2E2E2E2E2E2E2E2E2E2E2E2E2E2E2E2E2E2E2E2E2E2E2E2E2BEE2E2F5E2F5F5F5E2F5E2E2BEE2E2E2E2E2E2E2E2E2E2E2E2E2E2E2E2E2E2E2E2E2E2E2E2E2E2E2E2E2E2E2E2E2E2E2
310
E2E2E2E2E2E2E2E2E2E2E2E2E2E2E2E2E2E2E2E2E2E2E2E2E2E2E2E2E2E2E2E2E2E2E2E2E2E2E2E2E2E2E2E2E2E2E2E2E2E2E2E2E2E2E2E2E2E2E2E2E2E2E2E2E2E2E2E2E2E2E2E2E2E2E2E2E2E2E2E2E2E2E2E2E2E2E2E2E2E2E2E2E2E2E2E2E2E2E2E2E2E2E2E2E2E2E2E2E2E2E2E2E2E2E2E2E2E2E2E2E2E2E2E2E2E2E2
310
E2E2E2E2E2BEE2E2F5E2F5F5F5E2F5E2E2BEE2E2E2E2E2E2E2E2E2E2E2E2E2E2E2E2E2E2E2E2E2E2E2E2E2E2E2E2E2E2E2E2E2E2E2E2E2E2E2E2E2E2E2E2E2E2E2E2E2E2E2E2E2E2E2E2E2E2E2E2E2E2E2E2E2E2E2E2E2E2E2E2E2C3C3C3C3C3C32828282828E2E2E2E2E2E2E2E2E2E2E2E2E2E2E2E2E2E2E2E2E2E2E2E2E2
310
E2E2E2E2E2E2E2E2E2E2E2E2E2E2E2E2E2E2E2E2E2E2E2E2E2E2E2E2E2E2E2E2E2E2E2E2E2E2E2E2E2E2E2E2E2E2E2E2E2E2E2E2E2E2E2E2E2E2BEE2E2F5E2F5F5F5E2F5E2E2BEE2E2E2E2E2E2E2E2E2E2E2E2E2E2E2E2E2E2E2E2E2E2E2E2E2E2E2E2E2E2E2E2E2E2E2E2E2E2E2E2E2E2E2E2E2E2E2E2E2E2E2E2E2E2E2E2
310
E2E2E2E2E2E2E2E2E2E2E2E2E2E2E2E2E2C3C3C3C3C3C3C3C3C3E2E228E2E2E2E2E2E2E2E2E2E2E2E2E2E2E2E2E2E2E2E2E2E2E2E2E2E2E2E2E2E2E2E2E2E2E2E2E2E2E2E2E2E2E2E2E2E2E2E2E2E2E2E2E2E2E2E2E2E2E2E2E2E2E2E2E2E2E2E2E2E2E2E2E2E2E2E2E2E2E2E2E2E2BEE2E2F5E2F5F5F5E2F5E2E2BEE2E2E2
310
E2E2E2E2E2E2E2E2E2E2E2E2E2E2E2E2E2E2E2E2E2E2E2E2E2E2E2E2E2E2E2E2E2E2E2E2E2E2E2E2E2E2E2E2E2E2E2E2E2E2E2E22828282828E2E2E2E2E2E2E2E2E2E2E2E2E2C3C3C3C3C3C3C3C3C3E2E228E2E2E2E22828E228282828E2E2E2E2E2E2E2E2E2E2E2E2E2E2E2E2E2E2E2E2E2E2E228282828C328282828E2E2
310
E2E2E2E2E2E2E2E2E2E2E2E2E2E2E2E2E2E2E2E2E2E2E2E2E2E2E2E2E2E2E2E2E2E2E2E2E2BEE2E2F5E2F5F5F5E2F5E2E2BEE2E2E2E2E2E2E2E2E2E2E2E2E2E2E2E2E2E2E2E2E2E2E2E2E2E2E2E2E2E2E2E2E2E2E2E2E2E2E2E2E2E2E2E2E2E2E2E2E2E2E2E2E2E2E228C328C328E2E2E2E2E2E2E2E2E2E2E2E2E2E2E2E2E2
310
E2E2E2E2E2E2E2E228E2E2E228C32828282828C3C328E2E2E2E2E2E2E2E2E2E2E2E2E2E2E2E2E2E2E2E228E2E2E2C3E2E2E228E2E2E2E2E2E2E2E2E2E2E2E2E2E2E2E2E2E2E2E2E2E2E2E2E2E2E2E2E2E2E2E2E2E2E2E2E2E2E2BEE2E2F5E2F5F5F5E2F5E2E2BEE2E2E2E2E2E2E2E2E2E2E2E2E2E2E2E2E2E2E2E2E2E2E2E2
310
E2E2E2E2E2E2E2E2E2E2E2E2E2E2E2E2E2E2E2E2E2E2E2E2E2E2E2E2E2E2E22828282828E2E2E2E2E2E2E2E2E2E2E2E2E2E2E2E2E2E2E2E2E2E2E2E2E228E2E2E228E2E2E22828E2E2E2E2E2E2E2E2E2E2E2E2E2E2E2E2E2E2E2E2E2E2E2E228E2E2E2E2E2E2E228E2E2E2E2E2E2E2E2E2E2E2E2E2E2E2E2E2E2E2E2E2E2E2
310
E2E2E2E2E2E2E2E2E2E2E2E2E2E2E2E2BEE2E2F5E2F5F5F5E2F5E2E2BEE2E2E2E2E2E2E2E2E2E2E2E2E2E2E2E2E2E2E2E2E2E2E2E2E2E2E2E2E2E2E2E2E2E2ECE2E2E2E2E2E2E2E2E2E2E2E2E2E2E2E2E2E2E2E228C328C328E2E2E2E2E2E228E2E2E22828282828282828E2E2E2E2E2E2E22828E2E228E2E2E22828E2E2E2
310
E2E2C3C3C3C3C3C3C3C3E2E2E2E2E2E2E2E2E2E2E228E2E2E2ECE2E2E228E2E2E2E2E2E2E2E2E2E2E2E2E2E2E2E2E2E2E2E2E2E2E2E2E2E2E2E2E2E2E2E2E2E2E2E2E2E2E2BEE2E2F5E2F5F5F5E2F5E2E2BEE2E2E2E2E2E2E2E2E2E2E2E2E2E2E2E2E2E2E2E2E2E2E2E2E2E2E2E2E2E2BEBEBEBEBEBEBEBEBEE2E2E2E2E2C3
310
C3C3C32828E2E2E2E2E228C328C328E2E2E2E2E2E22828282828C328C3C3C3C328E2E2E2E2E2BEBEBE28BEBE28BEBEBE2828E2E2E2E2E2C3C3C3C3C3C3C3C3E2E2E2E2E2E2E2E2E2E2E228BEBEBEBEBEBEBE28E2E2E2E2E2E2E2E2E2E2E2E2E2E2E2E2E2E2E2E2E2E2E2E2E2E2E2E2E2E2E2E2E2E2E2E2E2E2E2BEE2E2F5E2
310
F5F5F5E2F5E2E2BEE2E2E2E2E2E2E2E2E2E2E2E2E2E2E2E2E2E2E2E2E2E2E2E2E2E2E2E2E2E2BEBEBEBEBEBEBEBEBEE2E2E2E228C3C3C3C3E2E2E2E2E2E2E228C328E228E2E2E2E2E2E228E2E2E22828282828282828E2E2E2E2E2BEBEBEBEBEBEBEE2E2E2BE28E2E2E2E2E2C3C3C3C3C3C3C3C3C3C3C3C3E2E2E2E2E2E2E2
310
BEE2BEBEBEBEBEBEBEE2E2E2E2E2E2E2E2E2E2E2E2E2E2E2E2E2E2E2E2E2E2E2E2E2E2E2E2E2E2E2E2E2E2E2E2E2E2E2BEE2E2F5E2F5F5F5E2E2E2E2BEE2E2E2E2E2E2E2E2E2E2E2E2E2E2E2E2E2E2E2E2E2E2E2E2E2E2E2E2E2E2BEE2E2E2ECE2E2E2BEE2E2E2E228E2E2E2E2E2E2E2E2E2E2E228C3282828E2E2E2C3C3E2
310
28E2E2E2E2E2E2E2E2E2E2E2E2E2E2E2E2E2E2E2E2E2E2BEE2E2E2BE28E2E2E2E2E2E2E2E2E2E2E2E2E2E2E2E2E2282828E2E2E2E2BEE2E2E2ECE2E2E2BEE2E2E2E2E2E2E2E2E2E2E2E2E2E2E2E2E2E2E2E2E2E2E2E2E2E2E2E2E2E2E2E2E2E2E2E2E2E2E2BEE2E2E2E2F5F5F5E2E2E2E2BEE2E2E2E2E2E2E2E2E2E2E2E2E2
310
E2E2E2E2E2E2E2E2E2E2E2BEBEBEBEBEBEBEBEBEBEBEBEBEBEBEBEBEBE28BEE2E2E2E2E2E2E2E2E2E2E228E228E2E2E2E2282828E2BEBEBEBEBEBEBEBEBEBEBEBEBEBEBEBEBEBEBEBEBEBEBEBEBEBEBEBE28E2E2E2E2E2C3C3C3C3C3C3C3C3C3E2E2E2E2E2BE28ECBEBEBEBEBEBEECBEBEBEBEBEBEBEECBEBEE2E2E2E2E2E2
310
E2E2E2E2E2E2E2E2E2E2E2E2E2E2E2E2E2E2E2E2E2E2E2E2E2E2E2BEE2E2E2E2F5F5F5E2E2E2E2BEE2E2E2E2E2E2E2E2E2E2E2E2E2E2E2E2E2E2E2E2E2E2E2E2BEE2BEBEBEBEBEE2E2E2ECE2E2E2E2E2E2BE28BEE2E2E2E2E2E2E2E2E2E2E2282828E2E2E2E228C328E2BEE2BEBEE2E2E2E2E2E2E2E2E2E2E2E2E2E2E2E2E2
310
E2E2E2E2BEE2E2BEE2E2E22828C3C3C3C3C3C3C3C3E2E2E2E2E2E2BE2828BEE2E2E2E2E2ECE2E2E2E2E2BEBEBEE2BEE2E2E2E2E2E2E2E2E2E2E2E2E2E2E2E2E2E2E2E2E2E2E2E2E2E2E2E2E2E2E2E2E2BEE2E2E2E2F5F5F5E2E2E2E2BEE2E2E2E2E2E2E2E2E2E2E2E2E2E2E2E2E2E2E2E2E2E2E2E2BEECBEBEECBEE2E2E2E2
310
ECE2E2E2E2ECECECECBEE2E2E2E2E2E2E2E2E2E2E228E228E2E2E2E2282828E2BEE2BEBEE2E2E2E2E2E2E2E2E2E2E2E2E2E2E2E2E2E2E2E2E2BEE2E2BEE2E2E228E2C3C3C3C3C3C3C3C3E2E2E2E2E2E2ECEC28BEECE2E2E2E2ECE2E2E2E2E2BEECECECECE2E2E2E2E2E2E2E2E2E2E2E2E2E2E2E2E2E2E2E2E2E2E2E2E2E2E2
310
E2E2E2E2E2E2BEE2E2E2E2F5F5F5E2E2E2E2BEE2E2E2E2E2E2E2E2E2E2E2E2E2E2E2E2E2E2E2E2E2E2E2E2BEE2ECE2E2E2E2E2BEBEBEBEBEE2E2E2E2BEBEBEE2E2E2E2E2E2E2E2E2E2E2282828282828282828282828E2BEBEBEBEBEBEBEBEBEBEBEBEBEBEBEBEBEBEBEBEBEBEBEBEBEBEBEE2E22828E2E2E2E2E2E2E2E2E2
310
E2E2E2E2E2E2BEBEBE28E2E2E2E2E2ECE2E2E2E2E2E2BEBEBEBEE2E2E2E2E2E2E2E2E2E2E2E2E2E2E2E2E2E2E2E2E2E2E2E2E2E2E2E2E2E2E2E2E2BEE2E2E2E2F5F5F5E2E2E2E2BEE2E2E2E2E2E2E2E2E2E2E2E2E2E2E2E2E2E2E2E2E2E2E2E2BEE2E2E2E2E2BEBEE2E2ECE2E2BEE2E2E2BEBEBEE2E2E2E2E2E2E2E2E2E2E2
310
28E228E2E2E2E2E228E2E2BEE2E2BEE2E2E2E2E2E2E2E2E2E2E2E2E2E2E2E2E2E2E2E2E2BEE2E2BEE2E228E2E2E2E2E2E2E2E2E2E2E2E2E2E2E2E2BEE2E228E2E2E2E2E2ECE2E2E2E2E2E2E2E2E2BEE2E2E2E2E2E2E2E2E2E2E2E2E2E2E2E2E2E2E2E2E2E2E2E2E2E2E2E2E2E2E2E2E2BEE2E2E2E2F5F5F5E2E2E2E2BEE2E2
310
E2E2E2E2E2E2E2E2E2E2E2E2E2E2E2E2E2E2E2E2E2E2BEE2E2E2E2E2BEE2E2E2ECE2E2E2BEE2E2BEBEBEE2E2E2E2E2E2E2E2E2E2E228E228E2E2E2E2E228E2E2BEE2E2BEE2E2E2E2E2E2E2E2E2E2E2E2E2E2E2E2E2E2E2E2E2BEE2E2BEE2E228E2E2E2E2E2E2E2E2E2E2E2E2E2E2E2E2BEE2E2E228E2E2E2E2ECE2E2E2E2E2
310
E2E2E2E2BEE2E2E2E2E2E2E2E2E2E2E2E2E2E2E2E2E2E2E2E2E2E2E2E2E2E2E2E2E2E2E2E2E2BEE2E2E2E2F5F5F5E2E2E2E2BEE2E2E2E2E2E2E2E2E2E2E2E2E2E2E2E2E2E2E2E2E2E2E2E2BEE2E2E2E2BEE2E2E2E2ECE2E2E2E2BEE2E2E2BEE2E2E2E2E2E2E2E2E2C3C328E228E2E2E2E2E228E2E2BEE2E2BEE2E2E2E2E2E2
310
E2E2E2E2E2E2E2E2E2E2E2E2E2E2E2BEE2E2BEE2E228E2E2E228E2E2E2E2E2E2E2E2E2E2E2E2BEE2E2E228E2E2E2ECECECE2E2E2E2E2E2E2E2BEE2E2E2E2E2E2E2E2E2E2E2E2E2E2E2E2E2E2E2E2E2E2E2E2E2E2E2E2E2E2E2E2E2BEE2E2E2E2F5F5F5E2F5E2E2BEE2E2E2E2E2E2E2E2E2E2E2E2E2E2E2E2E2E2E2E2E2E2E2
310
E2BEE2E2E2BEE2E2E2E2E2ECE2E2E2E2BEE2E2E2BEE2E2E2E2E2E2E2E2E2C3C328E228E2E2E2E2E228E2E2BEE2E2BEE2E2E2E2E2E2E2E2E2E2E2E2E2E2E2E2E2E2E2E2E2BEE2E2BEE228E2E2E2E228E2E2E2E2E2E2E2E2E2E2E2E2BEE2E2E2E228E2ECECECE2ECECE2E2E2E2E2E2BEE2E2E2E2E2E2E2E2E2E2E2E2E2E2E2E2
310
E2E2E2E2E2E2E2E2E2E2E2E2E2E2E2E2E2BEE2E2F5E2F5F5F5E2F5E2E2BEE2E2E2E2E2E2E2E2E2E2E2E2E2E2E2E2E2E2E2E2E2E2E2E2BEE2E2E2BEE2E2E2E2BEBEBEE2E2E2E2BEE2E2BEE2E2E2E2E2E2E2E2E2C3C328E228282828BEBE2828BEBEE2E2BEE2E2E2E2E2E2E2E2E2E2E2E2E2E2E2E2E2E2E2E2E2BEE2E2BEBE28
310
BE28282828E2E2E2E2E2E2E2E2E2E2E2E2BEE2E2E2E22828ECE2BEBEE2ECE2E2E2E2E2E2BEE2E2E2E2E2E2E2E2E2E2E2E2E2E2E2E2E2E2E2E2E2E2E2E2E2E2E2E2E2E2E2E2E2BEE2E2F5E2F5F5F5E2F5E2E2BEE2E2E2E2E2E2E2E2E2E2E2E2E2E2E2E2E2E2E2E2E2E2E2ECBEECECECBEECECECBEECECBEECECECECBEECECBE
310
ECECE2E2E2E2E2E2E2C3C328E22828ECBEECECECECECBEECECBEECECECECECECECECECECECECECECECECECECECECECBEECECBEEC28ECBEECE228E2E2E2E2E2E2E2E2E2E2ECECBEECECECECEC28BEBEECBEEC28BEECECECECECBEECE2E2E2E2E2E2E2E2E2E2E2E2E2E2E2E2E2E2E2E2E2E2E2E2E2E2E2E2E2E2E2E2BEE2E2F5
310
E2F5F5F5E2F5E2E2BEE2E2E2E2E2E2E2E2E2E2E2E2E2E2E2E2E2E2E2E2E2E2E2E2BEE2E2E2BEE2E2E2E2BEBEBEE2E2E2E2BEE2E2BEE2E2E2E2E2E2E2E2E2C3C328E228282828BEBEBEBEBEBEE2E2BEE2E2E2E2E2E2E2E2E2E2E2E2E2E2E2E2E2E2E2E2E2BEE2E2BEBEBEBE28282828E2E2E2E2E2E2E2E2E2E2E2E2BEE2E2E2
310
E2E2BEECE2BEBEE2BE28E2E2E2E2E2BEE2E2E2E2E2E2E2E2E2E2E2E2E2E2E2E2E2E2E2E2E2E2E2E2E2E2E2E2E2E2E2E2E2BEE2E2F5E2F5F5F5E2F5E2E2BEE2E2E2E2E2E2E2E2E2E2E2E2E2E2E2E2E2E2E2E2E2E2E2E2BEE2E2E2BEE2E2E2E2E2ECE2E2E2E2BEE2E2E2BEE2E2E2E2E2E2E2E2E2C3C328E228E2E228E2E2E2E2
310
E2BEE2E2BEE2E2E2E2E2E2E2E2E2E2E2E2E2E2E2E2E2E2E2E2E2BEE2E2BEE2E2E228E2E228E2E2E2E2E2E2E2E2E2E2E2E2BEE2E2E2E2E228ECE2ECE2EC2828E2E2E2E2E2BEE2E2E2E2E2E2E2E2E2E2E2E2E2E2E2E2E2E2E2E2E2E2E2E2E2E2E2E2E2E2E2E2E2BEE2E2F5E2F5F5F5E2F5E2E2BEE2E2E2E2E2E2E2E2E2E2E2E2
310
E2E2E2E2E2E2E2E2E2E2E2E2BEE2E2E2E2BEE2E2E2E2ECE2E2E2E2BEE2E2E2BEE2E2E2E2E2E2E2E2E2E2E228E228E2E228E2E2E2E2E2BEE2E2BEE2E2E2E2E2E2E2E2E2E2E2E2E2E2E2E2E2E2E2E2E2BEE2E2BEE2E2E228C3C328E2E2E2E2E2E2E2E2E2E2E2E2BEE2E2E2E2E228E2ECECECE22828E2E2E2E2E2BEE2E2E2E2E2
310
E2E2E2E2E2E2E2E2E2E2E2E2E2E2E2E2E2E2E2E2E2E2E2E2E2E2E2E2BEE2E2F5E2F5F5F5E2F5E2E2BEE2E2E2E2E2E2E2E2E2E2E2E2E2E2E2E2E2E2E2E2E2E2E2E2BEBEBEE2E2BEE2E2E2E2ECE2E2E2E2BEE2E2E2BEE2E2E2E2E2E2E2E2E2E2E228E228E2E228E2E2E2E2E2BEE2E2BEE2E2E2E2E2E2E2E2E2E2E2E2E2E2E2E2
310
E2E2E2E2E2BEE2E2BEE2E2E228C3C328E2E2E2E2E2E2E2E2E2E2E2E2BEE2E2E2E2E228E2E2ECE2E228E228E2E2E2E2BEE2E2E2E2E2E2E2E2E2E2E2E2E2E2E2E2E2E2E2E2E2E2E2E2E2E2E2E2E2E2E2E2E2BEE2E2F5E2F5F5F5E2F5E2E2BEE2E2E2E2E2E2E2E2E2E2E2E2E2E2E2E2E2E2E2E2E2E2E2E2BEBEBEE2E2E2BEE2E2
310
E2ECE2E2BEBEE2E2E2E2BEE2E2E2E2E2E2E2E2E2E2E228E228E2E228E2E2E2E2E2BEE2E2BEE2E2E2E2E2E2E2E2E2E2E2E2E2E2E2E2E2E2E2E2E2BEE2E2BEE2E2E228C3C328E2E2E2E2E2E2E2E2E2E2E2E2BEE2E2E2E2E228E2E2ECE2E228E228E2E2E2E2BEE2E2E2E2E2E2E2E2E2E2E2E2E2E2E2E2E2E2E2E2E2E2E2E2E2E2
310
E2E2E2E2E2E2E2BEE2E2F5E2F5F5F5E2F5E2E2BEE2E2E2E2E2E2E2E2E2E2E2E2E2E2E2E2E2E2E2E2E2E2E2E2BEBEBEE2E2E2E2BEBEBEBEBEBEE2E2E2E2ECE2BEE2E2E2E2E2E2E2E2E2E2E2282828282828282828282828E2BEBEBEBEBEBEBEBEBEBEBEBEBEBEBEBEBEBEBEBEBEBEBEBEBEBEBEE2E2E228C3C328E2E2E2E2E2
310
E2E2E2E2E2E2E2BEBEBEBEE2E228E2E2ECE2E228E228E2BEBEBEBEE2E2E2E2E2E2E2E2E2E2E2E2E2E2E2E2E2E2E2E2E2E2E2E2E2E2E2E2E2E2E2E2E2BEE2E2F5E2F5F5F5E2F5E2E2BEE2E2E2E2E2E2E2E2E2E2E2E2E2E2E2E2E2E2E2E2E2E2E2E2BEE2BEBEE2E2E2E2E2E2ECE2E2E2E2E2E2BEBEBEE2E2E2E2E2E2E2E2E2E2
310
E2C3C328E2E228E2E2E2E2E228E2BEBEE2E2E2E2E2E2E2E2E2E2E2E2E2E2E2E2E2E2E2E2E2BEE2E2BEE2E2E228C3C328E2E2E2E2E2E2E2E2E2E2E2E2BEBEECBEE2E228E2E2ECE2E228E2E228BEECE2BEE2E2E2E2E2E2E2E2E2E2E2E2E2E2E2E2E2E2E2E2E2E2E2E2E2E2E2E2E2E2E2E2E2BEE2E2F5E2F5F5F5E2F5E2E2BEE2
310
E2E2E2E2E2E2E2E2E2E2E2E2E2E2E2E2E2E2E2E2E2E2E228ECBEBEECE2E2E2E2E2ECE2E2E2BEBEBEBEBE28E2E2E2E2E2E2E2E2E2E2E2C3C328E2E228E2E2E2E2E228E2BEBEE2E2E2E2E2E2E2E2E2E2E2E2E2E2E2E2E2E2E2E2E2BEE2E2BEE2E2E228E2C328E2E2E2E2E2E2E2E2E2E2E2E2BEECECBEECE228E2E2ECE2E228E2
310
E228ECECECBEE2E2E2E2E2E2E2E2E2E2E2E2E2E2E2E2E2E2E2E2E2E2E2E2E2E2E2E2E2E2E2E2E2BEE2E2F5E2F5F5F5E2F5E2E2BEE2E2E2E2E2E2E2E2E2E2E2E2E2E2E2E2E2E2E2E2E2E2E2E228BEECE2E2E2E2E2E2E2ECE2E2E2BEBEBEECBE28E2E2E2E2E2E2E2E2E2E2E2C3C328E2E228E2E2E2E2E228E2BEBEE2E2E2E2E2
310
E2E2E2E2E2E2E2E2E2E2E2E2E2E2E2E2BEE2E2BEE2E2E228E2C328E2E2E2E2E2E2E2E2E2E2E2E2BEBEECBEE2E228E2E2ECE2E228E2E22828ECBEBEE2E2E2E2E2E2E2E2E2E2E2E2E2E2E2E2E2E2E2E2E2E2E2E2E2E2E2E2E2E2E2E2E2BEE2E2F5E2F5F5F5E2F5E2E2BEE2E2E2E2E2E2E2E2E2E2E2E2E2E2E2E2E2E2E2E2E2E2
310
E2E228E228BEBEBEBEBEBEBEBEBEBEBEBEBEBE28BE28E2E2E2E2E2E2E2E2E2E2E2E2C328E2E228E2E2E2E2E228BE28BEBEBEBEBEBEBEBEBEBEBEBEBEBEBEBEBEBEBEBEBEBEBEBEBE28E2E2E228E2E228E2E2E2E2E2E2E2E2E2E2E2E2E2BEECBEBEBEBEBEBEECBEBEBEBEBEBE28BEE2E2E2E2E2E2E2E2E2E2E2E2E2E2E2E2E2
310
E2E2E2E2E2E2E2E2E2E2E2E2E2E2E2E2E2E2BEE2E2F5E2F5F5F5E2F5E2E2BEE2E2E2E2E2E2E2E2E2E2E2E2E2E2E2E2E2E2E2E2E2E2E2E228E228E2E2E2E2E2E2E2ECE2E2E2E2E2E228E228E2E2E2E2E2E2E2E2E2E2E2E2C328E2E228E2E2E2E2E2282828E2C3C3E2E2E2E2E2E2E2E2E2E2E2E2E2E2E2E2E2E2E2E2E2E228E2
310
E2E228E2E2E2E2E2E2E2E2E2E2E2E2E2E2E2E2E2E2E2E2E228E2E2ECE2E228E2E2E228E2E2E2E2E2E2E2E2E2E2E2E2E2E2E2E2E2E2E2E2E2E2E2E2E2E2E2E2E2E2E2E2E2E2E2E2BEE2E2F5E2F5F5F5E2F5E2E2BEE2E2E2E2E2E2E2E2E2E2E2E2E2E2E2E2E2E2E2E2E2E2E2E228E228282828C3C3C3C3C3C3C32828282828E2
310
28E2E2E2E2E2E2E2E2E2E2E2E2E228E2E228E2C3C3282828282828C3C3E2E2E2E2E2E2E2E2E2E2E2E2E2E2E2E2E2E2E2E2E2E228E2E2E228E2E2E2E2E2E2E2E2E2E2E2E2E2E2E2E2E2E2E2E2E228E2E2E2E2E228E2E2E2E228E2E2E2E2E2E2E2E2E2E2E2E2E2E2E2E2E2E2E2E2E2E2E2E2E2E2E2E2E2E2E2E2E2E2E2BEE2E2
310
F5E2F5F5F5E2F5E2E2BEE2E2E2E2E2E2E2E2E2E2E2E2E2E2E2E2E2E2E2E2E2E2E2E228E2E2E2E2E2C3C3C3C3C3C3C3E2E2E2E2E2E228E2E2E2E2E2E2E2E2E2E2E2E2E2E2E2E228E2E2E2E2E228E2E2E2E2E2E2E2E2E2E2E2E2E2E2E2E2E2E2E2E2E2E2E2E2E2E2E228E2E2E228E2E2E2E2E2E2E2E2E2E2E2E2E2E2E2E2E2E2
310
E2E2E228E2E2E2E2E228E2E2E2E228E2E2E2E2E2E2E2E2E2E2E2E2E2E2E2E2E2E2E2E2E2E2E2E2E2E2E2E2E2E2E2E2E2E2E2BEE2E2F5E2F5F5F5E2E2E2E2BEE2E2E2E2E2E2E2E2E2E2E2E2E2E2E2E2E2E2E2E2E2E2E2E228E2E2E2E2E2E2E2E2E2E2E2E2E2E2E2E2E2E228E2E2E2E2E2E2E2E2E2E2E2E2E2E2E2E228E2E2E2
310
E2E228E2E2E2E2E2E2E2E2E2E2E2E2E2E2E2E2E2E2E2E2E2E2E2E2E2E2E228E2E2E228E2E2E2E2E2E2E2E2E2E2E2E2E2E2E2E2E2E2E2E2E22828E2E2E22828E2E2E2E2C3C3C3C328E2E2E2E2E2E2E2E2E2E2E2E2E2E2E2E2E2E2E2E2E2E2E2E2E2E2E2E2E2E2E2BEE2E2E2E2F5F5F5E2E2E2E2BEE2E2E2E2E2E2E2E2E2E2E2
310
E2E2E2E2E2E2E2E2E2E2E2E2E228282828282828C3C3C3C3C32828282828282828E2E2E2E2E2E2E2E2E2E2E2E2E2E2E2E228C3C3C3C32828282828282828282828282828C3C3282828282828282828282828282828282828C3C3C3C328E2E2E2E2E2E2E2E2E2E2E2E2E2E2E2E228C3C3C3C32828E2E2E2E2C3C3C3C3E2E2E2
310
E2E2E2E2E2E2E2E2E2E2E2E2E2E2E2E2E2E2E2E2E2E2E2E2E2E2E2E2E2BEE2E2E2E2F5F5F5E2E2E2E2BEE2E2E2E2E2E2E2E2E2E2E2E2E2E2E2E2E2E2E2E2E2E2E2E2E2E2E2E2E2E2E2C3C3E2E2E2E2E2E2E2E2E2E2E2E2E2E2E2E2E2E2E2E2E2E2E2E2E2E2E2E2E2E2E2E2E2E2E2E2E2E2E2E2E2E2E2E2E2E2E2E2E2E2E2E2
310
E2E2E2E2E2E2E2E2E2E2E2E2E2E2E2E2E2E2E2E2E2E2E2E2E2E2E2E2E2E2E2E2E2E2E2E2E2E2E2E2E2E2E2E2E2E2E2E2E2E2E2E2E2E2E2E2E2E2E2E2E2E2E2E2E2E2E2E2E2E2E2E2E2E2E2E2E2E2E2E2E2E2BEE2E2E2E2F5F5F5E2E2E2E2BEE2E2E2E2E2E2E2E2E2E2E2E2E2E2E2E2E2E2E2E2E2E2E2E2E2E2E2E2E2E2E2E2
310
E2E2E2E2E2E2E2E2E2E2E2E2E2E2E2E2E2E2E2E2E2E2E2E2E2E2E2E2E2E2E2E2E2E2E2E2E2E2E2E2E2E2E2E2E2E2E2E2E2E2E2E2E2E2E2E2E2E2E2E2E2E2E2E2E2E2E2E2E2E2E2E2E2E2E2E2E2E2E2E2E2E2E2E2E2E2E2E2E2E2E2E2E2E2E2E2E2E2E2E2E2E2E2E2E2E2E2E2E2E2E2E2E2E2E2E2E2E2E2E2E2E2E2E2E2E2E2
310
E2E2E2E2E2E2E2E2BEE2E2E2E2F5F5F5E2E2E2E2BEE2E2E2E2E2E2E2E2E2E2E2E2E2E2E2E2E2E2E2E2E2E2E2E2282828282828282828282828282828282828282828E2E2E2E2E2E2E2E2E2E2E2E2E2E2E2E2E2E2E2E2E2E2E2E2E2E2E2282828282828282828E2E2E2E2E2E2E2E2E2E2E2E2E2E2E2E2E2E2E2E2E2E2E2E2E2
310
E2E2E2E2E2E2E2E2E2E2E2E2E2282828282828282828E2E2E2E2E2E2E2E2E2E2E2E2E2E2E2E2E2E2E2E2E2E2E2E2E2E2E2E2E2E2E2E2E2E2E2E2E2E2E2BEE2E2E2E2F5F5F5E2E2E2E2BEE2E2E2E2E2E2E2E2E2E2E2E2E2E2E2E2E2E2E2E2E2E2E2E2282828282828282828282828282828282828282828E2E2E2E2E2E2E2E2
310
E2E2E2E2E2E2E2E2E2E2E2E2E2E2E2E2E2E2E2282828282828282828E2E2E2E2E2E2E2E2E2E2E2E2E2E2E2E2E2E2E2E2E2E2E2E2E2E2E2E2E2E2E2E2E2E2E2E2E2E2282828282828282828E2E2E2E2E2E2E2E2E2E2E2E2E2E2E2E2E2E2E2E2E2E2E2E2E2E2E2E2E2E2E2E2E2E2E2E2E2E2E2BEE2E2E2E2F5F5F5E2E2E2E2BE
310
E2E2E2E2E2E2E2E2E2E2E2E2E2E2E2E2E2E2E2E2E2E2E2E2E2E2E2E2E2E2E2E2E2E2E2E2E2E2E2E2E2E2E2E2E2E2E2E2E2E2E2E2E2E2E2E2E2E2E2E2E2E2E2E2E2E2E2E2E2E2E2E2E2E2E2E2E2E2E2E2E2E2E2E2E2E2E2E2E2E2E2E2E2E2E2E2E2E2E2E2E2E2E2E2E2E2E2E2E2E2E2E2E2E2E2E2E2E2E2E2E2E2E2E2E2E2E2
310
E2E2E2E2E2E2E2E2E2E2E2E2E2E2E2E2E2E2E2E2E2E2E2E2E2E2E2E2E2E2E2E2E2E2E2E2E2E2E2E2BEE2E2E2E2F5F5F5E2E2E2E2BEE2E2E2E2E2E2E2E2E2E2E2E2E2E2E2E2E2E2E2E2E2E2E2E2E2E2E2E2E2E2E2E2E2E2E2E2E2E2E2E2E2E2E2E2E2E2E2E2E2E2E2E2E2E2E2E2E2E2E2E2E2E2E2E2E2E2E2E2E2E2E2E2E2E2
310
E2E2E2E2E2E2E2E2E2E2E2E2E2E2E2E2E2E2E2E2E2E2E2E2E2E2E2E2E2E2E2E2E2E2E2E2E2E2E2E2E2E2E2E2E2E2E2E2E2E2E2E2E2E2E2E2E2E2E2E2E2E2E2E2E2E2E2E2E2E2E2E2E2E2E2E2E2E2E2E2E2E2E2E2E2E2E2E2E2E2E2E2E2BEE2E2E2E2F5F5F5E2E2E2E2BEE2E2E2E2E2E2E2E2E2E2E2E2E2E2E2E2E2E2E2E2E2
310
E2E2E2E2E2E2E2E2E2E2E2E2E2E2E2E2E2E2E2E2E2E2E2E2E2E2E2E2E2E2E2E2E2E2E2E2E2E2E2E2E2E2E2E2E2E2E2E2E2E2E2E2E2E2E2E2E2E2E2E2E2E2E2E2E2E2E2E2E2E2E2E2E2E2E2E2E2E2E2E2E2E2E2E2E2E2E2E2E2E2E2E2E2E2E2E2E2E2E2E2E2E2E2E2E2E2E2E2E2E2E2E2E2E2E2E2E2E2E2E2E2E2E2E2E2E2E2
310
E2E2E2E2E2E2E2E2E2E2E2E2E2E2E2E2E2E2E2BEE2E2E2E2F5F5F5E2F5E2E2BEE2E2E2E2E2E2E2E2E2E2E2E2E2E2E2E2E2E2E2E2E2E2E2E2E2E2E2E2E2E2E2E2E2E2E2E2E2E2E2E2E2E2E2E2E2E2E2E2E2E2E2E2E2E2E2E2E2E2E2E2E2E2E2E2E2E2E2E2E2E2E2E2E2E2E2E2E2E2E2E2E2E2E2E2E2E2E2E2E2E2E2E2E2E2E2
310
E2E2E2E2E2E2E2E2E2E2E2E2E2E2E2E2E2E2E2E2E2E2E2E2E2E2E2E2E2E2E2E2E2E2E2E2E2E2E2E2E2E2E2E2E2E2E2E2E2E2E2E2E2E2E2E2E2E2E2E2E2E2E2E2E2E2E2E2E2E2E2E2BEE2E2F5E2F5F5F5E2F5E2E2BEE2E2E2E2E2E2E2E2E2E2E2E2E2E2E2E2E2E2E2E2E2E2E2E2E2E2E2E2E2E2E2E2E2E2E2E2E2E2E2E2E2E2
310
E2E2E2E2E2E2E2E2E2E2E2E2E2E2E2E2E2E2E2E2E2E2E2E2E2E2E2E2E2E2E2E2E2E2E2E2E2E2E2E2E2E2E2E2E2E2E2E2E2E2E2E2E2E2E2E2E2E2E2E2E2E2E2E2E2E2E2E2E2E2E2E2E2E2E2E2E2E2E2E2E2E2E2E2E2E2E2E2E2E2E2E2E2E2E2E2E2E2E2E2E2E2E2E2E2E2E2E2E2E2E2E2E2E2E2E2E2E2E2E2E2E2E2E2E2BEE2
310
E2F5E2F5F5F5E2F5E2E2BEE2E2E2E2E2E2E2E2E2E2E2E2E2E2E2E2E2E2E2E2E2E2E2E2E2E2E2E2E2E2E2E2E2E2E2E2E2E2E2E2E2E2E2E2E2E2E2E2E2E2E2E2E2E2E2E2E2E2E2E2E2E2E2E2E2E2E2E2E2E2E2E2E2E2E2E2E2E2E2E2E2E2E2E2E2E2E2E2E2E2E2E2E2E2E2E2E2E2E2E2E2E2E2E2E2E2E2E2E2E2E2E2E2E2E2E2
310
E2E2E2E2E2E2E2E2E2E2E2E2E2E2E2E2E2E2E2E2E2E2E2E2E2E2E2E2E2E2E2E2E2E2E2E2E2E2E2E2E2E2E2E2E2E2E2E2E2E2E2BEE2E2F5E2F5F5F5E2F5E2E2BEE2E2E2E2E2E2E2E2E2E2E2E2E2E2E2E2E2E2E2E2E2E2E2E2E2E2E2E2E2E2E2E2E2E2E2E2E2E2E2E2E2E2E2E2E2E2E2E2E2E2E2E2E2E2E2E2E2E2E2E2E2E2E2
310
E2E2E2E2E2E2E2E2E2E2E2E2E2E2E2E2E2E2E2E2E2E2E2E2E2E2E2E2E2E2E2E2E2E2E2E2E2E2E2E2E2E2E2E2E2E2E2E2E2E2E2E2E2E2E2E2E2E2E2E2E2E2E2E2E2E2E2E2E2E2E2E2E2E2E2E2E2E2E2E2E2E2E2E2E2E2E2E2E2E2E2E2E2E2E2E2E2E2E2E2E2E2E2E2BEE2E2F5E2F5F5F5E2F5E2E2BEE2E2E2E2E2E2E2E2E2E2
310
E2E2E2E2E2E2E2E2E2E2E2E2E2E2E2E2E2E2E2E2E2E2E2E2E2E2E2E2E2E2E2E2E2E2E2E2E2E2E2E2E2E2E2E2E2E2E2E2E2E2E2E2E2E2E2E2E2E2E2E2E2E2E2E2E2E2E2E2E2E2E2E2E2E2E2E2E2E2E2E2E2E2E2E2E2E2E2E2E2E2E2E2E2E2E2E2E2E2E2E2E2E2E2E2E2E2E2E2E2E2E2E2E2E2E2E2E2E2E2E2E2E2E2E2E2E2E2
310
E2E2E2E2E2E2E2E2E2E2E2E2E2E2E2E2E2E2E2E2E2E2E2E2E2E2E2E2E2E2BEE2E2F5E2F5F5F5E2F5E2E2BEBEBEBEBEBEBEBEBEBEBEBEBEBEBEBEBEBEBEBEBEBEBEBEBEBEBEBEBEBEBEBEBEBEBEBEBEBEBEBEBEBEBEBEBEBEBEBEBEBEBEBEBEBEBEBEBEBEBEBEBEBEBEBEBEBEBEBEBEBEBEBEBEBEBEBEBEBEBEBEBEBEBEBEBE
310
BEBEBEBEBEBEBEBEBEBEBEBEBEBEBEBEBEBEBEBEBEBEBEBEBEBEBEBEBEBEBEBEBEBEBEBEBEBEBEBEBEBEBEBEBEBEBEBEBEBEBEBEBEBEBEBEBEBEBEBEBEBEBEBEBEBEBEBEBEBEBEBEBEBEBEBEBEBEBEBEBEBEBEBEE2E2F5E2F5F5F5E2F5E2E2E2E2E2E2E2E2E2E2E2E2E2E2E2E2E2E2E2E2E2E2E2E2E2E2E2E2E2E2E2E2E2E2
310
E2E2E2E2E2E2E2E2E2E2E2E2E2E2E2E2E2E2E2E2E2E2E2E2E2E2E2E2E2E2E2E2E2E2E2E2E2E2E2E2E2E2E2E2E2E2E2E2E2E2E2E2E2E2E2E2E2E2E2E2E2E2E2E2E2E2E2E2E2E2E2E2E2E2E2E2E2E2E2E2E2E2E2E2E2E2E2E2E2E2E2E2E2E2E2E2E2E2E2E2E2E2E2E2E2E2E2E2E2E2E2E2E2E2E2E2E2E2E2E2E2E2E2E2E2E2E2
310
E2E2E2E2E2E2E2E2E2E2E2E2F5E2F5F5F5E2F5F5F5F5F5F5F5F5E2E2E2E2E2E2E2E2E2F5F5F5F5F5F5F5F5F5F5F5F5F5F5F5F5E2E2E2E2E2E2E2E2E2F5F5F5F5F5F5F5F5F5F5F5F5F5F5F5F5E2E2E2E2E2E2E2E2E2F5F5F5F5F5F5F5F5F5F5F5F5F5F5F5F5E2E2E2E2E2E2E2E2E2F5F5F5F5F5F5F5F5F5F5F5F5F5F5F5F5E2
310
E2E2E2E2E2E2E2E2F5F5F5F5F5F5F5F5F5F5F5F5F5F5F5F5E2E2E2E2E2E2E2E2E2F5F5F5F5F5F5F5F5F5F5F5F5F5F5F5F5E2E2E2E2E2E2E2E2E2F5F5F5F5F5F5F5F5E2F5F5F5E2E2E2E2E2E2E2E2E2E2E2E2E2E2E2E2E2E2E2E2E2E2E2E2E2E2E2E2E2E2E2E2E2E2E2E2E2E2E2E2E2E2E2E2E2E2E2E2E2E2E2E2E2E2E2E2E2
310
E2E2E2E2E2E2E2E2E2E2E2E2E2E2E2E2E2E2E2E2E2E2E2E2E2E2E2E2E2E2E2E2E2E2E2E2E2E2E2E2E2E2E2E2E2E2E2E2E2E2E2E2E2E2E2E2E2E2E2E2E2E2E2E2E2E2E2E2E2E2E2E2E2E2E2E2E2E2E2E2E2E2E2E2E2E2E2E2E2E2E2E2E2E2E2E2E2E2E2E2E2E2E2E2E2E2E2E2E2E2E2E2E2E2E2E2E2E2E2E2F5EFF5F5F5F5F5
310
F5F5F5F5F5F5F5F5F5F5F5F5F5F5F5F5F5F5F5F5F5F5F5F5F5F5F5F5F5F5F5F5F5F5F5F5F5F5F5F5F5F5F5F5F5F5F5F5F5F5F5F5F5F5F5F5F5F5F5F5F5F5F5F5F5F5F5F5F5F5F5F5F5F5F5F5F5F5F5F5F5F5F5F5F5F5F5F5F5F5F5F5F5F5F5F5F5F5F5F5F5F5F5F5F5F5F5F5F5F5F5F5F5F5F5F5F5F5F5F5F5F5F5F5F5F5F5
310
F5F5F5F5F5F5F5F5F5F5F5F5F5F5F5F5F5F5F5F5F5F5F5F5F5F5F5F5F5F5F5F5F5F5F5F5F5F5F5F5F5F5F5F5F5F5F5EF
  0
XRECORD
  5
7F27
102
{ACAD_REACTORS
330
7F26
102
}
330
7F26
100
AcDbXrecord
280
     1
102
SHADEPLOT
 70
     0
102
SHADEPLOTRESLEVEL
 70
     2
102
SHADEPLOTCUSTOMDPI
 70
   300
  0
ENDSEC
  0
EOF
